osu file format v14

[General]
AudioFilename: audio.mp3
AudioLeadIn: 0
PreviewTime: 79159
Countdown: 0
SampleSet: Soft
StackLeniency: 0.4
Mode: 0
LetterboxInBreaks: 0
WidescreenStoryboard: 1

[Editor]
Bookmarks: 2594,15030,27465,39900,52335,64770,77206,80315,92750,103631,105185,116649
DistanceSpacing: 0.7
BeatDivisor: 4
GridSize: 16
TimelineZoom: 2.399999

[Metadata]
Title:Towards The Horizon
TitleUnicode:Towards The Horizon
Artist:Camellia
ArtistUnicode:かめりあ
Creator:IOException
Version:Medium
Source:REFLEC BEAT 悠久のリフレシア
Tags:RB Illusiya イルシヤ 6th KONAMI Arcade Championship KAC bemani The Reflesia of Eternity ioexception kkipalt deadcode
BeatmapID:2192122
BeatmapSetID:754103

[Difficulty]
HPDrainRate:4
CircleSize:3.5
OverallDifficulty:5
ApproachRate:6
SliderMultiplier:1.39999990463257
SliderTickRate:1

[Events]
//Background and Video events
0,0,"kaitan.jpg",0,0
//Break Periods
2,64979,69559
//Storyboard Layer 0 (Background)
//Storyboard Layer 1 (Fail)
//Storyboard Layer 2 (Pass)
//Storyboard Layer 3 (Foreground)
//Storyboard Layer 4 (Overlay)
//Storyboard Sound Samples

[TimingPoints]
-514,388.65103626943,4,2,1,60,1,0
2595,-100,4,2,1,60,0,0
13477,-100,4,2,1,70,0,0
15032,-100,4,2,1,80,0,0
27468,-83.3333333333333,4,2,2,90,0,0
27856,-83.3333333333333,4,2,2,90,0,0
36820,-83.3333333333333,4,2,2,70,0,0
39031,-83.3333333333333,4,2,2,80,0,0
39905,-83.3333333333333,4,2,2,70,0,0
50593,-83.3333333333333,4,2,2,75,0,0
51370,-83.3333333333333,4,2,2,80,0,0
51856,-83.3333333333333,4,2,2,85,0,0
52342,-125,4,2,1,80,0,0
52366,-125,4,2,1,65,0,0
53119,-125,4,2,2,65,0,0
63224,-125,4,2,2,70,0,0
64002,-125,4,2,2,75,0,0
70609,-125,4,2,1,55,0,0
70997,-125,4,2,1,55,0,0
74106,-125,4,2,1,50,0,0
74884,-111.111111111111,4,2,1,60,0,0
75661,-100,4,2,1,70,0,0
76438,-90.9090909090909,4,2,1,80,0,0
76633,-83.3333333333333,4,2,1,80,0,0
76827,-76.9230769230769,4,2,1,80,0,0
77216,-76.9230769230769,4,2,1,90,0,0
78770,-76.9230769230769,4,2,1,80,0,0
79159,-76.9230769230769,4,2,1,80,0,0
80033,-76.9230769230769,4,2,1,80,0,0
80325,-83.3333333333333,4,2,2,100,0,1
80714,-83.3333333333333,4,2,2,100,0,1
98980,-83.3333333333333,4,2,2,100,0,0
99004,-83.3333333333333,4,2,2,60,0,0
99368,-83.3333333333333,4,2,2,60,0,0
99369,-83.3333333333333,4,2,2,75,0,0
102089,-83.3333333333333,4,2,2,95,0,1
102283,-83.3333333333333,4,2,2,95,0,1
102477,-83.3333333333333,4,2,2,95,0,1
102671,-83.3333333333333,4,2,2,95,0,1
102866,-83.3333333333333,4,2,2,95,0,1
103060,-83.3333333333333,4,2,2,95,0,1
103254,-83.3333333333333,4,2,2,95,0,1
103449,-83.3333333333333,4,2,2,95,0,1
103643,-83.3333333333333,4,2,2,70,0,1
103644,-83.3333333333333,4,2,2,70,0,0
105199,-83.3333333333333,4,2,1,80,0,0
105975,-83.3333333333333,4,2,1,80,0,0
111417,-125,4,2,1,80,0,0
111806,-83.3333333333333,4,2,1,80,0,0
117635,-83.3333333333333,4,2,1,60,0,0
118413,-83.3333333333333,4,2,1,40,0,0
119190,-83.3333333333333,4,2,1,20,0,0
119967,-83.3333333333333,4,2,1,5,0,0

[Colours]
Combo1 : 202,231,143
Combo2 : 9,193,156
Combo3 : 133,223,239
Combo4 : 184,130,217
Combo5 : 234,179,96

[HitObjects]
15,237,2595,6,0,P|86:239|142:293,1,139.999990463257,2|2,3:2|2:0,0:0:0:0:
136,282,3081,1,0,0:0:0:0:
136,282,3178,1,2,2:0:0:0:
226,232,3372,2,0,L|233:147,2,69.9999952316285,2|0|2,2:0|0:0|2:0,0:0:0:0:
282,311,3955,1,2,2:0:0:0:
282,311,4149,2,0,B|358:299|339:357|438:343,1,139.999990463257,2|2,3:2|2:0,0:0:0:0:
484,284,4732,1,2,2:0:0:0:
484,284,4829,1,2,2:0:0:0:
484,284,4927,2,0,P|492:238|471:169,2,104.999992847443,2|0|2,2:0|0:0|2:0,0:0:0:0:
413,345,5704,1,2,3:2:0:0:
256,192,5898,12,2,8036,0:0:0:0:
506,157,8813,6,0,P|443:151|361:188,1,139.999990463257,2|2,3:2|2:0,0:0:0:0:
372,178,9299,1,0,0:0:0:0:
372,178,9396,1,2,2:0:0:0:
343,286,9590,2,0,P|308:253|262:244,1,69.9999952316285,2|2,2:0|2:0,0:0:0:0:
204,241,9979,1,2,2:0:0:0:
204,241,10173,1,2,2:0:0:0:
132,317,10368,6,0,P|91:272|22:253,1,104.999992847443,2|2,3:2|2:0,0:0:0:0:
12,269,10756,2,0,L|1:191,1,69.9999952316285,2|2,2:0|2:0,0:0:0:0:
16,108,11145,1,2,2:0:0:0:
16,108,11242,1,2,2:0:0:0:
16,108,11339,2,0,P|59:117|111:36,1,139.999990463257,2|2,2:0|2:0,0:0:0:0:
106,15,11825,1,2,2:0:0:0:
106,15,11922,6,0,P|176:20|270:29,1,139.999990463257,2|2,3:2|2:0,0:0:0:0:
390,133,12700,2,0,P|320:138|262:143,1,104.999992847443
262,160,13088,1,0,0:0:0:0:
126,278,13477,6,0,P|196:283|290:292,1,139.999990463257,2|0,2:0|0:0,0:0:0:0:
354,357,14060,1,2,2:0:0:0:
354,357,14157,1,2,2:0:0:0:
354,357,14254,2,0,P|360:315|377:285,1,69.9999952316285,2|0,2:0|0:0,0:0:0:0:
442,241,14643,2,0,L|524:228,1,69.9999952316285,2|0,2:0|0:0,0:0:0:0:
357,204,15032,6,0,P|319:168|321:103,1,104.999992847443,6|0,1:2|0:0,0:0:0:0:
335,89,15420,2,0,L|214:99,2,104.999992847443,8|2|0,2:0|1:2|1:2,0:0:0:0:
382,24,16197,1,8,2:0:0:0:
495,125,16586,6,0,P|516:166|502:206,1,69.9999952316285,0|2,1:2|2:0,0:0:0:0:
496,227,16878,1,2,2:0:0:0:
496,227,16975,2,0,L|414:237,1,69.9999952316285,10|2,2:0|2:0,0:0:0:0:
424,319,17363,2,0,P|383:307|349:270,1,69.9999952316285,0|2,1:0|1:2,0:0:0:0:
393,158,17752,2,0,P|360:178|344:226,1,69.9999952316285,10|2,2:0|0:0,0:0:0:0:
362,289,18141,6,0,B|286:303|305:250|221:264,1,139.999990463257,0|8,1:2|2:0,0:0:0:0:
172,331,18724,1,2,2:0:0:0:
172,331,18821,1,2,1:2:0:0:
172,331,18918,2,0,B|134:302|134:302|151:196,1,139.999990463257,2|8,1:2|2:0,0:0:0:0:
148,210,19695,6,0,L|37:220,1,104.999992847443,0|0,1:0|0:0,0:0:0:0:
14,200,20084,1,8,2:0:0:0:
23,67,20473,6,0,L|134:57,1,104.999992847443,0|0,1:0|1:0,0:0:0:0:
157,77,20861,1,8,2:0:0:0:
249,152,21056,1,2,2:0:0:0:
249,152,21153,1,0,0:0:0:0:
249,152,21250,6,0,P|305:155|338:72,1,139.999990463257,4|8,1:2|2:0,0:0:0:0:
418,20,21833,1,2,2:0:0:0:
418,20,21930,1,2,1:2:0:0:
418,20,22027,2,0,B|447:68|447:68|426:242,1,209.999985694886,2|0,1:2|0:0,0:0:0:0:
402,304,22805,6,0,L|490:295,2,69.9999952316285,0|2|10,1:0|2:0|2:0,0:0:0:0:
326,250,23388,1,2,2:0:0:0:
326,250,23485,1,2,1:2:0:0:
326,250,23582,2,0,P|284:244|243:263,1,69.9999952316285,2|2,1:2|1:2,0:0:0:0:
253,345,23971,2,0,L|167:328,1,69.9999952316285,10|2,2:0|2:0,0:0:0:0:
99,300,24359,6,0,L|105:360,7,34.9999976158143,0|0|0|0|0|0|0|0,1:3|1:3|1:3|1:3|1:3|1:3|1:3|1:3,0:0:0:0:
35,240,25136,2,0,L|-25:246,7,34.9999976158143,2|2|2|2|2|2|2|2,1:3|1:3|1:3|1:3|1:3|1:3|1:3|1:3,0:0:0:0:
256,192,25914,12,0,26691,0:0:0:0:
77,359,27468,6,0,B|52:321|52:321|80:207,1,125.999987571717,4|2,1:0|0:0,0:0:0:0:
61,219,27857,2,0,L|157:207,1,83.9999917144779,8|2,0:0|0:3,0:0:0:0:
167,189,28149,1,0,1:0:0:0:
167,189,28246,2,0,P|196:221|252:223,1,83.9999917144779,2|0,1:3|1:0,0:0:0:0:
175,99,28634,2,0,P|214:79|270:89,1,83.9999917144779,8|2,0:0|0:3,0:0:0:0:
319,152,29023,6,0,B|342:208|342:208|321:298,1,125.999987571717,4|2,1:2|0:0,0:0:0:0:
336,296,29412,2,0,L|428:282,1,83.9999917144779,8|2,0:0|0:3,0:0:0:0:
453,303,29703,1,0,1:0:0:0:
453,303,29800,2,0,P|481:264|466:205,1,83.9999917144779,2|0,1:3|1:0,0:0:0:0:
512,137,30189,2,0,L|387:131,1,125.999987571717,8|0,0:0|0:0,0:0:0:0:
371,144,30578,6,0,B|338:89|338:89|360:12,1,125.999987571717,4|0,1:0|0:0,0:0:0:0:
367,7,30966,2,0,L|281:11,1,83.9999917144779,8|2,0:0|0:3,0:0:0:0:
253,50,31258,1,0,1:0:0:0:
253,50,31355,2,0,P|208:28|162:39,1,83.9999917144779,2|0,1:3|1:0,0:0:0:0:
122,103,31744,2,0,L|128:160,2,41.999995857239,8|2|2,0:2|0:3|0:3,0:0:0:0:
39,36,32132,6,0,B|14:73|14:73|20:128,1,83.9999917144779,4|2,1:2|0:3,0:0:0:0:
58,196,32521,2,0,L|41:288,1,83.9999917144779,8|0,0:2|1:2,0:0:0:0:
32,313,32812,2,0,B|78:307|78:307|117:330,1,83.9999917144779,0|0,1:2|1:2,0:0:0:0:
185,384,33201,1,0,1:2:0:0:
185,384,33298,2,0,P|201:334|247:313,1,83.9999917144779,10|2,0:2|0:2,0:0:0:0:
260,334,33590,1,0,0:0:0:0:
260,334,33687,6,0,L|419:346,1,125.999987571717,4|2,1:0|0:0,0:0:0:0:
416,352,34075,2,0,B|436:314|436:314|423:259,1,83.9999917144779,8|2,0:0|0:3,0:0:0:0:
419,240,34367,1,0,1:0:0:0:
419,240,34464,2,0,P|462:235|492:195,1,83.9999917144779,2|0,1:3|1:0,0:0:0:0:
399,102,34853,2,0,P|452:99|490:128,1,83.9999917144779,8|2,0:0|0:3,0:0:0:0:
317,210,35241,6,0,B|274:207|274:207|234:229|234:229|161:224,1,125.999987571717,4|2,1:2|0:0,0:0:0:0:
155,240,35630,2,0,L|145:141,1,83.9999917144779,8|2,0:0|0:3,0:0:0:0:
117,130,35922,1,0,1:0:0:0:
117,130,36019,2,0,P|64:143|38:176,1,83.9999917144779,2|0,1:3|1:0,0:0:0:0:
129,42,36407,2,0,P|84:30|67:-9,1,83.9999917144779,8|0,0:0|0:0,0:0:0:0:
230,20,36796,6,0,L|242:120,1,83.9999917144779,4|0,1:0|0:0,0:0:0:0:
379,288,37476,1,0,1:0:0:0:
379,288,37573,6,0,L|391:188,1,83.9999917144779,8|0,0:0|0:0,0:0:0:0:
390,35,38156,5,0,0:0:0:0:
473,17,38351,2,0,B|496:55|496:55|477:138,1,125.999987571717,0|0,1:0|1:0,0:0:0:0:
372,193,38934,1,0,1:0:0:0:
372,193,39031,1,0,1:0:0:0:
372,193,39128,2,0,L|271:210,1,83.9999917144779,8|2,0:0|0:3,0:0:0:0:
233,295,39517,2,0,P|206:251|115:228,1,125.999987571717,2|0,0:3|0:0,0:0:0:0:
65,275,39905,6,0,B|30:304|30:304|49:177,1,167.999983428956,4|10,1:0|0:0,0:0:0:0:
6,94,40488,1,2,0:0:0:0:
6,94,40585,1,2,1:2:0:0:
6,94,40683,2,0,P|48:78|75:40,1,83.9999917144779,2|0,1:3|1:3,0:0:0:0:
150,0,41071,2,0,L|244:23,1,83.9999917144779,8|2,0:0|0:3,0:0:0:0:
273,111,41460,6,0,B|308:152|308:152|349:26,1,167.999983428956,0|10,1:0|0:0,0:0:0:0:
437,4,42043,1,2,0:0:0:0:
437,4,42140,1,2,1:2:0:0:
437,4,42237,2,0,P|478:31|522:37,1,83.9999917144779,2|0,1:3|1:3,0:0:0:0:
422,109,42626,2,0,P|452:174|449:244,1,125.999987571717,8|2,0:0|0:0,0:0:0:0:
471,252,43014,6,0,L|304:264,1,167.999983428956,6|8,1:2|0:0,0:0:0:0:
254,357,43597,1,0,0:0:0:0:
254,357,43695,1,0,1:0:0:0:
254,357,43792,2,0,P|216:325|168:313,1,83.9999917144779,2|0,1:3|1:0,0:0:0:0:
171,191,44180,2,0,P|131:241|57:258,1,125.999987571717,8|0,0:0|0:0,0:0:0:0:
24,231,44569,6,0,L|6:137,1,83.9999917144779,2|0,1:3|1:0,0:0:0:0:
11,112,44861,1,0,1:0:0:0:
11,112,44958,2,0,B|33:75|33:75|17:23,1,83.9999917144779,8|2,0:0|0:0,0:0:0:0:
136,0,45346,2,0,B|114:37|114:37|130:89,1,83.9999917144779,2|0,0:0|0:0,0:0:0:0:
129,110,45638,1,0,1:0:0:0:
129,110,45735,2,0,L|230:115,1,83.9999917144779,10|2,0:0|0:2,0:0:0:0:
291,174,46124,6,0,P|323:119|450:90,1,167.999983428956,4|10,1:0|0:0,0:0:0:0:
489,26,46707,1,2,0:0:0:0:
489,26,46804,1,2,1:2:0:0:
489,26,46901,2,0,P|514:67|505:118,1,83.9999917144779,2|0,1:3|1:3,0:0:0:0:
450,178,47290,2,0,L|462:274,1,83.9999917144779,8|2,0:0|0:3,0:0:0:0:
480,363,47678,5,2,1:2:0:0:
480,363,47873,2,0,B|443:381|443:381|384:374,1,83.9999917144779,2|10,0:0|0:0,0:0:0:0:
317,324,48261,1,2,0:0:0:0:
232,291,48456,1,2,1:3:0:0:
232,291,48553,1,2,0:3:0:0:
232,291,48650,2,0,B|195:273|195:273|136:280,1,83.9999917144779,0|8,1:3|0:0,0:0:0:0:
69,319,49039,1,2,0:3:0:0:
16,384,49233,6,0,L|-1:214,1,167.999983428956,4|8,1:2|0:0,0:0:0:0:
59,124,49816,1,2,0:0:0:0:
59,124,49913,1,0,1:0:0:0:
59,124,50010,2,0,P|80:168|121:188,1,83.9999917144779,2|0,1:3|1:0,0:0:0:0:
182,111,50399,2,0,L|332:93,1,125.999987571717,8|0,0:0|0:0,0:0:0:0:
307,95,50787,6,0,B|292:140|292:140|312:204,1,83.9999917144779,8|0,0:0|1:0,0:0:0:0:
316,211,51079,1,0,1:0:0:0:
316,211,51176,2,0,L|409:199,1,83.9999917144779,2|8,0:3|0:0,0:0:0:0:
500,240,51565,6,0,B|515:284|515:284|495:348,1,83.9999917144779,0|2,1:0|0:3,0:0:0:0:
491,355,51856,1,0,1:0:0:0:
491,355,51953,2,0,L|398:343,1,83.9999917144779,8|8,0:0|0:0,0:0:0:0:
322,377,52342,1,4,1:0:0:0:
204,140,53119,6,0,B|66:128|140:226|-11:210,1,223.999984741211,10|2,0:0|0:0,0:0:0:0:
52,293,53994,1,0,1:0:0:0:
52,293,54091,1,0,1:0:0:0:
52,293,54188,2,0,P|101:298|117:310,1,55.9999961853028,0|0,1:0|1:0,0:0:0:0:
185,243,54577,1,2,1:2:0:0:
185,243,54674,2,0,L|256:233,1,55.9999961853028,10|2,0:0|1:2,0:0:0:0:
388,208,55257,1,2,0:0:0:0:
347,142,55451,6,0,P|339:240|375:319,1,167.999988555908,0|0,1:0|1:0,0:0:0:0:
364,303,56131,1,0,1:0:0:0:
364,303,56229,1,8,0:0:0:0:
193,373,57006,6,0,B|238:378|238:378|299:368,2,83.9999942779542,0|0|0,1:0|1:0|1:0,0:0:0:0:
117,319,57783,1,8,0:0:0:0:
117,319,57880,1,0,1:0:0:0:
117,319,57977,2,0,P|83:325|47:344,1,55.9999961853028,0|10,1:0|0:0,0:0:0:0:
59,210,58560,5,2,0:0:0:0:
160,237,58949,1,0,1:0:0:0:
218,141,59338,2,0,B|341:111|298:222|439:188,1,223.999984741211,10|2,0:0|0:0,0:0:0:0:
455,205,60212,1,0,1:0:0:0:
455,205,60309,1,0,1:0:0:0:
455,205,60407,2,0,P|440:158|443:137,1,55.9999961853028,0|0,1:0|1:2,0:0:0:0:
498,78,60795,1,2,1:2:0:0:
498,78,60892,2,0,L|488:15,1,55.9999961853028,10|2,0:0|1:2,0:0:0:0:
341,51,61475,5,2,0:2:0:0:
321,138,61670,2,0,B|229:118|287:46|189:45,1,167.999988555908,0|0,1:2|1:2,0:0:0:0:
193,45,62350,1,0,1:2:0:0:
193,45,62447,1,8,0:2:0:0:
79,224,63224,6,0,B|37:230|37:230|-2:200,2,83.9999942779542,0|0|0,1:2|1:2|1:2,0:0:0:0:
131,300,64002,2,0,B|173:306|173:306|212:276,2,83.9999942779542,8|8|8,0:2|0:2|0:2,0:0:0:0:
69,365,64779,1,0,1:2:0:0:
60,345,70609,6,0,P|53:299|41:279,1,55.9999961853028,2|2,0:0|0:0,0:0:0:0:
7,267,70900,5,2,0:0:0:0:
7,267,70997,2,0,P|47:270|61:127,1,223.999984741211,2|2,0:0|0:0,0:0:0:0:
68,130,72552,5,0,0:0:0:0:
131,183,72746,2,0,P|166:185|194:170,1,55.9999961853028,2|2,0:0|0:0,0:0:0:0:
223,103,73135,1,2,0:0:0:0:
223,103,73329,2,0,L|286:113,1,55.9999961853028,2|2,0:0|0:0,0:0:0:0:
304,195,73718,2,0,L|367:205,1,55.9999961853028,2|2,0:0|0:0,0:0:0:0:
420,282,74106,6,0,P|417:228|490:123,1,167.999988555908,2|2,1:2|1:2,0:0:0:0:
512,103,74787,1,2,1:2:0:0:
512,103,74884,2,0,L|301:81,1,188.999981357575,2|2,1:2|1:2,0:0:0:0:
282,51,75564,1,2,1:2:0:0:
282,51,75661,6,0,B|151:34|210:150|69:113,1,209.999985694886,2|0,1:2|1:2,0:0:0:0:
54,111,76341,1,0,1:2:0:0:
54,111,76438,2,0,P|63:178|63:203,1,76.9999971046448,2|0,1:2|1:2,0:0:0:0:
149,216,76827,2,0,P|140:283|137:334,1,90.9999896354681,0|0,1:2|1:2,0:0:0:0:
68,368,77216,5,2,1:2:0:0:
68,368,79159,6,0,P|88:297|42:202,1,181.999979270936,2|2,0:3|3:0,0:0:0:0:
9,182,79645,2,0,P|89:183|166:177,1,136.499984453202,2|4,3:0|0:0,0:0:0:0:
145,179,80033,1,0,0:0:0:0:
145,179,80131,1,0,0:0:0:0:
198,67,80325,6,0,B|269:59|258:126|344:104,1,125.999987571717,4|2,1:0|0:0,0:0:0:0:
355,92,80714,2,0,P|349:144|350:189,1,83.9999917144779,10|2,0:0|0:0,0:0:0:0:
371,204,81005,1,0,1:0:0:0:
371,204,81102,1,2,1:2:0:0:
480,256,81297,1,0,1:2:0:0:
507,155,81491,2,0,P|513:103|512:58,1,83.9999917144779,10|2,0:0|0:0,0:0:0:0:
493,32,81782,1,0,0:0:0:0:
493,32,81880,6,0,P|435:30|353:121,1,167.999983428956,2|10,1:2|0:0,0:0:0:0:
315,182,82462,1,2,0:0:0:0:
315,182,82560,1,0,1:0:0:0:
315,182,82657,2,0,L|215:169,1,83.9999917144779,2|2,1:2|1:2,0:0:0:0:
185,53,83045,2,0,B|139:49|139:49|85:66,1,83.9999917144779,10|2,0:0|0:0,0:0:0:0:
41,127,83434,6,0,B|17:298|17:298|94:239,1,251.999975143434,4|2,1:0|0:0,0:0:0:0:
169,226,84211,2,0,B|212:221|212:221|266:245,1,83.9999917144779,2|2,1:2|1:2,0:0:0:0:
161,326,84600,2,0,B|198:342|198:342|241:337,1,83.9999917144779,10|2,0:0|0:0,0:0:0:0:
304,359,84892,1,2,0:0:0:0:
304,359,84989,6,0,P|303:311|330:255,1,83.9999917144779,2|2,1:2|0:0,0:0:0:0:
383,209,85377,2,0,L|470:201,1,83.9999917144779,10|2,0:0|0:0,0:0:0:0:
497,216,85669,1,0,1:0:0:0:
497,216,85766,2,0,B|506:169|506:169|491:129,1,83.9999917144779,2|2,0:0|0:0,0:0:0:0:
412,81,86155,2,0,B|403:34|403:34|418:-6,1,83.9999917144779,8|2,0:0|0:0,0:0:0:0:
493,135,86543,6,0,P|440:171|358:150,1,125.999987571717,4|2,1:0|0:0,0:0:0:0:
339,153,86932,2,0,L|236:167,1,83.9999917144779,10|2,0:0|0:0,0:0:0:0:
224,159,87223,1,0,1:0:0:0:
224,159,87321,2,0,B|214:201|214:201|234:247,1,83.9999917144779,2|0,1:2|1:2,0:0:0:0:
141,317,87709,2,0,B|151:275|151:275|131:229,1,83.9999917144779,10|2,0:0|0:0,0:0:0:0:
119,216,88001,1,0,0:0:0:0:
119,216,88098,6,0,L|27:225,1,83.9999917144779,2|0,1:2|0:0,0:0:0:0:
29,121,88487,2,0,B|68:104|68:104|123:112,1,83.9999917144779,10|2,0:0|0:0,0:0:0:0:
138,119,88778,1,0,1:0:0:0:
138,119,88875,2,0,P|144:73|126:33,1,83.9999917144779,2|2,1:2|1:2,0:0:0:0:
246,141,89264,2,0,P|261:95|302:58,1,83.9999917144779,10|2,0:0|0:0,0:0:0:0:
178,220,89653,6,0,L|143:397,1,167.999983428956,4|8,1:0|0:0,0:0:0:0:
51,357,90236,1,2,0:0:0:0:
51,357,90333,1,2,1:2:0:0:
51,357,90430,2,0,B|40:316|40:316|63:265,1,83.9999917144779,2|2,1:2|1:2,0:0:0:0:
92,184,90818,2,0,L|-6:192,1,83.9999917144779,10|2,0:0|0:0,0:0:0:0:
19,77,91207,5,0,1:0:0:0:
36,91,91304,2,0,P|79:90|129:49,1,83.9999917144779,8|0,0:0|1:0,0:0:0:0:
148,38,91596,2,0,B|188:28|188:28|237:51,1,83.9999917144779,8|0,0:0|1:0,0:0:0:0:
277,131,91984,6,0,L|284:226,1,83.9999917144779,8|0,0:0|1:2,0:0:0:0:
323,238,92276,2,0,L|316:333,1,83.9999917144779,8|0,0:0|1:2,0:0:0:0:
285,341,92567,2,0,L|288:388,1,41.999995857239,8|8,0:0|0:0,0:0:0:0:
201,370,92762,6,0,P|151:373|92:302,1,125.999987571717,4|2,1:0|0:0,0:0:0:0:
97,291,93150,2,0,L|0:301,1,83.9999917144779,10|2,0:0|0:0,0:0:0:0:
3,268,93442,1,0,1:0:0:0:
3,268,93539,2,0,B|-7:229|-7:229|17:172,1,83.9999917144779,2|0,1:2|1:2,0:0:0:0:
113,171,93928,2,0,B|129:130|129:130|119:91,1,83.9999917144779,10|2,0:0|0:0,0:0:0:0:
108,57,94219,1,0,0:0:0:0:
108,57,94316,6,0,L|210:63,1,83.9999917144779,2|0,1:2|0:0,0:0:0:0:
284,117,94705,2,0,P|340:111|375:67,1,83.9999917144779,10|2,0:0|0:0,0:0:0:0:
380,56,94996,1,0,1:0:0:0:
380,56,95094,2,0,L|391:159,1,83.9999917144779,2|2,1:2|1:2,0:0:0:0:
505,55,95482,2,0,L|494:158,1,83.9999917144779,10|2,0:0|0:0,0:0:0:0:
449,221,95871,6,0,B|358:209|381:282|269:263,1,167.999983428956,4|10,1:0|0:0,0:0:0:0:
215,195,96454,1,2,0:0:0:0:
215,195,96551,1,2,1:2:0:0:
215,195,96648,2,0,L|110:211,1,83.9999917144779,2|2,1:2|1:2,0:0:0:0:
45,261,97037,2,0,B|26:300|26:300|37:358,1,83.9999917144779,10|2,0:0|0:0,0:0:0:0:
41,375,97328,1,2,0:0:0:0:
41,375,97426,6,0,B|128:387|102:311|195:311,1,167.999983428956,2|10,1:2|0:0,0:0:0:0:
295,361,98009,1,2,0:0:0:0:
295,361,98106,1,0,1:0:0:0:
295,361,98203,2,0,L|392:344,1,83.9999917144779,2|0,0:0|0:0,0:0:0:0:
481,364,98592,1,10,0:0:0:0:
481,364,98689,1,2,1:2:0:0:
481,364,98786,1,2,0:0:0:0:
481,364,98883,1,2,0:0:0:0:
481,364,98980,1,2,1:2:0:0:
467,171,99369,5,8,0:0:0:0:
467,171,99563,2,0,P|416:183|390:219,1,83.9999917144779,2|2,0:0|0:0,0:0:0:0:
343,137,99952,1,2,1:2:0:0:
343,137,100146,2,0,P|292:125|266:89,1,83.9999917144779,10|2,0:0|0:0,0:0:0:0:
241,206,100535,1,2,1:2:0:0:
0,73,101118,1,2,0:0:0:0:
0,73,101215,1,2,1:2:0:0:
0,73,101312,6,0,P|51:85|77:121,1,83.9999917144779,2|2,0:0|1:2,0:0:0:0:
124,39,101701,2,0,P|175:27|201:-9,1,83.9999917144779,10|2,0:0|0:0,0:0:0:0:
226,108,102089,2,0,P|230:150|234:178,16,41.999995857239,0|0|0|0|0|0|0|0|2|2|2|2|2|2|2|2|6,1:2|1:2|1:2|1:2|1:2|1:2|1:2|1:2|1:3|1:3|1:3|1:3|1:3|1:3|1:3|1:3|1:3,0:0:0:0:
256,192,103741,12,4,105199,1:0:0:0:
73,318,105782,5,0,1:0:0:0:
73,318,105879,1,0,1:0:0:0:
73,318,105976,2,0,L|168:327,1,83.9999917144779,10|2,0:0|0:0,0:0:0:0:
320,222,106656,5,2,1:2:0:0:
320,222,106753,2,0,P|341:284|323:355,2,125.999987571717,0|0|2,1:0|1:0|1:2,0:0:0:0:
378,143,107530,2,0,L|472:132,1,83.9999917144779,8|0,0:0|1:0,0:0:0:0:
389,54,107919,1,0,3:0:0:0:
389,54,108113,6,0,B|305:46|324:117|214:101,1,167.999983428956,4|0,1:0|1:0,0:0:0:0:
165,41,108696,2,0,L|62:56,1,83.9999917144779,2|0,0:0|0:0,0:0:0:0:
43,36,108988,1,0,1:0:0:0:
43,36,109085,6,0,B|64:91|64:91|46:209,1,167.999983428956,8|2,0:0|0:3,0:0:0:0:
101,286,109668,1,2,0:3:0:0:
101,286,109765,1,2,1:3:0:0:
101,286,109862,6,0,P|53:289|0:353,2,125.999987571717,0|0|0,1:0|1:0|1:0,0:0:0:0:
212,289,110640,2,0,P|260:292|313:356,2,125.999987571717,8|8|0,0:0|0:0|0:0,0:0:0:0:
156,217,111417,6,0,B|151:179|151:179|166:84,1,111.999992370606,0|4,1:0|1:0,0:0:0:0:
224,21,112000,5,0,0:0:0:0:
224,21,112097,1,0,1:0:0:0:
224,21,112194,2,0,L|320:33,1,83.9999917144779,8|2,0:0|0:0,0:0:0:0:
368,113,112583,2,0,L|467:96,1,83.9999917144779,2|0,0:0|0:0,0:0:0:0:
486,73,112874,1,2,1:2:0:0:
486,73,112972,6,0,B|465:122|465:122|488:249,1,167.999983428956,0|2,1:0|0:0,0:0:0:0:
463,344,113555,1,0,1:0:0:0:
463,344,113652,1,0,1:0:0:0:
463,344,113749,5,8,0:0:0:0:
388,277,113943,1,8,0:0:0:0:
321,346,114138,2,0,P|274:320|274:244,1,125.999987571717,0|0,1:0|0:0,0:0:0:0:
272,238,114526,6,0,P|231:258|183:207,2,125.999987571717,4|0|8,1:0|1:0|0:0,0:0:0:0:
299,153,115304,6,0,P|267:104|211:122,2,125.999987571717,0|0|8,1:0|1:0|0:0,0:0:0:0:
373,222,116081,6,0,L|478:199,1,83.9999917144779,0|8,1:0|0:0,0:0:0:0:
480,217,116372,1,8,0:0:0:0:
480,217,116469,2,0,B|506:254|506:254|498:310,1,83.9999917144779,8|4,0:0|1:0,0:0:0:0:
256,192,116761,12,0,119967,0:0:0:0:
