osu file format v14

[General]
AudioFilename: audio.mp3
AudioLeadIn: 0
PreviewTime: 80445
Countdown: 0
SampleSet: None
StackLeniency: 0.7
Mode: 3
LetterboxInBreaks: 0
SpecialStyle: 0
WidescreenStoryboard: 1

[Editor]
DistanceSpacing: 1.4
BeatDivisor: 8
GridSize: 8
TimelineZoom: 1.3

[Metadata]
Title:Towards The Horizon
TitleUnicode:Towards The Horizon
Artist:Camellia
ArtistUnicode:Camellia
Creator:BetaVN
Version:Skyline
Source:
Tags:
BeatmapID:1466023
BeatmapSetID:692799

[Difficulty]
HPDrainRate:8
CircleSize:4
OverallDifficulty:8
ApproachRate:5
SliderMultiplier:1.4
SliderTickRate:1

[Events]
//Background and Video events
0,0,"bg.jpg",0,0
//Break Periods
//Storyboard Layer 0 (Background)
//Storyboard Layer 1 (Fail)
//Storyboard Layer 2 (Pass)
//Storyboard Layer 3 (Foreground)
//Storyboard Sound Samples

[TimingPoints]
0,388.60103626943,4,2,0,20,1,0

[HitObjects]
448,192,2142,5,0,0:0:0:0:
320,192,2207,1,0,0:0:0:0:
192,192,2272,1,0,0:0:0:0:
64,192,2336,1,0,0:0:0:0:
448,192,2336,128,0,2919:0:0:0:0:
192,192,2919,1,0,0:0:0:0:
320,192,3017,1,0,0:0:0:0:
448,192,3114,1,0,0:0:0:0:
320,192,3211,1,0,0:0:0:0:
192,192,3308,1,0,0:0:0:0:
64,192,3405,1,0,0:0:0:0:
448,192,3502,1,0,0:0:0:0:
320,192,3599,1,0,0:0:0:0:
192,192,3697,1,0,0:0:0:0:
64,192,3794,1,0,0:0:0:0:
448,192,3891,1,0,0:0:0:0:
192,192,3891,128,0,4085:0:0:0:0:
64,192,4085,128,0,4182:0:0:0:0:
192,192,4182,128,0,4280:0:0:0:0:
320,192,4280,128,0,4377:0:0:0:0:
448,192,4377,128,0,4474:0:0:0:0:
320,192,4474,128,0,4571:0:0:0:0:
64,192,4474,1,0,0:0:0:0:
192,192,4571,128,0,4668:0:0:0:0:
448,192,4668,128,0,4765:0:0:0:0:
64,192,4668,1,0,0:0:0:0:
64,192,4862,128,0,4960:0:0:0:0:
320,192,4862,128,0,4960:0:0:0:0:
192,192,5057,128,0,5154:0:0:0:0:
448,192,5057,128,0,5154:0:0:0:0:
448,192,5251,128,0,5445:0:0:0:0:
320,192,5445,128,0,5640:0:0:0:0:
192,192,5640,128,0,5737:0:0:0:0:
320,192,5737,128,0,5834:0:0:0:0:
448,192,5834,128,0,5931:0:0:0:0:
64,192,5834,1,0,0:0:0:0:
320,192,5931,128,0,6028:0:0:0:0:
192,192,6028,128,0,6125:0:0:0:0:
64,192,6125,128,0,6223:0:0:0:0:
192,192,6223,128,0,6417:0:0:0:0:
320,192,6417,128,0,6805:0:0:0:0:
448,192,6611,1,0,0:0:0:0:
448,192,6805,1,0,0:0:0:0:
192,192,6805,128,0,6903:0:0:0:0:
320,192,6903,128,0,7000:0:0:0:0:
64,192,7000,1,0,0:0:0:0:
448,192,7000,128,0,7194:0:0:0:0:
320,192,7291,1,0,0:0:0:0:
320,192,7388,128,0,8554:0:0:0:0:
64,192,7583,1,0,0:0:0:0:
64,192,7777,128,0,7971:0:0:0:0:
448,192,7777,1,0,0:0:0:0:
192,192,8068,1,0,0:0:0:0:
448,192,8166,1,0,0:0:0:0:
192,192,8166,128,0,9234:0:0:0:0:
64,192,8554,1,0,0:0:0:0:
448,192,8943,1,0,0:0:0:0:
64,192,9234,128,0,9331:0:0:0:0:
192,192,9331,128,0,9526:0:0:0:0:
320,192,9526,128,0,9623:0:0:0:0:
64,192,9720,1,0,0:0:0:0:
320,192,9720,1,0,0:0:0:0:
192,192,9785,1,0,0:0:0:0:
320,192,9849,1,0,0:0:0:0:
448,192,9914,1,0,0:0:0:0:
64,192,9914,128,0,10109:0:0:0:0:
192,192,10109,1,0,0:0:0:0:
448,192,10109,128,0,10303:0:0:0:0:
64,192,10303,128,0,10400:0:0:0:0:
192,192,10400,128,0,10497:0:0:0:0:
320,192,10497,128,0,10594:0:0:0:0:
448,192,10594,128,0,10691:0:0:0:0:
320,192,10691,128,0,10789:0:0:0:0:
64,192,10691,1,0,0:0:0:0:
192,192,10789,128,0,10886:0:0:0:0:
64,192,10886,1,0,0:0:0:0:
320,192,10886,128,0,11080:0:0:0:0:
192,192,11080,128,0,11177:0:0:0:0:
448,192,11274,1,0,0:0:0:0:
192,192,11274,128,0,11371:0:0:0:0:
320,192,11469,128,0,11663:0:0:0:0:
192,192,11663,128,0,11760:0:0:0:0:
64,192,11760,128,0,11857:0:0:0:0:
192,192,11857,128,0,11954:0:0:0:0:
320,192,11954,128,0,12052:0:0:0:0:
448,192,12052,128,0,12149:0:0:0:0:
64,192,12149,128,0,12246:0:0:0:0:
192,192,12246,128,0,12343:0:0:0:0:
320,192,12343,128,0,12440:0:0:0:0:
448,192,12440,128,0,12537:0:0:0:0:
320,192,12537,128,0,12634:0:0:0:0:
64,192,12634,128,0,13023:0:0:0:0:
192,192,13023,128,0,13120:0:0:0:0:
320,192,13120,128,0,13217:0:0:0:0:
64,192,13217,1,0,0:0:0:0:
448,192,13217,128,0,13412:0:0:0:0:
320,192,13509,1,0,0:0:0:0:
320,192,13606,128,0,14772:0:0:0:0:
192,192,13800,1,0,0:0:0:0:
192,192,13995,1,0,0:0:0:0:
448,192,13995,128,0,14189:0:0:0:0:
64,192,14286,1,0,0:0:0:0:
64,192,14383,128,0,15160:0:0:0:0:
448,192,14383,1,0,0:0:0:0:
192,192,14772,1,0,0:0:0:0:
448,192,15160,1,0,0:0:0:0:
64,192,15355,128,0,15452:0:0:0:0:
192,192,15452,128,0,15549:0:0:0:0:
320,192,15549,128,0,15743:0:0:0:0:
448,192,15549,128,0,16326:0:0:0:0:
192,192,15743,128,0,15938:0:0:0:0:
64,192,15938,1,0,0:0:0:0:
320,192,15938,128,0,16132:0:0:0:0:
192,192,16132,1,0,0:0:0:0:
64,192,16132,128,0,16326:0:0:0:0:
192,192,16326,1,0,0:0:0:0:
320,192,16326,128,0,17006:0:0:0:0:
192,192,16520,1,0,0:0:0:0:
448,192,16715,1,0,0:0:0:0:
64,192,16715,1,0,0:0:0:0:
64,192,17006,1,0,0:0:0:0:
192,192,17006,1,0,0:0:0:0:
448,192,17006,1,0,0:0:0:0:
448,192,17103,128,0,17881:0:0:0:0:
192,192,17200,1,0,0:0:0:0:
64,192,17298,1,0,0:0:0:0:
192,192,17298,1,0,0:0:0:0:
320,192,17298,1,0,0:0:0:0:
320,192,17492,1,0,0:0:0:0:
64,192,17492,1,0,0:0:0:0:
192,192,17686,1,0,0:0:0:0:
64,192,17881,1,0,0:0:0:0:
192,192,17881,1,0,0:0:0:0:
320,192,17881,1,0,0:0:0:0:
64,192,18075,128,0,18172:0:0:0:0:
192,192,18172,128,0,18269:0:0:0:0:
64,192,18269,1,0,0:0:0:0:
448,192,18269,1,0,0:0:0:0:
320,192,18269,128,0,18463:0:0:0:0:
448,192,18463,128,0,18658:0:0:0:0:
64,192,18561,1,0,0:0:0:0:
192,192,18561,1,0,0:0:0:0:
320,192,18658,128,0,18852:0:0:0:0:
64,192,18852,1,0,0:0:0:0:
320,192,19046,1,0,0:0:0:0:
448,192,19046,1,0,0:0:0:0:
64,192,19046,128,0,19241:0:0:0:0:
192,192,19046,1,0,0:0:0:0:
192,192,19241,128,0,19435:0:0:0:0:
64,192,19435,1,0,0:0:0:0:
320,192,19435,128,0,20018:0:0:0:0:
448,192,19824,1,0,0:0:0:0:
64,192,19824,1,0,0:0:0:0:
192,192,19824,1,0,0:0:0:0:
64,192,20018,128,0,20115:0:0:0:0:
448,192,20115,1,0,0:0:0:0:
192,192,20115,128,0,20212:0:0:0:0:
320,192,20115,1,0,0:0:0:0:
320,192,20212,128,0,21767:0:0:0:0:
192,192,20406,1,0,0:0:0:0:
64,192,20406,1,0,0:0:0:0:
448,192,20601,1,0,0:0:0:0:
64,192,20601,1,0,0:0:0:0:
192,192,20989,1,0,0:0:0:0:
64,192,20989,1,0,0:0:0:0:
448,192,20989,1,0,0:0:0:0:
192,192,21378,1,0,0:0:0:0:
64,192,21378,1,0,0:0:0:0:
64,192,21572,1,0,0:0:0:0:
192,192,21669,1,0,0:0:0:0:
448,192,21669,1,0,0:0:0:0:
448,192,21864,1,0,0:0:0:0:
192,192,21864,1,0,0:0:0:0:
192,192,22058,1,0,0:0:0:0:
448,192,22058,1,0,0:0:0:0:
64,192,22155,1,0,0:0:0:0:
320,192,22155,1,0,0:0:0:0:
192,192,22252,1,0,0:0:0:0:
448,192,22252,1,0,0:0:0:0:
64,192,22349,1,0,0:0:0:0:
192,192,22414,1,0,0:0:0:0:
320,192,22479,1,0,0:0:0:0:
448,192,22544,128,0,23127:0:0:0:0:
192,192,22544,1,0,0:0:0:0:
64,192,22544,1,0,0:0:0:0:
64,192,22738,1,0,0:0:0:0:
320,192,22932,1,0,0:0:0:0:
192,192,22932,1,0,0:0:0:0:
320,192,23127,1,0,0:0:0:0:
192,192,23191,1,0,0:0:0:0:
320,192,23224,1,0,0:0:0:0:
448,192,23224,1,0,0:0:0:0:
64,192,23256,1,0,0:0:0:0:
192,192,23321,128,0,24098:0:0:0:0:
320,192,23515,1,0,0:0:0:0:
448,192,23515,1,0,0:0:0:0:
64,192,23710,1,0,0:0:0:0:
320,192,23710,1,0,0:0:0:0:
320,192,23904,1,0,0:0:0:0:
320,192,24098,1,0,0:0:0:0:
448,192,24098,1,0,0:0:0:0:
64,192,24195,1,0,0:0:0:0:
320,192,24292,1,0,0:0:0:0:
448,192,24292,1,0,0:0:0:0:
64,192,24390,1,0,0:0:0:0:
192,192,24390,1,0,0:0:0:0:
64,192,24487,1,0,0:0:0:0:
448,192,24487,1,0,0:0:0:0:
192,192,24487,1,0,0:0:0:0:
320,192,24584,1,0,0:0:0:0:
192,192,24681,1,0,0:0:0:0:
320,192,24778,1,0,0:0:0:0:
448,192,24778,1,0,0:0:0:0:
64,192,24875,1,0,0:0:0:0:
320,192,24875,1,0,0:0:0:0:
448,192,24973,1,0,0:0:0:0:
320,192,25070,1,0,0:0:0:0:
192,192,25070,1,0,0:0:0:0:
64,192,25070,1,0,0:0:0:0:
320,192,25167,1,0,0:0:0:0:
64,192,25264,1,0,0:0:0:0:
192,192,25264,1,0,0:0:0:0:
448,192,25264,1,0,0:0:0:0:
192,192,25361,1,0,0:0:0:0:
64,192,25458,1,0,0:0:0:0:
192,192,25523,1,0,0:0:0:0:
320,192,25588,1,0,0:0:0:0:
448,192,25653,1,0,0:0:0:0:
64,192,25653,128,0,27207:0:0:0:0:
192,192,25847,1,0,0:0:0:0:
320,192,25944,1,0,0:0:0:0:
448,192,26041,1,0,0:0:0:0:
192,192,26041,1,0,0:0:0:0:
320,192,26138,1,0,0:0:0:0:
448,192,26235,1,0,0:0:0:0:
192,192,26235,1,0,0:0:0:0:
448,192,26333,1,0,0:0:0:0:
320,192,26430,1,0,0:0:0:0:
192,192,26430,1,0,0:0:0:0:
448,192,26527,1,0,0:0:0:0:
320,192,26624,1,0,0:0:0:0:
192,192,26624,1,0,0:0:0:0:
320,192,26721,1,0,0:0:0:0:
448,192,26818,1,0,0:0:0:0:
192,192,26818,1,0,0:0:0:0:
320,192,26916,1,0,0:0:0:0:
448,192,27110,1,0,0:0:0:0:
320,192,27158,1,0,0:0:0:0:
192,192,27207,1,0,0:0:0:0:
448,192,27401,1,0,0:0:0:0:
448,192,27498,1,0,0:0:0:0:
320,192,27498,1,0,0:0:0:0:
320,192,27596,1,0,0:0:0:0:
192,192,27596,1,0,0:0:0:0:
192,192,27693,1,0,0:0:0:0:
448,192,27790,1,0,0:0:0:0:
448,192,27887,1,0,0:0:0:0:
64,192,27936,1,0,0:0:0:0:
64,192,28033,1,0,0:0:0:0:
64,192,28130,1,0,0:0:0:0:
448,192,28130,1,0,0:0:0:0:
320,192,28276,1,0,0:0:0:0:
192,192,28324,1,0,0:0:0:0:
64,192,28373,1,0,0:0:0:0:
448,192,28373,1,0,0:0:0:0:
64,192,28761,128,0,29053:0:0:0:0:
192,192,28761,128,0,29053:0:0:0:0:
320,192,28761,128,0,29053:0:0:0:0:
448,192,28761,128,0,29053:0:0:0:0:
64,192,29150,1,0,0:0:0:0:
192,192,29150,1,0,0:0:0:0:
320,192,29150,1,0,0:0:0:0:
448,192,29150,1,0,0:0:0:0:
192,192,29296,128,0,29393:0:0:0:0:
320,192,29296,128,0,29393:0:0:0:0:
64,192,29393,1,0,0:0:0:0:
448,192,29393,1,0,0:0:0:0:
320,192,29490,128,0,29587:0:0:0:0:
448,192,29490,128,0,29587:0:0:0:0:
64,192,29587,128,0,29684:0:0:0:0:
192,192,29587,128,0,29684:0:0:0:0:
320,192,29684,1,0,0:0:0:0:
448,192,29684,1,0,0:0:0:0:
320,192,29781,128,0,29879:0:0:0:0:
448,192,29781,128,0,29879:0:0:0:0:
192,192,29879,1,0,0:0:0:0:
64,192,29879,1,0,0:0:0:0:
448,192,30024,1,0,0:0:0:0:
192,192,30024,1,0,0:0:0:0:
320,192,30121,1,0,0:0:0:0:
64,192,30121,1,0,0:0:0:0:
192,192,30219,1,0,0:0:0:0:
320,192,30219,1,0,0:0:0:0:
64,192,30316,128,0,30607:0:0:0:0:
448,192,30316,128,0,30607:0:0:0:0:
192,192,30316,128,0,30607:0:0:0:0:
320,192,30316,128,0,30607:0:0:0:0:
64,192,30704,1,0,0:0:0:0:
192,192,30704,1,0,0:0:0:0:
320,192,30704,1,0,0:0:0:0:
448,192,30704,1,0,0:0:0:0:
192,192,30899,128,0,30996:0:0:0:0:
320,192,30899,128,0,30996:0:0:0:0:
448,192,30996,1,0,0:0:0:0:
64,192,30996,1,0,0:0:0:0:
64,192,31093,128,0,31190:0:0:0:0:
320,192,31093,128,0,31190:0:0:0:0:
192,192,31190,128,0,31287:0:0:0:0:
448,192,31190,128,0,31287:0:0:0:0:
320,192,31287,1,0,0:0:0:0:
64,192,31287,1,0,0:0:0:0:
448,192,31482,1,0,0:0:0:0:
192,192,31482,1,0,0:0:0:0:
64,192,31482,1,0,0:0:0:0:
320,192,31482,128,0,32162:0:0:0:0:
192,192,31676,128,0,32162:0:0:0:0:
448,192,31870,128,0,32162:0:0:0:0:
64,192,31870,128,0,32162:0:0:0:0:
64,192,32259,1,0,0:0:0:0:
192,192,32259,1,0,0:0:0:0:
320,192,32259,1,0,0:0:0:0:
448,192,32259,1,0,0:0:0:0:
448,192,32405,128,0,32502:0:0:0:0:
320,192,32405,128,0,32502:0:0:0:0:
192,192,32502,1,0,0:0:0:0:
64,192,32502,1,0,0:0:0:0:
64,192,32599,128,0,32696:0:0:0:0:
192,192,32599,128,0,32696:0:0:0:0:
320,192,32696,128,0,32793:0:0:0:0:
448,192,32696,128,0,32793:0:0:0:0:
64,192,32793,1,0,0:0:0:0:
192,192,32793,1,0,0:0:0:0:
320,192,32939,1,0,0:0:0:0:
64,192,33036,1,0,0:0:0:0:
192,192,33036,1,0,0:0:0:0:
448,192,33036,1,0,0:0:0:0:
64,192,33230,1,0,0:0:0:0:
448,192,33230,1,0,0:0:0:0:
320,192,33327,1,0,0:0:0:0:
192,192,33376,1,0,0:0:0:0:
64,192,33425,1,0,0:0:0:0:
320,192,33425,1,0,0:0:0:0:
448,192,33425,1,0,0:0:0:0:
64,192,33619,1,0,0:0:0:0:
448,192,33619,1,0,0:0:0:0:
64,192,33716,1,0,0:0:0:0:
320,192,33716,1,0,0:0:0:0:
64,192,33813,1,0,0:0:0:0:
192,192,33813,1,0,0:0:0:0:
448,192,33813,1,0,0:0:0:0:
64,192,34007,1,0,0:0:0:0:
448,192,34007,1,0,0:0:0:0:
64,192,34105,1,0,0:0:0:0:
192,192,34105,1,0,0:0:0:0:
448,192,34105,1,0,0:0:0:0:
64,192,34202,1,0,0:0:0:0:
320,192,34202,1,0,0:0:0:0:
64,192,34299,1,0,0:0:0:0:
320,192,34299,1,0,0:0:0:0:
448,192,34299,1,0,0:0:0:0:
192,192,34493,1,0,0:0:0:0:
448,192,34493,1,0,0:0:0:0:
192,192,34590,1,0,0:0:0:0:
64,192,34590,1,0,0:0:0:0:
192,192,34688,1,0,0:0:0:0:
320,192,34688,1,0,0:0:0:0:
448,192,34688,1,0,0:0:0:0:
64,192,34785,1,0,0:0:0:0:
192,192,34882,1,0,0:0:0:0:
64,192,34979,128,0,35270:0:0:0:0:
192,192,34979,128,0,35270:0:0:0:0:
320,192,34979,128,0,35270:0:0:0:0:
448,192,34979,128,0,35270:0:0:0:0:
64,192,35368,1,0,0:0:0:0:
192,192,35368,1,0,0:0:0:0:
320,192,35368,1,0,0:0:0:0:
448,192,35368,1,0,0:0:0:0:
64,192,35562,128,0,35659:0:0:0:0:
320,192,35562,128,0,35659:0:0:0:0:
192,192,35659,1,0,0:0:0:0:
448,192,35659,1,0,0:0:0:0:
64,192,35756,128,0,35853:0:0:0:0:
192,192,35756,128,0,35853:0:0:0:0:
320,192,35853,128,0,35950:0:0:0:0:
448,192,35853,128,0,35950:0:0:0:0:
192,192,35950,1,0,0:0:0:0:
64,192,35950,1,0,0:0:0:0:
192,192,36048,128,0,36145:0:0:0:0:
320,192,36048,128,0,36145:0:0:0:0:
64,192,36145,1,0,0:0:0:0:
448,192,36145,1,0,0:0:0:0:
192,192,36242,1,0,0:0:0:0:
64,192,36242,1,0,0:0:0:0:
64,192,36339,1,0,0:0:0:0:
320,192,36339,1,0,0:0:0:0:
192,192,36436,1,0,0:0:0:0:
448,192,36436,1,0,0:0:0:0:
64,192,36533,128,0,36825:0:0:0:0:
192,192,36533,128,0,36825:0:0:0:0:
320,192,36533,128,0,36825:0:0:0:0:
448,192,36533,128,0,36825:0:0:0:0:
448,192,36922,1,0,0:0:0:0:
320,192,36922,1,0,0:0:0:0:
192,192,36922,1,0,0:0:0:0:
64,192,36922,1,0,0:0:0:0:
192,192,37116,128,0,37213:0:0:0:0:
320,192,37116,128,0,37213:0:0:0:0:
64,192,37213,1,0,0:0:0:0:
448,192,37213,1,0,0:0:0:0:
64,192,37311,128,0,37408:0:0:0:0:
448,192,37311,128,0,37408:0:0:0:0:
192,192,37408,128,0,37505:0:0:0:0:
320,192,37408,128,0,37505:0:0:0:0:
64,192,37505,1,0,0:0:0:0:
448,192,37505,1,0,0:0:0:0:
320,192,37699,1,0,0:0:0:0:
448,192,37699,1,0,0:0:0:0:
192,192,37699,128,0,38088:0:0:0:0:
448,192,37893,128,0,38088:0:0:0:0:
320,192,38088,1,0,0:0:0:0:
64,192,38088,1,0,0:0:0:0:
64,192,38476,1,0,0:0:0:0:
320,192,38476,1,0,0:0:0:0:
64,192,38671,1,0,0:0:0:0:
448,192,38671,1,0,0:0:0:0:
192,192,38768,1,0,0:0:0:0:
320,192,38816,1,0,0:0:0:0:
448,192,38865,1,0,0:0:0:0:
192,192,38865,1,0,0:0:0:0:
64,192,38865,1,0,0:0:0:0:
320,192,38962,1,0,0:0:0:0:
192,192,39059,1,0,0:0:0:0:
448,192,39254,1,0,0:0:0:0:
192,192,39254,1,0,0:0:0:0:
448,192,39448,1,0,0:0:0:0:
64,192,39448,1,0,0:0:0:0:
320,192,39545,1,0,0:0:0:0:
64,192,39642,1,0,0:0:0:0:
192,192,39642,1,0,0:0:0:0:
448,192,39642,1,0,0:0:0:0:
320,192,39739,1,0,0:0:0:0:
64,192,39836,1,0,0:0:0:0:
192,192,39934,1,0,0:0:0:0:
320,192,39934,1,0,0:0:0:0:
448,192,39934,1,0,0:0:0:0:
192,192,40031,1,0,0:0:0:0:
320,192,40128,1,0,0:0:0:0:
192,192,40225,1,0,0:0:0:0:
64,192,40225,1,0,0:0:0:0:
448,192,40225,1,0,0:0:0:0:
448,192,40322,1,0,0:0:0:0:
320,192,40371,1,0,0:0:0:0:
192,192,40419,128,0,40517:0:0:0:0:
64,192,40419,128,0,40517:0:0:0:0:
448,192,40517,128,0,40614:0:0:0:0:
320,192,40614,128,0,40711:0:0:0:0:
192,192,40614,128,0,40711:0:0:0:0:
64,192,40711,128,0,40808:0:0:0:0:
448,192,40808,128,0,40905:0:0:0:0:
192,192,40808,128,0,40905:0:0:0:0:
320,192,40905,1,0,0:0:0:0:
64,192,40905,1,0,0:0:0:0:
192,192,41002,128,0,41099:0:0:0:0:
320,192,41002,128,0,41099:0:0:0:0:
64,192,41197,1,0,0:0:0:0:
448,192,41197,1,0,0:0:0:0:
320,192,41294,1,0,0:0:0:0:
192,192,41391,1,0,0:0:0:0:
64,192,41391,1,0,0:0:0:0:
320,192,41488,1,0,0:0:0:0:
64,192,41585,1,0,0:0:0:0:
192,192,41585,1,0,0:0:0:0:
448,192,41585,1,0,0:0:0:0:
320,192,41682,1,0,0:0:0:0:
192,192,41780,1,0,0:0:0:0:
64,192,41780,1,0,0:0:0:0:
320,192,41877,1,0,0:0:0:0:
448,192,41877,1,0,0:0:0:0:
64,192,41877,1,0,0:0:0:0:
192,192,41974,1,0,0:0:0:0:
320,192,41974,1,0,0:0:0:0:
64,192,42168,1,0,0:0:0:0:
320,192,42168,1,0,0:0:0:0:
448,192,42168,1,0,0:0:0:0:
64,192,42362,1,0,0:0:0:0:
192,192,42362,1,0,0:0:0:0:
448,192,42362,1,0,0:0:0:0:
192,192,42557,128,0,42751:0:0:0:0:
320,192,42557,128,0,42751:0:0:0:0:
64,192,42751,1,0,0:0:0:0:
448,192,42751,1,0,0:0:0:0:
192,192,42848,1,0,0:0:0:0:
64,192,42945,1,0,0:0:0:0:
192,192,43042,1,0,0:0:0:0:
320,192,43140,1,0,0:0:0:0:
64,192,43140,1,0,0:0:0:0:
448,192,43140,1,0,0:0:0:0:
192,192,43237,1,0,0:0:0:0:
64,192,43334,1,0,0:0:0:0:
192,192,43431,1,0,0:0:0:0:
320,192,43431,1,0,0:0:0:0:
448,192,43528,1,0,0:0:0:0:
192,192,43528,1,0,0:0:0:0:
448,192,43625,1,0,0:0:0:0:
192,192,43625,1,0,0:0:0:0:
64,192,43723,1,0,0:0:0:0:
320,192,43723,1,0,0:0:0:0:
448,192,43723,1,0,0:0:0:0:
192,192,43917,1,0,0:0:0:0:
320,192,43917,1,0,0:0:0:0:
64,192,43917,1,0,0:0:0:0:
320,192,44014,1,0,0:0:0:0:
192,192,44111,1,0,0:0:0:0:
448,192,44111,1,0,0:0:0:0:
64,192,44208,1,0,0:0:0:0:
320,192,44208,1,0,0:0:0:0:
64,192,44305,1,0,0:0:0:0:
192,192,44305,1,0,0:0:0:0:
448,192,44305,1,0,0:0:0:0:
320,192,44500,1,0,0:0:0:0:
64,192,44597,1,0,0:0:0:0:
192,192,44597,1,0,0:0:0:0:
192,192,44694,1,0,0:0:0:0:
320,192,44694,1,0,0:0:0:0:
448,192,44694,128,0,45860:0:0:0:0:
64,192,44791,1,0,0:0:0:0:
192,192,44888,1,0,0:0:0:0:
64,192,44985,1,0,0:0:0:0:
320,192,44985,1,0,0:0:0:0:
192,192,45083,1,0,0:0:0:0:
320,192,45083,1,0,0:0:0:0:
64,192,45180,1,0,0:0:0:0:
320,192,45180,1,0,0:0:0:0:
64,192,45277,1,0,0:0:0:0:
192,192,45277,1,0,0:0:0:0:
320,192,45374,1,0,0:0:0:0:
192,192,45471,1,0,0:0:0:0:
64,192,45471,128,0,45860:0:0:0:0:
192,192,45763,1,0,0:0:0:0:
320,192,45763,1,0,0:0:0:0:
192,192,45860,1,0,0:0:0:0:
320,192,45860,1,0,0:0:0:0:
448,192,46054,1,0,0:0:0:0:
192,192,46054,1,0,0:0:0:0:
64,192,46151,1,0,0:0:0:0:
192,192,46200,1,0,0:0:0:0:
64,192,46248,1,0,0:0:0:0:
320,192,46248,1,0,0:0:0:0:
448,192,46248,1,0,0:0:0:0:
320,192,46443,1,0,0:0:0:0:
64,192,46540,1,0,0:0:0:0:
448,192,46540,1,0,0:0:0:0:
192,192,46637,1,0,0:0:0:0:
64,192,46734,1,0,0:0:0:0:
320,192,46734,1,0,0:0:0:0:
448,192,46734,1,0,0:0:0:0:
192,192,46831,1,0,0:0:0:0:
448,192,46831,1,0,0:0:0:0:
64,192,46928,1,0,0:0:0:0:
320,192,46928,1,0,0:0:0:0:
64,192,47026,1,0,0:0:0:0:
320,192,47026,1,0,0:0:0:0:
448,192,47026,1,0,0:0:0:0:
64,192,47123,1,0,0:0:0:0:
448,192,47123,1,0,0:0:0:0:
192,192,47171,1,0,0:0:0:0:
320,192,47220,1,0,0:0:0:0:
448,192,47414,1,0,0:0:0:0:
320,192,47414,1,0,0:0:0:0:
64,192,47414,1,0,0:0:0:0:
192,192,47414,1,0,0:0:0:0:
192,192,47511,1,0,0:0:0:0:
320,192,47609,1,0,0:0:0:0:
448,192,47609,1,0,0:0:0:0:
64,192,47706,1,0,0:0:0:0:
320,192,47706,1,0,0:0:0:0:
192,192,47803,1,0,0:0:0:0:
320,192,47803,1,0,0:0:0:0:
448,192,47803,1,0,0:0:0:0:
64,192,47900,1,0,0:0:0:0:
320,192,47900,1,0,0:0:0:0:
192,192,47997,1,0,0:0:0:0:
448,192,47997,1,0,0:0:0:0:
64,192,48094,1,0,0:0:0:0:
320,192,48094,1,0,0:0:0:0:
448,192,48094,1,0,0:0:0:0:
192,192,48191,1,0,0:0:0:0:
320,192,48191,1,0,0:0:0:0:
320,192,48386,1,0,0:0:0:0:
192,192,48386,1,0,0:0:0:0:
64,192,48580,1,0,0:0:0:0:
320,192,48580,1,0,0:0:0:0:
448,192,48580,1,0,0:0:0:0:
192,192,48774,128,0,48969:0:0:0:0:
448,192,48774,128,0,48969:0:0:0:0:
320,192,48969,1,0,0:0:0:0:
64,192,48969,1,0,0:0:0:0:
192,192,49066,1,0,0:0:0:0:
448,192,49066,1,0,0:0:0:0:
320,192,49163,1,0,0:0:0:0:
64,192,49163,1,0,0:0:0:0:
192,192,49260,1,0,0:0:0:0:
64,192,49260,1,0,0:0:0:0:
192,192,49357,1,0,0:0:0:0:
320,192,49357,1,0,0:0:0:0:
448,192,49357,1,0,0:0:0:0:
192,192,49454,1,0,0:0:0:0:
64,192,49454,1,0,0:0:0:0:
320,192,49552,1,0,0:0:0:0:
448,192,49552,1,0,0:0:0:0:
64,192,49649,1,0,0:0:0:0:
320,192,49649,1,0,0:0:0:0:
448,192,49649,1,0,0:0:0:0:
192,192,49746,1,0,0:0:0:0:
192,192,49843,1,0,0:0:0:0:
64,192,49940,1,0,0:0:0:0:
320,192,49940,1,0,0:0:0:0:
448,192,49940,1,0,0:0:0:0:
192,192,50134,1,0,0:0:0:0:
64,192,50134,1,0,0:0:0:0:
192,192,50232,1,0,0:0:0:0:
320,192,50329,1,0,0:0:0:0:
64,192,50329,1,0,0:0:0:0:
192,192,50426,1,0,0:0:0:0:
448,192,50426,1,0,0:0:0:0:
448,192,50523,1,0,0:0:0:0:
320,192,50523,1,0,0:0:0:0:
64,192,50523,1,0,0:0:0:0:
192,192,50717,1,0,0:0:0:0:
320,192,50814,1,0,0:0:0:0:
448,192,50814,1,0,0:0:0:0:
64,192,50814,128,0,52077:0:0:0:0:
448,192,50912,1,0,0:0:0:0:
320,192,51009,1,0,0:0:0:0:
192,192,51106,1,0,0:0:0:0:
448,192,51203,1,0,0:0:0:0:
320,192,51203,1,0,0:0:0:0:
192,192,51300,1,0,0:0:0:0:
320,192,51397,1,0,0:0:0:0:
448,192,51397,1,0,0:0:0:0:
192,192,51495,1,0,0:0:0:0:
448,192,51592,1,0,0:0:0:0:
320,192,51592,1,0,0:0:0:0:
448,192,51689,128,0,52077:0:0:0:0:
192,192,51689,1,0,0:0:0:0:
320,192,51980,1,0,0:0:0:0:
192,192,51980,1,0,0:0:0:0:
192,192,52077,1,0,0:0:0:0:
320,192,52077,1,0,0:0:0:0:
64,192,52272,1,0,0:0:0:0:
192,192,52272,1,0,0:0:0:0:
64,192,52369,1,0,0:0:0:0:
192,192,52369,1,0,0:0:0:0:
320,192,52466,1,0,0:0:0:0:
64,192,52660,1,0,0:0:0:0:
320,192,52660,1,0,0:0:0:0:
448,192,52660,1,0,0:0:0:0:
192,192,52757,1,0,0:0:0:0:
64,192,52855,1,0,0:0:0:0:
192,192,52855,1,0,0:0:0:0:
448,192,52855,1,0,0:0:0:0:
448,192,52952,1,0,0:0:0:0:
192,192,52952,1,0,0:0:0:0:
64,192,52952,1,0,0:0:0:0:
64,192,53146,1,0,0:0:0:0:
192,192,53146,1,0,0:0:0:0:
448,192,53195,1,0,0:0:0:0:
64,192,53243,1,0,0:0:0:0:
192,192,53243,1,0,0:0:0:0:
448,192,53438,1,0,0:0:0:0:
320,192,53438,1,0,0:0:0:0:
192,192,53438,1,0,0:0:0:0:
448,192,53632,1,0,0:0:0:0:
320,192,53632,1,0,0:0:0:0:
64,192,53632,128,0,55186:0:0:0:0:
448,192,54215,1,0,0:0:0:0:
320,192,54312,1,0,0:0:0:0:
192,192,54409,1,0,0:0:0:0:
448,192,54409,1,0,0:0:0:0:
320,192,54506,1,0,0:0:0:0:
192,192,54603,1,0,0:0:0:0:
448,192,54700,1,0,0:0:0:0:
320,192,54798,128,0,54992:0:0:0:0:
192,192,54992,128,0,55186:0:0:0:0:
448,192,55186,1,0,0:0:0:0:
320,192,55283,1,0,0:0:0:0:
448,192,55283,1,0,0:0:0:0:
64,192,55332,1,0,0:0:0:0:
192,192,55332,1,0,0:0:0:0:
320,192,55381,1,0,0:0:0:0:
448,192,55381,1,0,0:0:0:0:
64,192,55478,1,0,0:0:0:0:
192,192,55478,1,0,0:0:0:0:
192,192,55672,1,0,0:0:0:0:
448,192,55672,1,0,0:0:0:0:
192,192,55866,1,0,0:0:0:0:
448,192,55866,1,0,0:0:0:0:
192,192,55963,1,0,0:0:0:0:
320,192,55963,1,0,0:0:0:0:
448,192,55963,1,0,0:0:0:0:
64,192,56158,1,0,0:0:0:0:
320,192,56158,1,0,0:0:0:0:
448,192,56352,1,0,0:0:0:0:
64,192,56546,1,0,0:0:0:0:
192,192,56741,1,0,0:0:0:0:
64,192,56741,1,0,0:0:0:0:
448,192,56741,128,0,57518:0:0:0:0:
64,192,57372,1,0,0:0:0:0:
320,192,57469,1,0,0:0:0:0:
192,192,57469,1,0,0:0:0:0:
64,192,57518,1,0,0:0:0:0:
320,192,57906,1,0,0:0:0:0:
448,192,58295,1,0,0:0:0:0:
320,192,58295,1,0,0:0:0:0:
64,192,58295,1,0,0:0:0:0:
320,192,58392,1,0,0:0:0:0:
192,192,58489,1,0,0:0:0:0:
448,192,58586,1,0,0:0:0:0:
64,192,58586,1,0,0:0:0:0:
320,192,58586,1,0,0:0:0:0:
320,192,58684,1,0,0:0:0:0:
192,192,58781,1,0,0:0:0:0:
64,192,58878,1,0,0:0:0:0:
320,192,58878,1,0,0:0:0:0:
448,192,58878,1,0,0:0:0:0:
192,192,58975,1,0,0:0:0:0:
64,192,59072,1,0,0:0:0:0:
192,192,59072,1,0,0:0:0:0:
448,192,59072,1,0,0:0:0:0:
64,192,59169,1,0,0:0:0:0:
192,192,59169,1,0,0:0:0:0:
448,192,59267,1,0,0:0:0:0:
192,192,59267,1,0,0:0:0:0:
64,192,59364,1,0,0:0:0:0:
192,192,59461,1,0,0:0:0:0:
320,192,59461,1,0,0:0:0:0:
448,192,59461,1,0,0:0:0:0:
448,192,59558,1,0,0:0:0:0:
320,192,59655,1,0,0:0:0:0:
192,192,59752,1,0,0:0:0:0:
64,192,59849,1,0,0:0:0:0:
192,192,59947,1,0,0:0:0:0:
320,192,60044,1,0,0:0:0:0:
448,192,60141,1,0,0:0:0:0:
192,192,60238,1,0,0:0:0:0:
64,192,60238,1,0,0:0:0:0:
64,192,60432,1,0,0:0:0:0:
192,192,60530,1,0,0:0:0:0:
320,192,60627,1,0,0:0:0:0:
64,192,60627,1,0,0:0:0:0:
448,192,60627,1,0,0:0:0:0:
192,192,60724,1,0,0:0:0:0:
64,192,60821,1,0,0:0:0:0:
192,192,61015,1,0,0:0:0:0:
320,192,61210,1,0,0:0:0:0:
448,192,61404,1,0,0:0:0:0:
64,192,61501,1,0,0:0:0:0:
192,192,61501,1,0,0:0:0:0:
448,192,61550,1,0,0:0:0:0:
320,192,61550,1,0,0:0:0:0:
64,192,61598,1,0,0:0:0:0:
192,192,61598,1,0,0:0:0:0:
320,192,61695,1,0,0:0:0:0:
448,192,61695,1,0,0:0:0:0:
64,192,61890,1,0,0:0:0:0:
192,192,61890,1,0,0:0:0:0:
192,192,62084,1,0,0:0:0:0:
448,192,62084,1,0,0:0:0:0:
192,192,62181,1,0,0:0:0:0:
320,192,62181,1,0,0:0:0:0:
448,192,62181,1,0,0:0:0:0:
64,192,62375,1,0,0:0:0:0:
320,192,62375,1,0,0:0:0:0:
320,192,62570,1,0,0:0:0:0:
192,192,62764,1,0,0:0:0:0:
64,192,62958,128,0,63735:0:0:0:0:
320,192,62958,1,0,0:0:0:0:
448,192,62958,1,0,0:0:0:0:
320,192,63541,1,0,0:0:0:0:
448,192,63541,1,0,0:0:0:0:
192,192,63638,1,0,0:0:0:0:
320,192,63638,1,0,0:0:0:0:
448,192,63735,1,0,0:0:0:0:
320,192,63735,1,0,0:0:0:0:
64,192,63930,1,0,0:0:0:0:
192,192,64027,1,0,0:0:0:0:
320,192,64124,1,0,0:0:0:0:
448,192,64318,1,0,0:0:0:0:
320,192,64416,1,0,0:0:0:0:
64,192,64513,1,0,0:0:0:0:
192,192,64513,1,0,0:0:0:0:
448,192,64513,1,0,0:0:0:0:
320,192,64707,1,0,0:0:0:0:
64,192,64804,1,0,0:0:0:0:
192,192,64804,1,0,0:0:0:0:
320,192,64901,1,0,0:0:0:0:
192,192,64998,1,0,0:0:0:0:
448,192,64998,1,0,0:0:0:0:
320,192,65047,1,0,0:0:0:0:
64,192,65047,1,0,0:0:0:0:
192,192,65096,1,0,0:0:0:0:
448,192,65096,1,0,0:0:0:0:
64,192,65193,1,0,0:0:0:0:
320,192,65193,1,0,0:0:0:0:
64,192,65290,1,0,0:0:0:0:
448,192,65290,1,0,0:0:0:0:
192,192,65290,1,0,0:0:0:0:
448,192,65484,1,0,0:0:0:0:
320,192,65484,1,0,0:0:0:0:
64,192,65581,1,0,0:0:0:0:
320,192,65581,1,0,0:0:0:0:
448,192,65581,1,0,0:0:0:0:
192,192,65678,1,0,0:0:0:0:
64,192,65776,1,0,0:0:0:0:
320,192,65776,1,0,0:0:0:0:
192,192,65873,1,0,0:0:0:0:
448,192,65873,1,0,0:0:0:0:
448,192,65970,1,0,0:0:0:0:
192,192,65970,1,0,0:0:0:0:
320,192,65970,1,0,0:0:0:0:
64,192,66067,1,0,0:0:0:0:
320,192,66067,1,0,0:0:0:0:
192,192,66067,128,0,66650:0:0:0:0:
64,192,66650,1,0,0:0:0:0:
192,192,66715,1,0,0:0:0:0:
320,192,66780,1,0,0:0:0:0:
448,192,66844,128,0,67621:0:0:0:0:
64,192,66844,1,0,0:0:0:0:
64,192,67233,1,0,0:0:0:0:
192,192,67816,128,0,68010:0:0:0:0:
64,192,68010,1,0,0:0:0:0:
192,192,68075,1,0,0:0:0:0:
320,192,68140,1,0,0:0:0:0:
448,192,68204,128,0,68399:0:0:0:0:
64,192,68399,1,0,0:0:0:0:
320,192,68593,1,0,0:0:0:0:
192,192,68787,1,0,0:0:0:0:
64,192,68982,1,0,0:0:0:0:
192,192,69176,128,0,69564:0:0:0:0:
448,192,69176,1,0,0:0:0:0:
320,192,69759,1,0,0:0:0:0:
192,192,69856,1,0,0:0:0:0:
64,192,69953,128,0,70730:0:0:0:0:
448,192,69953,1,0,0:0:0:0:
448,192,70342,1,0,0:0:0:0:
448,192,70730,1,0,0:0:0:0:
192,192,71119,1,0,0:0:0:0:
64,192,71896,1,0,0:0:0:0:
192,192,71993,1,0,0:0:0:0:
320,192,72090,1,0,0:0:0:0:
448,192,72188,1,0,0:0:0:0:
64,192,72285,1,0,0:0:0:0:
320,192,72285,128,0,72916:0:0:0:0:
448,192,72916,1,0,0:0:0:0:
320,192,72997,1,0,0:0:0:0:
64,192,73062,1,0,0:0:0:0:
192,192,73062,128,0,73839:0:0:0:0:
64,192,73450,1,0,0:0:0:0:
320,192,74033,128,0,74228:0:0:0:0:
448,192,74228,1,0,0:0:0:0:
320,192,74292,1,0,0:0:0:0:
192,192,74357,1,0,0:0:0:0:
64,192,74422,128,0,74616:0:0:0:0:
192,192,74616,1,0,0:0:0:0:
320,192,74713,1,0,0:0:0:0:
192,192,74811,1,0,0:0:0:0:
448,192,74908,1,0,0:0:0:0:
320,192,75005,1,0,0:0:0:0:
192,192,75102,1,0,0:0:0:0:
64,192,75199,1,0,0:0:0:0:
448,192,75296,1,0,0:0:0:0:
320,192,75393,128,0,75782:0:0:0:0:
64,192,75393,1,0,0:0:0:0:
448,192,75491,1,0,0:0:0:0:
192,192,75588,1,0,0:0:0:0:
64,192,75685,1,0,0:0:0:0:
448,192,75782,1,0,0:0:0:0:
192,192,75879,1,0,0:0:0:0:
320,192,75976,1,0,0:0:0:0:
448,192,76074,1,0,0:0:0:0:
64,192,76074,128,0,76559:0:0:0:0:
320,192,76219,1,0,0:0:0:0:
192,192,76365,1,0,0:0:0:0:
448,192,76462,1,0,0:0:0:0:
320,192,76559,1,0,0:0:0:0:
192,192,76559,1,0,0:0:0:0:
448,192,76656,1,0,0:0:0:0:
192,192,76754,1,0,0:0:0:0:
448,192,76851,1,0,0:0:0:0:
64,192,76948,1,0,0:0:0:0:
448,192,76948,1,0,0:0:0:0:
448,192,77045,1,0,0:0:0:0:
192,192,77045,1,0,0:0:0:0:
320,192,77142,1,0,0:0:0:0:
192,192,77142,1,0,0:0:0:0:
192,192,77239,1,0,0:0:0:0:
448,192,77239,1,0,0:0:0:0:
64,192,77336,1,0,0:0:0:0:
448,192,77336,1,0,0:0:0:0:
192,192,77434,1,0,0:0:0:0:
448,192,77434,1,0,0:0:0:0:
320,192,77531,1,0,0:0:0:0:
64,192,77531,1,0,0:0:0:0:
192,192,77628,1,0,0:0:0:0:
320,192,77628,1,0,0:0:0:0:
320,192,77725,1,0,0:0:0:0:
448,192,77725,1,0,0:0:0:0:
192,192,77822,1,0,0:0:0:0:
64,192,77822,1,0,0:0:0:0:
192,192,77919,1,0,0:0:0:0:
448,192,77919,1,0,0:0:0:0:
192,192,78017,1,0,0:0:0:0:
320,192,78017,1,0,0:0:0:0:
320,192,78114,1,0,0:0:0:0:
448,192,78114,1,0,0:0:0:0:
64,192,78211,1,0,0:0:0:0:
192,192,78211,1,0,0:0:0:0:
320,192,78308,1,0,0:0:0:0:
448,192,78308,1,0,0:0:0:0:
192,192,78405,1,0,0:0:0:0:
64,192,78405,1,0,0:0:0:0:
448,192,78502,128,0,78599:0:0:0:0:
320,192,78599,128,0,78697:0:0:0:0:
448,192,78697,128,0,78794:0:0:0:0:
192,192,78794,128,0,78891:0:0:0:0:
320,192,78891,128,0,78988:0:0:0:0:
192,192,78988,128,0,79085:0:0:0:0:
64,192,79085,128,0,79182:0:0:0:0:
192,192,79182,128,0,79280:0:0:0:0:
448,192,79280,128,0,79377:0:0:0:0:
320,192,79377,128,0,79474:0:0:0:0:
64,192,79377,1,0,0:0:0:0:
192,192,79474,128,0,79571:0:0:0:0:
64,192,79571,128,0,79668:0:0:0:0:
192,192,79668,128,0,79765:0:0:0:0:
448,192,79668,1,0,0:0:0:0:
320,192,79765,128,0,79862:0:0:0:0:
448,192,79862,128,0,79960:0:0:0:0:
64,192,79862,1,0,0:0:0:0:
320,192,79960,128,0,80057:0:0:0:0:
64,192,80057,1,0,0:0:0:0:
448,192,80057,1,0,0:0:0:0:
192,192,80445,128,0,81223:0:0:0:0:
320,192,80834,128,0,81223:0:0:0:0:
64,192,81320,1,0,0:0:0:0:
192,192,81417,1,0,0:0:0:0:
320,192,81514,1,0,0:0:0:0:
64,192,81611,128,0,81708:0:0:0:0:
448,192,81611,128,0,81708:0:0:0:0:
192,192,81708,128,0,81805:0:0:0:0:
320,192,81708,128,0,81805:0:0:0:0:
448,192,81805,128,0,81903:0:0:0:0:
64,192,81805,128,0,81903:0:0:0:0:
192,192,81903,128,0,82000:0:0:0:0:
64,192,82000,128,0,82097:0:0:0:0:
320,192,82000,128,0,82097:0:0:0:0:
448,192,82000,128,0,82097:0:0:0:0:
192,192,82097,128,0,82194:0:0:0:0:
64,192,82194,128,0,82291:0:0:0:0:
448,192,82194,128,0,82388:0:0:0:0:
192,192,82291,128,0,82388:0:0:0:0:
320,192,82388,128,0,82485:0:0:0:0:
64,192,82485,128,0,82583:0:0:0:0:
448,192,82485,128,0,82583:0:0:0:0:
192,192,82583,128,0,82680:0:0:0:0:
320,192,82680,128,0,82777:0:0:0:0:
448,192,82777,128,0,82874:0:0:0:0:
192,192,82777,128,0,82874:0:0:0:0:
64,192,82777,128,0,82874:0:0:0:0:
320,192,82874,128,0,83020:0:0:0:0:
64,192,82971,128,0,83068:0:0:0:0:
448,192,82971,128,0,83166:0:0:0:0:
192,192,83068,128,0,83166:0:0:0:0:
320,192,83166,128,0,83263:0:0:0:0:
64,192,83263,128,0,83360:0:0:0:0:
448,192,83263,128,0,83360:0:0:0:0:
192,192,83360,128,0,83457:0:0:0:0:
320,192,83360,128,0,83554:0:0:0:0:
64,192,83554,128,0,83651:0:0:0:0:
192,192,83554,128,0,83651:0:0:0:0:
448,192,83554,128,0,83651:0:0:0:0:
320,192,83651,128,0,83748:0:0:0:0:
192,192,83748,128,0,83846:0:0:0:0:
448,192,83846,128,0,83943:0:0:0:0:
320,192,83846,128,0,83943:0:0:0:0:
64,192,83846,128,0,84040:0:0:0:0:
192,192,83943,128,0,84040:0:0:0:0:
448,192,84040,1,0,0:0:0:0:
64,192,84137,128,0,84234:0:0:0:0:
320,192,84137,128,0,84234:0:0:0:0:
192,192,84137,1,0,0:0:0:0:
448,192,84234,1,0,0:0:0:0:
192,192,84331,128,0,84428:0:0:0:0:
448,192,84331,128,0,84428:0:0:0:0:
64,192,84331,1,0,0:0:0:0:
320,192,84428,1,0,0:0:0:0:
64,192,84526,128,0,84623:0:0:0:0:
192,192,84526,128,0,84623:0:0:0:0:
320,192,84623,1,0,0:0:0:0:
320,192,84720,128,0,85157:0:0:0:0:
448,192,84720,128,0,85157:0:0:0:0:
64,192,84817,1,0,0:0:0:0:
192,192,84914,1,0,0:0:0:0:
64,192,85011,1,0,0:0:0:0:
64,192,85157,1,0,0:0:0:0:
192,192,85157,1,0,0:0:0:0:
448,192,85303,128,0,85400:0:0:0:0:
192,192,85303,128,0,85400:0:0:0:0:
320,192,85400,128,0,85497:0:0:0:0:
64,192,85400,128,0,85691:0:0:0:0:
192,192,85497,128,0,85691:0:0:0:0:
448,192,85691,1,0,0:0:0:0:
320,192,85691,128,0,85886:0:0:0:0:
64,192,85886,128,0,85983:0:0:0:0:
192,192,85886,1,0,0:0:0:0:
448,192,85886,128,0,86080:0:0:0:0:
192,192,85983,128,0,86080:0:0:0:0:
320,192,86080,128,0,86177:0:0:0:0:
64,192,86177,128,0,86274:0:0:0:0:
192,192,86177,128,0,86469:0:0:0:0:
320,192,86274,128,0,86469:0:0:0:0:
448,192,86274,128,0,86469:0:0:0:0:
64,192,86469,1,0,0:0:0:0:
64,192,86663,1,0,0:0:0:0:
448,192,86663,128,0,87440:0:0:0:0:
320,192,86663,1,0,0:0:0:0:
64,192,86760,1,0,0:0:0:0:
320,192,86857,1,0,0:0:0:0:
64,192,86954,1,0,0:0:0:0:
192,192,86954,1,0,0:0:0:0:
320,192,87052,1,0,0:0:0:0:
64,192,87149,1,0,0:0:0:0:
192,192,87149,1,0,0:0:0:0:
192,192,87246,1,0,0:0:0:0:
320,192,87343,1,0,0:0:0:0:
64,192,87343,1,0,0:0:0:0:
64,192,87440,1,0,0:0:0:0:
192,192,87440,1,0,0:0:0:0:
320,192,87440,1,0,0:0:0:0:
192,192,87537,1,0,0:0:0:0:
448,192,87634,1,0,0:0:0:0:
320,192,87732,1,0,0:0:0:0:
64,192,87829,128,0,87926:0:0:0:0:
448,192,87829,128,0,87926:0:0:0:0:
192,192,87926,128,0,88023:0:0:0:0:
320,192,87926,128,0,88120:0:0:0:0:
64,192,88023,128,0,88120:0:0:0:0:
448,192,88023,128,0,88120:0:0:0:0:
192,192,88120,128,0,88217:0:0:0:0:
64,192,88217,128,0,88314:0:0:0:0:
320,192,88217,128,0,88412:0:0:0:0:
448,192,88314,128,0,88412:0:0:0:0:
64,192,88412,128,0,88509:0:0:0:0:
192,192,88509,128,0,88606:0:0:0:0:
320,192,88606,128,0,88703:0:0:0:0:
448,192,88606,128,0,88703:0:0:0:0:
64,192,88703,128,0,88800:0:0:0:0:
192,192,88800,128,0,88897:0:0:0:0:
320,192,88897,128,0,88995:0:0:0:0:
448,192,88897,128,0,89092:0:0:0:0:
64,192,88995,128,0,89092:0:0:0:0:
192,192,89092,128,0,89189:0:0:0:0:
64,192,89189,128,0,89286:0:0:0:0:
320,192,89189,128,0,89286:0:0:0:0:
448,192,89286,128,0,89383:0:0:0:0:
192,192,89286,128,0,89383:0:0:0:0:
320,192,89383,128,0,89577:0:0:0:0:
64,192,89480,128,0,89577:0:0:0:0:
192,192,89577,128,0,89675:0:0:0:0:
448,192,89577,128,0,89675:0:0:0:0:
320,192,89675,128,0,89772:0:0:0:0:
64,192,89772,128,0,89869:0:0:0:0:
192,192,89772,128,0,89869:0:0:0:0:
448,192,89772,128,0,89869:0:0:0:0:
320,192,89869,128,0,89966:0:0:0:0:
192,192,89966,128,0,90063:0:0:0:0:
448,192,90063,1,0,0:0:0:0:
320,192,90063,128,0,90257:0:0:0:0:
64,192,90063,128,0,90257:0:0:0:0:
192,192,90160,128,0,90257:0:0:0:0:
448,192,90160,128,0,90257:0:0:0:0:
320,192,90355,128,0,90452:0:0:0:0:
448,192,90355,128,0,90452:0:0:0:0:
192,192,90355,1,0,0:0:0:0:
192,192,90549,128,0,90646:0:0:0:0:
64,192,90549,128,0,90646:0:0:0:0:
320,192,90549,1,0,0:0:0:0:
448,192,90646,1,0,0:0:0:0:
320,192,90743,128,0,90840:0:0:0:0:
448,192,90743,128,0,90840:0:0:0:0:
192,192,90840,1,0,0:0:0:0:
64,192,90938,128,0,91326:0:0:0:0:
192,192,90938,128,0,91326:0:0:0:0:
448,192,91035,1,0,0:0:0:0:
320,192,91132,1,0,0:0:0:0:
448,192,91229,1,0,0:0:0:0:
320,192,91326,1,0,0:0:0:0:
448,192,91326,1,0,0:0:0:0:
64,192,91520,128,0,91618:0:0:0:0:
448,192,91520,128,0,91618:0:0:0:0:
192,192,91618,128,0,91715:0:0:0:0:
320,192,91618,128,0,91812:0:0:0:0:
64,192,91715,128,0,91812:0:0:0:0:
192,192,91812,128,0,91909:0:0:0:0:
448,192,91812,128,0,92103:0:0:0:0:
320,192,91909,128,0,92006:0:0:0:0:
64,192,92006,128,0,92103:0:0:0:0:
192,192,92006,128,0,92103:0:0:0:0:
320,192,92103,128,0,92200:0:0:0:0:
64,192,92200,128,0,92298:0:0:0:0:
448,192,92200,128,0,92395:0:0:0:0:
192,192,92298,128,0,92395:0:0:0:0:
320,192,92395,128,0,92492:0:0:0:0:
64,192,92492,128,0,92881:0:0:0:0:
448,192,92492,128,0,92881:0:0:0:0:
192,192,92589,1,0,0:0:0:0:
320,192,92589,1,0,0:0:0:0:
192,192,92881,128,0,93269:0:0:0:0:
320,192,92881,128,0,93269:0:0:0:0:
64,192,93075,1,0,0:0:0:0:
448,192,93075,1,0,0:0:0:0:
448,192,93172,1,0,0:0:0:0:
64,192,93172,1,0,0:0:0:0:
64,192,93269,1,0,0:0:0:0:
448,192,93269,1,0,0:0:0:0:
192,192,93366,1,0,0:0:0:0:
320,192,93366,1,0,0:0:0:0:
192,192,93463,1,0,0:0:0:0:
320,192,93463,1,0,0:0:0:0:
64,192,93561,1,0,0:0:0:0:
448,192,93561,1,0,0:0:0:0:
192,192,93658,1,0,0:0:0:0:
320,192,93658,1,0,0:0:0:0:
192,192,93755,1,0,0:0:0:0:
320,192,93755,1,0,0:0:0:0:
64,192,93852,1,0,0:0:0:0:
448,192,93852,1,0,0:0:0:0:
192,192,93949,1,0,0:0:0:0:
320,192,93949,1,0,0:0:0:0:
192,192,94046,128,0,94143:0:0:0:0:
448,192,94046,128,0,94143:0:0:0:0:
64,192,94143,128,0,94241:0:0:0:0:
320,192,94143,128,0,94241:0:0:0:0:
192,192,94241,128,0,94338:0:0:0:0:
320,192,94338,128,0,94435:0:0:0:0:
448,192,94338,128,0,94435:0:0:0:0:
64,192,94435,128,0,94532:0:0:0:0:
192,192,94435,128,0,94532:0:0:0:0:
320,192,94532,128,0,94629:0:0:0:0:
448,192,94532,128,0,94726:0:0:0:0:
192,192,94629,128,0,94726:0:0:0:0:
64,192,94726,128,0,94824:0:0:0:0:
320,192,94726,128,0,94921:0:0:0:0:
192,192,94824,128,0,94921:0:0:0:0:
64,192,94921,128,0,95018:0:0:0:0:
448,192,94921,128,0,95115:0:0:0:0:
192,192,95018,128,0,95115:0:0:0:0:
320,192,95018,128,0,95212:0:0:0:0:
64,192,95212,128,0,95309:0:0:0:0:
192,192,95212,128,0,95309:0:0:0:0:
448,192,95212,128,0,95309:0:0:0:0:
320,192,95309,128,0,95406:0:0:0:0:
64,192,95406,128,0,95504:0:0:0:0:
448,192,95406,128,0,95504:0:0:0:0:
192,192,95504,128,0,95601:0:0:0:0:
320,192,95504,128,0,95601:0:0:0:0:
64,192,95601,128,0,95698:0:0:0:0:
448,192,95601,128,0,95892:0:0:0:0:
192,192,95698,128,0,95795:0:0:0:0:
320,192,95795,128,0,95892:0:0:0:0:
192,192,95892,128,0,95989:0:0:0:0:
64,192,95989,128,0,96086:0:0:0:0:
320,192,95989,128,0,96184:0:0:0:0:
192,192,96086,128,0,96184:0:0:0:0:
448,192,96086,128,0,96184:0:0:0:0:
64,192,96184,128,0,96281:0:0:0:0:
192,192,96281,128,0,96378:0:0:0:0:
320,192,96281,128,0,96378:0:0:0:0:
448,192,96281,128,0,96475:0:0:0:0:
192,192,96475,1,0,0:0:0:0:
64,192,96475,1,0,0:0:0:0:
320,192,96572,128,0,96669:0:0:0:0:
192,192,96572,128,0,96669:0:0:0:0:
64,192,96669,1,0,0:0:0:0:
448,192,96767,128,0,96864:0:0:0:0:
320,192,96767,128,0,96864:0:0:0:0:
192,192,96864,1,0,0:0:0:0:
64,192,96864,1,0,0:0:0:0:
64,192,96961,128,0,97058:0:0:0:0:
192,192,96961,128,0,97058:0:0:0:0:
320,192,97058,1,0,0:0:0:0:
448,192,97058,1,0,0:0:0:0:
320,192,97155,128,0,97544:0:0:0:0:
448,192,97155,128,0,97544:0:0:0:0:
192,192,97252,1,0,0:0:0:0:
192,192,97349,1,0,0:0:0:0:
64,192,97447,1,0,0:0:0:0:
64,192,97544,1,0,0:0:0:0:
192,192,97544,1,0,0:0:0:0:
64,192,97738,128,0,97835:0:0:0:0:
320,192,97738,128,0,97835:0:0:0:0:
192,192,97835,128,0,97932:0:0:0:0:
448,192,97835,128,0,97932:0:0:0:0:
320,192,97932,128,0,98127:0:0:0:0:
64,192,97932,128,0,98127:0:0:0:0:
192,192,98127,1,0,0:0:0:0:
448,192,98127,128,0,98321:0:0:0:0:
192,192,98321,128,0,98418:0:0:0:0:
64,192,98321,1,0,0:0:0:0:
320,192,98321,128,0,98515:0:0:0:0:
448,192,98418,128,0,98515:0:0:0:0:
192,192,98515,128,0,98612:0:0:0:0:
64,192,98612,128,0,98710:0:0:0:0:
448,192,98612,128,0,98710:0:0:0:0:
320,192,98710,128,0,98904:0:0:0:0:
192,192,98710,128,0,98904:0:0:0:0:
64,192,98904,1,0,0:0:0:0:
192,192,98969,1,0,0:0:0:0:
320,192,99033,1,0,0:0:0:0:
448,192,99098,1,0,0:0:0:0:
192,192,99098,1,0,0:0:0:0:
64,192,99098,128,0,99875:0:0:0:0:
320,192,99195,1,0,0:0:0:0:
192,192,99292,1,0,0:0:0:0:
320,192,99390,1,0,0:0:0:0:
448,192,99390,1,0,0:0:0:0:
192,192,99487,1,0,0:0:0:0:
320,192,99584,1,0,0:0:0:0:
448,192,99681,1,0,0:0:0:0:
192,192,99778,1,0,0:0:0:0:
320,192,99778,1,0,0:0:0:0:
192,192,99875,1,0,0:0:0:0:
448,192,99875,1,0,0:0:0:0:
448,192,99973,1,0,0:0:0:0:
320,192,99973,1,0,0:0:0:0:
320,192,100070,1,0,0:0:0:0:
192,192,100070,1,0,0:0:0:0:
192,192,100167,1,0,0:0:0:0:
64,192,100167,1,0,0:0:0:0:
320,192,100264,1,0,0:0:0:0:
448,192,100264,128,0,100653:0:0:0:0:
64,192,100653,1,0,0:0:0:0:
192,192,100653,1,0,0:0:0:0:
320,192,100653,1,0,0:0:0:0:
320,192,100847,1,0,0:0:0:0:
448,192,100944,1,0,0:0:0:0:
192,192,100944,1,0,0:0:0:0:
64,192,100993,1,0,0:0:0:0:
320,192,101041,128,0,101235:0:0:0:0:
64,192,101235,128,0,101430:0:0:0:0:
448,192,101235,1,0,0:0:0:0:
192,192,101430,128,0,101624:0:0:0:0:
320,192,101430,1,0,0:0:0:0:
448,192,101430,1,0,0:0:0:0:
320,192,101624,128,0,101818:0:0:0:0:
64,192,101818,128,0,102207:0:0:0:0:
448,192,101818,1,0,0:0:0:0:
192,192,102207,1,0,0:0:0:0:
320,192,102207,1,0,0:0:0:0:
448,192,102207,1,0,0:0:0:0:
192,192,102401,1,0,0:0:0:0:
64,192,102498,1,0,0:0:0:0:
320,192,102498,1,0,0:0:0:0:
448,192,102547,1,0,0:0:0:0:
192,192,102596,128,0,102790:0:0:0:0:
64,192,102790,1,0,0:0:0:0:
320,192,102790,1,0,0:0:0:0:
448,192,102790,128,0,102984:0:0:0:0:
64,192,102984,1,0,0:0:0:0:
192,192,102984,1,0,0:0:0:0:
320,192,102984,128,0,103178:0:0:0:0:
192,192,103178,128,0,103373:0:0:0:0:
64,192,103373,1,0,0:0:0:0:
320,192,103373,1,0,0:0:0:0:
448,192,103470,1,0,0:0:0:0:
64,192,103567,1,0,0:0:0:0:
192,192,103567,1,0,0:0:0:0:
320,192,103664,1,0,0:0:0:0:
448,192,103761,1,0,0:0:0:0:
192,192,103761,1,0,0:0:0:0:
64,192,103859,1,0,0:0:0:0:
192,192,103956,1,0,0:0:0:0:
320,192,103956,1,0,0:0:0:0:
448,192,104053,1,0,0:0:0:0:
192,192,104150,1,0,0:0:0:0:
64,192,104150,1,0,0:0:0:0:
320,192,104247,1,0,0:0:0:0:
192,192,104344,1,0,0:0:0:0:
64,192,104344,1,0,0:0:0:0:
320,192,104441,1,0,0:0:0:0:
448,192,104539,1,0,0:0:0:0:
192,192,104539,1,0,0:0:0:0:
64,192,104636,1,0,0:0:0:0:
192,192,104636,1,0,0:0:0:0:
64,192,104733,1,0,0:0:0:0:
320,192,104781,1,0,0:0:0:0:
64,192,104830,1,0,0:0:0:0:
448,192,104879,1,0,0:0:0:0:
64,192,104927,1,0,0:0:0:0:
320,192,105073,1,0,0:0:0:0:
320,192,105170,1,0,0:0:0:0:
192,192,105316,1,0,0:0:0:0:
192,192,105413,1,0,0:0:0:0:
320,192,105510,1,0,0:0:0:0:
320,192,105607,1,0,0:0:0:0:
192,192,105704,1,0,0:0:0:0:
192,192,105802,1,0,0:0:0:0:
64,192,105899,1,0,0:0:0:0:
448,192,105899,1,0,0:0:0:0:
320,192,105996,1,0,0:0:0:0:
192,192,106044,1,0,0:0:0:0:
64,192,106093,1,0,0:0:0:0:
448,192,106093,1,0,0:0:0:0:
64,192,106482,1,0,0:0:0:0:
192,192,106482,1,0,0:0:0:0:
320,192,106482,1,0,0:0:0:0:
448,192,106482,1,0,0:0:0:0:
64,192,106870,1,0,0:0:0:0:
192,192,106870,1,0,0:0:0:0:
448,192,106935,1,0,0:0:0:0:
64,192,107000,1,0,0:0:0:0:
192,192,107000,1,0,0:0:0:0:
320,192,107064,1,0,0:0:0:0:
64,192,107129,1,0,0:0:0:0:
192,192,107129,1,0,0:0:0:0:
448,192,107194,1,0,0:0:0:0:
64,192,107259,1,0,0:0:0:0:
192,192,107259,1,0,0:0:0:0:
448,192,107453,1,0,0:0:0:0:
320,192,107453,1,0,0:0:0:0:
64,192,107518,1,0,0:0:0:0:
320,192,107583,1,0,0:0:0:0:
448,192,107583,1,0,0:0:0:0:
64,192,107647,1,0,0:0:0:0:
64,192,107745,1,0,0:0:0:0:
320,192,107842,1,0,0:0:0:0:
448,192,107842,1,0,0:0:0:0:
64,192,107939,1,0,0:0:0:0:
192,192,107939,1,0,0:0:0:0:
192,192,108036,1,0,0:0:0:0:
320,192,108036,1,0,0:0:0:0:
448,192,108036,1,0,0:0:0:0:
448,192,108327,1,0,0:0:0:0:
64,192,108425,1,0,0:0:0:0:
192,192,108425,1,0,0:0:0:0:
448,192,108489,1,0,0:0:0:0:
192,192,108554,1,0,0:0:0:0:
64,192,108554,1,0,0:0:0:0:
448,192,108619,1,0,0:0:0:0:
192,192,108716,1,0,0:0:0:0:
320,192,108716,1,0,0:0:0:0:
448,192,108765,1,0,0:0:0:0:
64,192,108813,1,0,0:0:0:0:
192,192,108813,1,0,0:0:0:0:
192,192,109007,128,0,109202:0:0:0:0:
320,192,109202,128,0,109396:0:0:0:0:
64,192,109396,1,0,0:0:0:0:
192,192,109396,1,0,0:0:0:0:
64,192,109785,1,0,0:0:0:0:
320,192,109785,1,0,0:0:0:0:
448,192,109785,1,0,0:0:0:0:
320,192,109979,128,0,110076:0:0:0:0:
448,192,109979,128,0,110076:0:0:0:0:
192,192,110076,1,0,0:0:0:0:
64,192,110076,1,0,0:0:0:0:
64,192,110173,128,0,110270:0:0:0:0:
192,192,110173,128,0,110270:0:0:0:0:
448,192,110270,1,0,0:0:0:0:
320,192,110270,1,0,0:0:0:0:
64,192,110319,1,0,0:0:0:0:
320,192,110368,1,0,0:0:0:0:
448,192,110368,1,0,0:0:0:0:
192,192,110465,1,0,0:0:0:0:
192,192,110562,1,0,0:0:0:0:
320,192,110756,1,0,0:0:0:0:
320,192,110853,1,0,0:0:0:0:
64,192,110902,1,0,0:0:0:0:
192,192,110950,1,0,0:0:0:0:
64,192,111048,1,0,0:0:0:0:
320,192,111048,1,0,0:0:0:0:
448,192,111048,1,0,0:0:0:0:
64,192,111145,1,0,0:0:0:0:
320,192,111145,1,0,0:0:0:0:
192,192,111242,1,0,0:0:0:0:
320,192,111339,1,0,0:0:0:0:
192,192,111436,1,0,0:0:0:0:
448,192,111436,1,0,0:0:0:0:
320,192,111533,1,0,0:0:0:0:
192,192,111631,1,0,0:0:0:0:
192,192,111728,1,0,0:0:0:0:
64,192,111728,1,0,0:0:0:0:
320,192,111728,1,0,0:0:0:0:
448,192,111825,1,0,0:0:0:0:
320,192,111873,1,0,0:0:0:0:
64,192,111922,1,0,0:0:0:0:
192,192,111922,1,0,0:0:0:0:
448,192,111922,1,0,0:0:0:0:
320,192,112019,1,0,0:0:0:0:
192,192,112116,1,0,0:0:0:0:
64,192,112213,1,0,0:0:0:0:
320,192,112213,1,0,0:0:0:0:
448,192,112213,1,0,0:0:0:0:
192,192,112311,1,0,0:0:0:0:
64,192,112408,1,0,0:0:0:0:
320,192,112408,1,0,0:0:0:0:
448,192,112408,1,0,0:0:0:0:
64,192,112699,1,0,0:0:0:0:
320,192,112699,1,0,0:0:0:0:
448,192,112796,1,0,0:0:0:0:
64,192,112893,1,0,0:0:0:0:
192,192,112942,1,0,0:0:0:0:
320,192,112991,1,0,0:0:0:0:
448,192,113088,1,0,0:0:0:0:
320,192,113088,1,0,0:0:0:0:
192,192,113088,1,0,0:0:0:0:
448,192,113379,1,0,0:0:0:0:
320,192,113379,1,0,0:0:0:0:
64,192,113428,1,0,0:0:0:0:
192,192,113476,1,0,0:0:0:0:
320,192,113476,1,0,0:0:0:0:
64,192,113671,1,0,0:0:0:0:
320,192,113671,1,0,0:0:0:0:
448,192,113735,1,0,0:0:0:0:
192,192,113735,1,0,0:0:0:0:
64,192,113800,1,0,0:0:0:0:
320,192,113800,1,0,0:0:0:0:
192,192,113865,1,0,0:0:0:0:
448,192,113865,1,0,0:0:0:0:
64,192,113962,1,0,0:0:0:0:
320,192,113962,1,0,0:0:0:0:
448,192,114059,1,0,0:0:0:0:
64,192,114156,1,0,0:0:0:0:
320,192,114156,1,0,0:0:0:0:
192,192,114254,1,0,0:0:0:0:
448,192,114254,1,0,0:0:0:0:
64,192,114545,1,0,0:0:0:0:
192,192,114545,1,0,0:0:0:0:
320,192,114642,1,0,0:0:0:0:
448,192,114642,1,0,0:0:0:0:
64,192,114707,1,0,0:0:0:0:
192,192,114707,1,0,0:0:0:0:
320,192,114772,1,0,0:0:0:0:
448,192,114772,1,0,0:0:0:0:
64,192,114836,1,0,0:0:0:0:
192,192,114836,1,0,0:0:0:0:
448,192,114934,1,0,0:0:0:0:
320,192,114934,1,0,0:0:0:0:
64,192,114982,1,0,0:0:0:0:
192,192,114982,1,0,0:0:0:0:
320,192,115031,1,0,0:0:0:0:
448,192,115031,1,0,0:0:0:0:
448,192,115225,1,0,0:0:0:0:
320,192,115225,1,0,0:0:0:0:
192,192,115225,1,0,0:0:0:0:
64,192,115225,1,0,0:0:0:0:
192,192,115419,1,0,0:0:0:0:
320,192,115419,128,0,115808:0:0:0:0:
448,192,115419,1,0,0:0:0:0:
64,192,115808,128,0,116002:0:0:0:0:
192,192,115808,128,0,116002:0:0:0:0:
448,192,115808,128,0,116002:0:0:0:0:
64,192,116099,1,0,0:0:0:0:
192,192,116099,128,0,116294:0:0:0:0:
320,192,116099,128,0,116294:0:0:0:0:
448,192,116099,128,0,116294:0:0:0:0:
64,192,116294,1,0,0:0:0:0:
192,192,116391,1,0,0:0:0:0:
320,192,116391,1,0,0:0:0:0:
320,192,116488,1,0,0:0:0:0:
64,192,116585,1,0,0:0:0:0:
192,192,116585,128,0,116780:0:0:0:0:
320,192,116585,128,0,116780:0:0:0:0:
448,192,116585,128,0,116780:0:0:0:0:
448,192,116877,1,0,0:0:0:0:
64,192,116877,128,0,117071:0:0:0:0:
192,192,116877,128,0,117071:0:0:0:0:
320,192,116877,128,0,117071:0:0:0:0:
448,192,117071,1,0,0:0:0:0:
192,192,117168,1,0,0:0:0:0:
320,192,117265,1,0,0:0:0:0:
64,192,117362,1,0,0:0:0:0:
192,192,117362,1,0,0:0:0:0:
448,192,117362,1,0,0:0:0:0:
192,192,117654,1,0,0:0:0:0:
320,192,117654,1,0,0:0:0:0:
64,192,117751,1,0,0:0:0:0:
192,192,117751,1,0,0:0:0:0:
320,192,117751,1,0,0:0:0:0:
448,192,117751,1,0,0:0:0:0:
448,192,117945,128,0,121248:0:0:0:0:
320,192,117945,128,0,121248:0:0:0:0:
192,192,117945,128,0,121248:0:0:0:0:
64,192,117945,128,0,121248:0:0:0:0:
