osu file format v14

[General]
AudioFilename: audio.mp3
AudioLeadIn: 0
PreviewTime: -1
Countdown: 1
SampleSet: Normal
StackLeniency: 0.7
Mode: 0
LetterboxInBreaks: 0
WidescreenStoryboard: 1

[Editor]
DistanceSpacing: 1.4
BeatDivisor: 8
GridSize: 32
TimelineZoom: 5.299997

[Metadata]
Title:Tornado
TitleUnicode:Tornado
Artist:Camellia
ArtistUnicode:Camellia
Creator:Usukes
Version:1st map
Source:
Tags:
BeatmapID:1578335
BeatmapSetID:748582

[Difficulty]
HPDrainRate:5.7
CircleSize:4.2
OverallDifficulty:8.8
ApproachRate:9.1
SliderMultiplier:1
SliderTickRate:2

[Events]
//Background and Video events
0,0,"beznazwy.png",0,0
//Break Periods
//Storyboard Layer 0 (Background)
//Storyboard Layer 1 (Fail)
//Storyboard Layer 2 (Pass)
//Storyboard Layer 3 (Foreground)
//Storyboard Sound Samples

[TimingPoints]
0,342.857142857143,4,1,0,100,1,0
0,-66.6666666666667,4,1,0,100,0,0
4800,-50,4,1,0,100,0,0
4900,-66.6666666666667,4,1,0,100,0,0
9600,-50,4,1,0,100,0,0
11400,-33.3333333333333,4,1,0,100,0,0
11657,-25,4,1,0,100,0,0
15385,-50,4,1,0,100,0,0
16200,-66.6666666666667,4,1,0,100,0,0
16300,-25.6410256410256,4,1,0,100,0,0
16628,-66.6666666666667,4,1,0,100,0,0
17914,-33.3333333333333,4,1,0,100,0,0
19371,-50,4,1,0,100,0,0
20742,-44.4444444444445,4,1,0,100,0,0
22114,-100,4,1,0,100,0,0
31500,-33.3333333333333,4,1,0,100,0,0
33728,-66.6666666666667,4,1,0,100,0,0
41142,-40,4,1,0,100,0,0
42685,-66.6666666666667,4,1,0,100,0,0
43500,-40,4,1,0,100,0,0
55071,-50,4,1,0,100,0,0
60857,-33.3333333333333,4,1,0,100,0,0
64628,-83.3333333333333,4,1,0,100,0,0
66085,-25,4,1,0,100,0,0
71142,-40,4,1,0,100,0,0
74228,-25,4,1,0,100,0,0
79714,-33.3333333333333,4,1,0,100,0,0
81857,-28.5714285714286,4,1,0,100,0,0
83485,-50,4,1,0,100,0,0
84942,-28.5714285714286,4,1,0,100,0,0
86571,-50,4,1,0,100,0,0
86914,-28.5714285714286,4,1,0,100,0,0
93342,-25,4,1,0,100,0,0
97457,-100,4,1,0,100,0,0
97628,-133.333333333333,4,1,0,100,0,0
98914,-25,4,1,0,100,0,0
103842,-66.6666666666667,4,1,0,100,0,0
105042,-40,4,1,0,100,0,0
107142,-25,4,1,0,100,0,0

[HitObjects]
384,160,171,6,0,B|350:188|255:233|258:189,1,150.000005722046
190,209,857,2,0,P|96:217|46:175,1,150.000005722046
384,160,1542,2,0,B|407:96|226:168|331:189,1,150.000005722046
206,104,2228,2,0,B|205:140|184:164|146:156|123:106|77:142,1,150.000005722046
512,160,2914,6,0,B|484:140|473:217|388:191|402:135,1,150.000005722046
252,145,3599,2,0,P|268:191|193:181,1,150.000005722046
134,225,4285,2,0,B|201:159|90:80|145:89,1,150.000005722046
352,64,4971,6,0,L|323:122,1,56.2500021457673,0|0,0:0|0:0,0:0:0:0:
320,128,5142,2,0,L|288:189,1,56.2500021457673,0|0,0:0|0:0,0:0:0:0:
288,192,5314,2,0,L|317:255,1,56.2500021457673,0|0,0:0|0:0,0:0:0:0:
323,265,5485,2,0,L|351:328,1,56.2500021457673,0|0,0:0|0:0,0:0:0:0:
128,224,5657,6,0,B|172:154|233:196|264:193,1,150.000005722046
284,115,6342,2,0,P|305:213|333:206,1,150.000005722046
128,224,7028,2,0,L|288:288,1,150.000005722046,0|0,0:0|0:0,0:0:0:0:
230,161,7714,2,0,B|281:160|330:107|373:104,1,150.000005722046
43,221,8400,6,0,B|54:288|107:172|161:295|171:221,1,150.000005722046
115,133,9085,2,0,B|181:180|193:133|274:91|208:140,1,150.000005722046
352,64,9771,2,0,L|288:160,1,100,0|0,0:0|0:0,0:0:0:0:
384,96,10028,2,0,L|320:192,1,100,0|0,0:0|0:0,0:0:0:0:
416,128,10285,2,0,L|352:224,1,100,0|0,0:0|0:0,0:0:0:0:
441,224,10628,2,0,L|394:264,1,50,0|0,0:0|0:0,0:0:0:0:
342,285,10800,5,0,0:0:0:0:
260,319,10886,1,0,0:0:0:0:
192,334,10971,1,0,0:0:0:0:
137,333,11057,1,0,0:0:0:0:
91,45,11142,6,0,P|136:88|176:128,1,100,0|0,0:0|0:0,0:0:0:0:
162,114,11400,1,0,0:0:0:0:
64,256,11485,6,0,P|96:320|192:352,1,150,0|0,0:0|0:0,0:0:0:0:
216,358,11828,6,0,P|278:323|304:212,1,150,0|0,0:0|0:0,0:0:0:0:
384,256,12000,2,0,P|416:192|480:192,1,100
288,320,12171,2,0,B|224:192|224:192|128:192,1,200
320,160,12428,5,0,0:0:0:0:
288,128,12514,1,0,0:0:0:0:
256,96,12600,1,0,0:0:0:0:
225,55,12685,1,0,0:0:0:0:
256,64,12857,6,0,B|160:160|96:96|96:96|96:64,1,200
128,192,13114,2,0,P|160:192|192:160,1,50
64,192,13200,2,0,B|96:288|96:288|224:320|160:256|160:256,1,200
192,256,13457,1,0,0:0:0:0:
224,224,13542,6,0,B|246:122|246:122|320:128|256:32,1,200
288,64,13800,1,0,0:0:0:0:
352,96,13885,1,0,0:0:0:0:
384,160,13971,1,0,0:0:0:0:
391,206,14057,5,0,0:0:0:0:
436,227,14142,1,0,0:0:0:0:
448,288,14228,6,0,P|448:128|352:96,1,200
416,96,14485,1,0,0:0:0:0:
416,96,14571,1,0,0:0:0:0:
416,96,14657,1,0,0:0:0:0:
416,96,14742,1,0,0:0:0:0:
320,224,14914,6,0,L|256:128,1,100,0|0,0:0|0:0,0:0:0:0:
96,96,15085,2,0,L|160:192,1,100,0|0,0:0|0:0,0:0:0:0:
352,128,15257,2,0,L|288:32,1,100,0|0,0:0|0:0,0:0:0:0:
193,44,15428,6,0,L|192:96,1,50,0|0,0:0|0:0,0:0:0:0:
192,128,15599,2,0,L|224:192,1,50,0|0,0:0|0:0,0:0:0:0:
224,192,15771,2,0,L|192:256,1,50,0|0,0:0|0:0,0:0:0:0:
192,256,15942,2,0,L|256:320,1,50,0|0,0:0|0:0,0:0:0:0:
256,288,16200,6,0,L|352:288,1,75.0000028610231,0|0,0:0|0:0,0:0:0:0:
256,288,16457,2,0,L|384:288,1,97.500000371933,0|0,0:0|0:0,0:0:0:0:
512,241,16628,5,0,0:0:0:0:
485,215,16713,1,0,0:0:0:0:
456,191,16799,1,0,0:0:0:0:
425,170,16885,1,0,0:0:0:0:
393,153,16970,5,0,0:0:0:0:
359,138,17056,1,0,0:0:0:0:
323,127,17142,1,0,0:0:0:0:
287,120,17228,1,0,0:0:0:0:
250,118,17313,5,0,0:0:0:0:
213,121,17399,1,0,0:0:0:0:
176,128,17485,1,0,0:0:0:0:
141,140,17570,1,0,0:0:0:0:
108,157,17656,5,0,0:0:0:0:
77,177,17742,1,0,0:0:0:0:
48,200,17828,1,0,0:0:0:0:
21,226,17913,1,0,0:0:0:0:
192,32,18000,6,0,P|158:104|176:134,1,75.0000028610231,0|0,0:0|0:0,0:0:0:0:
288,32,18171,6,0,P|322:104|304:134,1,75.0000028610231,0|0,0:0|0:0,0:0:0:0:
128,64,18343,2,0,P|128:128|160:160,1,75.0000028610231,0|0,0:0|0:0,0:0:0:0:
352,64,18514,2,0,P|352:128|320:160,1,75.0000028610231,0|0,0:0|0:0,0:0:0:0:
64,96,18686,2,0,P|64:160|128:192,1,75.0000028610231,0|0,0:0|0:0,0:0:0:0:
416,96,18857,2,0,P|416:160|352:192,1,75.0000028610231,0|0,0:0|0:0,0:0:0:0:
32,160,19028,2,0,P|64:224|128:224,1,75.0000028610231,0|0,0:0|0:0,0:0:0:0:
416,160,19200,2,0,P|384:224|320:224,1,75.0000028610231,0|0,0:0|0:0,0:0:0:0:
352,64,19371,6,0,L|384:127,1,50,0|0,0:0|0:0,0:0:0:0:
374,108,19542,2,0,L|352:159,1,50,0|0,0:0|0:0,0:0:0:0:
354,154,19714,2,0,L|290:186,1,50
309,176,19885,2,0,L|290:250,1,50
296,224,20057,2,0,L|322:282,1,50
316,269,20228,6,0,L|353:216,1,50
344,228,20400,2,0,L|398:197,1,50
387,203,20571,2,0,P|407:192|439:192,1,50
142,78,20742,2,0,L|143:126,30,28.1250010728836
112,61,22114,6,0,B|178:85|181:150|181:150|211:222|280:240|363:201|442:67|271:15|197:70|197:70|-81:19|119:255|119:255|131:301|131:301|167:309|206:313|242:316|242:316|275:309|284:278|284:278|365:289|365:289|369:288|423:292|423:292|460:185|460:185|460:153,1,1400
64,64,27600,5,0,0:0:0:0:
160,32,27942,1,0,0:0:0:0:
256,32,28285,1,0,0:0:0:0:
352,32,28542,1,0,0:0:0:0:
416,96,28800,5,0,0:0:0:0:
416,96,28885,1,0,0:0:0:0:
416,96,28971,1,0,0:0:0:0:
416,192,29142,5,0,0:0:0:0:
384,288,29314,1,0,0:0:0:0:
160,192,29657,6,0,P|192:224|192:256,1,75,0|0,0:0|0:0,0:0:0:0:
384,160,30171,1,0,0:0:0:0:
384,160,30257,1,0,0:0:0:0:
384,160,30342,2,0,P|352:128|384:96,1,100,0|0,0:0|0:0,0:0:0:0:
160,128,31028,5,0,0:0:0:0:
256,96,31285,1,0,0:0:0:0:
352,64,31542,1,0,0:0:0:0:
352,64,31628,1,0,0:0:0:0:
352,64,31714,6,0,B|352:128|448:160|352:288,1,225.000008583069
352,64,32228,5,0,0:0:0:0:
352,64,32314,1,0,0:0:0:0:
352,64,32400,6,0,B|275:71|245:162|245:162|306:241,1,225.000008583069
256,224,32914,1,0,0:0:0:0:
256,224,33000,2,0,L|192:160,1,75.0000028610231,0|0,0:0|0:0,0:0:0:0:
320,192,33428,5,0,0:0:0:0:
192,192,33771,2,0,B|192:160|192:128|96:160,1,112.500004291535
128,128,34285,5,0,0:0:0:0:
128,128,34371,1,0,0:0:0:0:
128,128,34457,1,0,0:0:0:0:
128,128,34628,2,0,L|192:192,1,75.0000028610231
224,128,35142,5,0,0:0:0:0:
288,192,35400,1,0,0:0:0:0:
352,256,35657,5,0,0:0:0:0:
352,256,35742,1,0,0:0:0:0:
352,256,35828,1,0,0:0:0:0:
288,288,36171,1,0,0:0:0:0:
224,288,36514,5,0,0:0:0:0:
169,261,36771,1,0,0:0:0:0:
128,224,37028,1,0,0:0:0:0:
128,224,37114,1,0,0:0:0:0:
128,224,37200,1,0,0:0:0:0:
128,224,37457,5,0,0:0:0:0:
128,224,37714,1,0,0:0:0:0:
128,224,37885,1,0,0:0:0:0:
96,160,38142,2,0,L|128:160,1,18.7500007152558
160,160,38228,5,0,0:0:0:0:
96,96,38571,1,0,0:0:0:0:
64,160,38914,1,0,0:0:0:0:
96,224,39257,1,0,0:0:0:0:
160,256,39514,5,0,0:0:0:0:
224,288,39771,1,0,0:0:0:0:
256,256,39857,1,0,0:0:0:0:
288,224,39942,1,0,0:0:0:0:
160,256,40114,5,0,0:0:0:0:
96,192,40285,1,0,0:0:0:0:
96,96,40628,1,0,0:0:0:0:
192,64,40885,1,0,0:0:0:0:
75,91,41142,6,0,P|115:97|146:126,1,62.5
235,195,41314,2,0,P|194:201|156:183,1,62.5
402,169,41485,2,0,P|366:190|324:188,1,62.5
277,107,41657,2,0,P|313:86|355:89,1,62.5
103,307,41828,6,0,P|143:313|174:342,1,62.5
285,276,42000,2,0,P|244:282|206:264,1,62.5
309,176,42171,2,0,P|273:197|231:195,1,62.5
121,225,42343,2,0,P|157:204|199:207,1,62.5
85,104,42514,2,0,L|53:168,1,56.2500021457673
64,256,42685,6,0,B|224:256|224:256|256:192|256:192|288:256|320:224|320:224|288:256|288:256,1,356.25001358986
288,256,43542,2,0,L|320:192,1,62.5
256,192,43714,2,0,L|224:256,1,62.5
320,192,44057,5,0,0:0:0:0:
352,128,44400,1,0,0:0:0:0:
288,128,44742,1,0,0:0:0:0:
384,192,45000,1,0,0:0:0:0:
320,192,45257,5,0,0:0:0:0:
320,192,45342,1,0,0:0:0:0:
320,192,45428,1,0,0:0:0:0:
320,192,45600,1,0,0:0:0:0:
256,192,45771,5,0,0:0:0:0:
320,192,46114,1,0,0:0:0:0:
256,192,46371,1,0,0:0:0:0:
320,192,46628,5,0,0:0:0:0:
320,192,46714,1,0,0:0:0:0:
256,192,46800,1,0,0:0:0:0:
384,192,47142,1,0,0:0:0:0:
192,192,47485,5,0,0:0:0:0:
128,192,47742,1,0,0:0:0:0:
224,160,48000,5,0,0:0:0:0:
256,128,48086,1,0,0:0:0:0:
288,96,48172,1,0,0:0:0:0:
224,160,48428,1,0,0:0:0:0:
256,128,48685,5,0,0:0:0:0:
352,96,48857,1,0,0:0:0:0:
160,160,49114,1,0,0:0:0:0:
384,64,49542,1,0,0:0:0:0:
96,64,49885,5,0,0:0:0:0:
384,320,50228,1,0,0:0:0:0:
160,256,50485,1,0,0:0:0:0:
160,64,50742,5,0,0:0:0:0:
255,91,50828,1,0,0:0:0:0:
350,101,50914,1,0,0:0:0:0:
334,63,51085,1,0,0:0:0:0:
236,52,51257,5,0,0:0:0:0:
416,64,51600,1,0,0:0:0:0:
96,64,51857,1,0,0:0:0:0:
256,224,52114,5,0,0:0:0:0:
256,224,52200,1,0,0:0:0:0:
256,224,52285,1,0,0:0:0:0:
224,96,52628,2,0,B|128:96|128:96|128:224|128:224|160:192,1,250
416,64,53271,5,0,0:0:0:0:
160,192,53485,5,0,0:0:0:0:
128,192,53571,1,0,0:0:0:0:
96,192,53657,1,0,0:0:0:0:
416,320,53914,1,0,0:0:0:0:
160,192,54171,5,0,0:0:0:0:
128,192,54257,1,0,0:0:0:0:
96,192,54342,1,0,0:0:0:0:
416,64,54600,1,0,0:0:0:0:
96,192,54857,5,0,0:0:0:0:
128,192,54942,1,0,0:0:0:0:
448,320,55071,2,0,P|448:256|352:282,1,175
64,320,55714,2,0,B|128:320|128:320|128:224|224:224|224:224,1,200
448,64,56400,6,0,P|412:162|320:160,1,200
64,64,57085,2,0,P|64:160|128:128,1,200
288,288,57771,2,0,B|336:235|336:235|270:116,1,200
128,64,58457,6,0,B|92:57|92:57|64:128|128:224,1,200
416,64,59142,2,0,P|448:128|448:160,2,100
96,320,59828,2,0,P|64:256|64:224,2,100
416,64,60514,5,0,0:0:0:0:
64,320,60857,1,0,0:0:0:0:
416,320,61200,1,0,0:0:0:0:
292,252,61542,1,0,0:0:0:0:
147,16,61885,6,0,B|171:53|79:109|56:207|231:237,1,300.000011444092
400,50,62570,6,0,B|277:89|401:162|375:231|253:252|369:305,1,300.000011444092
128,32,63256,2,0,P|160:126|80:312,1,300.000011444092
352,58,63942,2,0,B|375:34|329:46|283:158|386:204|472:246|508:198|444:309,1,300.000011444092
128,96,64457,1,0,0:0:0:0:
128,96,64542,1,0,0:0:0:0:
128,96,64628,2,0,B|192:96|177:109|177:109|193:113|193:113|187:122|187:122|205:122|205:122|195:136|195:136|216:129|216:129|224:224,1,239.999992675781
128,96,66000,5,0,0:0:0:0:
128,96,66085,1,0,0:0:0:0:
128,96,66171,2,0,P|192:128|128:224,1,200
384,256,66514,5,0,0:0:0:0:
384,256,66600,1,0,0:0:0:0:
384,256,66686,2,0,B|320:288|320:288|448:352,1,200
224,128,67028,5,0,0:0:0:0:
224,128,67114,1,0,0:0:0:0:
224,128,67200,2,0,P|192:64|64:64,1,200
416,160,67542,5,0,0:0:0:0:
416,160,67628,1,0,0:0:0:0:
416,160,67714,2,0,B|320:128|320:128|448:192|448:192,1,200
145,239,68057,5,0,0:0:0:0:
147,223,68142,1,0,0:0:0:0:
151,206,68228,2,0,P|151:110|247:78,1,200
437,248,68571,5,0,0:0:0:0:
409,221,68656,1,0,0:0:0:0:
440,216,68742,2,0,B|440:312|440:312|328:345,1,200
193,48,69085,5,0,0:0:0:0:
193,48,69171,1,0,0:0:0:0:
193,48,69257,2,0,B|76:46|76:46|74:150,1,200
319,336,69600,5,0,0:0:0:0:
291,344,69686,1,0,0:0:0:0:
319,336,69772,2,0,B|403:313|488:291|358:215,1,200
127,108,70114,5,0,0:0:0:0:
115,81,70200,1,0,0:0:0:0:
100,51,70285,2,0,P|111:155|156:105,1,200
254,199,70628,5,0,0:0:0:0:
254,199,70714,1,0,0:0:0:0:
254,199,70800,2,0,B|198:265|198:265|210:299|210:299|257:284|257:284|274:309|270:322|270:322|267:337,1,200
269,310,71057,5,0,0:0:0:0:
269,310,71143,1,0,0:0:0:0:
269,310,71228,2,0,L|253:193,1,93.75
117,102,71485,5,0,0:0:0:0:
163,76,71657,1,0,0:0:0:0:
215,56,71828,1,0,0:0:0:0:
268,48,72000,1,0,0:0:0:0:
326,49,72171,5,0,0:0:0:0:
374,65,72342,1,0,0:0:0:0:
413,91,72514,1,0,0:0:0:0:
446,125,72685,1,0,0:0:0:0:
466,169,72857,5,0,0:0:0:0:
474,214,73028,1,0,0:0:0:0:
475,254,73200,1,0,0:0:0:0:
458,305,73371,1,0,0:0:0:0:
408,326,73542,5,0,0:0:0:0:
357,320,73714,1,0,0:0:0:0:
304,319,73885,1,0,0:0:0:0:
254,311,74057,1,0,0:0:0:0:
242,310,74228,6,0,L|274:374,1,50
266,295,74314,2,0,L|299:342,1,50
282,276,74400,2,0,L|322:310,1,50
291,254,74485,2,0,L|351:289,1,50
299,229,74571,6,0,L|348:250,1,50
303,207,74657,2,0,L|358:213,1,50
303,180,74742,2,0,L|358:174,1,50
299,158,74828,2,0,L|348:137,1,50
291,133,74914,6,0,L|351:98,1,50
282,111,75000,2,0,L|322:77,1,50
266,92,75085,2,0,L|299:45,1,50
242,77,75171,2,0,L|274:13,1,50
215,72,75257,6,0,L|227:16,1,50
190,72,75342,2,0,L|188:19,1,50
168,81,75428,2,0,L|153:12,1,50
148,104,75514,2,0,L|120:53,1,50
122,132,75600,2,0,L|84:82,1,50
253,236,76971,5,0,0:0:0:0:
253,192,77056,1,0,0:0:0:0:
248,145,77142,1,0,0:0:0:0:
241,102,77228,1,0,0:0:0:0:
301,95,77314,5,0,0:0:0:0:
301,139,77399,1,0,0:0:0:0:
306,186,77485,1,0,0:0:0:0:
315,229,77571,5,0,0:0:0:0:
336,276,77657,1,0,0:0:0:0:
374,311,77742,1,0,0:0:0:0:
423,319,77828,1,0,0:0:0:0:
445,261,77914,1,0,0:0:0:0:
391,234,78000,1,0,0:0:0:0:
374,162,78085,5,0,0:0:0:0:
357,115,78171,1,0,0:0:0:0:
298,117,78257,1,0,0:0:0:0:
255,87,78342,1,0,0:0:0:0:
216,119,78428,5,0,0:0:0:0:
172,93,78514,1,0,0:0:0:0:
144,148,78600,1,0,0:0:0:0:
93,91,78685,1,0,0:0:0:0:
40,165,78771,6,0,P|112:193|134:157,1,100
189,246,78942,2,0,B|265:227|265:227|287:263,1,100
421,217,79114,2,0,B|378:215|382:177|363:175|363:175|323:234,1,100
369,42,79285,2,0,B|328:30|328:30|329:79|297:115|274:80,1,100
300,84,79457,5,0,0:0:0:0:
300,84,79542,1,0,0:0:0:0:
159,146,79628,2,0,P|83:165|61:129,1,100
204,240,79800,2,0,P|208:263|274:271,2,75.0000028610231
283,235,80057,5,0,0:0:0:0:
263,196,80142,1,0,0:0:0:0:
303,178,80228,1,0,0:0:0:0:
267,140,80314,1,0,0:0:0:0:
305,112,80400,5,0,0:0:0:0:
267,71,80485,1,0,0:0:0:0:
203,44,80571,1,0,0:0:0:0:
145,90,80657,1,0,0:0:0:0:
160,165,80742,5,0,0:0:0:0:
103,220,80828,1,0,0:0:0:0:
51,277,80914,2,0,L|143:311,1,75.0000028610231
171,260,81085,2,0,L|260:293,1,75.0000028610231
284,235,81257,6,0,L|374:273,1,75.0000028610231
353,264,81428,2,0,L|270:229,1,75.0000028610231
235,293,81600,2,0,L|153:264,1,75.0000028610231
106,332,81771,1,0,0:0:0:0:
175,224,81857,6,0,B|177:142|225:120|270:143|266:237,1,175.00000166893
266,223,82114,1,0,0:0:0:0:
175,224,82200,2,0,B|175:163|175:163|223:141|223:141|268:164|268:164|267:213,1,175.00000166893
224,160,82714,5,0,0:0:0:0:
224,224,82800,1,0,0:0:0:0:
288,192,82885,1,0,0:0:0:0:
288,128,82971,1,0,0:0:0:0:
224,96,83057,5,0,0:0:0:0:
160,128,83143,1,0,0:0:0:0:
160,192,83228,1,0,0:0:0:0:
224,224,83314,1,0,0:0:0:0:
224,160,83400,5,0,0:0:0:0:
288,96,83485,2,0,L|224:96,1,50
160,160,83657,2,0,L|224:192,1,50
224,160,83828,1,0,0:0:0:0:
224,256,83914,5,0,0:0:0:0:
320,224,84000,1,0,0:0:0:0:
320,128,84085,1,0,0:0:0:0:
224,64,84171,1,0,0:0:0:0:
128,128,84257,5,0,0:0:0:0:
128,224,84342,1,0,0:0:0:0:
224,256,84428,1,0,0:0:0:0:
224,160,84514,1,0,0:0:0:0:
160,192,84600,6,0,L|224:192,1,50
288,128,84772,2,0,L|224:96,1,50
64,224,84942,2,0,L|128:288,1,87.500000834465
96,224,85114,2,0,L|160:288,1,87.500000834465
128,224,85285,6,0,L|192:288,1,87.500000834465
160,224,85457,2,0,L|224:288,1,87.500000834465
352,256,85628,2,0,L|288:192,1,87.500000834465
352,224,85800,2,0,L|288:160,1,87.500000834465
352,192,85971,6,0,L|288:128,1,87.500000834465
352,160,86142,2,0,L|288:96,1,87.500000834465
320,192,86314,2,0,L|256:256,1,87.500000834465
192,224,86485,1,0,0:0:0:0:
128,224,86571,6,0,B|128:160|128:160|160:128|160:128|192:160|192:160|192:224,1,200
128,224,87600,5,0,0:0:0:0:
160,256,87685,1,0,0:0:0:0:
192,288,87771,1,0,0:0:0:0:
224,320,87857,1,0,0:0:0:0:
288,224,87942,6,0,B|416:128|375:53|384:96,2,175.00000166893
160,224,88457,1,0,0:0:0:0:
160,64,88628,6,0,B|32:160|72:234|64:192,2,175.00000166893
256,64,89142,1,0,0:0:0:0:
256,320,89314,5,0,0:0:0:0:
256,192,89485,1,0,0:0:0:0:
256,64,89657,1,0,0:0:0:0:
64,192,89828,2,0,B|64:96|160:96|160:32,1,175.00000166893
256,64,90171,5,0,0:0:0:0:
256,192,90342,1,0,0:0:0:0:
256,320,90514,1,0,0:0:0:0:
448,192,90685,6,0,B|448:288|352:288|352:352,2,175.00000166893
64,192,91200,2,0,B|64:288|160:288|160:352,2,175.00000166893
64,64,91714,5,0,0:0:0:0:
256,320,91885,1,0,0:0:0:0:
448,64,92057,1,0,0:0:0:0:
256,192,92142,1,0,0:0:0:0:
224,160,92228,5,0,0:0:0:0:
192,128,92314,1,0,0:0:0:0:
160,96,92400,1,0,0:0:0:0:
128,128,92485,1,0,0:0:0:0:
160,160,92571,5,0,0:0:0:0:
192,192,92657,1,0,0:0:0:0:
224,224,92742,1,0,0:0:0:0:
192,256,92828,1,0,0:0:0:0:
160,224,92914,5,0,0:0:0:0:
128,192,93000,1,0,0:0:0:0:
96,160,93085,1,0,0:0:0:0:
64,96,93428,6,0,B|128:32|128:32|160:96|160:96|224:128,1,200
193,112,93685,1,0,0:0:0:0:
416,320,93771,2,0,B|448:256|448:256|328:233|416:224|416:224|448:192,1,200
96,160,94028,1,0,0:0:0:0:
96,160,94114,6,0,B|32:224|32:224|32:256|110:222|110:222|128:256|128:256,1,200
352,160,94371,2,0,B|320:128|320:128|384:160|416:96|416:96|448:160|448:160,1,200
384,128,94628,1,0,0:0:0:0:
384,128,94714,1,0,0:0:0:0:
128,256,94800,6,0,B|64:320|64:320|129:354|129:354|128:320,1,200
224,192,95057,1,0,0:0:0:0:
224,64,95142,2,0,B|266:84|320:32|320:32|368:30|368:30|422:80,1,200
412,73,95400,1,0,0:0:0:0:
425,99,95485,1,0,0:0:0:0:
361,122,95571,6,0,B|322:178|370:209|370:209|326:264|326:264|370:315,1,200
346,291,95828,2,0,B|268:226|234:278|268:287|266:304|143:304,1,200
357,253,96085,1,0,0:0:0:0:
328,202,96171,2,0,P|290:132|201:183,1,200
96,128,96514,5,0,0:0:0:0:
128,96,96600,1,0,0:0:0:0:
160,64,96686,1,0,0:0:0:0:
224,32,96771,1,0,0:0:0:0:
320,32,96857,5,0,0:0:0:0:
416,64,96943,1,0,0:0:0:0:
448,160,97028,2,0,L|416:224,1,50
224,160,97200,6,0,L|256:96,2,50
256,128,97372,2,0,L|288:128,1,25
320,128,97543,2,0,B|352:128|352:160|352:160|372:168|372:168|363:183|363:183|341:171|341:171|352:224|384:256|456:149|456:149,1,281.250010728837
111,87,98914,5,0,0:0:0:0:
141,137,99000,1,0,0:0:0:0:
187,182,99085,1,0,0:0:0:0:
226,220,99171,2,0,P|294:258|346:248,1,100
109,222,99342,5,0,0:0:0:0:
116,247,99428,1,0,0:0:0:0:
121,273,99514,1,0,0:0:0:0:
123,288,99600,2,0,P|72:311|28:297,2,100
369,76,99857,5,0,0:0:0:0:
376,111,99942,2,0,L|319:113,1,50
385,155,100028,2,0,L|453:153,1,50
386,206,100114,2,0,L|336:206,1,50
377,268,100242,5,0,0:0:0:0:
361,239,100328,1,0,0:0:0:0:
325,203,100413,1,0,0:0:0:0:
286,164,100499,2,0,B|237:191|237:191|230:140|169:185,1,100
123,288,100670,5,0,0:0:0:0:
123,288,100756,1,0,0:0:0:0:
123,288,100842,1,0,0:0:0:0:
123,288,100928,2,0,B|83:283|83:283|72:311|72:311|95:338|71:353,1,100
234,102,101100,5,0,0:0:0:0:
264,138,101185,2,0,L|305:88,1,50
297,160,101271,2,0,L|241:167,1,50
325,181,101357,2,0,L|325:122,1,50
85,128,101485,5,0,0:0:0:0:
125,148,101571,1,0,0:0:0:0:
134,122,101657,1,0,0:0:0:0:
134,122,101742,2,0,B|181:104|134:49|134:49|178:23,1,100
398,180,101914,5,0,0:0:0:0:
418,207,102000,1,0,0:0:0:0:
405,240,102085,1,0,0:0:0:0:
405,240,102171,2,0,B|369:289|404:301|404:301|368:332|414:336|381:364,1,100
78,298,102342,5,0,0:0:0:0:
169,162,102428,2,0,L|222:196,1,50
139,197,102514,2,0,L|191:235,1,50
109,229,102600,2,0,L|161:280,1,50
55,173,102728,5,0,0:0:0:0:
86,213,102814,1,0,0:0:0:0:
125,253,102900,1,0,0:0:0:0:
156,289,102985,2,0,P|87:289|72:231,1,100
425,149,103157,5,0,0:0:0:0:
431,169,103242,1,0,0:0:0:0:
437,189,103328,1,0,0:0:0:0:
444,213,103414,2,0,B|454:278|412:266|462:314|459:317,1,100
108,160,103585,6,0,P|96:77|133:67,2,100
182,242,103842,2,0,B|232:220|232:220|259:176|259:176|249:193,1,112.500004291535
76,221,104400,1,0,0:0:0:0:
104,275,104571,1,0,0:0:0:0:
160,316,104742,5,0,0:0:0:0:
219,345,104914,1,0,0:0:0:0:
280,334,105085,2,0,L|286:270,2,62.5
336,309,105428,1,0,0:0:0:0:
378,254,105600,5,0,0:0:0:0:
378,193,105771,1,0,0:0:0:0:
329,142,105942,2,0,P|354:122|374:96,2,62.5
261,115,106285,1,0,0:0:0:0:
219,172,106457,5,0,0:0:0:0:
242,241,106628,1,0,0:0:0:0:
270,311,106800,2,0,B|218:299|233:327|208:329,2,62.5
352,320,107142,6,0,L|415:304,2,50
332,294,107271,2,0,L|391:278,2,50
312,269,107400,2,0,L|382:254,2,50
292,244,107528,2,0,L|261:308,2,50
273,219,107657,6,0,L|242:283,2,50
253,193,107785,2,0,L|222:257,2,50
233,168,107914,2,0,L|303:153,2,50
214,143,108043,2,0,L|284:128,2,50
194,118,108172,6,0,L|264:103,2,50
174,93,108300,2,0,L|143:157,2,50
154,67,108428,2,0,L|123:131,2,50
