osu file format v14

[General]
AudioFilename: audio.mp3
AudioLeadIn: 0
PreviewTime: 276037
Countdown: 0
SampleSet: Soft
StackLeniency: 0.5
Mode: 0
LetterboxInBreaks: 0
WidescreenStoryboard: 0

[Editor]
Bookmarks: 974,33754,52486,72388,114534,144973,182437,191803,210534,229266,247998,266730,276095,294827,313559,327608,336973,341656,346339,351022,369754,388486,397867
DistanceSpacing: 0.8
BeatDivisor: 3
GridSize: 32
TimelineZoom: 3.259999

[Metadata]
Title:Tojita Sekai
TitleUnicode:Tojita Sekai
Artist:Camellia
ArtistUnicode:かめりあ
Creator:Mir
Version:Caged Reality
Source:
Tags:closed world edm cametek heart of android comiket c95 tortilla sekai
BeatmapID:2112385
BeatmapSetID:1009031

[Difficulty]
HPDrainRate:4
CircleSize:4
OverallDifficulty:9.2
ApproachRate:9.6
SliderMultiplier:2
SliderTickRate:1

[Events]
//Background and Video events
0,0,"landing.jpg",0,0
//Break Periods
2,229481,244870
//Storyboard Layer 0 (Background)
//Storyboard Layer 1 (Fail)
//Storyboard Layer 2 (Pass)
//Storyboard Layer 3 (Foreground)
//Storyboard Layer 4 (Overlay)
//Storyboard Sound Samples

[TimingPoints]
989,292.682926829268,4,2,1,40,1,0
989,-200,4,2,1,40,0,0
33769,-133.333333333333,4,2,3,60,0,0
52501,-133.333333333333,4,2,3,50,0,0
71818,-133.333333333333,4,2,3,60,0,0
72403,-133.333333333333,4,2,3,70,0,0
121574,-133.333333333333,4,2,1,80,0,0
123330,-100,4,2,1,80,0,0
123915,-66.6666666666667,4,2,1,80,0,0
128013,-1000,4,2,1,80,0,0
128598,-66.6666666666667,4,2,1,80,0,0
133135,-33.3333333333333,4,2,1,80,0,0
133281,-66.6666666666667,4,2,1,80,0,0
137379,-1000,4,2,1,80,0,0
137964,-66.6666666666667,4,2,1,80,0,0
144988,-50,4,2,1,80,0,0
145281,-33.3333333333333,4,2,1,80,0,0
145574,-66.6666666666667,4,2,1,80,0,0
145867,-66.6666666666667,4,2,1,100,0,1
149086,-50,4,2,1,100,0,1
149964,-100,4,2,1,100,0,1
150549,-66.6666666666667,4,2,1,100,0,1
151720,-50,4,2,1,100,0,1
154354,-50,4,2,1,100,0,0
154647,-66.6666666666667,4,2,1,100,0,0
155232,-66.6666666666667,4,2,1,100,0,1
159037,-50,4,2,1,100,0,1
159330,-66.6666666666667,4,2,1,100,0,1
159623,-133.333333333333,4,2,1,100,0,1
159915,-66.6666666666667,4,2,1,100,0,1
161379,-133.333333333333,4,2,1,80,0,0
162549,-66.6666666666667,4,2,1,100,0,0
162696,-71.4285714285714,4,2,1,100,0,0
162842,-76.9230769230769,4,2,1,100,0,0
162988,-83.3333333333333,4,2,1,100,0,0
163135,-90.9090909090909,4,2,1,100,0,0
163281,-100,4,2,1,100,0,0
163428,-1000,4,2,1,100,0,0
163720,-50,4,2,1,100,0,0
164013,-33.3333333333333,4,2,1,100,0,0
164306,-100,4,2,1,100,0,0
164598,-66.6666666666667,4,2,1,100,0,1
165476,-133.333333333333,4,2,1,100,0,1
166647,-66.6666666666667,4,2,1,100,0,1
167818,-50,4,2,1,100,0,1
168696,-33.3333333333333,4,2,1,100,0,1
168988,-133.333333333333,4,2,1,100,0,1
169281,-66.6666666666667,4,2,1,100,0,1
170159,-133.333333333333,4,2,1,100,0,1
170745,-66.6666666666667,4,2,1,100,0,1
173086,-50,4,2,1,100,0,1
173379,-66.6666666666667,4,2,1,100,0,0
173671,-133.333333333333,4,2,1,100,0,0
173964,-66.6666666666667,4,2,1,100,0,1
176013,-133.333333333333,4,2,1,100,0,1
176306,-66.6666666666667,4,2,1,100,0,1
177184,-50,4,2,1,100,0,1
178062,-50,4,2,1,100,0,1
178354,-100,4,2,1,100,0,1
180110,-50,4,2,1,100,0,1
180696,-100,4,2,1,100,0,1
182159,-1000,4,2,1,100,0,0
182452,-1000,4,2,1,60,0,0
189476,-100,4,2,1,80,0,0
190647,-1000,4,2,1,80,0,0
191232,-133.333333333333,4,2,1,80,0,0
191818,-66.6666666666667,4,2,1,80,0,0
192988,-100,4,2,1,80,0,0
194159,-66.6666666666667,4,2,1,80,0,0
195988,-100,4,2,1,80,0,0
196501,-66.6666666666667,4,2,1,80,0,0
198037,-100,4,2,1,80,0,0
198842,-66.6666666666667,4,2,1,80,0,0
202354,-100,4,2,1,80,0,0
203525,-66.6666666666667,4,2,1,80,0,0
204696,-400,4,2,1,80,0,0
205281,-100,4,2,1,80,0,0
205867,-66.6666666666667,4,2,1,80,0,0
207037,-200,4,2,1,80,0,0
207915,-66.6666666666667,4,2,1,80,0,0
208647,-100,4,2,1,80,0,0
210549,-66.6666666666667,4,2,1,80,0,0
216403,-100,4,2,1,80,0,0
217135,-200,4,2,1,80,0,0
217574,-66.6666666666667,4,2,1,80,0,0
223428,-200,4,2,1,80,0,0
224013,-66.6666666666667,4,2,1,80,0,0
226940,-400,4,2,1,80,0,0
228110,-133.333333333333,4,2,1,80,0,0
247428,-250,4,2,1,80,0,0
248013,-66.6666666666667,4,2,1,80,0,0
252110,-1000,4,2,1,80,0,0
252696,-66.6666666666667,4,2,1,80,0,0
257232,-33.3333333333333,4,2,1,80,0,0
257379,-66.6666666666667,4,2,1,80,0,0
261476,-1000,4,2,1,80,0,0
262062,-66.6666666666667,4,2,1,80,0,0
269086,-100,4,2,1,50,0,0
271428,-133.333333333333,4,2,1,70,0,0
273769,-100,4,2,1,85,0,0
276110,-66.6666666666667,4,2,1,100,0,1
293671,-100,4,2,1,100,0,0
294842,-66.6666666666667,4,2,1,100,0,0
295135,-133.333333333333,4,2,1,100,0,0
295574,-100,4,2,1,100,0,0
295720,-66.6666666666667,4,2,1,100,0,1
299525,-66.6666666666667,4,2,1,100,0,0
300110,-133.333333333333,4,2,1,100,0,0
300403,-66.6666666666667,4,2,1,100,0,1
305086,-66.6666666666667,4,2,2,100,0,1
308306,-66.6666666666667,4,2,1,100,0,1
311525,-66.6666666666667,4,2,1,30,0,1
311818,-66.6666666666667,4,2,1,50,0,1
312257,-66.6666666666667,4,2,1,70,0,1
312696,-66.6666666666667,4,2,1,90,0,1
313281,-133.333333333333,4,2,1,100,0,0
316062,-500,4,2,1,50,0,0
316354,-250,4,2,1,60,0,0
316647,-166.666666666667,4,2,1,70,0,0
316940,-125,4,2,1,80,0,0
317232,-100,4,2,1,90,0,0
317525,-80,4,2,1,100,0,0
317818,-66.6666666666667,4,2,1,100,0,0
317964,-133.333333333333,4,2,1,100,0,0
318257,-66.6666666666667,4,2,1,100,0,1
327549,-66.6666666666667,4,2,1,100,0,0
327623,-66.6666666666667,4,2,1,100,0,1
332013,-133.333333333333,4,2,1,100,0,0
332306,-66.6666666666667,4,2,1,100,0,1
334647,-66.6666666666667,4,2,1,80,0,1
335818,-133.333333333333,4,2,1,100,0,0
336988,-133.333333333333,4,2,1,100,0,0
341671,-66.6666666666667,4,2,1,100,0,0
346354,-133.333333333333,4,2,1,100,0,0
351037,-66.6666666666667,4,2,1,100,0,0
365086,-133.333333333333,4,2,1,100,0,0
366257,-100,4,2,1,100,0,0
367428,-66.6666666666667,4,2,1,100,0,0
368598,-200,4,2,1,60,0,0
368745,-133.333333333333,4,2,1,70,0,0
368891,-100,4,2,1,80,0,0
369037,-66.6666666666667,4,2,1,100,0,0
369769,-50,4,2,1,100,0,0
370062,-133.333333333333,4,2,1,100,0,0
370647,-66.6666666666667,4,2,1,100,0,1
372110,-50,4,2,1,100,0,1
372549,-133.333333333333,4,2,1,100,0,1
372988,-66.6666666666667,4,2,1,100,0,1
373867,-50,4,2,1,100,0,1
374452,-100,4,2,1,100,0,1
374745,-200,4,2,1,100,0,1
375184,-100,4,2,1,100,0,1
375330,-66.6666666666667,4,2,1,100,0,1
377086,-133.333333333333,4,2,1,100,0,1
377379,-66.6666666666667,4,2,1,100,0,1
377671,-133.333333333333,4,2,1,100,0,1
377964,-50,4,2,1,100,0,1
378257,-100,4,2,1,100,0,1
379135,-50,4,2,1,100,0,0
380013,-50,4,2,1,100,0,1
381915,-100,4,2,1,100,0,1
383232,-50,4,2,1,100,0,1
384257,-100,4,2,1,100,0,1
384696,-66.6666666666667,4,2,1,100,0,1
385867,-50,4,2,1,100,0,1
386159,-50,4,2,1,100,0,1
386379,-100,4,2,1,100,0,1
386745,-50,4,2,1,100,0,1
386964,-100,4,2,1,100,0,1
387330,-50,4,2,1,100,0,1
387549,-100,4,2,1,100,0,1
388501,-50,4,2,1,100,0,0
392598,-500,4,2,1,100,0,0
393184,-50,4,2,1,100,0,0

[Colours]
Combo1 : 149,65,106
Combo2 : 129,191,225
Combo3 : 125,168,216
Combo4 : 132,144,200
Combo5 : 142,118,176
Combo6 : 149,91,144

[HitObjects]
49,343,989,6,0,L|41:370,2,16.6666666666667,2|0|0,0:2|0:2|0:2,0:2:0:0:
47,293,5671,6,0,L|49:354,2,50,2|0|0,0:2|0:2|0:2,0:2:0:0:
506,332,10354,6,0,L|481:338,1,25,2|0,0:2|0:2,0:2:0:0:
481,338,11428,2,0,L|456:331,2,16.6666666666667,2|0|0,0:2|0:2|0:2,0:2:0:0:
467,333,12696,2,0,L|471:349,2,16.6666666666667,2|0|0,0:2|0:2|0:2,0:2:0:0:
467,333,14452,1,2,0:2:0:0:
466,16,15037,6,0,L|487:12,2,16.6666666666667,2|0|0,0:2|0:2|0:2,0:2:0:0:
436,19,16062,2,0,L|453:23,3,16.6666666666667,2|0|0|0,0:2|0:2|0:2|0:2,0:2:0:0:
475,22,17379,5,2,0:2:0:0:
447,39,17525,1,0,0:2:0:0:
412,42,17671,1,0,0:2:0:0:
367,86,18549,5,2,0:2:0:0:
339,69,18695,1,0,0:2:0:0:
304,66,18841,1,0,0:2:0:0:
40,49,19720,6,0,L|33:25,1,16.6666666666667,2|0,0:2|0:2,0:2:0:0:
58,73,20745,2,0,L|65:49,3,16.6666666666667,2|0|0|0,0:2|0:2|0:2|0:2,0:2:0:0:
40,112,22062,2,0,L|33:88,2,16.6666666666667,2|0|0,0:2|0:2|0:2,0:2:0:0:
40,112,22940,5,2,0:2:0:0:
68,151,23232,1,0,0:2:0:0:
58,198,23769,1,0,0:2:0:0:
261,378,24403,6,0,L|257:356,1,16.6666666666667,2|0,0:2|0:2,0:2:0:0:
279,327,25428,2,0,L|276:343,3,16.6666666666667,2|0|0|0,0:2|0:2|0:2|0:2,0:2:0:0:
278,318,26745,5,2,0:2:0:0:
260,285,26891,1,0,0:2:0:0:
274,250,27037,1,0,0:2:0:0:
345,198,27915,5,2,0:2:0:0:
363,165,28061,1,0,0:2:0:0:
349,130,28207,1,0,0:2:0:0:
292,18,29086,6,0,B|209:2|231:68|150:62,1,150,2|0,0:2|0:2,0:2:0:0:
155,62,30074,2,0,L|162:96,3,25,2|0|0|0,0:2|0:2|0:2|0:2,0:2:0:0:
160,86,31428,5,2,0:2:0:0:
130,66,31574,1,0,0:2:0:0:
93,73,31720,1,0,0:2:0:0:
83,160,32598,5,2,0:2:0:0:
113,180,32744,1,0,0:2:0:0:
150,173,32890,1,0,0:2:0:0:
235,164,33037,2,0,P|240:207|242:253,1,75,0|0,0:2|0:2,0:2:0:0:
144,329,33403,2,0,P|145:304|156:252,1,75,0|0,0:2|0:2,0:2:0:0:
238,329,33769,6,0,B|375:374|326:259|470:320,1,225.000008583069,4|8,3:2|0:2,0:2:0:0:
451,312,34354,1,0,0:2:0:0:
414,225,34647,1,8,0:2:0:0:
508,76,34940,6,0,P|422:32|387:144,1,225.000008583069,8|8,0:2|0:2,0:2:0:0:
376,126,35525,1,0,0:2:0:0:
464,152,35818,1,8,0:2:0:0:
341,45,36110,6,0,B|267:17|195:19|195:19|183:61|128:82,1,225.000008583069,0|8,3:2|0:2,0:2:0:0:
146,74,36696,1,0,0:2:0:0:
114,0,36988,1,8,0:2:0:0:
233,128,37281,5,8,0:2:0:0:
162,175,37720,1,8,0:2:0:0:
162,175,37867,1,0,0:2:0:0:
77,134,38159,1,8,0:2:0:0:
237,131,38452,6,0,P|295:138|399:161,1,150.000005722046,2|0,3:2|0:2,0:2:0:0:
465,215,38891,1,8,0:2:0:0:
465,215,39037,2,0,P|472:281|479:318,1,75.0000028610231,0|0,3:2|0:2,0:2:0:0:
377,369,39330,2,0,P|382:331|385:294,1,75.0000028610231,10|0,0:2|0:2,0:2:0:0:
315,243,39623,6,0,P|216:258|146:295,1,150.000005722046,2|0,3:2|0:2,0:2:0:0:
82,335,40062,2,0,P|159:372|174:378,1,75.0000028610231,10|0,0:2|3:2,0:2:0:0:
80,237,40354,1,2,0:2:0:0:
80,237,40501,2,0,P|3:274|-12:280,1,75.0000028610231,8|0,0:2|0:2,0:2:0:0:
171,278,40793,6,0,L|193:113,1,150.000005722046,2|0,3:2|0:2,0:2:0:0:
122,72,41232,2,0,L|93:152,1,75.0000028610231,8|2,0:2|3:2,0:2:0:0:
276,153,41525,1,0,0:2:0:0:
276,153,41671,2,0,L|267:66,1,75.0000028610231,8|0,0:2|0:2,0:2:0:0:
0,82,41964,6,0,P|85:108|128:45,1,150.000005722046,2|0,3:2|0:2,0:2:0:0:
184,12,42403,2,0,P|221:2|264:0,1,75.0000028610231,8|2,0:2|3:2,0:2:0:0:
276,153,42696,1,0,0:2:0:0:
276,153,42842,2,0,P|239:163|196:165,1,75.0000028610231,8|0,0:2|0:2,0:2:0:0:
112,222,43135,6,0,P|94:287|175:323,1,150.000005722046,2|0,3:2|0:2,0:2:0:0:
224,266,43574,1,8,0:2:0:0:
224,266,43720,2,0,L|321:285,1,75.0000028610231,2|0,3:2|0:2,0:2:0:0:
290,368,44013,2,0,L|193:387,1,75.0000028610231,10|0,0:2|0:2,0:2:0:0:
366,330,44306,6,0,P|388:261|401:179,1,150.000005722046,2|0,3:2|0:2,0:2:0:0:
347,122,44745,1,10,0:2:0:0:
347,122,44891,2,0,P|317:166|310:192,1,75.0000028610231,2|0,3:2|0:2,0:2:0:0:
448,257,45184,2,0,P|478:213|485:187,1,75.0000028610231,10|0,0:2|0:2,0:2:0:0:
347,122,45476,6,0,L|439:106,2,75.0000028610231,2|0|0,3:2|0:2|0:2,0:2:0:0:
250,95,45915,2,0,P|263:41|270:10,1,75.0000028610231,10|0,0:2|3:2,0:2:0:0:
134,20,46208,1,0,0:2:0:0:
134,20,46354,2,0,P|142:56|151:92,1,75.0000028610231,10|0,0:2|0:2,0:2:0:0:
135,191,46647,6,0,L|225:175,2,75.0000028610231,2|0|0,3:2|0:2|0:2,0:2:0:0:
66,301,47086,2,0,P|60:260|32:225,1,75.0000028610231,10|0,0:2|3:2,0:2:0:0:
135,383,47379,1,0,0:2:0:0:
135,383,47525,2,0,P|141:342|169:307,1,75.0000028610231,10|0,0:2|0:2,0:2:0:0:
246,351,47818,6,0,L|481:319,1,225.000008583069,2|8,3:2|0:2,0:2:0:0:
387,152,48403,2,0,P|366:183|364:220,1,75.0000028610231,0|0,3:2|0:2,0:2:0:0:
447,241,48696,2,0,P|467:210|470:173,1,75.0000028610231,10|2,0:2|0:2,0:2:0:0:
512,104,48915,1,2,0:2:0:0:
512,104,48988,6,0,P|450:117|397:-13,1,225.000008583069,2|8,3:2|0:2,0:2:0:0:
285,173,49574,2,0,P|309:128|291:86,1,75.0000028610231,2|0,3:2|0:2,0:2:0:0:
305,18,49867,2,0,L|218:32,1,75.0000028610231,8|0,0:2|0:2,0:2:0:0:
30,54,50159,6,0,P|117:68|196:92,1,150.000005722046,2|0,3:2|0:2,0:2:0:0:
283,166,50598,2,0,P|251:172|179:191,1,75.0000028610231,10|0,0:2|3:2,0:2:0:0:
117,266,50891,2,0,P|148:272|220:291,1,75.0000028610231,2|8,0:2|0:2,0:2:0:0:
352,366,51184,1,0,0:2:0:0:
352,366,51330,6,0,L|357:287,2,75.0000028610231,2|0|0,3:2|0:2|0:2,0:2:0:0:
455,254,51769,2,0,L|466:359,1,75.0000028610231,10|0,0:2|3:2,0:2:0:0:
261,309,52062,2,0,L|272:203,1,75.0000028610231,0|10,0:2|0:2,0:2:0:0:
345,174,52354,1,0,0:2:0:0:
345,174,52501,5,6,3:2:0:0:
260,139,52793,1,2,0:2:0:0:
260,139,52940,1,2,0:2:0:0:
56,164,53379,5,2,0:2:0:0:
74,78,53671,1,2,0:2:0:0:
105,347,54110,5,0,0:2:0:0:
105,347,54257,1,2,0:2:0:0:
185,332,54549,1,0,0:2:0:0:
267,318,54842,1,0,0:2:0:0:
177,143,55135,5,2,0:2:0:0:
239,215,55428,1,2,0:2:0:0:
271,126,55720,1,2,0:2:0:0:
145,234,56013,5,2,0:2:0:0:
334,196,56403,1,2,0:2:0:0:
210,57,56793,1,2,0:2:0:0:
229,162,57184,5,2,0:2:0:0:
248,250,57476,1,2,0:2:0:0:
248,250,57623,1,2,0:2:0:0:
0,262,58062,5,2,0:2:0:0:
82,269,58354,1,2,0:2:0:0:
229,351,58793,5,0,0:2:0:0:
229,351,58940,1,2,0:2:0:0:
361,272,59232,5,2,0:2:0:0:
443,265,59524,1,2,0:2:0:0:
450,249,59964,5,2,0:2:0:0:
366,238,60367,5,2,0:2:0:0:
278,227,60696,5,2,0:2:0:0:
193,220,61135,1,2,0:2:0:0:
193,220,61281,1,2,0:2:0:0:
445,368,61867,6,0,L|477:129,1,225.000008583069,2|8,3:2|0:2,0:2:0:0:
474,144,62452,1,0,0:2:0:0:
495,72,62745,1,10,0:2:0:0:
495,72,63037,5,10,0:2:0:0:
508,0,63476,1,8,0:2:0:0:
508,0,63915,1,8,0:2:0:0:
268,68,64208,5,8,0:2:0:0:
123,34,64501,5,2,0:2:0:0:
138,111,64793,1,2,0:2:0:0:
81,173,65086,1,2,0:2:0:0:
0,156,65379,5,2,0:2:0:0:
138,111,65818,1,10,0:2:0:0:
105,253,66184,1,2,0:2:0:0:
105,253,66549,6,0,P|170:250|201:343,1,150.000005722046,2|0,3:2|0:2,0:2:0:0:
294,362,66988,1,8,0:2:0:0:
294,362,67135,2,0,P|334:341|398:341,1,75.0000028610231,0|0,3:2|0:2,0:2:0:0:
430,269,67428,2,0,P|390:248|326:248,1,75.0000028610231,10|0,0:2|0:2,0:2:0:0:
472,347,67720,6,0,P|517:287|486:205,1,150.000005722046,2|0,3:2|0:2,0:2:0:0:
433,179,68159,1,8,0:2:0:0:
433,179,68306,2,0,P|421:116|422:81,1,75.0000028610231,0|0,3:2|0:2,0:2:0:0:
512,42,68598,2,0,P|508:79|499:115,1,75.0000028610231,10|0,0:2|0:2,0:2:0:0:
326,97,68891,6,0,P|304:35|427:22,1,225.000008583069,2|8,3:2|0:2,0:2:0:0:
420,105,69476,1,0,3:2:0:0:
207,57,69769,1,10,0:2:0:0:
109,176,70062,6,0,P|131:114|8:101,1,225.000008583069,2|8,3:2|0:2,0:2:0:0:
19,183,70647,1,0,3:2:0:0:
207,144,70940,1,0,3:2:0:0:
385,220,71232,6,0,L|403:244,4,28.1250010728836,2|0|0|0|0,3:2|0:2|0:2|0:2|0:2,0:2:0:0:
326,138,71525,2,0,L|309:115,4,28.1250010728836,2|0|0|0|0,0:2|0:2|0:2|0:2|0:2,0:2:0:0:
352,229,71818,6,0,L|347:258,4,28.1250010728836,2|0|0|0|0,0:2|0:2|0:2|0:2|0:2,0:2:0:0:
368,129,72111,2,0,L|372:101,4,28.1250010728836,2|0|0|0|0,0:2|0:2|0:2|0:2|0:2,0:2:0:0:
261,232,72403,6,0,P|203:288|85:222,1,225.000008583069,6|8,3:2|0:2,0:2:0:0:
15,182,72988,2,0,P|39:124|42:97,1,75.0000028610231,0|0,3:2|0:2,0:2:0:0:
245,96,73281,1,10,0:2:0:0:
245,96,73428,1,2,0:2:0:0:
245,96,73574,6,0,P|314:79|412:54,1,150.000005722046,2|0,3:2|0:2,0:2:0:0:
485,35,74013,1,10,0:2:0:0:
485,35,74086,1,2,0:2:0:0:
485,35,74159,2,0,P|491:104|484:130,1,75.0000028610231,2|0,3:2|0:2,0:2:0:0:
403,224,74452,2,0,P|400:186|408:150,1,75.0000028610231,10|0,0:2|0:2,0:2:0:0:
307,281,74745,6,0,P|371:248|481:345,1,225.000008583069,2|8,3:2|0:2,0:2:0:0:
405,380,75330,2,0,P|344:378|315:379,1,75.0000028610231,0|0,3:2|0:2,0:2:0:0:
238,340,75623,1,10,0:2:0:0:
0,366,75769,1,2,0:2:0:0:
0,366,75842,1,2,0:2:0:0:
0,366,75915,6,0,P|78:364|95:228,1,225.000008583069,2|8,3:2|0:2,0:2:0:0:
17,222,76501,2,0,P|21:166|45:144,1,75.0000028610231,2|0,3:2|0:2,0:2:0:0:
119,170,76793,2,0,P|115:226|91:248,1,75.0000028610231,10|0,0:2|0:2,0:2:0:0:
90,83,77086,6,0,B|161:50|163:124|264:70,1,150.000005722046,2|0,3:2|0:2,0:2:0:0:
309,17,77525,1,10,0:2:0:0:
309,17,77671,2,0,P|331:63|341:95,1,75.0000028610231,2|0,3:2|0:2,0:2:0:0:
413,166,77964,2,0,P|425:130|442:97,1,75.0000028610231,10|0,0:2|0:2,0:2:0:0:
312,171,78257,6,0,B|193:160|240:269|78:243,1,225.000008583069,2|8,3:2|0:2,0:2:0:0:
0,314,78842,2,0,P|64:314|91:406,1,150.000005722046,2|8,3:2|0:2,0:2:0:0:
419,382,79281,1,2,0:2:0:0:
419,382,79354,1,2,0:2:0:0:
419,382,79428,6,0,P|436:318|426:147,1,225.000008583069,2|8,3:2|0:2,0:2:0:0:
415,55,80013,2,0,P|461:71|498:78,1,75.0000028610231,0|0,3:2|0:2,0:2:0:0:
334,16,80306,1,10,0:2:0:0:
270,212,80452,1,2,0:2:0:0:
270,212,80525,1,2,0:2:0:0:
270,212,80598,6,0,P|322:184|307:87,1,150.000005722046,2|0,3:2|0:2,0:2:0:0:
231,126,81037,1,8,0:2:0:0:
231,126,81184,2,0,P|175:119|132:109,1,75.0000028610231,2|0,3:2|0:2,0:2:0:0:
188,14,81476,2,0,P|224:20|262:24,1,75.0000028610231,10|0,0:2|0:2,0:2:0:0:
480,75,81769,6,0,B|447:302,1,225.000008583069,2|8,3:2|0:2,0:2:0:0:
392,360,82354,2,0,P|341:330|276:310,1,100.000003814697,0|2,3:2|0:2,0:2:0:0:
204,315,82745,1,2,0:2:0:0:
129,368,82940,6,0,P|65:369|88:230,1,225.000008583069,2|10,3:2|0:2,0:2:0:0:
150,212,83452,1,2,0:2:0:0:
150,212,83525,2,0,P|167:159|169:123,1,75.0000028610231,2|0,3:2|0:2,0:2:0:0:
91,79,83818,2,0,P|77:114|72:151,1,75.0000028610231,10|0,0:2|0:2,0:2:0:0:
239,256,84110,6,0,P|317:281|465:220,1,225.000008583069,2|8,3:2|0:2,0:2:0:0:
494,162,84696,2,0,P|498:125|477:76,1,75.0000028610231,0|0,3:2|0:2,0:2:0:0:
410,22,84988,2,0,P|378:55|381:93,1,75.0000028610231,8|2,0:0|0:0,0:0:0:0:
385,104,85208,1,2,0:0:0:0:
390,118,85281,6,0,P|327:135|298:2,1,225.000008583069,2|8,3:2|0:2,0:2:0:0:
256,100,85867,2,0,L|175:85,1,75.0000028610231,0|0,3:2|0:2,0:2:0:0:
85,160,86159,2,0,L|169:176,1,75.0000028610231,10|0,0:2|0:2,0:2:0:0:
197,260,86379,1,2,0:0:0:0:
197,260,86452,6,0,P|179:344|37:328,1,225.000008583069,2|10,3:2|0:2,0:2:0:0:
158,174,87037,2,0,P|235:177|290:250,2,150.000005722046,2|8|0,3:2|0:2|3:2,0:2:0:0:
44,279,87915,6,0,P|56:324|59:367,1,75.0000028610231,10|8,0:2|0:2,0:2:0:0:
183,333,88208,2,0,P|187:295|197:259,1,75.0000028610231,2|0,3:2|0:2,0:2:0:0:
317,299,88501,2,0,P|327:335|331:372,1,75.0000028610231,10|0,0:2|0:2,0:2:0:0:
512,247,88793,6,0,B|431:158|382:272|312:134,1,225.000008583069,2|8,3:2|0:2,0:2:0:0:
308,26,89379,2,0,P|371:55|354:117,1,100.000003814697,0|2,3:2|0:2,0:2:0:0:
321,152,89769,1,2,0:2:0:0:
228,121,89964,6,0,P|170:102|53:106,1,150.000005722046,2|0,3:2|0:2,0:2:0:0:
13,177,90403,1,10,0:2:0:0:
13,177,90476,1,2,0:2:0:0:
13,177,90549,2,0,P|5:227|0:271,1,75.0000028610231,2|0,3:2|0:2,0:2:0:0:
95,262,90842,2,0,P|101:225|105:187,1,75.0000028610231,10|0,0:2|0:2,0:2:0:0:
333,346,91135,6,0,B|440:391|479:315|479:315|457:293|418:286,1,225.000008583069,6|8,3:2|0:2,0:2:0:0:
341,257,91720,2,0,P|322:199|320:160,1,75.0000028610231,0|0,3:2|0:2,0:2:0:0:
321,31,92013,1,10,0:2:0:0:
321,31,92159,1,2,0:2:0:0:
321,31,92306,6,0,P|230:22|273:112,1,225.000008583069,2|10,3:2|0:2,0:2:0:0:
377,114,92818,1,2,0:2:0:0:
377,114,92891,2,0,P|444:98|474:88,1,75.0000028610231,2|0,3:2|0:2,0:2:0:0:
393,203,93184,2,0,P|326:187|296:177,1,75.0000028610231,8|0,0:2|0:2,0:2:0:0:
146,384,93476,6,0,P|223:299|225:187,1,225.000008583069,2|8,3:2|0:2,0:2:0:0:
135,243,94062,2,0,P|89:268|53:265,1,75.0000028610231,0|0,3:2|0:2,0:2:0:0:
0,213,94354,1,10,0:2:0:0:
150,118,94501,1,2,0:2:0:0:
150,118,94574,1,2,0:2:0:0:
150,118,94647,6,0,P|172:64|36:25,1,225.000008583069,2|8,3:2|0:2,0:2:0:0:
258,55,95232,1,0,3:2:0:0:
258,55,95379,1,0,0:2:0:0:
258,55,95525,2,0,P|311:42|348:27,1,75.0000028610231,10|0,0:2|0:2,0:2:0:0:
451,11,95818,6,0,P|430:73|401:177,1,150.000005722046,2|0,3:2|0:2,0:2:0:0:
419,250,96257,1,10,0:2:0:0:
419,250,96403,2,0,P|475:237|512:221,1,75.0000028610231,2|0,3:2|0:2,0:2:0:0:
497,356,96696,2,0,P|461:343|424:336,1,75.0000028610231,10|0,0:2|0:2,0:2:0:0:
307,363,96988,6,0,P|321:319|268:142,1,225.000008583069,2|10,3:2|0:2,0:2:0:0:
198,64,97501,1,2,0:2:0:0:
198,64,97574,2,0,P|246:73|365:28,1,150.000005722046,2|10,3:2|0:2,0:2:0:0:
192,230,98013,1,2,0:2:0:0:
192,230,98086,1,2,0:2:0:0:
192,230,98159,6,0,P|165:163|12:169,1,225.000008583069,2|8,3:2|0:2,0:2:0:0:
35,253,98745,2,0,P|43:300|43:343,1,75.0000028610231,2|0,3:2|0:2,0:2:0:0:
129,384,99037,2,0,P|130:346|137:309,1,75.0000028610231,10|2,0:2|0:2,0:2:0:0:
192,230,99257,1,2,0:0:0:0:
192,230,99330,6,0,P|267:229|350:199,1,150.000005722046,2|0,3:2|0:2,0:2:0:0:
429,252,99769,1,8,0:2:0:0:
429,252,99915,2,0,P|423:300|406:341,1,75.0000028610231,2|0,3:2|0:2,0:2:0:0:
318,375,100208,2,0,P|306:339|303:302,1,75.0000028610231,10|0,0:2|0:2,0:2:0:0:
487,182,100501,6,0,P|473:101|325:59,1,225.000008583069,2|8,3:2|0:2,0:2:0:0:
266,83,101086,2,0,P|252:34|252:3,1,75.0000028610231,0|0,3:2|0:2,0:2:0:0:
315,228,101379,1,10,0:2:0:0:
315,228,101525,1,2,0:2:0:0:
315,228,101671,6,0,P|268:260|81:279,1,225.000008583069,2|10,3:2|0:2,0:2:0:0:
28,244,102184,1,2,0:2:0:0:
28,244,102257,2,0,P|13:294|6:329,1,75.0000028610231,2|0,3:2|0:2,0:2:0:0:
124,356,102549,2,0,P|115:319|104:283,1,75.0000028610231,10|0,0:2|0:2,0:2:0:0:
0,155,102842,6,0,B|116:111|89:234|238:152,1,225.000008583069,2|8,3:2|0:2,0:2:0:0:
271,83,103428,2,0,P|270:31|230:14,1,75.0000028610231,0|0,3:2|0:2,0:2:0:0:
300,230,103720,2,0,P|301:178|341:161,1,75.0000028610231,8|2,0:2|0:2,0:2:0:0:
331,162,103940,1,2,0:0:0:0:
345,166,104013,6,0,P|405:246|308:298,1,225.000008583069,2|8,3:2|0:2,0:2:0:0:
180,310,104598,2,0,P|176:346|156:378,1,75.0000028610231,2|0,3:2|0:2,0:2:0:0:
72,350,104891,2,0,P|75:312|95:281,1,75.0000028610231,10|2,0:2|0:2,0:2:0:0:
166,222,105110,1,2,0:0:0:0:
166,222,105184,6,0,P|184:150|193:58,1,150.000005722046,10|0,3:2|0:2,0:2:0:0:
65,0,105623,2,0,P|106:35|223:81,1,150.000005722046,10|0,3:2|0:2,0:2:0:0:
192,74,106062,2,0,P|252:56|277:38,1,75.0000028610231,10|0,3:2|0:2,0:2:0:0:
358,334,106354,6,0,P|340:262|331:170,1,150.000005722046,10|0,3:2|0:2,0:2:0:0:
460,111,106793,2,0,P|419:146|302:192,1,150.000005722046,10|0,3:2|0:2,0:2:0:0:
332,185,107232,2,0,P|272:166|247:148,1,75.0000028610231,10|0,3:2|0:2,0:2:0:0:
121,379,107525,6,0,B|128:293|186:332|169:226,1,150.000005722046,10|0,3:2|0:2,0:2:0:0:
108,149,107964,2,0,B|178:198|116:228|216:267,1,150.000005722046,10|0,3:2|0:2,0:2:0:0:
323,258,108403,2,0,B|245:294|249:225|166:292,2,150.000005722046,10|10|0,3:2|3:2|0:2,0:2:0:0:
108,149,109135,2,0,B|178:198|116:228|216:267,1,150.000005722046,10|0,3:2|0:2,0:2:0:0:
121,379,109574,2,0,B|128:293|186:332|168:226,2,150.000005722046,10|10|0,3:2|3:2|0:2,0:2:0:0:
222,360,110306,6,0,P|294:353|326:284,1,150.000005722046,10|0,3:2|0:2,0:2:0:0:
326,289,110745,1,10,3:2:0:0:
326,289,111037,2,0,P|308:244|366:168,1,150.000005722046,10|0,3:2|0:2,0:2:0:0:
362,168,111476,1,10,3:2:0:0:
362,168,111915,2,0,P|367:115|328:97,1,75.0000028610231,10|0,3:2|0:2,0:2:0:0:
468,335,112208,6,0,P|398:317|311:281,1,150.000005722046,8|0,3:2|0:2,0:2:0:0:
99,384,112647,2,0,P|169:366|256:330,1,150.000005722046,10|0,3:2|0:2,0:2:0:0:
253,176,113086,2,0,P|249:219|242:257,1,75.0000028610231,10|0,3:2|0:2,0:2:0:0:
21,336,113379,5,10,3:2:0:0:
21,336,113964,2,0,P|27:270|161:293,1,225.000008583069,2|0,0:2|0:2,0:2:0:0:
155,360,114549,5,6,3:2:0:0:
256,192,114623,12,0,119232,0:2:0:0:
361,210,121574,5,0,3:2:0:0:
317,309,121720,1,4,0:3:0:0:
314,297,121793,1,4,0:3:0:0:
311,285,121867,1,0,1:0:0:0:
306,112,122013,1,4,0:3:0:0:
303,124,122087,1,4,0:3:0:0:
300,136,122160,1,4,0:3:0:0:
361,210,122306,6,0,L|455:198,1,75.0000028610231,0|0,1:2|3:2,0:2:0:0:
224,216,122598,1,0,3:2:0:0:
212,217,122671,1,0,3:2:0:0:
200,218,122745,6,0,L|172:175,1,37.5000014305115,8|0,1:2|1:2,0:2:0:0:
111,229,122891,2,0,L|90:197,1,37.5000014305115,0|0,1:2|1:2,0:2:0:0:
20,326,123037,2,0,L|48:369,1,37.5000014305115,0|0,1:2|1:2,0:2:0:0:
109,315,123183,2,0,L|129:346,1,37.5000014305115,0|0,1:2|1:2,0:2:0:0:
121,107,123330,6,0,B|115:61|73:2|44:13|44:13|46:39|177:71|260:5,1,350,0|0,3:2|0:2,0:2:0:0:
346,11,123915,6,0,B|373:37|373:37|320:97,1,75.0000028610231,6|0,3:2|0:2,0:2:0:0:
238,373,124062,2,0,B|213:344|213:344|240:318,1,75.0000028610231,6|0,3:2|0:2,0:2:0:0:
487,227,124354,6,0,B|428:195|428:195|283:240|283:240|180:180,1,300.000011444092,4|0,3:2|0:2,0:2:0:0:
212,199,124793,6,0,L|239:98,1,75.0000028610231,6|0,3:2|0:2,0:2:0:0:
33,312,124940,2,0,L|14:384,1,75.0000028610231,4|0,3:2|0:2,0:2:0:0:
141,381,125232,6,0,B|134:300|134:300|133:309|133:309|124:183|124:183|122:192|122:192|113:67,1,300.000011444092,6|0,3:2|0:2,0:2:0:0:
92,4,125671,5,2,0:2:0:0:
128,0,125818,1,2,0:2:0:0:
130,39,125964,1,2,0:2:0:0:
92,42,126110,1,2,0:2:0:0:
226,38,126257,6,0,P|263:45|358:62,1,75.0000028610231,6|0,3:2|0:2,0:2:0:0:
439,210,126403,2,0,P|475:203|512:195,1,75.0000028610231,6|0,3:2|0:2,0:2:0:0:
283,317,126696,6,0,B|211:244|275:153|275:153|346:186|333:261,1,300.000011444092,6|0,3:2|0:2,3:2:0:0:
193,354,127135,6,0,P|118:323|102:303,1,75.0000028610231,6|0,3:2|0:2,0:2:0:0:
376,348,127281,2,0,P|412:341|444:322,1,75.0000028610231,6|0,3:2|0:2,0:2:0:0:
77,271,127574,6,0,P|95:303|123:327,1,75.0000028610231,6|0,3:2|0:2,0:2:0:0:
443,322,127793,2,0,P|471:297|489:265,1,75.0000028610231,6|0,3:2|0:2,0:2:0:0:
305,17,128013,6,0,L|299:55,1,35,2|0,3:2|0:2,0:2:0:0:
159,103,128598,6,0,P|122:103|55:78,1,75.0000028610231,6|0,3:2|0:2,0:2:0:0:
380,117,128745,2,0,P|417:117|484:92,1,75.0000028610231,6|0,3:2|0:2,0:2:0:0:
283,324,129037,6,0,B|250:129|250:129|316:273,1,300.000011444092,6|0,3:2|0:2,0:2:0:0:
162,349,129476,6,0,B|133:371|133:371|59:351,1,75.0000028610231,6|0,3:2|0:2,0:2:0:0:
422,276,129623,2,0,B|451:254|451:254|489:265,1,75.0000028610231,6|0,3:2|0:2,0:2:0:0:
292,221,129915,6,0,B|263:187|226:193|226:193|166:256|64:230|70:137|141:118|185:169,1,300.000011444092,6|0,3:2|0:2,0:2:0:0:
384,180,130354,5,2,0:2:0:0:
425,158,130501,1,2,0:2:0:0:
430,111,130647,1,2,0:2:0:0:
401,79,130793,1,2,0:2:0:0:
281,12,130940,6,0,L|269:116,1,75.0000028610231,6|0,3:2|0:2,0:2:0:0:
258,297,131086,2,0,L|270:401,1,75.0000028610231,6|0,3:2|0:2,0:2:0:0:
56,218,131379,6,0,B|63:183|26:136|26:136|76:187|121:191|121:191|127:180|127:180|175:167|247:186,1,300.000011444092,6|0,3:2|0:2,0:2:0:0:
493,308,131818,6,0,P|460:326|423:326,1,75.0000028610231,6|0,3:2|0:2,0:2:0:0:
493,75,131964,2,0,P|461:57|424:57,1,75.0000028610231,6|0,3:2|0:2,0:2:0:0:
354,376,132257,6,0,P|317:376|285:357,1,75.0000028610231,6|0,3:2|0:2,0:2:0:0:
290,19,132476,2,0,P|321:1|358:0,1,75.0000028610231,6|0,3:2|0:2,0:2:0:0:
361,181,132696,6,0,B|370:130|316:98|316:98|333:127|318:172,1,150.000005722046,2|0,3:2|0:2,0:2:0:0:
311,194,132915,2,0,B|350:227|405:196|405:196|371:196|340:161,1,150.000005722046,2|0,0:2|0:2,0:2:0:0:
324,145,133135,2,0,B|275:162|274:225|274:225|291:196|337:186,1,150.000005722046,2|0,0:2|0:2,0:2:0:0:
465,121,133281,6,0,B|479:87|479:87|420:45,1,75.0000028610231,6|0,3:2|0:2,0:2:0:0:
166,171,133428,2,0,B|151:204|151:204|182:226,1,75.0000028610231,6|0,3:2|0:2,0:2:0:0:
494,371,133720,6,0,B|420:398|337:284|337:284|376:337|362:393,1,300.000011444092,6|0,3:2|0:2,0:2:0:0:
460,283,134159,6,0,P|510:220|495:204,1,75.0000028610231,6|0,3:2|0:2,0:2:0:0:
272,352,134306,2,0,P|222:289|237:273,1,75.0000028610231,6|0,3:2|0:2,0:2:0:0:
30,54,134598,6,0,B|107:74|188:25|188:25|91:85|114:177,1,300.000011444092,6|0,3:2|0:2,0:2:0:0:
47,245,135037,5,2,0:2:0:0:
93,259,135184,1,2,0:2:0:0:
109,215,135330,1,2,0:2:0:0:
58,199,135476,1,2,0:2:0:0:
239,206,135623,6,0,L|346:187,1,75.0000028610231,6|0,3:2|0:2,0:2:0:0:
80,356,135769,2,0,L|6:369,1,75.0000028610231,6|0,3:2|0:2,0:2:0:0:
334,335,136062,6,0,B|292:295|238:298|238:298|178:337|178:337|157:269|87:257,1,300.000011444092,6|0,3:2|0:2,0:2:0:0:
239,206,136501,6,0,P|248:169|250:100,1,75.0000028610231,6|0,3:2|0:2,0:2:0:0:
80,184,136647,2,0,P|83:221|92:257,1,75.0000028610231,6|0,3:2|0:2,0:2:0:0:
314,83,136940,6,0,P|323:46|325:-23,1,75.0000028610231,6|0,3:2|0:2,0:2:0:0:
12,113,137159,2,0,P|3:77|0:40,1,75.0000028610231,6|0,3:2|0:2,0:2:0:0:
167,368,137379,6,0,L|171:332,1,35,6|0,3:2|0:2,0:2:0:0:
170,333,137964,6,0,P|206:319|306:305,1,75.0000028610231,6|0,3:2|0:2,0:2:0:0:
441,215,138110,2,0,P|477:223|512:236,1,75.0000028610231,6|0,3:2|0:2,0:2:0:0:
362,366,138257,1,2,1:2:0:0:
368,373,138330,1,2,1:2:0:0:
368,373,138403,2,0,B|292:254|408:270|311:103,1,225.000008583069,6|0,3:2|0:2,0:2:0:0:
284,53,138696,1,0,1:2:0:0:
284,53,138769,1,0,1:2:0:0:
284,53,138842,6,0,P|377:68|386:68,1,75.0000028610231,6|0,3:2|0:2,0:2:0:0:
251,208,138988,2,0,P|158:223|149:223,1,75.0000028610231,6|0,3:2|0:2,0:2:0:0:
101,158,139135,1,0,1:2:0:0:
368,373,139281,6,0,P|433:307|304:159,1,300.000011444092,6|0,3:2|0:2,0:2:0:0:
75,319,139720,5,0,1:2:0:0:
97,323,139793,1,0,1:2:0:0:
119,327,139867,1,0,1:2:0:0:
140,331,139940,1,0,1:2:0:0:
172,313,140013,5,0,1:2:0:0:
194,317,140086,1,0,1:2:0:0:
216,321,140160,1,0,1:2:0:0:
237,325,140233,1,0,1:2:0:0:
267,358,140306,6,0,L|291:251,1,75.0000028610231,6|0,3:2|0:2,0:2:0:0:
58,245,140452,2,0,L|74:318,1,75.0000028610231,6|0,3:2|0:2,0:2:0:0:
224,192,140598,2,0,L|150:208,1,75.0000028610231,0|0,1:2|0:2,0:2:0:0:
390,359,140745,6,0,L|339:91,1,225.000008583069,6|0,3:2|0:2,0:2:0:0:
332,55,141037,1,0,0:2:0:0:
18,22,141184,6,0,L|131:39,1,75.0000028610231,6|0,3:2|0:2,0:2:0:0:
246,5,141330,2,0,B|187:48|187:48|256:133,1,150.000005722046,6|0,3:2|0:2,0:2:0:0:
390,359,141574,5,2,3:2:0:0:
413,343,141671,2,0,P|342:308|287:319,1,100.000003814697,2|2,3:2|0:2,0:2:0:0:
63,295,141867,5,2,3:2:0:0:
223,320,141964,5,2,3:2:0:0:
167,180,142062,5,2,3:2:0:0:
137,346,142257,1,2,3:2:0:0:
194,20,142452,1,2,3:2:0:0:
167,180,142647,5,6,3:2:0:0:
204,166,144403,5,2,0:2:0:0:
173,123,144501,1,2,0:2:0:0:
154,172,144598,1,2,0:2:0:0:
197,163,144696,1,2,0:2:0:0:
174,132,144794,1,2,0:2:0:0:
161,167,144891,1,2,0:2:0:0:
177,156,144988,6,0,B|228:167|253:144|253:144|303:163|303:163|321:132|321:132|384:100|500:133,1,300,4|0,3:2|0:2,0:2:0:0:
511,308,145281,2,0,P|387:319|454:215,1,300.000011444092,2|0,0:2|0:2,0:2:0:0:
445,214,145574,1,8,0:2:0:0:
306,357,145720,5,2,0:2:0:0:
306,357,145793,1,2,0:2:0:0:
306,357,145867,2,0,L|210:335,1,75.0000028610231,6|0,3:2|0:2,0:2:0:0:
6,318,146013,2,0,L|98:311,1,75.0000028610231,2|0,0:2|0:2,0:2:0:0:
305,245,146159,2,0,L|217:265,1,75.0000028610231,2|0,0:2|0:2,0:2:0:0:
70,19,146306,5,2,0:2:0:0:
70,19,146379,1,2,0:2:0:0:
70,19,146452,2,0,P|74:102|48:119,1,75.0000028610231,2|0,0:2|0:2,0:2:0:0:
134,182,146598,2,0,P|163:159|173:123,1,75.0000028610231,2|0,3:2|0:2,0:2:0:0:
421,49,146745,6,0,L|495:60,1,75.0000028610231,10|0,0:2|0:2,0:2:0:0:
417,136,146891,2,0,L|491:147,1,75.0000028610231,2|0,0:2|0:2,0:2:0:0:
231,261,147037,2,0,L|156:272,1,75.0000028610231,2|0,0:2|0:2,0:2:0:0:
235,348,147183,2,0,L|160:359,1,75.0000028610231,2|0,0:2|0:2,0:2:0:0:
431,359,147330,6,0,B|375:345|322:363|322:363|346:330|354:298|354:298|366:340|389:361,1,225.000008583069,2|0,3:2|0:2,0:2:0:0:
369,336,147623,1,0,3:2:0:0:
369,336,147769,1,0,3:2:0:0:
235,302,147915,6,0,B|184:291|131:340|131:340|185:374,1,150.000005722046,8|0,0:2|0:2,0:2:0:0:
478,287,148208,5,2,3:2:0:0:
478,287,148281,1,2,0:2:0:0:
478,287,148354,1,0,0:2:0:0:
457,116,148501,6,0,L|439:228,1,75.0000028610231,2|0,0:2|0:2,0:2:0:0:
250,308,148647,1,2,3:2:0:0:
250,308,148720,1,2,0:2:0:0:
250,308,148793,2,0,L|239:233,1,75.0000028610231,2|0,0:2|3:2,0:2:0:0:
359,103,148940,2,0,L|347:177,1,75.0000028610231,2|0,0:2|0:2,0:2:0:0:
27,61,149086,6,0,B|68:32|68:32|149:77,1,100,10|0,3:2|3:2,3:2:0:0:
37,175,149232,1,0,3:2:0:0:
30,157,149306,2,0,B|71:128|71:128|152:173,1,100,10|0,3:2|3:2,3:2:0:0:
41,282,149452,1,0,3:2:0:0:
34,270,149526,2,0,B|75:241|75:241|156:286,1,100,10|0,3:2|3:2,3:2:0:0:
353,368,149671,6,0,P|454:338|337:261,1,300,6|0,3:2|0:2,0:2:0:0:
256,278,149964,2,0,B|215:327|261:374|261:374|260:340|279:312,1,150,2|0,0:2|0:2,0:2:0:0:
323,49,150257,1,8,0:2:0:0:
332,59,150549,5,6,3:2:0:0:
332,59,150623,1,2,0:2:0:0:
332,59,150696,2,0,L|242:69,1,75.0000028610231,2|0,0:2|0:2,0:2:0:0:
80,77,150842,2,0,L|-10:87,1,75.0000028610231,2|0,0:2|0:2,0:2:0:0:
16,185,150988,5,2,0:2:0:0:
16,185,151062,1,2,0:2:0:0:
16,185,151135,2,0,L|106:195,1,75.0000028610231,2|0,0:2|0:2,0:2:0:0:
266,201,151281,2,0,L|356:211,1,75.0000028610231,2|0,3:2|0:2,0:2:0:0:
422,384,151428,6,0,B|448:355|448:355|437:274,1,75.0000028610231,10|0,0:2|0:2,0:2:0:0:
459,163,151574,2,0,B|433:192|433:192|444:273,1,75.0000028610231,2|0,0:2|0:2,0:2:0:0:
99,370,151720,6,0,B|57:359|57:359|52:363|52:363|-3:350,1,100,2|0,0:2|0:2,0:2:0:0:
105,284,151867,2,0,B|63:273|63:273|58:277|58:277|3:264,1,100,2|0,0:2|0:2,0:2:0:0:
191,312,152013,6,0,B|282:369|282:369|180:261|180:261|221:175|221:175|163:225,1,400,2|2,3:2|0:2,0:2:0:0:
184,206,152452,1,0,3:2:0:0:
415,137,152598,6,0,B|324:194|324:194|426:86|426:86|385:0|385:0|443:50,1,400,10|2,0:2|3:2,0:2:0:0:
421,31,153184,6,0,B|305:44|305:44|308:54|308:54|194:24|194:24|256:7|256:7|193:124,1,400,2|2,0:2|0:2,0:2:0:0:
453,245,153769,5,2,3:2:0:0:
498,310,153842,1,2,0:2:0:0:
445,370,153915,1,2,0:2:0:0:
374,334,153988,1,2,0:2:0:0:
377,267,154062,5,2,0:2:0:0:
406,261,154135,1,2,0:2:0:0:
420,287,154208,1,2,0:2:0:0:
400,309,154281,1,2,0:2:0:0:
373,296,154354,6,0,B|166:255|166:255|239:351,1,300,6|0,3:2|0:2,0:2:0:0:
219,325,154647,2,0,B|245:350|245:350|295:357,1,75.0000028610231,2|0,0:2|0:2,0:2:0:0:
148,57,154940,1,8,0:2:0:0:
54,160,155135,1,2,0:2:0:0:
59,172,155232,6,0,B|47:217|47:217|51:232|51:232|39:301,1,100.000003814697,6|2,3:2|0:2,0:2:0:0:
163,155,155428,2,0,B|151:110|151:110|155:95|155:95|143:26,2,100.000003814697,2|2|2,0:2|0:2|0:2,0:2:0:0:
234,228,155720,1,2,0:2:0:0:
234,228,155769,1,2,0:2:0:0:
234,228,155818,2,0,B|227:265|227:265|231:280|231:280|219:325,1,100.000003814697,2|2,0:2|0:2,0:2:0:0:
322,179,156013,1,2,0:2:0:0:
414,237,156110,6,0,B|457:229|457:229|465:230|465:230|532:222,1,100.000003814697,10|2,0:2|0:2,0:2:0:0:
382,100,156306,1,2,0:2:0:0:
382,100,156403,6,0,L|277:83,1,75.0000028610231,2|0,0:2|0:2,0:2:0:0:
433,33,156549,2,0,L|538:16,1,75.0000028610231,2|0,0:2|0:2,0:2:0:0:
333,280,156696,6,0,B|313:334|313:334|277:138,1,225.000008583069,2|0,3:2|0:2,0:2:0:0:
282,169,156988,1,0,3:2:0:0:
282,169,157135,1,0,3:2:0:0:
114,318,157281,6,0,B|95:347|95:347|13:364,2,100.000003814697,10|2|2,0:2|0:2|0:2,0:2:0:0:
98,218,157574,5,2,3:2:0:0:
98,218,157623,1,2,0:2:0:0:
98,218,157671,2,0,L|112:100,1,100.000003814697,2|2,0:2|0:2,0:2:0:0:
192,248,157867,2,0,L|203:347,1,100.000003814697,2|2,0:2|0:2,0:2:0:0:
286,200,158062,1,2,0:2:0:0:
286,200,158110,1,2,0:2:0:0:
286,200,158159,1,2,0:2:0:0:
189,63,158257,6,0,B|206:107|201:156|201:156|205:127|231:79,1,150.000005722046,2|0,0:2|0:2,0:2:0:0:
218,103,158452,6,0,L|350:78,1,75.0000028610231,10|0,3:2|3:2,3:2:0:0:
286,200,158598,1,0,3:2:0:0:
296,211,158671,2,0,L|427:185,1,75.0000028610231,10|0,3:2|3:2,3:2:0:0:
358,321,158818,1,0,3:2:0:0:
368,332,158891,2,0,L|499:306,1,75.0000028610231,10|0,3:2|3:2,3:2:0:0:
387,206,159037,6,0,B|217:239|217:239|195:312|195:312|256:348,1,300.000011444092,6|0,3:2|0:2,0:2:0:0:
238,337,159330,2,0,B|255:298|255:298|151:237|151:237|91:288,1,225.000008583069,2|0,0:2|0:2,0:2:0:0:
37,341,159623,2,0,L|26:400,2,50.0000019073487,8|0|0,0:2|0:2|0:2,0:2:0:0:
45,166,159915,5,6,3:2:0:0:
45,166,159964,1,2,0:2:0:0:
45,166,160013,2,0,P|110:162|128:118,1,100.000003814697,2|2,0:2|0:2,0:2:0:0:
210,0,160208,2,0,P|180:58|210:95,1,100.000003814697,2|2,0:2|0:2,0:2:0:0:
269,228,160403,5,2,0:2:0:0:
269,228,160452,1,2,0:2:0:0:
269,228,160501,2,0,P|233:173|185:180,2,100.000003814697,2|2|2,0:2|0:2|0:2,0:2:0:0:
172,353,160793,2,0,P|158:307|188:269,1,100.000003814697,10|2,0:2|0:2,0:2:0:0:
326,294,160988,1,2,0:2:0:0:
326,294,161086,6,0,P|289:322|247:313,1,75.0000028610231,2|0,0:2|0:2,0:2:0:0:
172,353,161232,2,0,P|135:350|90:273,1,75.0000028610231,2|0,0:2|0:2,0:2:0:0:
45,166,161379,5,2,3:2:0:0:
45,166,161525,2,0,B|135:193|112:121|199:149,1,150.000005722046,0|0,3:2|3:2,0:2:0:0:
271,186,161964,2,0,P|276:127|250:94,1,75.0000028610231,8|0,0:2|0:2,0:2:0:0:
201,64,162257,1,0,3:2:0:0:
188,236,162403,1,0,1:2:0:0:
188,236,162476,1,0,1:2:0:0:
188,236,162549,6,0,P|152:240|103:271,1,75.0000028610231,8|8,0:3|0:3,0:3:0:0:
261,276,162696,2,0,P|246:309|248:367,1,69.9999978637696,8|8,0:3|0:3,0:3:0:0:
336,234,162842,2,0,P|357:263|408:290,1,64.9999970245363,8|8,0:3|0:3,0:3:0:0:
339,151,162988,2,0,P|374:146|423:115,1,59.9999981689454,4|4,0:3|0:3,0:3:0:0:
269,114,163135,2,0,P|283:80|281:22,1,55.0000016784668,4|4,0:3|0:3,0:3:0:0:
187,145,163281,2,0,P|165:115|114:88,1,50,4|4,0:3|0:3,0:3:0:0:
263,196,163428,6,0,B|261:188|261:188|256:195,1,15,0|0,3:2|0:2,0:2:0:0:
263,196,163720,6,0,B|489:171|489:171|430:263,1,300,6|0,3:2|0:2,0:2:0:0:
449,232,164013,2,0,B|371:39|371:39|526:7|526:7|432:178,1,450.000017166138,2|0,0:2|0:2,0:2:0:0:
485,79,164306,2,0,L|549:82,1,50,10|0,0:2|0:2,0:2:0:0:
308,104,164452,2,0,L|258:101,1,50,0|0,0:2|0:2,0:2:0:0:
235,327,164598,5,6,3:2:0:0:
235,327,164671,1,2,0:2:0:0:
235,327,164745,1,2,0:2:0:0:
171,264,164891,2,0,L|63:246,1,75.0000028610231,2|0,0:2|0:2,0:2:0:0:
328,370,165037,5,2,0:2:0:0:
328,370,165110,1,2,0:2:0:0:
328,370,165184,2,0,L|436:352,1,75.0000028610231,2|0,0:2|0:2,0:2:0:0:
182,154,165330,2,0,L|108:166,1,75.0000028610231,2|0,3:2|0:2,0:2:0:0:
235,327,165476,6,0,B|293:286|296:185|296:185|313:242|355:270,1,262.500010013581,10|0,0:2|0:2,0:2:0:0:
434,273,166062,5,2,3:2:0:0:
366,232,166159,1,2,0:2:0:0:
290,252,166257,1,2,0:2:0:0:
225,293,166354,1,2,0:2:0:0:
146,282,166452,1,2,0:2:0:0:
111,217,166549,1,2,0:2:0:0:
133,146,166647,6,0,L|117:61,1,75.0000028610231,10|0,0:2|0:2,0:2:0:0:
35,86,166793,2,0,L|48:159,1,75.0000028610231,2|0,0:2|0:2,0:2:0:0:
450,47,166940,1,2,3:2:0:0:
450,47,167013,1,2,0:2:0:0:
450,47,167086,6,0,L|342:67,1,75.0000028610231,2|0,0:2|0:2,0:2:0:0:
290,76,167232,2,0,L|182:96,1,75.0000028610231,2|0,0:2|0:2,0:2:0:0:
353,149,167379,1,2,3:2:0:0:
353,149,167452,1,2,0:2:0:0:
353,149,167525,2,0,L|368:248,1,75.0000028610231,2|0,0:0|3:0,0:0:0:0:
387,378,167671,6,0,L|375:303,1,75.0000028610231,2|0,0:2|0:2,0:2:0:0:
11,333,167818,6,0,B|36:362|36:362|134:334,1,100,10|0,3:2|3:2,3:2:0:0:
36,226,167964,1,0,3:2:0:0:
27,232,168037,2,0,B|52:261|52:261|150:233,1,100,10|0,3:2|3:2,3:2:0:0:
57,127,168184,1,0,3:2:0:0:
48,133,168257,2,0,B|73:162|73:162|171:134,1,100,10|0,3:2|3:2,3:2:0:0:
289,85,168403,6,0,B|223:12|223:12|259:235,1,300,6|0,3:2|0:2,0:2:0:0:
267,343,168696,2,0,B|286:305|330:291|330:291|173:278|43:351|43:351|80:353|108:367,1,450.000017166138,2|0,0:2|0:2,0:2:0:0:
108,367,168988,2,0,L|126:286,1,75.0000028610231,10|0,0:2|0:2,0:2:0:0:
483,233,169281,5,6,3:2:0:0:
483,233,169354,1,2,0:2:0:0:
483,233,169428,2,0,L|403:217,1,75.0000028610231,2|0,0:2|0:2,0:2:0:0:
464,384,169574,2,0,L|384:368,1,75.0000028610231,2|0,0:2|0:2,0:2:0:0:
262,158,169720,5,2,0:2:0:0:
262,158,169793,1,2,0:2:0:0:
262,158,169867,2,0,L|342:142,1,75.0000028610231,2|0,0:2|0:2,0:2:0:0:
239,331,170013,2,0,L|319:315,1,75.0000028610231,2|0,3:2|0:2,0:2:0:0:
512,0,170159,6,0,B|443:30|436:131|436:131|422:71|365:46,1,262.500010013581,10|0,0:2|0:2,0:2:0:0:
91,110,170745,5,0,3:2:0:0:
91,110,170818,2,0,B|126:103|142:121|142:121|151:88|184:77|184:77|165:79|137:60,1,150.000005722046,2|0,0:2|0:2,0:2:0:0:
81,18,171037,1,2,0:2:0:0:
16,69,171135,1,2,3:2:0:0:
232,266,171330,5,8,0:2:0:0:
232,266,171403,2,0,B|254:274|267:261|267:261|282:268|293:283|293:283|328:279|338:303|338:303|312:303|303:323|281:352,1,150.000005722046,2|0,0:2|0:2,0:2:0:0:
258,373,171622,1,2,3:2:0:0:
184,342,171720,1,2,0:2:0:0:
387,132,171915,5,0,0:2:0:0:
387,132,171988,2,0,B|438:150|408:96|480:99|480:99|453:95|430:56,1,150.000005722046,2|0,0:2|0:2,0:2:0:0:
395,18,172207,1,2,0:2:0:0:
329,62,172305,1,2,0:2:0:0:
65,330,172501,5,2,3:2:0:0:
23,264,172574,1,2,0:2:0:0:
73,196,172647,1,2,0:2:0:0:
144,235,172720,1,2,0:2:0:0:
143,312,172794,5,2,0:2:0:0:
114,318,172867,1,2,0:2:0:0:
100,292,172940,1,2,0:2:0:0:
120,270,173013,1,2,0:2:0:0:
147,283,173086,6,0,B|195:271|245:308|245:308|312:304|312:304|380:370|478:286,1,300,6|0,3:2|0:2,0:2:0:0:
506,266,173379,2,0,P|518:182|431:236,1,225.000008583069,2|0,0:2|0:2,0:2:0:0:
429,319,173671,2,0,P|422:354|424:395,2,50.0000019073487,10|0|0,0:2|0:2|0:2,0:2:0:0:
205,108,173964,5,6,3:2:0:0:
205,108,174013,1,2,0:2:0:0:
205,108,174062,1,2,0:2:0:0:
105,144,174159,2,0,P|93:83|130:36,2,100.000003814697,2|2|2,0:2|0:2|0:2,0:2:0:0:
300,64,174452,1,2,0:2:0:0:
300,64,174501,1,2,0:2:0:0:
300,64,174549,6,0,P|312:125|275:172,1,100.000003814697,2|2,0:2|0:2,0:2:0:0:
74,238,174745,1,2,0:2:0:0:
74,238,174842,2,0,P|30:215|11:169,2,100.000003814697,10|2|2,0:2|0:2|0:2,0:2:0:0:
141,307,175135,6,0,L|150:428,1,75.0000028610231,2|0,0:2|0:2,0:2:0:0:
235,373,175281,2,0,L|240:298,1,75.0000028610231,2|0,0:2|0:2,0:2:0:0:
100,66,175428,5,2,3:2:0:0:
167,110,175525,1,2,0:2:0:0:
250,103,175623,1,2,0:2:0:0:
301,35,175720,1,2,0:2:0:0:
384,28,175818,1,2,0:2:0:0:
454,72,175915,1,2,0:2:0:0:
471,149,176013,6,0,L|458:213,2,50.0000019073487,10|2|2,0:2|0:2|0:2,0:2:0:0:
25,217,176306,5,2,3:2:0:0:
25,217,176354,1,2,0:2:0:0:
25,217,176403,2,0,L|138:197,1,100.000003814697,2|2,0:2|0:2,0:2:0:0:
135,292,176598,2,0,L|36:309,1,100.000003814697,2|2,0:2|0:2,0:2:0:0:
209,239,176793,1,2,0:2:0:0:
209,239,176842,1,2,0:2:0:0:
209,239,176891,1,2,0:2:0:0:
202,356,176988,6,0,B|261:345|261:345|282:317|282:317|367:332,1,150.000005722046,2|0,0:2|0:2,0:2:0:0:
336,326,177184,6,0,P|376:285|355:196,1,100,10|0,3:2|3:2,3:2:0:0:
278,70,177330,1,0,3:2:0:0:
264,81,177403,2,0,P|279:136|366:162,1,100,10|0,3:2|3:2,3:2:0:0:
512,156,177549,1,0,3:2:0:0:
509,138,177622,2,0,P|453:123|386:185,1,100,10|0,3:2|3:2,3:2:0:0:
5,255,177769,6,0,B|92:219|135:298|135:298|159:212|159:212|188:245|234:238,1,300,6|0,3:2|0:2,0:2:0:0:
482,324,178062,2,0,B|483:348|474:371|474:371|530:310|511:252|468:215|468:215|419:239|399:287,1,300,2|0,0:2|0:2,0:2:0:0:
381,335,178354,6,0,L|377:392,1,50,10|0,0:2|0:2,0:2:0:0:
304,333,178501,2,0,L|300:390,1,50,2|0,0:2|0:2,0:2:0:0:
311,160,178647,6,0,L|307:110,1,50,2|0,3:2|0:2,0:2:0:0:
234,162,178794,2,0,L|230:112,1,50,2|0,0:2|0:2,0:2:0:0:
234,162,179086,6,0,P|175:151|162:162,1,50,2|0,0:2|0:2,0:2:0:0:
185,286,179232,2,0,P|177:226|162:217,1,50,2|0,0:2|0:2,0:2:0:0:
58,272,179379,2,0,P|112:246|116:229,1,50,2|0,3:2|0:2,0:2:0:0:
22,154,179525,2,0,P|63:197|80:196,1,50,10|0,0:2|0:2,0:2:0:0:
130,85,179671,2,0,P|101:137|107:153,1,50,2|0,0:2|0:2,0:2:0:0:
220,377,179818,6,0,B|315:411|272:330|390:389,1,150,2|0,0:2|0:2,0:2:0:0:
361,374,180110,6,0,B|312:307|359:222|359:222|384:305|441:301|441:301|502:257|479:133|467:91|467:91|452:145|412:168,1,600,2|0,3:2|3:2,0:2:0:0:
366,82,180696,6,0,L|376:15,1,50,10|0,0:2|0:2,0:2:0:0:
290,70,180842,2,0,L|300:3,1,50,2|0,0:2|0:2,0:2:0:0:
130,85,180988,6,0,L|140:151,1,50,2|0,3:2|0:2,0:2:0:0:
54,97,181134,2,0,L|64:163,1,50,2|0,0:2|0:2,0:2:0:0:
201,355,181428,6,0,P|208:295|223:286,1,50,2|0,0:2|0:2,0:2:0:0:
160,232,181574,2,0,P|180:217|204:215,1,50,2|0,0:2|0:2,0:2:0:0:
259,151,181721,2,0,P|278:165|288:188,1,50,2|0,0:2|0:2,0:2:0:0:
360,222,181867,2,0,P|352:245|333:261,1,50,2|0,0:2|0:2,0:2:0:0:
334,347,182013,2,0,P|309:346|288:333,1,50,2|0,0:2|0:2,0:2:0:0:
105,285,182159,6,0,L|104:267,1,15,2|0,0:2|0:2,0:2:0:0:
104,257,182452,5,8,0:2:0:0:
103,241,182745,1,8,0:2:0:0:
183,226,182891,1,0,1:2:0:0:
102,226,183037,1,8,0:2:0:0:
101,210,183330,1,8,0:2:0:0:
99,192,183623,1,8,0:2:0:0:
98,176,183916,1,8,0:2:0:0:
178,148,184062,1,0,1:2:0:0:
97,161,184208,1,8,0:2:0:0:
96,145,184501,1,8,0:2:0:0:
442,123,184793,5,8,0:2:0:0:
440,147,185086,1,8,0:2:0:0:
363,157,185232,1,0,1:2:0:0:
439,169,185378,1,8,0:2:0:0:
437,193,185671,1,8,0:2:0:0:
434,220,185964,1,8,0:2:0:0:
433,244,186257,1,8,0:2:0:0:
351,255,186403,1,0,1:2:0:0:
431,267,186549,1,8,0:2:0:0:
430,291,186842,1,8,0:2:0:0:
495,358,187135,5,8,0:2:0:0:
339,280,187354,1,8,0:2:0:0:
339,280,187574,1,8,0:2:0:0:
340,358,187720,5,8,0:2:0:0:
496,280,187939,1,8,0:2:0:0:
496,280,188159,1,8,0:2:0:0:
334,186,188306,5,8,0:2:0:0:
490,108,188525,1,8,0:2:0:0:
490,108,188745,1,8,0:2:0:0:
489,186,188891,5,8,0:2:0:0:
333,108,189110,1,8,0:2:0:0:
333,108,189330,1,8,0:2:0:0:
236,253,189476,5,8,3:2:0:0:
216,248,189549,1,8,0:2:0:0:
196,243,189623,1,8,0:2:0:0:
176,239,189696,1,8,0:2:0:0:
156,234,189769,2,0,L|102:218,3,50,8|8|8|8,3:2|0:2|0:2|0:2,0:2:0:0:
253,127,190062,5,8,3:2:0:0:
273,122,190135,1,8,0:2:0:0:
293,117,190209,1,8,0:2:0:0:
313,113,190282,1,8,0:2:0:0:
333,108,190355,2,0,L|387:92,3,50,8|8|8|8,3:2|0:2|0:2|0:2,0:2:0:0:
182,34,190647,6,0,L|181:47,3,10,2|2|2|2,0:2|0:2|0:2|0:2,0:2:0:0:
22,371,191232,6,0,B|96:378|173:317|82:281|165:221|261:252,1,262.500010013581,2|0,0:2|0:2,0:2:0:0:
512,323,191818,6,0,B|463:327|417:377|417:377|351:179|509:19|509:19|355:15|321:228|321:228|308:133|247:18|247:18|266:79|247:119,1,1125.00004291535,6|0,3:2|0:2,0:2:0:0:
169,70,192988,6,0,P|116:47|120:0,2,100,10|0|0,0:2|0:2|0:2,0:2:0:0:
255,25,193428,1,2,0:2:0:0:
255,25,193501,1,2,0:2:0:0:
255,25,193574,1,2,0:2:0:0:
203,147,193720,5,2,0:2:0:0:
194,152,193793,2,0,P|171:207|193:242,1,100,2|2,0:0|0:0,0:0:0:0:
198,241,194013,1,2,0:0:0:0:
461,363,194159,6,0,B|351:417|261:289|261:289|373:222|465:275|465:275|540:172|391:0|391:0|451:73|430:157|430:157|385:127|361:83|361:83|377:137|350:204,1,1125.00004291535,4|0,3:2|0:2,0:2:0:0:
359,174,195330,6,0,P|334:175|295:185,8,37.5000014305115,8|0|0|0|0|0|0|0|0,0:2|0:2|0:2|0:2|0:2|0:2|0:2|0:2|0:2,0:2:0:0:
64,372,195769,6,0,L|47:219,1,150.000005722046,2|0,0:2|0:2,0:2:0:0:
36,141,195988,5,2,0:2:0:0:
36,141,196062,2,0,L|98:131,1,50,2|2,0:2|0:2,0:2:0:0:
197,215,196208,2,0,L|125:205,2,66.6666666666667,2|2|2,0:2|0:2|0:2,0:2:0:0:
511,29,196501,6,0,B|375:138|176:92|176:92|372:44|499:117|526:215|460:353|460:353|451:220|380:196|380:196|404:235|398:295,1,1125.00004291535,4|0,3:2|0:2,0:2:0:0:
398,254,197671,6,0,L|356:261,6,37.5000014305115,8|0|0|0|0|0|0,0:2|0:2|0:2|0:2|0:2|0:2|0:2,0:2:0:0:
376,365,198037,5,2,0:2:0:0:
376,365,198110,1,2,0:2:0:0:
461,352,198257,1,2,0:2:0:0:
286,372,198403,6,0,B|154:385|154:385,1,100,2|2,0:2|0:2,0:2:0:0:
175,371,198623,1,2,0:2:0:0:
163,361,198696,2,0,L|113:363,1,50,2|0,0:2|0:2,0:2:0:0:
97,17,198842,6,0,B|0:101|67:237|162:262|162:262|247:182|202:40|202:40|291:113|334:63|334:59|334:56|392:0|506:98,1,825.000031471254,4|0,3:2|0:2,0:2:0:0:
495,151,199720,5,2,3:2:0:0:
495,151,199867,1,2,3:2:0:0:
323,355,200013,6,0,B|284:281|343:225|343:225|403:257|402:313,1,225.000008583069,10|0,0:2|0:2,0:2:0:0:
392,300,200306,1,0,3:2:0:0:
34,260,200452,2,0,B|117:263|136:342|136:342|78:378|30:349,1,225.000008583069,10|0,0:2|0:2,0:2:0:0:
47,347,200745,1,0,3:2:0:0:
299,97,200891,2,0,B|254:167|176:144|176:144|174:76|223:49,1,225.000008583069,10|0,0:2|0:2,0:2:0:0:
475,122,201184,6,0,B|519:86|528:36|528:36|541:123|405:182|405:182|516:179|539:261|539:261|445:267|417:373|417:373|360:166|263:192|177:215|147:328|209:387|295:360|291:291,1,1125.00004291535,6|0,3:2|0:2,0:2:0:0:
334,144,202354,2,0,P|352:61|358:17,2,100,10|2|2,0:2|0:2|0:2,0:2:0:0:
77,91,202793,6,0,B|44:50|44:50|190:117,1,200,2|2,0:2|0:2,0:2:0:0:
179,118,203135,2,0,L|181:169,2,33.3333333333333,2|2|2,0:0|0:0|0:0,0:0:0:0:
94,361,203330,1,2,0:2:0:0:
94,361,203428,1,2,0:2:0:0:
94,361,203525,6,0,B|161:294|94:222|94:222|96:313|253:352|302:265|302:265|333:318|389:335|522:340|543:182|449:70|258:166|258:166|306:143|364:175,1,1050.00004005432,6|0,3:2|0:2,0:2:0:0:
467,72,204696,6,0,L|491:-8,1,75.0000028610231,8|2,3:2|0:2,0:2:0:0:
481,2,205208,1,2,0:2:0:0:
474,6,205281,6,0,P|439:-5|377:37,1,66.6666666666667,2|2,0:2|0:2,0:2:0:0:
315,77,205476,1,2,0:2:0:0:
315,77,205574,2,0,P|346:87|378:81,2,66.6666666666667,2|2|2,0:2|0:2|0:2,0:2:0:0:
56,368,205867,6,0,B|122:218|44:32|44:32|70:94|94:111|94:111|181:104|229:42|229:42|162:126|173:183|173:183|246:138|340:177|340:177|268:189|211:259|211:259|238:246|276:253,1,1125.00004291535,6|0,3:2|0:2,0:2:0:0:
244,331,207037,6,0,P|201:342|189:340,2,50,8|0|0,0:2|0:2|0:2,0:2:0:0:
321,304,207476,2,0,P|324:315|324:325,8,12.5,2|0|0|0|0|0|0|0|0,0:2|0:2|0:2|0:2|0:2|0:2|0:2|0:2|0:2,0:2:0:0:
487,48,207915,6,0,B|350:-16|378:120|215:44,1,262.500010013581,2|0,0:2|0:2,0:2:0:0:
236,53,208208,6,0,P|396:134|250:181,1,412.500015735627,6|0,3:2|0:2,0:2:0:0:
265,191,208647,2,0,P|302:223|188:236,1,275,2|0,0:2|0:2,0:2:0:0:
187,240,209086,2,0,P|155:265|106:242,1,100,2|0,3:2|3:2,0:2:0:0:
431,353,209379,6,0,B|420:233|497:296|486:162,1,200,12|0,0:2|0:2,0:2:0:0:
265,191,209818,2,0,B|276:71|199:134|210:0,1,200,12|0,0:2|0:2,0:2:0:0:
467,36,210257,2,0,P|415:66|377:162,1,150,12|0,0:2|0:2,0:2:0:0:
377,144,210549,6,0,B|500:132|530:220|530:220|479:306|366:256|366:256|473:310|477:365,1,525.000020027161,6|0,3:2|0:2,0:2:0:0:
362,363,211135,2,0,B|263:379|186:351|163:250|163:250|286:112|286:112|275:173|306:211,1,525.000020027161,10|0,0:2|0:2,0:2:0:0:
282,273,211720,5,2,3:2:0:0:
130,157,211867,1,2,0:2:0:0:
130,157,212013,1,2,0:2:0:0:
102,376,212159,1,2,0:2:0:0:
102,376,212232,1,2,0:2:0:0:
102,376,212306,6,0,P|98:329|88:294,2,75.0000028610231,10|0|0,0:2|0:2|0:2,0:2:0:0:
16,263,212525,2,0,P|7:299|4:336,2,75.0000028610231,2|0|0,0:2|0:2|0:2,0:2:0:0:
86,220,212745,1,2,3:2:0:0:
512,79,212891,6,0,B|406:141|298:22|298:22|375:107|369:151|369:151|309:181|231:126,1,525.000020027161,4|0,3:2|0:2,0:2:0:0:
42,114,213476,2,0,B|-3:164|1:219|1:219|-32:158|-39:40|97:17|191:72|191:72|158:104|162:158,1,525.000020027161,8|0,0:2|0:2,0:2:0:0:
181,204,214062,5,2,3:2:0:0:
44,353,214208,2,0,B|41:353|91:361,3,37.5000014305115,2|0|0|0,0:2|0:2|0:2|0:2,0:2:0:0:
27,350,214354,1,2,0:2:0:0:
52,262,214501,2,0,B|126:277,1,75.0000028610231,2|0,3:2|0:2,0:2:0:0:
205,324,214647,5,10,0:2:0:0:
295,342,214793,1,2,0:2:0:0:
295,342,214867,1,2,0:2:0:0:
295,342,214940,2,0,B|342:348|342:348|347:353|347:353|450:362,2,100.000003814697,0|0|2,0:2|0:2|0:2,0:2:0:0:
112,135,215232,6,0,B|87:63|111:-2|111:-2|226:29|270:123|270:123|249:181|178:207|178:207|202:188|211:161,1,525.000020027161,6|0,3:2|0:2,0:2:0:0:
336,38,215818,2,0,B|422:0|498:28|498:28|565:145|469:237|469:237|398:223|359:137,1,525.000020027161,8|0,0:2|0:2,0:2:0:0:
196,161,216403,5,0,3:2:0:0:
207,170,216476,2,0,B|279:163|279:163|284:178|299:203,2,100,2|2|2,0:2|0:2|0:2,0:2:0:0:
200,186,216842,1,2,0:2:0:0:
125,224,216988,5,10,0:2:0:0:
195,269,217135,2,0,B|188:304|188:304|191:313|191:313|180:355,1,75,2|0,3:2|0:2,0:2:0:0:
168,361,217428,2,0,L|173:336,1,25,2|0,0:2|0:2,0:2:0:0:
348,340,217574,6,0,B|428:329|513:378|513:378|432:247|316:246|316:246|382:248|453:183,1,525.000020027161,4|0,3:2|0:2,0:2:0:0:
352,71,218159,2,0,P|278:126|374:122,1,225.000008583069,8|0,0:2|0:2,0:2:0:0:
428,101,218452,5,0,3:2:0:0:
428,101,218598,1,0,3:2:0:0:
231,23,218745,6,0,B|127:34|127:34|120:47|120:47|-12:58,1,225.000008583069,10|0,0:2|0:2,0:2:0:0:
10,80,219037,1,0,3:2:0:0:
238,135,219184,6,0,B|134:146|134:146|127:159|127:159|-5:170,1,225.000008583069,10|0,0:2|0:2,0:2:0:0:
17,192,219476,1,0,3:2:0:0:
246,243,219623,6,0,B|142:254|142:254|135:267|135:267|3:278,1,225.000008583069,10|0,0:2|0:2,0:2:0:0:
25,300,219915,5,0,3:2:0:0:
42,310,220208,2,0,L|53:386,1,75.0000028610231,2|0,0:2|0:2,0:2:0:0:
56,47,220501,6,0,B|215:92|231:-41|425:24|425:24|385:115|284:109,1,525.000020027161,12|0,0:2|0:2,0:2:0:0:
233,113,221086,5,2,3:2:0:0:
398,171,221232,1,2,0:2:0:0:
261,285,221379,1,2,0:2:0:0:
294,193,221525,6,0,B|337:222|337:222|343:334,2,150.000005722046,2|8|2,0:2|0:2|0:2,0:2:0:0:
276,193,221867,1,2,0:2:0:0:
257,195,221915,1,2,0:2:0:0:
241,196,221964,6,0,P|165:209|105:222,2,100.000003814697,2|2|2,0:2|0:2|0:2,0:2:0:0:
436,358,222257,6,0,B|335:177|487:37|487:37|419:131|464:260,1,525.000020027161,4|0,3:2|0:2,0:2:0:0:
317,302,222842,2,0,B|211:273|50:334|50:334|211:273|287:153,1,525.000020027161,8|0,0:2|0:2,0:2:0:0:
296,96,223428,6,0,L|117:71,1,175,0|0,3:2|0:2,0:2:0:0:
22,175,224013,5,10,0:2:0:0:
44,102,224110,1,2,0:2:0:0:
98,157,224208,1,2,0:2:0:0:
105,272,224306,5,2,0:2:0:0:
74,236,224404,1,2,0:2:0:0:
58,281,224501,1,2,0:2:0:0:
97,352,224598,5,8,0:2:0:0:
403,207,224745,2,0,B|352:188|352:188|301:201|301:201|190:170,1,150.000005722046,2|0,3:2|0:2,0:2:0:0:
105,359,225037,1,0,3:2:0:0:
105,359,225110,1,0,3:2:0:0:
105,359,225184,1,10,0:2:0:0:
402,305,225330,2,0,B|351:286|351:286|300:299|300:299|189:268,1,150.000005722046,2|0,3:2|0:2,0:2:0:0:
36,286,225623,1,0,3:2:0:0:
36,286,225696,1,0,3:2:0:0:
36,286,225770,5,10,0:2:0:0:
108,38,225915,2,0,B|127:89|127:89|114:140|114:140|145:251,1,150.000005722046,2|0,3:2|0:2,0:2:0:0:
465,303,226208,1,0,3:2:0:0:
465,303,226281,1,0,3:2:0:0:
465,303,226355,1,10,0:2:0:0:
404,38,226500,2,0,B|385:89|385:89|398:140|398:140|367:251,1,150.000005722046,2|0,3:2|0:2,0:2:0:0:
247,370,226793,1,0,3:2:0:0:
247,370,226867,1,0,3:2:0:0:
247,370,226940,6,0,B|211:266|291:284|245:188,1,187.5,10|0,0:2|0:2,0:2:0:0:
240,173,228110,5,2,0:2:0:0:
208,192,228183,1,2,0:2:0:0:
171,195,228256,1,2,0:2:0:0:
136,181,228329,1,2,0:2:0:0:
111,153,228402,1,2,0:2:0:0:
101,118,228475,1,2,0:2:0:0:
108,81,228549,1,2,0:2:0:0:
130,51,228622,1,2,0:2:0:0:
164,35,228696,5,2,0:2:0:0:
178,69,228769,1,2,0:2:0:0:
178,107,228842,1,2,0:2:0:0:
163,141,228915,1,2,0:2:0:0:
143,173,228988,1,2,0:2:0:0:
126,206,229061,1,2,0:2:0:0:
118,242,229135,1,2,0:2:0:0:
120,280,229208,1,2,0:2:0:0:
131,316,229281,5,2,3:2:0:0:
55,160,245379,6,0,L|177:149,1,112.500004291535,2|0,0:2|0:2,0:2:0:0:
180,169,245671,5,0,3:2:0:0:
294,112,245818,1,0,1:2:0:0:
299,93,245891,1,0,1:2:0:0:
304,79,245964,6,0,L|295:21,1,37.5000014305115,8|0,0:2|0:2,0:2:0:0:
387,65,246110,2,0,L|378:7,1,37.5000014305115,0|0,3:2|0:2,0:2:0:0:
469,51,246257,2,0,L|460:-7,1,37.5000014305115,0|0,3:2|0:2,0:2:0:0:
441,141,246403,1,8,0:2:0:0:
441,141,246476,1,0,0:2:0:0:
441,141,246549,6,0,L|448:177,1,37.5000014305115,0|0,1:2|0:2,0:2:0:0:
369,182,246696,2,0,L|361:145,1,37.5000014305115,0|0,1:2|0:2,0:2:0:0:
443,258,246842,5,2,1:2:0:0:
443,258,246915,1,2,1:2:0:0:
443,258,246988,2,0,L|376:269,1,37.5000014305115,10|0,0:2|0:2,0:2:0:0:
458,336,247135,5,2,0:2:0:0:
458,336,247208,2,0,L|391:347,1,37.5000014305115,10|0,0:2|0:2,0:2:0:0:
178,365,247354,5,2,1:2:0:0:
178,365,247428,2,0,B|200:345|200:345|278:363|278:363|309:338,1,140,2|0,0:2|0:2,0:2:0:0:
301,344,248013,6,0,L|294:257,1,75.0000028610231,6|0,3:2|0:2,0:2:0:0:
91,302,248159,2,0,L|85:377,1,75.0000028610231,6|0,3:2|0:2,0:2:0:0:
409,193,248452,6,0,B|362:163|362:163|312:156|312:156|276:167|276:167|275:173|275:173|237:186|237:186|181:183|181:183|126:138,1,300.000011444092,4|0,3:2|0:2,0:2:0:0:
223,92,248891,6,0,B|226:63|226:63|237:47|237:47|241:7,1,75.0000028610231,6|0,3:2|0:2,0:2:0:0:
74,230,249037,2,0,B|76:256|76:256|87:272|87:272|90:301,1,75.0000028610231,4|0,3:2|0:2,0:2:0:0:
301,344,249330,6,0,B|410:302|408:193|408:193|437:266|495:275,1,300.000011444092,6|0,3:2|0:2,0:2:0:0:
295,241,249769,5,2,0:2:0:0:
260,234,249915,1,2,0:2:0:0:
225,227,250062,1,2,0:2:0:0:
192,220,250208,1,2,0:2:0:0:
455,178,250354,6,0,P|476:104|480:82,1,75.0000028610231,6|0,3:2|0:2,0:2:0:0:
225,95,250501,2,0,P|204:21|200:-1,1,75.0000028610231,6|0,3:2|0:2,0:2:0:0:
296,359,250793,6,0,P|333:240|343:45,1,300.000011444092,6|0,3:2|0:2,0:2:0:0:
105,99,251232,6,0,L|20:73,1,75.0000028610231,6|0,3:2|0:2,0:2:0:0:
344,65,251379,2,0,L|429:39,1,75.0000028610231,6|0,3:2|0:2,0:2:0:0:
8,174,251671,6,0,L|80:196,1,75.0000028610231,6|0,3:2|0:2,0:2:0:0:
402,148,251891,2,0,L|487:122,1,75.0000028610231,6|0,3:2|0:2,0:2:0:0:
232,353,252110,6,0,P|240:333|240:318,1,35,2|0,3:2|0:2,0:2:0:0:
240,319,252696,6,0,P|331:335|334:350,1,75.0000028610231,6|0,3:2|0:2,0:2:0:0:
402,148,252842,2,0,P|432:169|441:204,1,75.0000028610231,6|0,3:2|0:2,0:2:0:0:
176,260,253135,6,0,B|128:347|128:347|107:106,1,300.000011444092,6|0,3:2|0:2,0:2:0:0:
213,25,253574,6,0,L|186:132,1,75.0000028610231,6|0,3:2|0:2,0:2:0:0:
19,106,253720,2,0,L|0:33,1,75.0000028610231,6|0,3:2|0:2,0:2:0:0:
176,260,254013,6,0,B|325:233|325:233|368:307|368:307|284:360,1,300.000011444092,6|0,3:2|0:2,0:2:0:0:
27,318,254452,5,2,0:2:0:0:
36,359,254598,1,2,0:2:0:0:
76,352,254745,1,2,0:2:0:0:
68,309,254891,1,2,0:2:0:0:
324,235,255037,6,0,P|348:139|347:125,1,75.0000028610231,6|0,3:2|0:2,0:2:0:0:
240,75,255184,2,0,P|232:38|216:4,1,75.0000028610231,6|0,3:2|0:2,0:2:0:0:
31,179,255476,6,0,B|-13:231|-13:231|249:166,1,300.000011444092,6|0,3:2|0:2,0:2:0:0:
486,329,255915,6,0,L|368:308,1,75.0000028610231,6|0,3:2|0:2,0:2:0:0:
438,62,256062,2,0,L|512:76,1,75.0000028610231,6|0,3:2|0:2,0:2:0:0:
338,301,256354,6,0,L|412:315,1,75.0000028610231,6|0,3:2|0:2,0:2:0:0:
364,49,256574,2,0,L|437:62,1,75.0000028610231,6|0,3:2|0:2,0:2:0:0:
261,126,256793,6,0,B|228:162|234:207|234:207|200:185|212:132,1,150.000005722046,2|0,3:2|0:2,0:2:0:0:
158,122,257013,2,0,B|205:132|241:104|241:104|239:145|187:161,1,150.000005722046,2|0,0:2|0:2,0:2:0:0:
206,212,257232,2,0,B|191:165|149:148|149:148|185:129|225:166,1,150.000005722046,2|0,0:2|0:2,0:2:0:0:
196,303,257379,6,0,L|181:387,1,75.0000028610231,6|0,3:2|0:2,0:2:0:0:
82,91,257525,2,0,L|67:7,1,75.0000028610231,6|0,3:2|0:2,0:2:0:0:
45,349,257818,6,0,B|24:234|24:234|221:210,1,300.000011444092,6|0,3:2|0:2,0:2:0:0:
480,31,258257,6,0,P|438:115|442:135,1,75.0000028610231,6|0,3:2|0:2,0:2:0:0:
480,353,258403,2,0,P|438:269|442:249,1,75.0000028610231,6|0,3:2|0:2,0:2:0:0:
333,0,258696,6,0,B|296:38|243:57|243:57|307:81|342:119|342:119|293:147|292:207,1,300.000011444092,6|0,3:2|0:2,0:2:0:0:
291,365,259135,5,2,0:2:0:0:
286,339,259281,1,2,0:2:0:0:
282,314,259428,1,2,0:2:0:0:
277,287,259574,1,2,0:2:0:0:
118,347,259720,6,0,L|10:335,1,75.0000028610231,6|0,3:2|0:2,0:2:0:0:
386,321,259867,2,0,L|460:329,1,75.0000028610231,6|0,3:2|0:2,0:2:0:0:
165,127,260159,6,0,B|114:125|44:161|44:161|89:231|89:231|144:208|196:205,1,300.000011444092,6|0,3:2|0:2,0:2:0:0:
320,101,260598,6,0,P|333:67|338:-1,1,75.0000028610231,6|0,3:2|0:2,0:2:0:0:
386,321,260745,2,0,P|419:306|470:261,1,75.0000028610231,6|0,3:2|0:2,0:2:0:0:
194,0,261037,6,0,P|216:29|232:64,1,75.0000028610231,6|0,3:2|0:2,0:2:0:0:
398,203,261257,2,0,P|411:167|417:130,1,75.0000028610231,6|0,3:2|0:2,0:2:0:0:
201,353,261476,6,0,L|202:363,3,10,6|0|0|0,3:2|0:2|0:2|0:2,0:2:0:0:
104,310,262062,6,0,P|99:327|99:383,1,75.0000028610231,6|0,3:2|0:2,0:2:0:0:
245,224,262208,2,0,P|247:186|240:150,1,75.0000028610231,6|0,3:2|0:2,0:2:0:0:
136,199,262354,1,2,1:2:0:0:
136,199,262428,1,2,1:2:0:0:
136,199,262501,6,0,B|16:239|16:239|-6:117|-6:117|87:71,1,300.000011444092,6|0,3:2|1:2,0:2:0:0:
124,72,262867,1,0,1:2:0:0:
124,72,262940,2,0,L|136:-11,1,75.0000028610231,6|0,3:2|0:2,0:2:0:0:
240,150,263086,2,0,L|250:224,1,75.0000028610231,6|0,3:2|0:2,0:2:0:0:
365,66,263232,5,0,1:2:0:0:
365,66,263306,1,0,0:2:0:0:
365,66,263379,2,0,B|419:44|447:58|447:58|489:100|479:149|479:149|392:165|398:269,1,300.000011444092,6|0,3:2|0:2,0:2:0:0:
343,318,263745,1,0,0:2:0:0:
343,318,263818,6,0,L|524:341,1,150.000005722046,0|0,1:2|1:2,0:2:0:0:
181,353,264110,2,0,L|0:376,1,150.000005722046,0|0,1:2|0:2,0:2:0:0:
189,200,264403,6,0,L|166:289,1,75.0000028610231,6|0,3:2|0:2,0:2:0:0:
355,226,264549,2,0,L|336:153,1,75.0000028610231,6|0,3:2|0:2,0:2:0:0:
302,37,264696,1,0,1:2:0:0:
302,37,264769,1,0,0:2:0:0:
302,37,264842,6,0,B|184:7|184:7|151:26,1,150.000005722046,6|0,3:2|0:2,0:2:0:0:
33,181,265135,1,0,0:2:0:0:
33,181,265208,1,0,0:2:0:0:
33,181,265281,2,0,L|50:83,1,75.0000028610231,6|0,3:2|0:2,0:2:0:0:
176,126,265428,2,0,L|211:307,1,150.000005722046,6|0,3:2|0:2,0:2:0:0:
310,344,265671,5,2,3:2:0:0:
310,344,265769,2,0,L|446:331,1,100.000003814697,2|2,3:2|0:2,0:2:0:0:
488,189,265964,5,2,3:2:0:0:
412,105,266062,5,2,3:2:0:0:
377,212,266159,5,2,3:2:0:0:
505,38,266354,1,2,3:2:0:0:
299,72,266549,1,2,3:2:0:0:
456,303,266745,5,6,3:2:0:0:
177,93,269086,6,0,B|184:48|160:0|160:0|184:48|222:80,1,200,2|0,0:2|0:2,0:2:0:0:
365,221,269476,2,0,B|401:250|455:253|455:253|401:250|355:267,1,200,0|0,0:2|0:2,0:2:0:0:
137,296,269867,2,0,B|94:313|64:359|64:359|94:313|103:265,1,200,0|0,0:2|0:2,0:2:0:0:
223,153,270257,6,0,B|268:109|333:154|333:154|306:120|332:82,1,200,2|0,0:2|0:2,0:2:0:0:
281,224,270647,2,0,B|297:285|225:319|225:319|273:316|289:354,1,200,0|0,0:2|0:2,0:2:0:0:
187,234,271037,2,0,B|126:218|133:139|133:139|110:182|68:176,1,200,0|0,0:2|0:2,0:2:0:0:
21,237,271428,6,0,L|36:317,1,75.0000028610231,2|0,3:2|0:2,0:2:0:0:
119,283,271720,2,0,L|134:363,1,75.0000028610231,0|0,3:2|0:2,0:2:0:0:
71,96,272013,2,0,L|86:176,1,75.0000028610231,0|0,3:2|0:2,0:2:0:0:
169,142,272305,2,0,L|184:222,1,75.0000028610231,0|0,3:2|0:2,0:2:0:0:
321,217,272598,6,0,L|336:137,1,75.0000028610231,0|0,3:2|0:2,0:2:0:0:
419,171,272890,2,0,L|434:91,1,75.0000028610231,0|0,3:2|0:2,0:2:0:0:
371,358,273183,2,0,L|386:278,1,75.0000028610231,0|0,3:2|0:2,0:2:0:0:
469,312,273476,2,0,L|484:232,1,75.0000028610231,0|0,3:2|0:2,0:2:0:0:
167,81,273769,6,0,P|142:83|120:73,1,50,8|0,3:2|0:2,0:2:0:0:
345,81,273915,2,0,P|369:82|392:72,1,50,8|0,3:2|0:2,0:2:0:0:
191,160,274062,2,0,P|175:178|153:189,1,50,8|0,3:2|0:2,0:2:0:0:
319,160,274208,2,0,P|336:179|359:189,1,50,8|0,3:2|0:2,0:2:0:0:
72,151,274354,6,0,P|50:163|32:180,1,50,8|0,3:2|0:2,0:2:0:0:
439,151,274501,2,0,P|461:163|480:180,1,50,8|0,3:2|0:2,0:2:0:0:
88,246,274647,2,0,P|81:270|80:295,1,50,8|0,3:2|0:2,0:2:0:0:
422,246,274793,2,0,P|429:270|432:295,1,50,8|0,3:2|0:2,0:2:0:0:
256,32,274940,5,8,3:2:0:0:
256,96,275013,1,8,3:2:0:0:
256,160,275086,1,8,3:2:0:0:
256,224,275159,1,8,3:2:0:0:
256,288,275232,2,0,L|256:320,6,25,0|0|0|0|0|0|0,3:2|3:2|3:2|3:2|3:2|3:2|3:2,0:2:0:0:
208,80,275525,5,2,0:2:0:0:
256,160,275745,5,2,0:2:0:0:
304,80,275964,5,2,0:2:0:0:
258,350,276110,5,4,3:2:0:0:
64,231,276257,1,2,0:2:0:0:
64,231,276330,1,2,0:2:0:0:
64,231,276403,2,0,P|41:300|56:342,1,75.0000028610231,2|0,3:2|0:2,0:2:0:0:
258,350,276549,2,0,P|276:317|280:280,1,75.0000028610231,2|0,0:2|0:2,0:2:0:0:
182,207,276696,6,0,L|143:387,1,150.000005722046,2|0,3:2|0:2,0:2:0:0:
150,353,276915,1,2,0:2:0:0:
150,353,276988,1,0,3:2:0:0:
110,151,277135,2,0,L|14:132,1,75.0000028610231,2|0,0:2|0:2,0:2:0:0:
182,207,277281,1,0,3:2:0:0:
461,101,277428,5,2,0:2:0:0:
461,101,277501,1,2,0:2:0:0:
461,101,277574,2,0,L|436:5,1,75.0000028610231,2|0,3:2|0:2,0:2:0:0:
494,267,277720,2,0,L|512:339,1,75.0000028610231,0|0,0:2|0:2,0:2:0:0:
431,193,277867,6,0,B|317:223|317:223|271:180,1,150.000005722046,2|0,3:2|0:2,0:2:0:0:
293,201,278086,1,2,0:2:0:0:
293,201,278159,1,0,3:2:0:0:
349,46,278306,2,0,L|367:118,1,75.0000028610231,2|0,0:2|0:2,0:2:0:0:
412,293,278452,5,0,3:2:0:0:
275,119,278598,1,2,0:2:0:0:
275,119,278671,1,2,0:2:0:0:
275,119,278745,2,0,L|171:107,1,75.0000028610231,2|0,3:2|0:2,0:2:0:0:
220,318,278891,2,0,L|294:309,1,75.0000028610231,2|0,0:2|0:2,0:2:0:0:
130,297,279037,6,0,B|106:328|107:372|107:372|99:334|71:303,1,150.000005722046,2|0,3:2|0:2,0:2:0:0:
76,309,279257,1,2,0:2:0:0:
76,309,279330,1,0,3:2:0:0:
30,188,279476,2,0,L|198:217,1,150.000005722046,2|0,0:2|3:2,0:2:0:0:
349,63,279769,5,2,0:2:0:0:
349,63,279842,1,2,0:2:0:0:
349,63,279915,2,0,L|232:33,1,75.0000028610231,2|0,3:2|0:2,0:2:0:0:
439,81,280062,2,0,L|511:99,1,75.0000028610231,2|0,0:2|0:2,0:2:0:0:
498,335,280208,6,0,B|466:359|466:359|391:330|391:330|368:253,1,150.000005722046,2|0,3:2|0:2,0:2:0:0:
382,301,280428,1,2,0:2:0:0:
382,301,280501,2,0,L|372:375,1,75.0000028610231,0|0,3:2|0:2,0:2:0:0:
448,247,280647,2,0,L|434:141,1,75.0000028610231,2|0,0:2|0:2,0:2:0:0:
439,81,280793,1,0,3:2:0:0:
177,213,280940,6,0,P|140:178|154:110,1,75.0000028610231,2|0,0:2|0:2,0:2:0:0:
0,104,281086,2,0,P|48:89|100:135,1,75.0000028610231,2|0,3:2|0:2,0:2:0:0:
186,9,281232,2,0,P|174:58|108:80,1,75.0000028610231,2|0,0:2|0:2,0:2:0:0:
25,334,281379,6,0,L|44:178,1,150.000005722046,2|0,3:2|0:2,0:2:0:0:
43,185,281598,1,2,0:2:0:0:
43,185,281671,1,0,3:2:0:0:
235,134,281818,2,0,B|324:163|307:83|420:139,1,150.000005722046,2|0,0:2|3:2,0:2:0:0:
410,299,282110,6,0,L|485:311,1,75.0000028610231,2|0,0:2|0:2,0:2:0:0:
326,364,282257,2,0,L|251:352,1,75.0000028610231,2|0,3:2|0:2,0:2:0:0:
168,259,282403,1,2,0:2:0:0:
168,259,282476,1,2,0:2:0:0:
168,259,282549,6,0,B|273:235|273:235|322:294,1,150.000005722046,2|0,3:2|0:2,0:2:0:0:
300,267,282769,1,2,0:2:0:0:
300,267,282842,1,0,3:2:0:0:
512,51,282988,2,0,L|359:25,1,150.000005722046,2|0,0:2|3:2,0:2:0:0:
27,42,283281,6,0,B|55:13|55:13|143:25,1,75.0000028610231,2|0,0:2|0:2,0:2:0:0:
210,96,283428,2,0,B|221:134|221:134|166:204,1,75.0000028610231,2|0,3:2|0:2,0:2:0:0:
65,215,283574,2,0,B|25:205|25:205|-7:123,1,75.0000028610231,2|0,0:2|0:2,0:2:0:0:
108,116,283720,6,0,L|321:139,1,150.000005722046,2|0,3:2|0:2,0:2:0:0:
257,132,283940,1,2,0:2:0:0:
257,132,284013,1,0,3:2:0:0:
177,351,284159,2,0,B|176:294|176:294|155:264|155:264|155:174,1,150.000005722046,2|0,0:2|3:2,0:2:0:0:
481,62,284452,5,2,0:2:0:0:
481,62,284525,1,2,0:2:0:0:
481,62,284598,2,0,L|369:46,1,75.0000028610231,2|0,3:2|0:2,0:2:0:0:
262,242,284745,5,2,0:2:0:0:
262,242,284818,1,2,0:2:0:0:
262,242,284891,2,0,B|292:271|292:271|428:228|428:228|473:263,1,225.000008583069,2|2,3:2|0:2,0:2:0:0:
460,252,285184,1,0,3:2:0:0:
315,351,285330,2,0,B|276:359|276:359|213:313,1,75.0000028610231,2|0,0:2|0:2,0:2:0:0:
108,116,285476,5,4,3:2:0:0:
82,375,285623,1,2,0:2:0:0:
82,375,285696,1,2,0:2:0:0:
82,375,285769,2,0,L|201:359,1,75.0000028610231,2|0,3:2|0:2,0:2:0:0:
262,242,285915,2,0,L|187:251,1,75.0000028610231,2|0,0:2|0:2,0:2:0:0:
8,224,286062,6,0,B|-32:276|-3:324|-3:324|10:294|58:261,1,150.000005722046,2|0,3:2|0:2,0:2:0:0:
21,290,286281,1,2,0:2:0:0:
21,290,286354,1,0,3:2:0:0:
218,162,286501,2,0,P|218:97|186:-1,1,150.000005722046,2|0,0:2|3:2,0:2:0:0:
60,72,286793,6,0,L|155:87,1,75.0000028610231,2|0,0:2|0:2,0:2:0:0:
383,128,286940,2,0,L|288:143,1,75.0000028610231,2|0,3:2|0:2,0:2:0:0:
138,231,287086,1,2,0:2:0:0:
138,231,287159,1,2,0:2:0:0:
138,231,287232,6,0,P|196:271|284:238,1,150.000005722046,2|0,3:2|0:2,0:2:0:0:
268,253,287452,1,2,0:2:0:0:
268,253,287525,1,0,3:2:0:0:
435,384,287671,2,0,P|452:300|479:231,1,150.000005722046,2|0,0:2|3:2,0:2:0:0:
466,43,287964,5,2,0:2:0:0:
466,43,288037,1,2,0:2:0:0:
466,43,288110,2,0,L|343:33,1,75.0000028610231,2|0,3:2|0:2,0:2:0:0:
217,20,288257,2,0,L|291:26,1,75.0000028610231,2|0,0:2|0:2,0:2:0:0:
479,142,288403,6,0,B|430:147|430:147|393:173|393:173|336:176,1,150.000005722046,2|0,3:2|0:2,0:2:0:0:
337,175,288623,1,2,0:2:0:0:
337,175,288696,1,0,3:2:0:0:
282,367,288842,2,0,P|310:286|248:251,1,150.000005722046,2|0,0:2|3:2,0:2:0:0:
31,97,289135,5,2,0:2:0:0:
31,97,289208,1,2,0:2:0:0:
31,97,289281,2,0,L|137:80,1,75.0000028610231,2|0,3:2|0:2,3:2:0:0:
196,325,289428,5,2,0:2:0:0:
196,325,289501,1,2,0:2:0:0:
196,325,289574,2,0,B|61:353|61:353|7:262,1,225.000008583069,2|2,3:2|0:2,0:2:0:0:
16,278,289867,1,0,3:2:0:0:
129,163,290013,2,0,L|109:268,1,75.0000028610231,2|0,0:2|0:2,0:2:0:0:
196,325,290159,5,2,3:2:0:0:
450,351,290306,1,2,3:2:0:0:
340,86,290452,2,0,L|332:186,1,75.0000028610231,2|2,3:2|0:2,0:2:0:0:
328,248,290598,2,0,L|320:348,1,75.0000028610231,2|0,0:2|0:2,0:2:0:0:
512,208,290745,6,0,B|438:161|438:161|412:252,1,150.000005722046,2|0,3:2|0:2,0:2:0:0:
420,220,290964,1,2,0:2:0:0:
420,220,291037,1,0,3:2:0:0:
339,85,291184,2,0,B|379:51|379:51|494:81,1,150.000005722046,2|0,0:2|3:2,0:2:0:0:
322,322,291476,6,0,P|282:342|223:300,1,75.0000028610231,2|0,0:2|0:2,0:2:0:0:
38,366,291623,2,0,P|40:321|106:291,1,75.0000028610231,2|0,3:2|0:2,0:2:0:0:
141,93,291769,2,0,P|178:117|171:189,1,75.0000028610231,2|0,0:2|0:2,0:2:0:0:
149,258,291915,6,0,B|123:223|123:223|248:257,1,150.000005722046,2|0,3:2|0:2,0:2:0:0:
225,250,292135,1,2,0:2:0:0:
225,250,292208,1,0,3:2:0:0:
35,210,292354,2,0,P|13:142|17:25,1,150.000005722046,2|0,0:2|3:2,0:2:0:0:
446,328,292720,5,2,3:2:0:0:
451,311,292793,2,0,L|417:207,1,75.0000028610231,2|0,3:2|0:2,0:2:0:0:
492,176,292940,2,0,L|458:72,1,75.0000028610231,2|0,3:2|0:2,0:2:0:0:
264,85,293086,6,0,B|336:153|336:153|380:78,1,150.000005722046,2|0,3:2|0:2,0:2:0:0:
397,36,293306,1,2,3:2:0:0:
397,36,293379,1,0,3:2:0:0:
406,214,293525,1,2,3:2:0:0:
264,85,293671,6,0,B|149:49|207:165|50:122,1,200,2|0,3:2|0:2,0:2:0:0:
31,192,294110,1,0,3:2:0:0:
31,192,294257,6,0,P|22:258|17:288,1,50,10|0,3:2|0:2,0:2:0:0:
113,49,294476,2,0,P|104:-17|99:-47,1,50,10|0,0:2|0:2,0:2:0:0:
236,167,294696,2,0,P|239:191|242:216,1,50,10|0,0:2|0:2,0:2:0:0:
495,79,294842,6,0,B|428:15|346:60|346:60|397:139,1,225.000008583069,2|0,3:2|0:2,0:2:0:0:
411,265,295135,6,0,B|436:314|436:314|509:269|462:179,1,187.500007152558,2|0,3:2|0:2,0:2:0:0:
471,199,295574,6,0,L|400:177,1,50,0|0,3:2|0:2,0:2:0:0:
215,311,295720,2,0,B|180:358|180:358|287:408|359:292,1,225.000008583069,6|0,3:2|0:2,0:2:0:0:
263,242,296013,2,0,P|188:230|152:257,1,75.0000028610231,0|0,3:2|0:2,0:2:0:0:
57,274,296159,5,0,3:2:0:0:
63,323,296232,1,0,3:2:0:0:
72,368,296306,2,0,L|94:264,1,75.0000028610231,2|0,3:2|0:2,0:2:0:0:
121,132,296452,2,0,L|105:205,1,75.0000028610231,2|0,0:2|0:2,0:2:0:0:
263,242,296598,6,0,B|298:204|343:230|343:230|388:211|357:126,1,150.000005722046,2|0,3:2|0:2,0:2:0:0:
369,179,296818,1,2,0:2:0:0:
369,179,296891,1,0,3:2:0:0:
512,50,297037,2,0,P|501:69|379:66,1,150.000005722046,2|0,0:2|3:2,0:2:0:0:
121,132,297330,6,0,P|155:105|220:114,1,75.0000028610231,2|0,0:2|0:2,0:2:0:0:
263,242,297476,2,0,P|222:226|197:165,1,75.0000028610231,2|0,3:2|0:2,0:2:0:0:
287,54,297623,2,0,P|293:96|253:148,1,75.0000028610231,2|0,0:2|0:2,0:2:0:0:
54,197,297769,6,0,P|31:102|85:52,1,150.000005722046,2|0,3:2|0:2,0:2:0:0:
58,65,297988,1,2,0:2:0:0:
58,65,298062,1,0,3:2:0:0:
263,242,298208,2,0,B|299:261|299:261|374:235|374:235|441:264,1,150.000005722046,2|0,0:2|3:2,0:2:0:0:
208,368,298501,6,0,L|192:248,1,75.0000028610231,2|0,0:2|0:2,0:2:0:0:
493,253,298647,2,0,L|483:327,1,75.0000028610231,2|0,3:2|0:2,0:2:0:0:
262,241,298793,2,0,L|272:167,1,75.0000028610231,2|0,0:2|0:2,0:2:0:0:
491,113,298940,6,0,B|451:156|451:156|327:119,1,150.000005722046,2|0,3:2|0:2,0:2:0:0:
345,19,299159,2,0,B|305:62|305:62|181:25,1,150.000005722046,2|0,3:2|0:2,0:2:0:0:
64,73,299379,2,0,B|93:45|93:45|146:65,1,75.0000028610231,2|0,3:2|0:2,0:2:0:0:
359,308,299525,6,0,P|375:343|343:321,1,100.000003814697,10|0,3:2|0:2,0:2:0:0:
164,284,299720,2,0,P|131:262|148:297,1,100.000003814697,10|0,3:2|0:2,0:2:0:0:
254,355,299915,2,0,P|218:371|240:339,1,100.000003814697,10|0,3:2|0:2,0:2:0:0:
367,199,300110,2,0,P|402:182|380:214,1,100.000003814697,10|0,3:2|0:2,0:2:0:0:
385,215,300403,6,0,B|362:162|362:162|368:132|368:132|343:70,1,150.000005722046,6|0,3:2|0:2,0:2:0:0:
344,74,300623,1,0,0:2:0:0:
344,74,300696,1,0,3:2:0:0:
359,308,300842,6,0,P|391:324|440:334,1,75.0000028610231,2|0,0:2|0:2,0:2:0:0:
344,74,300988,2,0,P|380:65|413:48,1,75.0000028610231,2|0,3:2|0:2,0:2:0:0:
272,200,301135,1,2,0:2:0:0:
272,200,301208,1,2,0:2:0:0:
272,200,301281,6,0,B|229:215|229:215|167:184|167:184|101:203,1,150.000005722046,2|0,3:2|0:2,0:2:0:0:
133,193,301501,1,2,0:2:0:0:
133,193,301574,1,0,3:2:0:0:
27,365,301720,2,0,P|54:315|8:183,1,150.000005722046,2|0,0:2|3:2,0:2:0:0:
194,82,302013,6,0,P|199:133|218:194,1,75.0000028610231,2|0,0:2|0:2,0:2:0:0:
412,343,302159,2,0,P|383:367|269:257,1,225.000008583069,10|0,3:2|0:2,0:2:0:0:
338,227,302452,1,2,3:2:0:0:
338,227,302598,1,0,3:2:0:0:
44,225,302745,2,0,P|73:249|187:139,1,225.000008583069,10|0,0:2|0:2,0:2:0:0:
119,107,303037,5,0,3:2:0:0:
119,107,303184,1,0,3:2:0:0:
106,350,303330,2,0,P|143:347|197:325,1,75.0000028610231,10|0,0:2|0:2,0:2:0:0:
410,241,303476,2,0,P|373:238|319:216,1,75.0000028610231,0|0,3:2|0:2,0:2:0:0:
213,9,303623,2,0,L|192:157,1,150.000005722046,10|0,3:2|3:2,0:2:0:0:
281,384,303915,5,10,3:2:0:0:
278,339,303988,1,10,0:2:0:0:
275,295,304062,1,2,3:2:0:0:
173,171,304208,6,0,L|152:230,1,37.5000014305115,0|0,3:2|3:2,0:2:0:0:
144,172,304281,2,0,L|170:228,1,37.5000014305115,0|0,3:2|3:2,0:2:0:0:
124,193,304354,2,0,L|183:214,1,37.5000014305115,0|0,3:2|3:2,0:2:0:0:
125,221,304428,2,0,L|181:194,1,37.5000014305115,0|0,3:2|3:2,0:2:0:0:
143,238,304501,2,0,P|207:226|222:163,2,100.000003814697,0|0|0,3:2|3:2|3:2,0:2:0:0:
91,180,304793,5,0,3:2:0:0:
91,180,304940,1,0,3:2:0:0:
281,384,305086,6,0,L|315:208,1,150.000005722046,14|0,3:2|0:2,0:2:0:0:
119,327,305379,2,0,L|85:151,1,150.000005722046,10|0,3:2|0:2,0:2:0:0:
378,312,305671,2,0,L|412:136,1,150.000005722046,10|0,3:2|0:2,0:2:0:0:
21,221,305964,2,0,L|2:70,1,150.000005722046,10|0,3:2|0:2,0:2:0:0:
3,72,306184,1,2,0:2:0:0:
3,72,306257,1,8,3:2:0:0:
119,327,306403,1,2,0:2:0:0:
484,66,306549,6,0,B|362:43|362:43|315:100,1,150.000005722046,10|0,3:2|0:2,0:2:0:0:
21,221,306842,2,0,B|143:198|143:198|190:255,1,150.000005722046,10|0,3:2|0:2,0:2:0:0:
499,166,307135,2,0,B|377:143|377:143|330:200,1,150.000005722046,10|0,3:2|0:2,0:2:0:0:
360,162,307354,1,2,0:2:0:0:
360,162,307428,1,8,3:2:0:0:
437,375,307574,1,2,0:2:0:0:
119,327,307720,6,0,L|241:302,1,75.0000028610231,10|0,3:2|0:2,0:2:0:0:
302,288,307867,2,0,L|219:194,1,75.0000028610231,2|0,0:2|0:2,0:2:0:0:
183,146,308013,2,0,L|143:264,1,75.0000028610231,2|0,3:2|0:2,0:2:0:0:
119,327,308159,1,2,0:2:0:0:
343,18,308306,5,10,3:2:0:0:
431,1,308403,1,10,0:2:0:0:
488,70,308501,1,10,0:2:0:0:
457,155,308598,1,10,0:2:0:0:
369,170,308696,1,10,0:2:0:0:
311,101,308793,1,10,0:2:0:0:
343,18,308891,6,0,B|394:63|394:63|364:200,1,150.000005722046,10|0,3:2|0:2,0:2:0:0:
332,303,309110,2,0,B|281:258|281:258|311:121,1,150.000005722046,10|0,3:2|0:2,0:2:0:0:
311,101,309330,1,10,3:2:0:0:
137,320,309476,6,0,B|89:299|89:299|51:313|51:313|-11:283,1,150.000005722046,10|0,3:2|0:2,0:2:0:0:
13,190,309696,2,0,B|64:214|64:214|102:200|102:200|150:221,1,150.000005722046,10|0,3:2|0:2,0:2:0:0:
208,277,309915,1,10,3:2:0:0:
390,344,310062,5,8,3:2:0:0:
441,313,310135,1,8,3:2:0:0:
473,263,310208,1,8,3:2:0:0:
480,204,310281,1,8,3:2:0:0:
460,148,310354,1,8,3:2:0:0:
417,107,310427,1,8,3:2:0:0:
360,90,310501,1,8,3:2:0:0:
301,99,310574,1,8,3:2:0:0:
263,135,310647,5,8,3:2:0:0:
266,180,310720,1,8,3:2:0:0:
300,202,310793,1,8,3:2:0:0:
332,195,310867,1,8,3:2:0:0:
346,173,310940,6,0,P|355:147|356:123,6,37.5000014305115,8|8|8|8|8|8|8,3:2|3:2|3:2|3:2|3:2|3:2|3:2,0:2:0:0:
263,135,311232,5,0,3:2:0:0:
166,225,311525,5,2,0:2:0:0:
166,225,311671,1,2,0:2:0:0:
175,137,311818,5,2,0:2:0:0:
82,271,311964,1,2,0:2:0:0:
244,284,312110,1,2,0:2:0:0:
70,164,312257,5,2,0:2:0:0:
154,340,312403,1,2,0:2:0:0:
266,180,312549,1,2,0:2:0:0:
47,301,312696,5,2,0:2:0:0:
177,114,312842,1,2,0:2:0:0:
274,320,312988,1,2,0:2:0:0:
167,224,313135,5,2,0:2:0:0:
167,224,313208,1,2,0:2:0:0:
167,224,313281,1,2,0:2:0:0:
167,224,313574,5,2,0:2:0:0:
167,224,315330,5,2,0:2:0:0:
26,2,315915,5,2,0:2:0:0:
26,2,316062,6,0,L|51:-1,1,20,2|0,0:2|0:2,0:2:0:0:
43,74,316354,6,0,L|84:68,1,40,2|0,0:2|0:2,0:2:0:0:
67,152,316647,6,0,L|146:142,1,59.9999981689454,2|0,0:2|0:2,0:2:0:0:
97,229,316940,6,0,L|176:219,1,80,2|0,0:2|0:2,0:2:0:0:
131,306,317232,6,0,L|245:292,1,100,2|0,0:2|0:2,0:2:0:0:
177,384,317525,6,0,L|314:367,1,125,2|0,0:2|0:2,0:2:0:0:
333,210,317818,2,0,L|318:314,1,75.0000028610231,2|0,0:2|0:2,0:2:0:0:
431,384,317964,6,0,L|410:251,1,112.500004291535,0|0,0:2|0:2,0:2:0:0:
413,272,318257,1,4,3:2:0:0:
73,58,318403,5,2,0:2:0:0:
73,58,318476,1,2,0:2:0:0:
73,58,318549,2,0,L|186:72,1,75.0000028610231,2|0,3:2|0:2,0:2:0:0:
312,25,318696,2,0,L|237:15,1,75.0000028610231,2|0,0:2|0:2,0:2:0:0:
14,184,318842,6,0,L|256:159,1,225.000008583069,2|0,3:2|0:2,0:2:0:0:
260,355,319135,2,0,B|285:263|285:263|133:277,1,225.000008583069,2|0,3:2|0:2,0:2:0:0:
171,360,319428,1,2,3:2:0:0:
361,363,319574,6,0,L|383:248,1,75.0000028610231,2|0,0:2|0:2,0:2:0:0:
390,207,319720,2,0,L|412:92,1,75.0000028610231,2|0,3:2|0:2,0:2:0:0:
419,50,319867,1,2,0:2:0:0:
419,50,319940,1,2,0:2:0:0:
419,50,320013,6,0,B|345:28|345:28|284:51|284:51|184:22,1,225.000008583069,2|0,3:2|0:2,0:2:0:0:
15,26,320306,2,0,B|30:-1|97:-15|97:-15|131:55|119:138,1,225.000008583069,2|0,3:2|0:2,0:2:0:0:
84,298,320598,6,0,B|51:327|51:327|143:398|214:330,1,225.000008583069,2|0,3:2|0:2,0:2:0:0:
298,300,320891,2,0,P|308:335|299:371,1,75.0000028610231,2|0,3:2|0:2,0:2:0:0:
162,265,321037,2,0,P|151:229|160:193,1,75.0000028610231,2|0,0:2|0:2,0:2:0:0:
316,136,321184,6,0,P|253:229|205:193,1,150.000005722046,2|0,3:2|0:2,0:2:0:0:
242,226,321403,1,2,0:2:0:0:
242,226,321476,1,0,3:2:0:0:
291,42,321623,2,0,B|339:27|387:61|387:61|408:93|412:136,1,150.000005722046,2|0,0:2|3:2,0:2:0:0:
496,245,321915,6,0,P|460:233|424:242,1,75.0000028610231,2|0,0:2|0:2,0:2:0:0:
311,348,322061,2,0,P|338:323|349:287,1,75.0000028610231,2|0,3:2|0:2,0:2:0:0:
316,136,322208,2,0,P|323:172|349:199,1,75.0000028610231,2|0,0:2|0:2,0:2:0:0:
449,373,322354,6,0,P|352:337|271:376,1,150.000005722046,2|0,3:2|0:2,0:2:0:0:
310,347,322574,1,2,0:2:0:0:
310,347,322647,1,0,3:2:0:0:
496,245,322793,1,2,0:2:0:0:
208,380,322940,6,0,P|182:266|164:197,1,150.000005722046,2|0,3:2|0:2,0:2:0:0:
369,246,323232,2,0,P|395:132|413:63,1,150.000005722046,2|0,3:2|0:2,0:2:0:0:
84,282,323525,2,0,P|58:168|40:99,1,150.000005722046,2|0,3:2|0:2,0:2:0:0:
49,135,323745,1,2,0:2:0:0:
49,135,323818,1,0,3:2:0:0:
173,233,323964,1,2,0:2:0:0:
492,27,324110,6,0,L|327:4,1,150.000005722046,2|0,3:2|0:2,0:2:0:0:
49,135,324403,2,0,L|214:112,1,150.000005722046,2|0,3:2|0:2,0:2:0:0:
369,246,324696,2,0,L|333:81,1,150.000005722046,2|0,3:2|0:2,0:2:0:0:
337,99,324915,1,2,0:2:0:0:
337,99,324988,1,0,3:2:0:0:
475,155,325135,1,2,0:2:0:0:
371,350,325281,6,0,B|288:352|330:292|226:295,1,150.000005722046,2|0,3:2|0:2,0:2:0:0:
41,223,325574,2,0,B|124:225|82:165|186:168,1,150.000005722046,2|0,3:2|0:2,0:2:0:0:
394,0,325867,2,0,B|396:92|336:50|338:133,1,150.000005722046,2|0,3:2|0:2,0:2:0:0:
338,131,326086,1,2,0:2:0:0:
338,131,326159,1,0,3:2:0:0:
288,7,326306,1,2,0:2:0:0:
370,231,326452,5,2,3:2:0:0:
221,84,326598,1,2,0:2:0:0:
221,84,326671,1,2,0:2:0:0:
221,84,326745,2,0,L|89:67,1,75.0000028610231,2|0,3:2|0:2,0:2:0:0:
428,145,326891,2,0,L|560:128,1,75.0000028610231,2|0,0:2|0:2,0:2:0:0:
253,172,327037,6,0,L|235:308,1,75.0000028610231,2|0,3:2|0:2,0:2:0:0:
379,305,327184,1,0,0:2:0:0:
379,305,327257,2,0,L|361:169,1,75.0000028610231,2|0,0:2|3:2,0:2:0:0:
150,237,327403,1,0,0:2:0:0:
150,237,327476,2,0,L|168:373,1,75.0000028610231,2|0,0:2|0:2,0:2:0:0:
460,356,327623,6,0,L|508:100,1,225.000008583069,6|0,3:2|0:2,0:2:0:0:
464,50,327915,1,8,0:2:0:0:
146,127,328062,2,0,B|62:157|4:85|4:85|36:43|98:54,1,225.000008583069,2|0,3:2|0:2,0:2:0:0:
139,45,328354,1,8,0:2:0:0:
80,275,328501,6,0,B|49:310|50:351|50:351|58:268|21:196,1,225.000008583069,2|0,3:2|0:2,0:2:0:0:
162,222,328793,2,0,B|193:257|192:298|192:298|184:215|221:143,1,225.000008583069,2|0,3:2|0:2,0:2:0:0:
291,109,329086,1,8,0:2:0:0:
505,336,329232,6,0,B|486:366|449:369|449:369|402:261|477:187,1,225.000008583069,2|0,3:2|0:2,0:2:0:0:
512,153,329525,1,8,0:2:0:0:
162,222,329671,2,0,P|80:236|103:107,1,225.000008583069,2|0,3:2|0:2,0:2:0:0:
291,109,329964,6,0,B|426:158|364:28|551:80,1,225.000008583069,2|0,3:2|0:2,0:2:0:0:
504,59,330257,1,8,0:2:0:0:
162,222,330403,2,0,B|297:173|235:303|422:251,1,225.000008583069,2|0,3:2|0:2,0:2:0:0:
376,271,330696,1,8,0:2:0:0:
289,20,330842,2,0,B|224:-16|162:18|162:18|157:83|211:106,1,225.000008583069,2|0,3:2|0:2,0:2:0:0:
467,172,331135,6,0,B|508:206|501:252|501:252|411:224|363:283,1,225.000008583069,2|0,3:2|0:2,0:2:0:0:
371,292,331428,1,8,0:2:0:0:
70,351,331574,2,0,B|45:319|47:268|47:268|143:255|220:323,1,225.000008583069,2|0,3:2|0:2,0:2:0:0:
185,313,331867,1,8,0:2:0:0:
382,42,332013,6,0,P|390:99|372:154,1,112.500004291535,2|0,3:2|0:2,0:2:0:0:
288,182,332306,6,0,B|241:160|241:160|194:169|194:169|116:133,1,150.000005722046,14|2,3:2|0:2,0:2:0:0:
64,36,332525,2,0,B|109:57|109:57|156:48|156:48|203:70,1,150.000005722046,10|0,3:2|0:2,0:2:0:0:
218,79,332745,1,10,3:2:0:0:
285,363,332891,6,0,B|332:341|332:341|379:350|379:350|457:314,1,150.000005722046,14|0,3:2|0:2,0:2:0:0:
509,217,333110,2,0,B|463:238|463:238|416:229|416:229|369:251,1,150.000005722046,10|0,3:2|0:2,0:2:0:0:
355,260,333330,1,10,3:2:0:0:
476,23,333476,6,0,P|508:111|454:144,1,150.000005722046,14|0,3:2|0:2,0:2:0:0:
288,182,333696,2,0,P|348:110|403:140,1,150.000005722046,10|0,3:2|0:2,0:2:0:0:
394,145,333915,1,10,3:2:0:0:
22,384,334062,6,0,P|-10:296|44:263,1,150.000005722046,14|0,3:2|0:2,0:2:0:0:
210,225,334282,2,0,P|149:296|94:266,1,150.000005722046,10|0,3:2|0:2,0:2:0:0:
104,262,334501,1,10,3:2:0:0:
202,65,334647,5,12,3:2:0:0:
248,27,334720,1,8,3:2:0:0:
307,21,334793,1,8,3:2:0:0:
358,52,334867,1,8,3:2:0:0:
413,75,334940,1,8,3:2:0:0:
472,70,335013,1,8,3:2:0:0:
512,25,335086,1,8,3:2:0:0:
452,25,335159,1,8,3:2:0:0:
400,56,335232,1,8,3:2:0:0:
377,112,335306,1,8,3:2:0:0:
383,171,335379,1,8,3:2:0:0:
424,213,335452,1,8,3:2:0:0:
424,253,335525,6,0,L|471:296,1,37.5000014305115,8|8,3:2|3:2,0:2:0:0:
419,260,335598,2,0,L|476:290,1,37.5000014305115,8|8,3:2|3:2,0:2:0:0:
415,268,335671,2,0,L|478:282,1,37.5000014305115,8|8,3:2|3:2,0:2:0:0:
414,277,335745,2,0,L|479:274,1,37.5000014305115,8|8,3:2|3:2,0:2:0:0:
435,361,335818,6,0,B|338:366|309:281|309:281|151:203|54:330|112:411|234:396|231:272,1,562.500021457673,6|0,3:2|0:2,0:2:0:0:
167,162,336988,5,4,3:2:0:0:
167,162,337135,2,0,L|158:64,1,75.0000028610231,2|0,3:2|0:2,0:2:0:0:
335,92,337428,2,0,L|344:-6,1,75.0000028610231,2|8,0:2|0:2,0:2:0:0:
75,113,337720,2,0,L|68:38,1,75.0000028610231,2|0,0:2|0:2,0:2:0:0:
253,212,338013,6,0,L|259:137,1,75.0000028610231,2|0,0:2|0:2,0:2:0:0:
339,258,338306,2,0,L|345:183,1,75.0000028610231,2|0,0:2|0:2,0:2:0:0:
424,303,338598,1,2,3:2:0:0:
435,216,338745,1,8,0:2:0:0:
502,356,338891,2,0,L|508:281,1,75.0000028610231,2|0,3:2|0:2,0:2:0:0:
435,216,339184,1,2,0:2:0:0:
134,355,339330,5,0,3:2:0:0:
134,355,339476,2,0,L|127:261,1,75.0000028610231,2|0,3:2|0:2,0:2:0:0:
224,353,339769,1,2,3:2:0:0:
218,278,339915,1,8,0:2:0:0:
42,359,340062,2,0,L|36:284,1,75.0000028610231,2|0,0:2|0:2,0:2:0:0:
253,212,340354,6,0,L|258:137,1,75.0000028610231,2|0,0:2|0:2,0:2:0:0:
167,208,340647,2,0,L|172:133,1,75.0000028610231,2|0,3:2|0:2,0:2:0:0:
175,113,340867,2,0,L|180:38,1,75.0000028610231,2|0,3:2|0:2,0:2:0:0:
375,252,341086,5,10,3:2:0:0:
372,218,341159,1,0,3:2:0:0:
369,184,341232,1,0,3:2:0:0:
392,158,341306,5,8,3:2:0:0:
396,124,341379,1,0,3:2:0:0:
401,90,341452,1,0,3:2:0:0:
377,65,341525,5,8,3:2:0:0:
484,263,341671,5,4,3:2:0:0:
484,263,341818,2,0,P|372:234|310:215,1,150.000005722046,2|8,0:2|3:2,0:2:0:0:
271,316,342110,1,0,0:2:0:0:
512,161,342257,5,0,3:2:0:0:
512,161,342404,2,0,P|400:132|338:113,1,150.000005722046,2|8,0:2|3:2,0:2:0:0:
271,316,342696,1,0,0:2:0:0:
63,55,342842,5,0,3:2:0:0:
63,55,342988,2,0,B|113:62|136:112|136:112|141:146|84:193,1,150.000005722046,2|8,0:2|3:2,0:2:0:0:
43,210,343281,1,0,0:2:0:0:
63,365,343428,5,0,3:2:0:0:
63,365,343574,2,0,B|113:358|136:308|136:308|141:274|84:227,1,150.000005722046,2|8,0:2|3:2,0:2:0:0:
43,210,343867,1,0,0:2:0:0:
267,82,344013,5,0,3:2:0:0:
267,82,344159,2,0,L|445:39,1,150.000005722046,2|8,0:2|3:2,0:2:0:0:
496,90,344452,1,0,0:2:0:0:
275,180,344598,5,0,3:2:0:0:
275,180,344744,2,0,L|453:137,1,150.000005722046,2|8,0:2|3:2,0:2:0:0:
504,188,345037,1,0,0:2:0:0:
216,363,345184,5,0,3:2:0:0:
216,363,345330,2,0,P|287:332|243:246,1,150.000005722046,2|8,0:2|3:2,0:2:0:0:
202,235,345623,1,0,0:2:0:0:
22,78,345769,5,2,3:2:0:0:
37,103,345842,1,2,0:2:0:0:
58,125,345915,1,2,0:2:0:0:
83,141,345988,1,2,0:2:0:0:
111,150,346061,1,10,3:2:0:0:
141,153,346134,1,2,0:2:0:0:
171,149,346208,1,2,0:2:0:0:
199,138,346281,1,2,0:2:0:0:
222,115,346354,5,4,3:2:0:0:
306,116,346501,2,0,L|322:14,1,75.0000028610231,2|0,3:2|0:2,0:2:0:0:
394,126,346793,2,0,L|410:24,1,75.0000028610231,2|8,0:2|0:2,0:2:0:0:
482,142,347086,2,0,L|498:40,1,75.0000028610231,2|0,0:2|0:2,0:2:0:0:
78,290,347379,6,0,L|62:188,1,75.0000028610231,2|0,0:2|0:2,0:2:0:0:
165,275,347671,2,0,L|149:173,1,75.0000028610231,2|0,0:2|0:2,0:2:0:0:
251,264,347964,1,2,3:2:0:0:
239,189,348110,1,8,0:2:0:0:
334,256,348257,2,0,L|318:154,1,75.0000028610231,2|0,3:2|0:2,0:2:0:0:
459,365,348696,5,0,3:2:0:0:
459,365,348842,2,0,L|467:272,1,75.0000028610231,2|0,3:2|0:2,0:2:0:0:
422,219,349135,1,2,3:2:0:0:
428,144,349281,1,8,0:2:0:0:
369,90,349428,2,0,L|377:-3,1,75.0000028610231,2|0,0:2|0:2,0:2:0:0:
29,257,349720,6,0,L|21:164,1,75.0000028610231,2|0,0:2|0:2,0:2:0:0:
118,250,350013,2,0,L|110:157,1,75.0000028610231,2|0,3:2|0:2,0:2:0:0:
108,146,350232,2,0,L|100:53,1,75.0000028610231,0|0,3:2|0:2,0:2:0:0:
199,40,350452,5,8,3:2:0:0:
203,73,350525,1,0,3:2:0:0:
209,106,350598,1,0,3:2:0:0:
239,121,350671,5,8,3:2:0:0:
244,154,350745,1,0,3:2:0:0:
249,187,350818,1,0,3:2:0:0:
230,214,350891,5,8,3:2:0:0:
55,357,351037,5,4,3:2:0:0:
55,357,351184,2,0,P|160:344|154:282,1,150.000005722046,2|8,0:2|3:2,0:2:0:0:
118,250,351476,1,0,0:2:0:0:
457,357,351623,5,0,3:2:0:0:
457,357,351770,2,0,P|352:344|358:282,1,150.000005722046,2|8,0:2|3:2,0:2:0:0:
394,250,352062,1,0,0:2:0:0:
71,30,352208,5,0,3:2:0:0:
71,30,352354,2,0,B|103:69|103:69|247:37,1,150.000005722046,2|8,0:2|3:2,0:2:0:0:
295,23,352647,1,0,0:2:0:0:
512,126,352793,5,0,3:2:0:0:
512,126,352939,2,0,B|480:165|480:165|336:133,1,150.000005722046,2|8,0:2|3:2,0:2:0:0:
288,119,353232,1,0,0:2:0:0:
85,310,353379,5,0,3:2:0:0:
17,264,353525,2,0,B|-16:222|23:165|23:165|62:175|105:216,1,150.000005722046,2|8,0:2|3:2,0:2:0:0:
132,233,353818,1,0,0:2:0:0:
373,384,353964,5,0,3:2:0:0:
441,338,354110,2,0,B|474:296|435:239|435:239|396:249|353:290,1,150.000005722046,2|8,0:2|3:2,0:2:0:0:
326,307,354403,1,0,0:2:0:0:
177,18,354549,6,0,B|264:-35|333:44|333:44|322:76|289:94,1,225.000008583069,2|0,3:2|0:2,0:2:0:0:
125,241,354842,2,0,B|101:141|197:100|197:100|224:121|231:157,1,225.000008583069,10|0,3:2|0:2,0:2:0:0:
314,357,355135,2,0,B|212:348|203:244|203:244|230:224|268:229,1,225.000008583069,2|0,3:2|0:2,0:2:0:0:
484,209,355428,2,0,B|444:303|342:279|342:279|332:247|348:213,1,225.000008583069,10|0,3:2|0:2,0:2:0:0:
400,3,355720,6,0,B|477:69|423:159|423:159|389:158|362:133,1,225.000008583069,2|0,3:2|0:2,0:2:0:0:
376,144,356013,1,8,3:2:0:0:
251,71,356159,1,0,0:2:0:0:
96,9,356306,5,0,3:2:0:0:
96,9,356452,2,0,B|46:51|80:109|80:109|102:109|120:92,1,150.000005722046,2|8,0:2|3:2,0:2:0:0:
251,71,356745,1,0,0:2:0:0:
484,209,356891,5,0,3:2:0:0:
484,209,357037,2,0,B|443:254|383:253|383:253|358:236|340:208,1,150.000005722046,2|8,0:2|3:2,0:2:0:0:
251,204,357330,1,0,0:2:0:0:
32,212,357476,5,0,3:2:0:0:
32,212,357623,2,0,B|73:257|133:256|133:256|158:239|175:211,1,150.000005722046,2|8,0:2|3:2,0:2:0:0:
251,204,357915,1,0,0:2:0:0:
419,0,358062,5,0,3:2:0:0:
469,64,358208,2,0,P|376:67|338:9,1,150.000005722046,2|8,0:2|3:2,0:2:0:0:
279,74,358501,1,0,0:2:0:0:
419,384,358647,5,0,3:2:0:0:
469,320,358793,2,0,P|376:317|338:375,1,150.000005722046,2|8,0:2|3:2,0:2:0:0:
279,310,359086,1,0,0:2:0:0:
40,273,359232,6,0,B|80:351|142:363|142:363|190:348|199:306,1,225.000008583069,2|0,3:2|0:2,0:2:0:0:
199,77,359525,2,0,B|190:36|142:21|142:21|80:33|40:110,1,225.000008583069,10|0,3:2|0:2,0:2:0:0:
142,198,359818,6,0,B|196:184|196:184|233:200|233:200|321:181,1,150.000005722046,8|0,0:2|0:2,0:2:0:0:
304,184,360037,2,0,B|358:170|358:170|395:186|395:186|483:167,1,150.000005722046,8|0,0:2|0:2,0:2:0:0:
467,168,360257,1,8,0:2:0:0:
98,352,360403,6,0,B|36:271|36:271|213:334,1,225.000008583069,14|0,0:2|0:2,0:2:0:0:
414,352,360696,2,0,B|476:271|476:271|360:312,1,225.000008583069,10|0,0:2|0:2,0:2:0:0:
142,198,360988,2,0,B|155:96|155:96|236:266,1,225.000008583069,10|0,0:2|0:2,0:2:0:0:
370,198,361281,2,0,B|356:96|356:96|275:266,1,225.000008583069,10|0,0:2|0:2,0:2:0:0:
70,109,361574,6,0,B|53:4|53:4|212:21,1,225.000008583069,14|0,0:2|0:2,0:2:0:0:
442,109,361867,2,0,B|459:4|459:4|300:21,1,225.000008583069,10|0,0:2|0:2,0:2:0:0:
258,353,362159,2,0,B|270:278|270:278|238:209|238:209|258:113,1,225.000008583069,10|0,0:2|0:2,0:2:0:0:
93,69,362452,5,0,3:2:0:0:
93,69,362745,6,0,B|69:43|92:2|92:2|191:12|179:103,1,225.000008583069,14|0,0:2|0:2,0:2:0:0:
49,227,363037,2,0,B|18:241|-13:206|-13:206|27:115|111:156,1,225.000008583069,10|0,0:2|0:2,0:2:0:0:
180,316,363330,2,0,B|183:350|141:369|141:369|67:303|132:234,1,225.000008583069,10|0,0:2|0:2,0:2:0:0:
307,221,363623,2,0,B|340:227|345:274|345:274|260:324|214:241,1,225.000008583069,10|0,0:2|0:2,0:2:0:0:
253,71,363915,2,0,B|270:40|315:50|315:50|336:147|243:164,1,225.000008583069,10|0,0:2|0:2,0:2:0:0:
244,163,364208,5,8,0:2:0:0:
410,236,364354,2,0,L|478:222,1,37.5000014305115,0|0,3:2|3:2,0:2:0:0:
422,242,364428,2,0,L|490:228,1,37.5000014305115,0|0,3:2|3:2,0:2:0:0:
439,250,364501,6,0,B|527:231|527:231|478:280,1,150.000005722046,8|0,0:2|0:2,0:2:0:0:
355,366,364720,2,0,B|312:323|312:323|400:342,1,150.000005722046,8|0,0:2|0:2,0:2:0:0:
508,371,364940,1,8,0:2:0:0:
64,108,365086,6,0,P|133:78|153:65,1,75.0000028610231,12|0,3:2|0:2,0:2:0:0:
182,152,365306,2,0,P|231:95|244:75,1,75.0000028610231,8|0,0:2|0:2,0:2:0:0:
316,84,365525,1,8,0:2:0:0:
512,232,365671,6,0,P|443:202|423:189,1,75.0000028610231,12|0,0:2|0:2,0:2:0:0:
394,276,365891,2,0,P|344:219|331:199,1,75.0000028610231,8|0,0:2|0:2,0:2:0:0:
260,208,366110,1,8,0:2:0:0:
4,250,366257,6,0,P|78:275|86:310,1,100,12|0,0:2|0:2,0:2:0:0:
172,247,366476,2,0,P|206:317|187:347,1,100,8|0,0:2|0:2,0:2:0:0:
123,378,366696,1,8,0:2:0:0:
508,251,366842,6,0,P|434:276|426:311,1,100,12|0,0:2|0:2,0:2:0:0:
340,248,367061,2,0,P|305:318|324:348,1,100,8|0,0:2|0:2,0:2:0:0:
389,379,367281,1,8,0:2:0:0:
480,110,367428,5,4,3:2:0:0:
444,98,367501,1,0,3:2:0:0:
408,88,367574,1,0,3:2:0:0:
371,80,367647,1,0,3:2:0:0:
334,74,367720,1,0,3:2:0:0:
297,70,367793,1,0,3:2:0:0:
259,69,367867,1,0,3:2:0:0:
222,69,367940,1,0,3:2:0:0:
184,71,368013,1,0,3:2:0:0:
147,76,368086,1,0,3:2:0:0:
110,82,368159,1,0,3:2:0:0:
74,90,368232,1,0,3:2:0:0:
38,101,368306,2,0,L|28:144,6,37.5000014305115,0|0|0|0|0|0|0,3:2|3:2|3:2|3:2|3:2|3:2|3:2,0:2:0:0:
65,28,368598,6,0,L|110:19,1,25,2|0,0:2|0:2,0:2:0:0:
116,96,368745,6,0,L|161:87,1,37.5000014305115,2|0,0:2|0:2,0:2:0:0:
162,173,368891,6,0,L|219:161,1,50,2|0,0:2|0:2,0:2:0:0:
215,250,369037,6,0,L|295:233,1,75.0000028610231,2|0,0:2|0:2,0:2:0:0:
475,98,369184,5,2,0:2:0:0:
427,42,369281,1,2,0:2:0:0:
403,112,369379,1,2,0:2:0:0:
463,94,369476,1,2,0:2:0:0:
429,54,369573,1,2,0:2:0:0:
412,103,369671,1,2,0:2:0:0:
435,87,369769,6,0,B|391:106|391:106|306:85|306:85|306:74|306:74|239:55|239:55|170:111,1,300,4|0,3:2|0:2,0:2:0:0:
174,107,370062,2,0,L|181:150,1,37.5000014305115,0|0,0:2|0:2,0:2:0:0:
189,223,370208,1,0,3:2:0:0:
189,223,370354,1,0,3:2:0:0:
292,229,370501,5,0,3:2:0:0:
296,244,370549,1,0,3:2:0:0:
300,259,370598,1,0,3:2:0:0:
304,274,370647,6,0,L|447:295,1,75.0000028610231,6|0,3:2|0:2,0:2:0:0:
473,377,370793,2,0,L|399:367,1,75.0000028610231,2|0,0:2|0:2,0:2:0:0:
421,210,370940,2,0,L|496:221,1,75.0000028610231,2|0,3:2|0:2,0:2:0:0:
97,322,371086,1,2,0:2:0:0:
97,322,371159,1,2,0:2:0:0:
97,322,371232,6,0,L|171:311,1,75.0000028610231,2|0,3:2|0:2,0:2:0:0:
317,231,371379,2,0,L|270:172,1,75.0000028610231,2|0,0:2|0:2,0:2:0:0:
144,100,371525,2,0,L|116:169,1,75.0000028610231,2|0,3:2|0:2,0:2:0:0:
252,384,371671,2,0,L|279:314,1,75.0000028610231,2|0,0:2|0:2,0:2:0:0:
7,185,371817,2,0,L|53:243,1,75.0000028610231,2|0,3:2|0:2,0:2:0:0:
309,79,371964,2,0,L|234:89,1,75.0000028610231,2|0,0:2|0:2,0:2:0:0:
138,256,372110,6,0,B|176:355|176:355|260:152,1,300,2|0,3:2|0:2,0:2:0:0:
270,172,372403,1,2,3:2:0:0:
479,383,372549,2,0,L|470:320,1,37.5000014305115,2|0,0:2|0:2,0:2:0:0:
461,266,372696,5,0,3:2:0:0:
395,384,372842,2,0,L|386:321,1,37.5000014305115,2|0,0:2|0:2,0:2:0:0:
339,63,372988,5,2,3:2:0:0:
339,63,373062,1,2,0:2:0:0:
339,63,373135,1,2,0:2:0:0:
431,106,373281,2,0,P|440:72|425:11,1,75.0000028610231,2|0,3:2|0:2,0:2:0:0:
243,57,373428,5,2,0:2:0:0:
243,57,373502,1,2,0:2:0:0:
243,57,373575,1,2,3:2:0:0:
154,14,373720,2,0,P|145:48|160:109,1,75.0000028610231,2|0,0:2|0:2,0:2:0:0:
235,261,373867,6,0,B|192:253|192:253|176:257|176:257|53:230,1,100,2|0,3:2|0:2,0:2:0:0:
9,180,374013,1,0,0:2:0:0:
9,180,374086,2,0,B|52:172|52:172|68:176|68:176|191:149,1,100,2|0,0:2|3:2,0:2:0:0:
112,334,374232,1,0,0:2:0:0:
112,334,374305,2,0,B|74:343|74:343|58:339|58:339|15:347,1,100,2|0,0:2|0:2,0:2:0:0:
236,261,374452,6,0,B|275:278|275:278|349:246|349:246|403:274,1,150,6|0,3:2|0:2,0:2:0:0:
372,258,374745,2,0,B|387:287|387:287|367:323,1,50,2|0,0:2|3:2,0:2:0:0:
329,368,374988,5,2,3:2:0:0:
319,372,375037,1,2,3:2:0:0:
310,376,375086,2,0,L|273:372,1,33.3333333333333,2|0,3:2|3:2,0:2:0:0:
174,269,375330,5,6,3:2:0:0:
148,115,375476,2,0,B|152:149|152:149|155:149|155:149|160:186,1,75.0000028610231,2|0,0:2|0:2,0:2:0:0:
186,356,375623,1,0,3:2:0:0:
464,169,375769,1,2,0:2:0:0:
464,169,375842,1,2,0:2:0:0:
464,169,375915,5,2,3:2:0:0:
479,17,376062,2,0,B|477:51|477:51|474:56|474:56|472:91,1,75.0000028610231,2|0,0:2|0:2,0:2:0:0:
457,249,376208,1,0,3:2:0:0:
327,12,376354,2,0,B|328:46|328:46|331:51|331:51|333:86,1,75.0000028610231,2|0,0:2|0:2,0:2:0:0:
349,244,376501,6,0,B|339:218|339:218|319:199|254:199,1,75.0000028610231,2|0,3:2|0:2,0:2:0:0:
247,122,376647,2,0,B|221:110|221:110|193:111|148:157,1,75.0000028610231,2|0,0:2|0:2,0:2:0:0:
46,323,376793,6,0,B|68:363|101:363|101:363|146:298|81:197,1,225.000008583069,2|0,3:2|0:2,0:2:0:0:
53,144,377086,2,0,P|28:161|51:154,1,75.0000028610231,10|0,3:2|0:2,0:2:0:0:
294,226,377379,6,0,B|272:266|239:266|239:266|194:201|259:100,1,225.000008583069,2|0,3:2|0:2,0:2:0:0:
287,47,377671,2,0,P|312:64|289:57,1,75.0000028610231,10|0,3:2|0:2,0:2:0:0:
79,24,377964,6,0,B|182:77|143:162|143:162|112:77|216:-6,1,300,2|0,3:2|0:2,0:2:0:0:
307,65,378257,2,0,P|321:29|286:46,1,100,10|0,3:2|0:2,0:2:0:0:
244,251,378549,5,2,3:2:0:0:
199,259,378623,1,2,0:2:0:0:
241,275,378696,1,2,0:2:0:0:
209,279,378769,1,2,0:2:0:0:
237,294,378842,1,2,0:2:0:0:
219,303,378915,1,2,0:2:0:0:
235,309,378988,1,2,0:2:0:0:
225,319,379062,1,2,0:2:0:0:
232,330,379135,6,0,B|275:319|304:328|304:328|326:366|374:368|374:368|421:279|516:329,1,300,6|0,3:2|0:2,0:2:0:0:
501,226,379428,5,0,3:2:0:0:
481,206,379574,1,0,3:2:0:0:
500,182,379720,1,0,3:2:0:0:
371,70,379867,1,0,3:2:0:0:
371,70,379940,1,0,3:2:0:0:
371,70,380013,6,0,B|325:58|325:58|294:70|294:70|216:45,1,133.333333333333,14|2,3:2|0:2,0:2:0:0:
162,135,380208,1,2,0:2:0:0:
162,135,380306,2,0,B|116:147|116:147|85:135|85:135|7:160,2,133.333333333333,2|2|2,3:2|0:2|0:2,0:2:0:0:
331,321,380598,5,10,0:2:0:0:
342,244,380696,1,2,0:2:0:0:
353,167,380793,1,2,0:2:0:0:
277,195,380891,1,2,3:2:0:0:
266,272,380988,1,2,0:2:0:0:
255,349,381086,1,2,0:2:0:0:
393,371,381184,6,0,L|492:360,1,100,10|0,3:2|0:2,0:2:0:0:
266,272,381330,2,0,L|166:261,1,100,2|0,0:2|0:2,0:2:0:0:
512,34,381476,6,0,B|543:133|477:165|477:165|437:145|419:81,1,200,2|0,3:2|0:2,0:2:0:0:
434,51,381696,1,0,3:2:0:0:
434,51,381769,1,8,3:2:0:0:
162,19,381915,2,0,L|178:101,1,50,2|0,0:2|0:2,0:2:0:0:
188,148,382062,6,0,L|206:243,2,66.6666666666667,2|2|2,3:2|0:2|0:2,0:2:0:0:
0,298,382354,5,10,3:2:0:0:
77,302,382452,1,2,0:2:0:0:
157,304,382549,1,2,0:2:0:0:
234,347,382647,1,2,3:2:0:0:
311,351,382745,1,2,0:2:0:0:
391,353,382842,1,2,0:2:0:0:
435,279,382940,5,10,3:2:0:0:
398,211,383037,2,0,P|348:206|298:272,1,100,2|0,0:2|0:2,0:2:0:0:
310,235,383232,6,0,P|300:185|284:138,1,100,2|0,3:2|0:2,0:2:0:0:
248,63,383379,1,0,0:2:0:0:
248,63,383452,2,0,L|86:81,1,100,2|8,0:2|3:2,0:2:0:0:
88,172,383598,1,0,0:2:0:0:
88,172,383671,2,0,L|187:160,1,100,2|0,0:2|0:2,0:2:0:0:
472,83,383818,6,0,B|457:15|398:5|398:5|336:113|448:218,1,300,6|0,3:2|0:2,0:2:0:0:
494,223,384110,1,0,3:2:0:0:
353,285,384257,1,0,3:2:0:0:
344,292,384330,2,0,L|338:335,1,25,0|0,3:2|3:2,0:2:0:0:
336,300,384403,6,0,L|325:385,2,66.6666666666667,2|2|0,3:2|3:2|3:2,0:2:0:0:
239,330,384696,5,14,3:2:0:0:
239,330,384793,2,0,L|124:346,1,100.000003814697,2|2,0:2|0:2,0:2:0:0:
8,231,384988,1,2,3:2:0:0:
8,231,385086,2,0,L|123:247,1,100.000003814697,2|2,0:2|0:2,0:2:0:0:
214,104,385281,5,10,3:2:0:0:
126,74,385379,1,2,0:2:0:0:
145,166,385476,1,2,0:2:0:0:
178,64,385574,1,2,3:2:0:0:
110,126,385672,1,2,0:2:0:0:
196,155,385769,1,2,0:2:0:0:
126,74,385867,5,10,3:2:0:0:
291,158,386013,2,0,B|338:153|338:153|342:156|342:156|440:142,1,100,2|0,0:2|0:2,0:2:0:0:
139,343,386159,6,0,B|92:338|92:338|88:341|88:341|-10:330|-10:330|96:284,1,200,6|0,3:2|0:2,0:2:0:0:
117,258,386379,2,0,P|122:227|109:261,1,100,2|0,3:2|0:2,0:2:0:0:
90,253,386598,1,2,3:2:0:0:
41,19,386745,6,0,B|15:21|-4:44|-4:44|42:121|156:59,1,200,6|0,3:2|0:2,0:2:0:0:
201,34,386964,2,0,P|211:-4|188:22,1,100,2|0,3:2|0:2,0:2:0:0:
187,17,387184,1,2,3:2:0:0:
256,343,387330,6,0,B|315:233|212:255|291:96,1,200,6|0,3:2|0:2,0:2:0:0:
309,60,387549,2,0,P|344:45|324:77,1,100,2|0,3:2|0:2,0:2:0:0:
310,60,387769,1,2,3:2:0:0:
126,337,387915,5,14,0:2:0:0:
54,313,387988,1,2,0:2:0:0:
54,238,388062,1,2,0:2:0:0:
126,215,388135,1,2,0:2:0:0:
170,276,388208,5,2,0:2:0:0:
166,285,388281,1,2,0:2:0:0:
162,294,388354,1,2,0:2:0:0:
158,303,388428,1,2,0:2:0:0:
154,313,388501,6,0,L|53:324,1,100,6|0,3:2|0:2,0:2:0:0:
59,39,388647,2,0,L|158:49,1,100,6|0,3:2|0:2,0:2:0:0:
479,109,388793,1,2,0:2:0:0:
479,109,388867,1,2,0:2:0:0:
479,109,388940,6,0,B|291:91|291:91|219:204|219:204|353:260,1,400,6|0,3:2|0:2,0:2:0:0:
402,284,389306,1,2,0:2:0:0:
402,284,389379,6,0,L|369:125,1,100,6|0,3:2|0:2,0:2:0:0:
170,276,389525,2,0,L|149:373,1,100,6|0,3:2|0:2,0:2:0:0:
50,137,389671,1,2,0:0:0:0:
50,137,389745,1,2,0:0:0:0:
50,137,389818,6,0,B|124:179|213:154|213:154|197:106|197:106|279:76|386:101,1,400,6|0,3:2|0:2,0:2:0:0:
508,89,390257,5,2,0:2:0:0:
501,129,390403,1,2,0:2:0:0:
458,125,390549,1,2,0:2:0:0:
461,84,390696,1,2,0:2:0:0:
155,316,390842,6,0,B|122:344|122:344|8:322,1,100,6|0,3:2|0:2,0:2:0:0:
405,231,390988,2,0,B|460:220|460:220|493:248,1,100,6|0,3:2|0:2,0:2:0:0:
182,221,391135,1,2,0:2:0:0:
182,221,391208,1,2,0:2:0:0:
182,221,391281,6,0,B|127:154|127:154|346:177|346:177|225:267,1,400,6|2,3:2|0:2,0:2:0:0:
155,316,391647,1,2,0:2:0:0:
155,316,391720,6,0,L|16:338,1,100,6|0,3:2|0:2,0:2:0:0:
397,328,391867,2,0,L|536:350,1,100,6|0,3:2|0:2,0:2:0:0:
56,331,392159,6,0,L|155:316,1,100,6|0,3:2|0:2,0:2:0:0:
405,231,392379,2,0,L|544:253,1,100,6|0,3:2|0:2,0:2:0:0:
265,382,392598,6,0,L|277:308,1,70,2|0,3:2|0:2,0:2:0:0:
276,312,393184,6,0,L|296:179,1,100,6|0,3:2|0:2,0:2:0:0:
321,0,393330,2,0,L|306:98,1,100,6|0,3:2|0:2,0:2:0:0:
76,244,393476,1,2,0:2:0:0:
76,244,393549,1,2,0:2:0:0:
76,244,393623,6,0,P|13:155|176:214,1,400,6|2,3:2|0:2,0:2:0:0:
179,252,393988,1,2,0:2:0:0:
179,252,394062,6,0,L|155:363,1,100,6|0,3:2|0:2,0:2:0:0:
438,196,394208,2,0,L|414:85,1,100,6|0,3:2|0:2,0:2:0:0:
480,324,394354,1,2,0:0:0:0:
480,324,394428,1,2,0:0:0:0:
480,324,394501,6,0,B|399:338|309:178|309:178|351:253|319:357,1,400,6|2,3:2|0:2,0:2:0:0:
324,335,394867,1,2,0:2:0:0:
324,335,394940,6,0,L|197:358,1,100,6|0,3:2|0:2,0:2:0:0:
154,285,395086,2,0,L|252:267,1,100,2|0,0:2|0:2,0:2:0:0:
310,179,395232,6,0,L|437:202,1,100,10|0,0:2|0:2,0:2:0:0:
480,129,395378,2,0,L|381:111,1,100,2|0,0:2|0:2,0:2:0:0:
89,343,395525,6,0,P|64:299|120:222,1,100,6|0,3:2|0:2,0:2:0:0:
282,4,395671,2,0,P|307:48|251:125,1,100,6|0,3:2|0:2,0:2:0:0:
16,179,395818,1,10,0:2:0:0:
16,179,395891,1,2,0:2:0:0:
16,179,395964,6,0,B|100:180|159:137|159:137|195:191|177:239|177:239|258:202|366:283,1,400,6|10,3:2|0:2,0:2:0:0:
368,321,396330,1,2,0:2:0:0:
368,321,396403,6,0,P|419:333|463:279,1,100,6|0,3:2|0:2,0:2:0:0:
508,68,396549,2,0,P|457:56|453:198,1,200,6|8,3:2|0:2,0:2:0:0:
482,220,396793,5,2,3:2:0:0:
482,220,396891,1,2,3:2:0:0:
276,355,397086,5,2,3:2:0:0:
312,249,397184,5,2,3:2:0:0:
202,270,397281,5,2,3:2:0:0:
496,337,397476,1,2,3:2:0:0:
391,37,397671,1,10,3:2:0:0:
202,270,397867,5,2,3:2:0:0:
