osu file format v14

[General]
AudioFilename: audio.mp3
AudioLeadIn: 0
PreviewTime: 196508
Countdown: 0
SampleSet: Drum
StackLeniency: 0.7
Mode: 2
LetterboxInBreaks: 0
WidescreenStoryboard: 0

[Editor]
Bookmarks: 133227,147758
DistanceSpacing: 1.3
BeatDivisor: 6
GridSize: 8
TimelineZoom: 2.5

[Metadata]
Title:Together forever, my lovely lovely video game cartridges
TitleUnicode:Together forever, my lovely lovely video game cartridges
Artist:Camellia
ArtistUnicode:かめりあ
Creator:MBomb
Version:Rise Up, Gamers!
Source:osu!
Tags:magic bomb featured artist mappers guild ataraxia electronic chiptune instrumental cametek heart of android new age Kamel atari videogame
BeatmapID:2189211
BeatmapSetID:1047316

[Difficulty]
HPDrainRate:6
CircleSize:3.7
OverallDifficulty:9.1
ApproachRate:9.1
SliderMultiplier:2.2
SliderTickRate:2

[Events]
//Background and Video events
0,0,"now we're gaming.jpg",0,0
//Break Periods
2,133427,140143
//Storyboard Layer 0 (Background)
//Storyboard Layer 1 (Fail)
//Storyboard Layer 2 (Pass)
//Storyboard Layer 3 (Foreground)
//Storyboard Layer 4 (Overlay)
//Storyboard Sound Samples

[TimingPoints]
3852,468.75,4,2,1,70,1,0
11234,-100,4,3,1,70,0,0
14984,-100,4,3,1,80,0,0
18852,-100,4,2,1,60,0,0
31977,-100,4,2,1,40,0,0
32445,-100,4,2,1,60,0,0
33852,-100,4,3,1,70,0,0
45102,-100,4,3,1,80,0,0
51664,-66.6666666666667,4,2,1,100,0,0
52133,-100,4,2,1,100,0,0
52602,-100,4,2,1,70,0,0
60102,-100,4,3,1,70,0,0
67133,-100,4,3,1,100,0,0
67602,-100,4,3,1,80,0,0
78617,-100,4,3,1,40,0,0
79789,-100,4,3,1,70,0,0
80844,-100,4,2,1,80,0,0
82602,-100,4,3,1,90,0,1
88227,-66.6666666666667,4,2,1,90,0,1
88578,-100,4,2,1,90,0,1
88930,-83.3333333333333,4,2,1,90,0,1
89281,-55.5555555555556,4,2,1,90,0,1
89633,-100,4,2,1,90,0,1
95727,-100,4,2,1,90,0,0
97602,-100,4,2,1,90,0,1
105102,-100,4,2,1,90,0,0
105570,-100,4,2,1,90,0,1
110727,-100,4,3,1,80,0,0
112602,-100,4,2,1,90,0,1
118227,-100,4,2,1,80,0,0
121508,-30,4,2,1,80,0,0
121859,-100,4,2,1,80,0,0
129008,-30,4,2,1,80,0,0
129477,-100,4,2,1,50,0,0
130414,-100,4,2,1,80,0,0
153852,-83.3333333333333,4,2,1,80,0,0
154555,-100,4,2,1,80,0,0
181508,-100,4,2,1,60,0,0
181977,-100,4,2,1,80,0,0
192992,-100,4,3,1,40,0,0
194164,-100,4,3,1,70,0,0
196508,-100,4,2,1,60,0,0
200727,-100,4,2,1,70,0,0
201195,-100,4,2,1,90,0,1
203305,-76.9230769230769,4,2,1,90,0,1
203656,-62.5,4,2,1,90,0,1
204008,-100,4,2,1,90,0,1
210102,-100,4,3,1,90,0,0
211977,-100,4,2,1,90,0,1
219477,-100,4,2,1,90,0,0
219945,-100,4,2,1,90,0,1
225102,-100,4,2,1,90,0,0
226977,-100,4,2,1,90,0,1
228617,-100,4,2,1,80,0,0
236352,-100,4,2,1,50,0,0
239164,-100,4,2,1,70,0,0
240102,-100,4,2,1,60,0,0
241039,-100,4,2,1,80,0,0
241977,-100,4,2,1,100,0,0
243383,-100,4,2,1,70,0,0
243852,-100,4,2,1,90,0,1
256977,-100,4,2,1,90,0,0
258852,-100,4,1,1,90,0,1
266352,-100,4,2,1,90,0,0
266820,-100,4,2,1,90,0,1
270102,-100,4,2,1,100,0,1
273852,-100,4,2,1,70,0,1
275727,-83.3333333333333,4,2,1,90,0,1
276078,-100,4,2,1,90,0,1
277133,-100,4,2,1,90,0,0
277602,-100,4,2,1,80,0,0
284984,-100,4,2,1,60,0,0
290727,-100,4,2,1,80,0,0
291195,-100,4,2,1,60,0,0
295883,-100,4,2,1,40,0,0
295941,-100,4,2,1,35,0,0
296000,-100,4,2,1,30,0,0
296059,-100,4,2,1,25,0,0
296117,-100,4,2,1,20,0,0
296176,-100,4,2,1,15,0,0
296234,-100,4,2,1,10,0,0
296293,-100,4,2,1,5,0,0
298774,545.454545454546,4,2,1,30,1,0
299319,545.454545454546,4,2,1,30,1,0
318955,800,4,2,1,30,1,0
319316,666.666666666667,4,2,1,30,1,0
319649,923.076923076923,4,2,1,30,1,0
319879,1090.90909090909,4,2,1,30,1,0
320560,1714.28571428571,4,2,1,30,1,0
320774,2142.85714285714,4,2,1,30,1,0

[Colours]
Combo1 : 255,128,0
Combo2 : 255,255,0
Combo3 : 0,255,0
Combo4 : 0,128,255

[HitObjects]
288,192,3852,6,0,L|176:192,1,110,4|0,0:1|0:0,0:0:0:0:
344,192,4320,2,0,L|400:192,2,55,2|2|0,0:0|0:0|0:0,0:0:0:0:
160,192,4672,1,2,0:0:0:0:
88,192,4789,2,0,P|32:160|112:72,1,220,2|2,0:0|0:0,0:0:0:0:
184,192,5375,1,2,0:0:0:0:
408,192,5609,5,2,0:0:0:0:
472,192,5727,2,0,P|472:128|408:120,1,110,2|0,0:0|0:0,0:0:0:0:
136,192,6195,1,2,0:0:0:0:
352,192,6547,2,0,L|352:136,1,55,2|0,0:0|0:0,0:0:0:0:
184,192,6898,1,2,0:0:0:0:
312,192,7133,2,0,L|392:192,1,55,2|2,0:0|0:0,0:0:0:0:
64,192,7484,5,2,0:0:0:0:
24,192,7602,2,0,P|40:136|120:104,1,110,2|0,3:2|0:0,0:0:0:0:
232,192,8070,1,2,0:0:0:0:
176,192,8187,1,2,0:0:0:0:
120,192,8305,1,2,0:0:0:0:
304,192,8422,1,2,0:0:0:0:
384,192,8539,2,0,P|384:160|240:88,1,220,2|2,0:0|0:0,0:0:0:0:
176,192,9125,1,2,0:0:0:0:
472,192,9359,5,2,0:0:0:0:
472,192,9477,2,0,L|360:192,1,110,2|0,0:0|0:0,0:0:0:0:
64,192,9945,1,2,0:0:0:0:
296,192,10297,2,0,L|352:192,1,55,2|0,0:0|0:0,0:0:0:0:
176,192,10648,1,2,0:0:0:0:
480,192,10883,2,0,L|424:192,1,55,2|2,0:0|3:0,0:0:0:0:
120,192,11234,5,2,0:2:0:0:
48,192,11352,1,0,0:0:0:0:
16,192,11469,1,2,0:2:0:0:
32,192,11586,1,0,0:0:0:0:
88,192,11703,1,2,0:2:0:0:
232,192,11820,2,0,L|304:192,1,55,2|2,0:3|0:2,0:0:0:0:
104,192,12055,1,0,0:0:0:0:
287,192,12172,1,2,0:2:0:0:
360,192,12289,1,0,0:0:0:0:
408,192,12406,1,2,0:2:0:0:
408,192,12523,1,0,0:0:0:0:
360,192,12641,1,2,0:2:0:0:
216,192,12758,1,2,3:0:0:0:
152,192,12875,2,0,L|152:136,1,55,2|0,0:3|0:3,0:0:0:0:
336,192,13109,5,0,0:0:0:0:
272,192,13227,1,2,0:2:0:0:
232,192,13344,1,0,0:0:0:0:
232,192,13461,1,2,0:3:0:0:
272,192,13578,1,0,0:0:0:0:
432,192,13695,2,0,L|488:192,2,55,2|2|0,0:2|0:2|0:0,0:0:0:0:
232,192,14047,2,0,L|160:192,2,55,2|2|0,0:3|0:3|0:0,0:0:0:0:
384,192,14398,2,0,L|440:192,1,55,2|0,0:2|0:0,0:0:0:0:
287,192,14633,2,0,L|223:192,2,55,2|2|0,0:2|0:3|0:0,0:0:0:0:
472,192,14984,5,2,0:3:0:0:
472,192,15102,1,2,0:2:0:0:
456,192,15219,1,2,0:2:0:0:
416,192,15336,1,0,0:3:0:0:
352,192,15453,1,0,0:2:0:0:
208,192,15570,1,2,0:3:0:0:
80,192,15687,2,0,L|24:192,1,55,2|0,0:3|0:2,0:0:0:0:
208,192,15922,1,2,0:3:0:0:
272,192,16039,1,2,0:2:0:0:
320,192,16156,1,2,0:2:0:0:
336,192,16273,1,2,0:2:0:0:
288,192,16391,1,2,0:3:0:0:
136,192,16508,5,2,0:2:0:0:
104,192,16566,1,2,0:2:0:0:
104,192,16625,1,2,0:2:0:0:
136,192,16684,1,2,0:2:0:0:
260,192,16742,2,0,L|300:192,1,27.5,2|2,0:2|0:2,0:0:0:0:
163,192,16859,2,0,L|123:192,1,27.5,2|2,0:2|0:2,0:0:0:0:
260,192,16977,5,4,0:3:0:0:
456,192,17094,2,0,P|488:152|448:128,1,110,4|0,0:3|0:0,0:0:0:0:
376,192,17445,1,2,0:2:0:0:
336,192,17562,1,0,0:0:0:0:
336,192,17680,1,0,0:0:0:0:
376,192,17797,1,0,0:0:0:0:
312,192,17914,1,2,0:2:0:0:
272,192,18031,1,0,0:0:0:0:
272,192,18148,1,0,0:0:0:0:
312,192,18266,1,0,0:0:0:0:
376,192,18383,5,0,0:0:0:0:
408,192,18441,1,0,0:0:0:0:
408,192,18500,1,0,0:0:0:0:
376,192,18559,1,0,0:0:0:0:
240,192,18617,1,0,0:0:0:0:
208,192,18676,1,2,0:2:0:0:
360,192,18734,1,2,0:2:0:0:
392,192,18793,1,2,0:2:0:0:
240,192,18852,6,0,P|168:168|208:56,1,220,2|2,0:0|0:0,0:0:0:0:
480,192,19672,2,0,P|440:136|328:120,1,165,2|0,0:0|0:0,0:0:0:0:
152,192,20258,2,0,P|96:152|112:128,1,110,2|0,0:0|0:0,0:0:0:0:
250,192,20609,6,0,P|322:136|234:104,1,220,2|0,0:0|0:0,0:0:0:0:
170,192,21195,1,2,0:0:0:0:
42,192,21430,2,0,L|154:192,1,110,0|0,0:0|0:0,0:0:0:0:
336,192,21898,1,2,0:0:0:0:
154,192,22133,2,0,L|154:128,1,55,2|2,0:0|0:0,0:0:0:0:
368,192,22484,6,0,P|424:160|360:112,1,165,2|0,0:0|0:0,0:0:0:0:
232,192,23070,1,2,0:0:0:0:
480,192,23422,2,0,L|312:192,1,165,2|0,0:0|0:0,0:0:0:0:
112,192,24008,2,0,P|72:152|104:128,1,110,2|0,0:0|0:0,0:0:0:0:
424,192,24477,6,0,L|256:192,2,165,2|2|0,0:0|0:3|0:0,0:0:0:0:
104,192,25414,2,0,L|272:192,2,165,2|2|0,0:0|0:3|0:0,0:0:0:0:
416,192,26352,6,0,P|480:152|416:104,1,165,2|0,0:3|0:0,0:0:0:0:
368,192,26820,1,2,0:0:0:0:
488,192,27055,2,0,L|368:192,1,110,0|0,0:0|0:0,0:0:0:0:
240,192,27523,1,2,0:0:0:0:
440,192,27758,2,0,L|440:136,1,55,0|2,0:0|0:0,0:0:0:0:
232,192,28109,6,0,P|152:160|160:88,1,165,2|0,0:0|0:0,0:0:0:0:
272,192,28695,1,2,0:0:0:0:
24,192,29047,2,0,P|59:137|152:112,1,165,2|0,0:2|0:0,0:0:0:0:
352,192,29633,1,2,0:0:0:0:
72,192,29984,6,0,L|56:168,1,27.5,2|2,0:0|0:0,0:0:0:0:
144,192,30219,1,2,0:0:0:0:
208,192,30336,2,0,P|280:160|200:96,1,220,2|0,0:0|0:0,0:0:0:0:
96,192,31039,1,0,3:0:0:0:
296,192,31273,2,0,P|362:172|376:120,2,110,2|0|2,0:0|3:0|0:0,0:0:0:0:
76,192,31977,6,0,L|316:192,1,220,4|4,3:0|0:3,0:0:0:0:
232,192,32562,1,2,0:0:0:0:
168,192,32680,1,2,0:0:0:0:
312,192,32797,1,2,0:0:0:0:
376,192,32914,2,0,P|416:152|312:80,1,220,4|2,3:0|0:3,0:0:0:0:
168,192,33617,2,0,L|104:192,1,55,2|2,0:0|0:0,0:0:0:0:
312,192,33852,6,0,P|368:184|384:128,1,110,4|0,0:3|0:0,0:0:0:0:
184,192,34320,2,0,P|120:168|112:112,1,110,10|0,0:2|0:0,0:0:0:0:
256,192,34672,1,2,3:2:0:0:
328,192,34789,2,0,P|320:144|264:128,1,110,4|0,0:3|0:0,0:0:0:0:
64,192,35258,2,0,L|176:192,1,110,10|0,0:2|0:0,0:0:0:0:
320,192,35609,5,2,0:2:0:0:
384,192,35727,2,0,P|416:136|336:112,1,165,4|0,0:3|0:0,0:0:0:0:
210,192,36195,2,0,L|330:192,1,110,8|0,0:2|0:0,0:0:0:0:
192,192,36664,2,0,L|128:192,1,55,4|0,0:3|0:0,0:0:0:0:
208,192,36898,1,2,0:2:0:0:
408,192,37133,1,10,0:2:0:0:
280,192,37250,2,0,L|280:136,1,55,2|0,0:2|0:0,0:0:0:0:
408,192,37484,5,0,0:0:0:0:
456,192,37602,2,0,P|424:144|360:136,1,110,4|0,0:0|0:0,0:0:0:0:
168,192,38070,2,0,P|136:136|176:120,1,110,10|0,0:2|0:0,0:0:0:0:
304,192,38422,1,2,0:2:0:0:
360,192,38539,2,0,L|248:192,1,110,4|0,0:3|0:0,0:0:0:0:
448,192,39008,2,0,P|424:128|360:112,1,110,8|0,0:2|0:0,0:0:0:0:
75,192,39477,6,0,L|243:192,1,165,4|8,0:3|0:3,0:0:0:0:
112,192,39945,2,0,P|72:160|80:104,1,110,8|4,0:0|0:3,0:0:0:0:
405,192,40414,2,0,L|240:192,1,165,8|8,0:0|0:0,0:0:0:0:
367,192,40883,2,0,P|407:158|400:106,1,110,8|4,0:0|0:0,0:0:0:0:
88,192,41352,6,0,P|24:160|24:120,1,110,4|0,0:0|0:0,0:0:0:0:
216,192,41820,2,0,L|328:192,2,110,8|0|0,0:0|0:0|0:0,0:0:0:0:
40,192,42523,1,2,0:2:0:0:
360,192,42758,2,0,L|392:168,1,27.5,8|8,0:2|0:2,0:0:0:0:
128,192,43109,5,2,0:0:0:0:
64,192,43227,2,0,P|32:136|112:96,1,165,4|0,0:3|0:0,0:0:0:0:
256,192,43695,2,0,L|288:192,1,27.5,8|8,0:2|0:2,0:0:0:0:
32,192,44047,1,2,0:0:0:0:
32,192,44164,2,0,P|72:128|168:104,1,165,0|0,0:0|0:0,0:0:0:0:
352,192,44633,2,0,L|368:168,1,27.5,8|8,0:2|0:2,0:0:0:0:
152,192,44984,1,8,0:2:0:0:
352,192,45102,5,4,0:1:0:0:
408,192,45219,1,2,0:2:0:0:
424,192,45336,1,2,0:2:0:0:
368,192,45453,1,0,0:0:0:0:
224,192,45570,1,2,0:2:0:0:
176,192,45687,1,0,0:0:0:0:
224,192,45805,1,2,0:2:0:0:
272,192,45922,1,0,0:0:0:0:
224,192,46039,1,2,0:2:0:0:
176,192,46156,1,0,0:0:0:0:
304,192,46273,2,0,L|360:192,1,55,2|0,0:3|0:3,0:0:0:0:
224,192,46508,1,2,0:0:0:0:
104,192,46625,2,0,L|40:192,1,55,2|0,0:3|0:0,0:0:0:0:
176,192,46859,1,2,0:3:0:0:
376,192,46977,5,2,0:2:0:0:
328,192,47094,1,2,0:2:0:0:
280,192,47211,1,2,0:2:0:0:
232,192,47328,1,2,0:2:0:0:
360,192,47445,2,0,L|432:192,2,55,2|2|0,0:3|0:3|0:0,0:0:0:0:
232,192,47797,1,2,0:3:0:0:
176,192,47914,1,2,0:3:0:0:
152,192,48031,1,2,0:2:0:0:
176,192,48148,1,2,0:2:0:0:
232,192,48266,1,2,0:2:0:0:
424,192,48383,2,0,L|488:192,2,55,2|2|2,0:3|0:3|0:3,0:0:0:0:
288,192,48734,1,2,0:3:0:0:
88,192,48852,6,0,L|88:128,1,55,4|0,0:2|0:0,0:0:0:0:
232,192,49086,2,0,L|320:192,1,55,2|2,0:2|0:0,0:0:0:0:
152,192,49320,1,4,0:2:0:0:
96,192,49437,1,2,0:2:0:0:
72,192,49555,1,2,0:2:0:0:
96,192,49672,1,2,0:2:0:0:
232,192,49789,2,0,L|296:192,1,55,4|0,0:2|0:0,0:0:0:0:
152,192,50023,2,0,L|96:192,1,55,2|2,0:2|0:2,0:0:0:0:
232,192,50258,1,4,0:2:0:0:
360,192,50375,2,0,L|416:192,1,55,2|4,0:2|0:2,0:0:0:0:
280,192,50609,1,2,0:2:0:0:
80,192,50727,5,4,0:3:0:0:
112,192,50844,1,0,0:0:0:0:
168,192,50961,1,0,0:0:0:0:
384,192,51078,1,4,0:3:0:0:
352,192,51195,1,0,0:0:0:0:
296,192,51312,1,0,0:0:0:0:
80,192,51430,2,0,L|24:192,1,55,8|0,0:3|0:0,0:0:0:0:
256,192,51664,2,0,P|336:176|376:96,1,165.000006294251,4|0,0:1|0:0,0:0:0:0:
160,192,52133,2,0,P|128:152|168:120,1,110,2|0,0:0|0:0,0:0:0:0:
296,192,52484,1,2,0:0:0:0:
488,192,52602,6,0,L|432:192,1,55,4|0,1:0|0:0,0:0:0:0:
320,192,52953,1,2,0:0:0:0:
432,192,53187,1,2,0:0:0:0:
288,192,53305,1,2,0:3:0:0:
448,192,53539,2,0,P|480:152|440:120,1,110,2|0,0:3|0:0,0:0:0:0:
264,192,54008,2,0,L|376:192,1,110,2|0,0:0|0:0,0:0:0:0:
240,192,54359,1,2,0:0:0:0:
40,192,54477,6,0,L|40:136,1,55,2|0,0:0|0:0,0:0:0:0:
152,192,54828,1,2,0:0:0:0:
40,192,55062,1,2,0:0:0:0:
184,192,55180,1,2,0:3:0:0:
16,192,55414,2,0,L|136:192,1,110,2|0,0:3|0:0,0:0:0:0:
312,192,55883,2,0,L|368:192,1,55,2|2,0:0|0:0,0:0:0:0:
240,192,56117,1,2,0:0:0:0:
44,192,56234,2,0,L|4:192,1,27.5,2|2,0:3|0:3,0:0:0:0:
212,192,56352,5,2,0:3:0:0:
328,192,56469,2,0,L|368:192,2,27.5,2|0|0,0:3|0:0|0:0,0:0:0:0:
256,192,56703,1,2,0:0:0:0:
124,192,56820,2,0,L|60:192,1,55,2|0,0:0|0:0,0:0:0:0:
204,192,57055,1,2,0:3:0:0:
412,192,57172,6,0,L|444:192,2,27.5,2|2|2,0:3|0:3|0:3,0:0:0:0:
272,192,57406,2,0,L|224:192,2,27.5,2|2|2,0:3|0:3|0:3,0:0:0:0:
344,192,57641,1,2,0:0:0:0:
480,192,57758,2,0,L|416:192,1,55,2|0,0:0|0:0,0:0:0:0:
288,192,57992,2,0,L|232:192,1,55,2|0,0:0|0:0,0:0:0:0:
272,192,58168,1,2,0:0:0:0:
424,192,58227,6,0,L|496:192,2,55,2|0|2,0:0|0:0|0:3,0:0:0:0:
224,192,58578,2,0,L|160:192,2,55,2|0|2,0:0|0:0|0:3,0:0:0:0:
424,192,58930,2,0,L|472:192,2,27.5,2|2|2,0:0|0:0|0:3,0:0:0:0:
360,192,59164,1,2,0:3:0:0:
169,192,59281,1,2,0:3:0:0:
224,192,59398,1,2,0:3:0:0:
280,192,59516,1,2,0:3:0:0:
88,192,59633,1,2,0:2:0:0:
280,192,59750,2,0,L|344:192,1,55,2|2,0:0|0:0,0:0:0:0:
200,192,59984,5,2,0:0:0:0:
80,192,60102,2,0,L|144:192,1,55,2|2,3:2|0:2,0:0:0:0:
248,192,60453,1,2,0:3:0:0:
360,192,60687,1,2,0:3:0:0:
224,192,60805,1,2,0:2:0:0:
408,192,61039,2,0,L|472:192,2,55,2|2|0,0:2|0:2|0:0,0:0:0:0:
216,192,61508,2,0,P|152:168|120:128,1,110,2|0,0:2|0:0,0:0:0:0:
248,192,61859,1,2,0:2:0:0:
448,192,61977,5,2,0:3:0:0:
496,192,62094,1,2,0:3:0:0:
368,192,62328,1,2,0:3:0:0:
256,192,62562,1,2,0:3:0:0:
392,192,62680,1,2,0:2:0:0:
200,192,62914,2,0,L|136:192,2,55,2|2|0,0:2|0:2|0:0,0:0:0:0:
400,192,63383,2,0,L|328:192,1,55,2|2,0:2|0:2,0:0:0:0:
200,192,63617,2,0,L|200:120,1,55,2|0,0:0|0:0,0:0:0:0:
400,192,63852,6,0,L|448:192,1,27.5,2|2,0:3|0:3,0:0:0:0:
280,192,64086,2,0,L|240:192,2,27.5,2|2|2,0:2|0:2|0:2,0:0:0:0:
336,192,64320,1,2,0:3:0:0:
152,192,64555,2,0,L|112:192,1,27.5,2|2,0:2|0:2,0:0:0:0:
272,192,64789,2,0,L|312:192,2,27.5,2|2|2,0:3|0:3|0:3,0:0:0:0:
32,192,65258,1,2,0:3:0:0:
80,192,65375,1,2,0:3:0:0:
128,192,65492,1,2,0:2:0:0:
440,192,65727,6,0,L|472:192,2,27.5,6|2|2,3:3|3:3|3:3,0:0:0:0:
312,192,65961,2,0,L|272:192,2,27.5,6|2|2,3:0|3:0|3:0,0:0:0:0:
367,192,66195,2,0,L|311:192,1,55,8|0,0:2|0:0,0:0:0:0:
176,192,66430,2,0,L|128:192,2,27.5,0|0|0,3:0|0:0|0:0,0:0:0:0:
312,192,66664,1,2,0:3:0:0:
284,192,66723,1,2,0:3:0:0:
256,192,66781,1,2,0:3:0:0:
192,192,66898,2,0,L|128:192,1,55,0|0,0:0|0:0,0:0:0:0:
328,192,67133,5,2,2:3:0:0:
360,192,67191,1,2,2:3:0:0:
360,192,67250,1,2,2:3:0:0:
328,192,67309,1,2,2:3:0:0:
208,192,67367,1,2,2:3:0:0:
176,192,67426,1,2,2:3:0:0:
296,192,67484,1,2,2:3:0:0:
328,192,67543,1,2,2:3:0:0:
168,192,67602,6,0,L|112:192,2,55,4|2|2,0:1|2:2|2:2,0:0:0:0:
304,192,67953,2,0,P|360:168|336:104,1,110,4|2,0:3|2:2,0:0:0:0:
223,192,68305,2,0,L|159:192,1,55,4|0,0:3|0:0,0:0:0:0:
304,192,68539,2,0,P|344:152|296:120,1,110,4|0,0:3|0:0,0:0:0:0:
248,192,68891,1,4,0:3:0:0:
112,192,69008,2,0,L|48:192,1,55,2|2,2:2|2:2,0:0:0:0:
184,192,69242,1,4,0:3:0:0:
304,192,69359,1,2,2:2:0:0:
104,192,69477,6,0,L|48:192,2,55,4|2|2,0:3|2:2|2:2,0:0:0:0:
232,192,69828,2,0,L|112:192,1,110,4|2,0:3|2:2,0:0:0:0:
249,192,70180,2,0,L|313:192,1,55,4|0,0:3|0:0,0:0:0:0:
176,192,70414,2,0,P|144:152|184:136,1,110,4|0,0:3|0:0,0:0:0:0:
256,192,70766,1,4,0:3:0:0:
392,192,70883,2,0,L|456:192,2,55,2|2|4,2:2|2:2|0:3,0:0:0:0:
192,192,71234,2,0,L|160:192,1,27.5,2|2,2:2|2:2,0:0:0:0:
320,192,71352,5,4,0:3:0:0:
432,192,71469,2,0,L|480:192,2,27.5,2|2|2,2:2|2:2|2:2,0:0:0:0:
368,192,71703,1,4,0:3:0:0:
240,192,71820,2,0,L|320:192,1,55,2|2,2:2|2:2,0:0:0:0:
424,192,72055,1,4,0:3:0:0:
232,192,72172,6,0,L|192:192,2,27.5,2|2|4,2:2|2:2|0:3,0:0:0:0:
368,192,72406,2,0,L|408:192,2,27.5,2|2|2,2:2|2:2|2:2,0:0:0:0:
304,192,72641,1,4,0:3:0:0:
176,192,72758,2,0,L|120:192,1,55,2|2,2:2|2:2,0:0:0:0:
256,192,72992,2,0,L|320:192,1,55,4|0,0:3|0:0,0:0:0:0:
280,192,73168,1,2,2:2:0:0:
128,192,73227,6,0,P|72:168|64:120,1,110,4|0,0:3|0:0,0:0:0:0:
256,192,73578,2,0,P|320:160|288:96,1,110,8|0,0:3|0:0,0:0:0:0:
120,192,73930,6,0,L|72:192,2,27.5,4|2|2,0:3|2:2|2:2,0:0:0:0:
184,192,74164,1,4,0:3:0:0:
384,192,74281,2,0,L|416:192,2,27.5,2|2|0,2:2|2:2|0:0,0:0:0:0:
312,192,74516,1,4,0:3:0:0:
120,192,74633,1,0,0:0:0:0:
312,192,74750,2,0,L|384:192,1,55,0|8,0:0|0:3,0:0:0:0:
168,192,74984,2,0,L|120:192,1,27.5,0|0,0:0|0:0,0:0:0:0:
288,192,75102,5,4,0:3:0:0:
368,192,75219,2,0,L|312:192,1,55,4|4,0:3|0:3,0:0:0:0:
168,192,75453,2,0,L|96:192,1,55,4|4,0:3|0:3,0:0:0:0:
240,192,75687,1,4,0:3:0:0:
440,192,75805,2,0,L|472:192,2,27.5,4|2|4,0:3|2:2|0:3,0:0:0:0:
240,192,76039,1,4,0:3:0:0:
192,192,76156,1,4,0:3:0:0:
192,192,76273,1,4,0:3:0:0:
240,192,76391,1,4,0:3:0:0:
440,192,76508,5,4,0:3:0:0:
240,192,76625,1,4,0:3:0:0:
192,192,76742,1,4,0:3:0:0:
224,192,76801,1,2,2:2:0:0:
360,192,76859,2,0,L|408:192,1,27.5,4|2,0:3|2:2,0:0:0:0:
248,192,76977,5,4,0:3:0:0:
160,192,77094,2,0,L|96:192,1,55,4|4,0:3|0:3,0:0:0:0:
240,192,77328,2,0,L|304:192,1,55,4|4,0:3|0:3,0:0:0:0:
160,192,77562,1,4,0:3:0:0:
352,192,77680,2,0,L|384:192,2,27.5,4|2|4,0:3|2:2|0:3,0:0:0:0:
160,192,77914,1,4,0:3:0:0:
216,192,78031,1,4,0:3:0:0:
272,192,78148,1,4,0:3:0:0:
328,192,78266,1,4,0:3:0:0:
136,192,78383,5,4,0:3:0:0:
328,192,78500,1,4,0:3:0:0:
376,184,78617,1,4,0:3:0:0:
344,192,78676,1,4,0:3:0:0:
208,192,78734,2,0,L|160:192,1,27.5,4|4,0:3|0:3,0:0:0:0:
328,192,78852,6,0,L|376:192,1,27.5,4|4,0:3|0:3,0:0:0:0:
216,192,78969,1,4,0:3:0:0:
184,192,79027,1,4,0:3:0:0:
184,192,79086,1,4,0:3:0:0:
216,192,79144,1,4,0:3:0:0:
355,192,79203,1,4,0:3:0:0:
392,192,79262,1,4,0:3:0:0:
416,192,79320,1,4,0:3:0:0:
416,192,79379,1,4,0:3:0:0:
392,192,79437,1,4,0:3:0:0:
355,192,79496,1,4,0:3:0:0:
216,192,79555,1,4,0:3:0:0:
184,192,79613,1,4,0:3:0:0:
200,192,79672,1,4,0:3:0:0:
232,192,79730,1,4,0:3:0:0:
376,192,79789,5,4,0:3:0:0:
416,192,79848,1,4,0:3:0:0:
440,192,79906,1,4,0:3:0:0:
448,192,79965,1,4,0:3:0:0:
448,192,80023,1,4,0:3:0:0:
440,192,80082,1,4,0:3:0:0:
416,192,80141,1,4,0:3:0:0:
376,192,80199,1,4,0:3:0:0:
232,192,80258,2,0,L|200:192,1,27.5,4|4,0:3|0:3,0:0:0:0:
348,192,80375,2,0,L|393:192,1,27.5,4|4,0:3|0:3,0:0:0:0:
232,192,80492,2,0,L|200:192,1,27.5,4|4,0:3|0:3,0:0:0:0:
348,192,80609,5,4,0:3:0:0:
384,192,80668,1,4,0:3:0:0:
400,192,80727,1,4,0:3:0:0:
336,192,80844,2,0,L|304:192,2,27.5,2|0|0,0:0|0:0|0:0,0:0:0:0:
400,192,81078,1,0,0:0:0:0:
336,192,81195,1,0,0:0:0:0:
204,192,81312,2,0,L|124:192,1,55,0|0,0:0|0:0,0:0:0:0:
352,192,81547,2,0,P|384:152|344:128,1,110,0|2,0:0|0:0,0:0:0:0:
312,192,81840,1,0,0:0:0:0:
272,192,81898,1,0,0:0:0:0:
204,192,82016,1,0,0:0:0:0:
408,192,82133,2,0,P|464:152|440:120,1,110,2|0,1:1|0:0,0:0:0:0:
320,192,82484,1,2,1:0:0:0:
120,192,82602,5,6,1:0:0:0:
320,192,82719,2,0,L|408:192,1,55,0|0,0:0|1:0,0:0:0:0:
175,192,82953,2,0,L|111:192,1,55,2|0,1:0|0:0,0:0:0:0:
256,192,83187,1,0,1:0:0:0:
456,192,83305,2,0,L|392:192,1,55,2|0,1:0|0:0,0:0:0:0:
176,192,83539,2,0,P|144:160|192:120,1,110,2|0,1:0|0:0,0:0:0:0:
256,192,83891,1,0,1:0:0:0:
72,192,84008,2,0,P|37:152|80:128,1,110,2|0,1:0|0:0,0:0:0:0:
256,192,84359,1,2,1:0:0:0:
456,192,84477,5,2,1:0:0:0:
256,192,84594,2,0,L|168:192,1,55,2|0,1:0|0:0,0:0:0:0:
401,192,84828,2,0,L|465:192,1,55,2|0,1:0|0:0,0:0:0:0:
320,192,85062,1,0,1:0:0:0:
120,192,85180,2,0,L|184:192,1,55,2|0,1:0|0:0,0:0:0:0:
400,192,85414,2,0,P|432:160|384:120,1,110,2|0,1:0|0:0,0:0:0:0:
320,192,85766,1,0,1:0:0:0:
184,192,85883,2,0,L|128:192,2,55,2|0|0,1:0|1:0|1:0,0:0:0:0:
384,192,86234,2,0,L|416:192,1,27.5,0|0,1:0|1:0,0:0:0:0:
280,192,86352,5,2,1:0:0:0:
96,192,86469,2,0,L|56:192,2,27.5,2|0|0,1:0|1:0|1:0,0:0:0:0:
304,192,86820,2,0,L|376:192,2,55,2|0|0,1:0|1:0|1:0,0:0:0:0:
96,192,87172,2,0,L|64:192,1,27.5,2|0,1:0|1:0,0:0:0:0:
200,192,87289,1,2,1:0:0:0:
384,192,87406,2,0,L|424:192,2,27.5,2|0|0,1:0|1:0|1:0,0:0:0:0:
328,192,87641,1,0,1:0:0:0:
200,192,87758,2,0,P|159:183|152:144,1,55,2|0,1:0|1:0,0:0:0:0:
344,192,87992,2,0,P|392:160|392:128,1,82.5,2|0,1:0|0:0,0:0:0:0:
256,192,88227,6,0,B|160:192|160:192|160:120,1,165.000006294251,4|2,1:3|0:2,0:0:0:0:
368,192,88578,2,0,L|256:192,1,110,8|0,1:3|0:0,0:0:0:0:
448,192,88930,2,0,L|296:192,1,131.99999597168,4|2,1:3|0:2,0:0:0:0:
496,192,89281,2,0,L|296:192,1,197.99999395752,12|0,1:3|0:0,0:0:0:0:
298,192,89574,1,0,1:0:0:0:
431,192,89633,1,0,1:0:0:0:
495,192,89750,2,0,L|495:128,1,55,0|0,1:0|1:0,0:0:0:0:
304,192,89984,1,0,1:0:0:0:
112,192,90102,5,6,1:0:0:0:
304,192,90219,2,0,L|392:192,1,55,2|0,1:0|0:0,0:0:0:0:
176,192,90453,2,0,L|248:192,1,55,2|0,1:0|0:0,0:0:0:0:
352,192,90687,1,2,1:0:0:0:
152,192,90805,2,0,L|88:192,1,55,2|0,1:0|0:0,0:0:0:0:
288,192,91039,2,0,P|360:160|352:112,1,110,0|0,1:0|0:0,0:0:0:0:
288,192,91391,1,2,1:0:0:0:
97,192,91508,2,0,P|48:176|40:112,1,110,0|0,1:0|0:0,0:0:0:0:
232,192,91859,1,2,1:0:0:0:
424,192,91977,5,2,1:0:0:0:
232,192,92094,2,0,L|144:192,1,55,2|0,1:0|0:0,0:0:0:0:
360,192,92328,2,0,L|288:192,1,55,2|0,1:0|0:0,0:0:0:0:
184,192,92562,1,2,1:0:0:0:
384,192,92680,2,0,L|448:192,1,55,0|0,1:0|1:0,0:0:0:0:
248,192,92914,2,0,P|176:160|160:120,1,110,2|0,1:0|0:0,0:0:0:0:
224,192,93266,1,2,1:0:0:0:
360,192,93383,2,0,L|304:192,1,55,2|0,1:0|1:0,0:0:0:0:
184,192,93617,2,0,L|184:128,1,55,2|0,1:0|1:0,0:0:0:0:
384,192,93852,6,0,L|448:192,1,55,2|2,1:0|1:0,0:0:0:0:
240,192,94086,2,0,L|200:192,2,27.5,2|2|2,2:0|2:0|2:0,0:0:0:0:
368,192,94320,2,0,L|440:192,1,55,0|0,1:0|1:0,0:0:0:0:
384,192,94496,1,0,1:0:0:0:
248,192,94555,6,0,L|184:192,1,55,2|0,1:0|0:0,0:0:0:0:
392,192,94789,2,0,L|432:192,2,27.5,2|2|2,3:3|3:3|3:3,0:0:0:0:
328,192,95023,2,0,L|256:192,1,55,0|0,1:0|1:0,0:0:0:0:
456,192,95258,2,0,P|491:175|496:152,2,55,2|2|2,1:0|1:0|1:0,0:0:0:0:
384,192,95609,1,0,1:0:0:0:
192,192,95727,6,0,L|136:192,1,55,2|0,0:0|0:0,0:0:0:0:
208,192,95961,2,0,L|240:192,2,27.5,2|2|2,2:2|2:2|2:2,0:0:0:0:
80,192,96195,2,0,L|24:192,1,55,0|0,1:0|0:0,0:0:0:0:
25,192,96430,2,0,L|88:192,1,55,2|0,3:0|0:0,0:0:0:0:
235,192,96664,1,4,3:0:0:0:
296,192,96781,1,4,3:0:0:0:
176,192,96898,1,4,3:0:0:0:
296,192,97016,1,4,3:0:0:0:
104,192,97133,2,0,P|40:160|64:104,1,110,4|0,1:2|0:0,0:0:0:0:
176,192,97484,1,0,0:0:0:0:
368,192,97602,5,6,1:0:0:0:
176,192,97719,2,0,L|104:192,1,55,2|0,1:0|1:0,0:0:0:0:
313,192,97953,2,0,L|377:192,1,55,2|8,1:0|0:1,0:0:0:0:
224,192,98187,1,2,1:0:0:0:
40,192,98305,2,0,L|40:128,1,55,2|0,1:0|1:0,0:0:0:0:
224,192,98539,2,0,P|264:160|224:136,1,110,2|0,1:0|0:0,0:0:0:0:
152,192,98891,1,0,1:0:0:0:
352,192,99008,2,0,P|432:176|456:136,1,110,10|0,0:1|0:0,0:0:0:0:
264,192,99359,1,2,1:0:0:0:
80,192,99477,5,2,1:0:0:0:
272,192,99594,2,0,L|344:192,1,55,2|0,1:0|1:0,0:0:0:0:
135,192,99828,2,0,L|71:192,1,55,2|8,1:0|0:1,0:0:0:0:
224,192,100062,1,0,1:0:0:0:
408,192,100180,2,0,L|408:128,1,55,2|0,1:0|0:0,0:0:0:0:
224,192,100414,2,0,P|168:168|160:120,1,110,2|0,1:0|0:0,0:0:0:0:
232,192,100766,1,0,1:0:0:0:
368,192,100883,2,0,L|440:192,2,55,8|2|0,0:1|1:0|1:0,0:0:0:0:
176,192,101234,2,0,L|136:192,1,27.5,0|0,1:0|1:0,0:0:0:0:
288,192,101352,5,2,1:0:0:0:
472,192,101469,2,0,L|504:192,2,27.5,2|0|0,1:0|1:0|1:0,0:0:0:0:
272,192,101820,2,0,L|208:192,2,55,8|2|0,0:1|1:0|0:0,0:0:0:0:
464,192,102172,2,0,L|496:192,1,27.5,2|0,1:0|1:0,0:0:0:0:
352,192,102289,1,2,1:0:0:0:
160,192,102406,2,0,L|120:192,2,27.5,2|0|0,1:0|1:0|1:0,0:0:0:0:
224,192,102641,1,0,1:0:0:0:
352,192,102758,2,0,L|416:192,1,55,8|2,0:1|1:0,0:0:0:0:
224,192,102992,2,0,P|160:152|160:136,1,82.5,2|0,1:0|0:0,0:0:0:0:
304,192,103227,6,0,P|336:152|296:128,1,110,4|2,1:3|0:0,0:0:0:0:
104,192,103578,2,0,L|216:192,1,110,8|2,1:3|0:0,0:0:0:0:
416,192,103930,1,4,1:3:0:0:
360,192,104047,1,4,1:3:0:0:
304,192,104164,1,8,1:3:0:0:
88,192,104281,1,12,1:3:0:0:
176,192,104398,1,4,1:3:0:0:
88,192,104516,2,0,L|56:192,1,27.5,4|4,1:3|1:3,0:0:0:0:
200,192,104633,1,4,1:3:0:0:
384,192,104750,2,0,L|439:192,1,55,4|4,1:3|1:3,0:0:0:0:
240,192,104984,1,8,1:3:0:0:
439,192,105102,5,2,0:0:0:0:
488,192,105219,2,0,P|488:136|440:112,1,110,2|0,0:0|0:0,0:0:0:0:
248,192,105570,1,4,1:0:0:0:
192,192,105687,1,2,1:0:0:0:
376,192,105805,2,0,L|432:192,1,55,2|0,1:0|0:0,0:0:0:0:
240,192,106039,2,0,P|176:176|144:120,1,110,2|0,1:0|0:0,0:0:0:0:
208,192,106391,1,0,1:0:0:0:
416,192,106508,2,0,L|472:192,2,55,8|2|0,0:1|1:0|1:0,0:0:0:0:
224,192,106859,1,0,1:0:0:0:
32,192,106977,5,2,1:0:0:0:
224,192,107094,2,0,L|304:192,1,55,2|0,1:0|0:0,0:0:0:0:
96,192,107328,2,0,L|160:192,1,55,2|8,1:0|1:1,0:0:0:0:
256,192,107562,1,0,1:0:0:0:
448,192,107680,2,0,L|448:136,1,55,2|0,1:0|0:0,0:0:0:0:
256,192,107914,2,0,P|208:176|184:120,1,110,2|0,1:1|0:0,0:0:0:0:
256,192,108266,1,2,1:0:0:0:
384,192,108383,1,8,0:1:0:0:
312,192,108500,1,2,1:0:0:0:
128,192,108617,2,0,L|128:128,1,55,2|0,1:0|0:0,0:0:0:0:
329,192,108852,6,0,L|385:192,1,55,4|0,1:3|0:0,0:0:0:0:
192,192,109086,2,0,L|152:192,2,27.5,2|2|2,1:0|1:1|1:0,0:0:0:0:
320,192,109320,2,0,L|384:192,1,55,8|0,0:1|1:0,0:0:0:0:
176,192,109555,2,0,L|176:136,1,55,2|0,1:0|0:0,0:0:0:0:
375,192,109789,2,0,L|407:192,2,27.5,2|2|2,1:0|1:0|1:0,0:0:0:0:
312,192,110023,1,0,1:0:0:0:
232,192,110141,1,0,1:0:0:0:
48,192,110258,2,0,L|8:152,2,55,8|2|0,0:1|1:0|1:0,0:0:0:0:
120,192,110609,1,2,1:0:0:0:
312,192,110727,6,0,L|368:192,1,55,2|0,0:2|0:0,0:0:0:0:
296,192,110961,2,0,L|264:192,2,27.5,2|2|2,0:2|0:2|0:2,0:0:0:0:
424,192,111195,2,0,L|480:192,1,55,8|0,0:2|0:0,0:0:0:0:
479,192,111430,2,0,L|416:192,1,55,2|0,0:2|0:0,0:0:0:0:
352,192,111664,1,2,0:2:0:0:
232,192,111781,1,2,0:2:0:0:
352,192,111898,2,0,L|432:192,1,55,0|0,1:0|1:0,0:0:0:0:
192,192,112133,2,0,L|128:192,1,55,2|0,1:0|1:0,0:0:0:0:
352,192,112367,2,0,L|408:192,1,55,2|0,1:0|1:0,0:0:0:0:
208,192,112602,6,0,L|152:192,1,55,4|0,1:0|0:0,0:0:0:0:
345,192,112836,2,0,L|385:192,2,27.5,2|2|2,1:0|1:0|1:0,0:0:0:0:
217,192,113070,2,0,L|153:192,1,55,8|0,0:1|1:0,0:0:0:0:
361,192,113305,2,0,L|361:136,1,55,2|0,1:0|0:0,0:0:0:0:
162,192,113539,2,0,L|130:192,2,27.5,2|2|2,1:0|1:0|1:0,0:0:0:0:
225,192,113773,1,0,1:0:0:0:
305,192,113891,1,0,1:0:0:0:
488,192,114008,1,8,0:1:0:0:
488,192,114125,1,2,1:0:0:0:
424,192,114242,1,0,1:0:0:0:
216,192,114359,1,0,1:0:0:0:
152,192,114477,5,4,0:0:0:0:
104,192,114594,1,0,0:0:0:0:
104,192,114711,1,2,0:0:0:0:
120,192,114769,1,2,0:0:0:0:
152,192,114828,1,2,0:0:0:0:
216,192,114945,1,2,0:0:0:0:
280,192,115062,1,2,0:0:0:0:
216,192,115180,1,2,0:0:0:0:
280,192,115297,1,2,0:0:0:0:
344,192,115414,2,0,L|384:192,2,27.5,2|2|2,0:0|0:0|0:0,0:0:0:0:
280,192,115648,1,2,0:0:0:0:
216,192,115766,1,2,0:0:0:0:
280,192,115883,1,2,0:0:0:0:
328,192,116000,1,2,0:0:0:0:
328,192,116117,1,2,0:0:0:0:
280,192,116234,1,2,0:0:0:0:
72,192,116352,6,0,L|184:192,1,110,2|0,1:0|0:0,0:0:0:0:
376,192,116703,2,0,L|264:192,1,110,2|0,1:0|0:0,0:0:0:0:
72,192,117055,1,0,1:0:0:0:
392,192,117289,1,2,1:0:0:0:
224,192,117523,2,0,L|168:192,1,55,2|2,1:0|0:2,0:0:0:0:
360,192,117758,2,0,L|424:192,1,55,8|8,0:2|0:2,0:0:0:0:
224,192,117992,2,0,L|176:192,2,27.5,8|8|8,0:2|0:2|0:2,0:0:0:0:
432,192,118227,6,0,P|472:152|432:128,1,110,4|2,0:3|0:0,0:0:0:0:
384,192,118578,1,2,0:0:0:0:
440,192,118695,1,8,0:3:0:0:
496,192,118812,1,2,0:0:0:0:
440,192,118930,1,2,0:0:0:0:
304,192,119047,2,0,P|240:168|232:120,1,110,2|2,0:0|0:0,0:0:0:0:
408,192,119516,2,0,P|462:141|424:112,1,110,4|2,0:3|0:0,0:0:0:0:
264,192,119984,1,4,0:3:0:0:
456,192,120102,6,0,L|456:120,1,55,4|0,3:0|0:0,0:0:0:0:
272,192,120336,2,0,L|256:168,3,27.5,2|2|2|2,0:3|0:3|0:3|0:3,0:0:0:0:
96,192,120570,2,0,L|96:128,1,55,2|0,1:2|0:0,0:0:0:0:
296,192,120805,2,0,L|296:128,1,55,8|8,0:1|0:1,0:0:0:0:
240,192,121039,2,0,L|240:120,1,55,0|8,1:0|0:1,0:0:0:0:
424,192,121273,2,0,L|424:136,1,55,8|2,0:0|0:3,0:0:0:0:
168,192,121508,2,0,L|496:24,1,366.666666666667,2|2,1:0|1:0,0:0:0:0:
494,24,121859,1,4,0:3:0:0:
280,192,121977,5,4,0:3:0:0:
120,192,122211,1,2,0:0:0:0:
64,192,122328,1,2,0:0:0:0:
64,192,122445,1,8,0:3:0:0:
120,192,122562,1,2,0:0:0:0:
320,192,122680,2,0,L|360:192,1,27.5,2|2,0:3|0:3,0:0:0:0:
216,192,122797,2,0,L|176:192,2,27.5,2|2|4,0:2|0:2|0:3,0:0:0:0:
344,192,123031,2,0,L|416:192,1,55,2|2,0:3|0:0,0:0:0:0:
271,192,123266,2,0,L|215:192,1,55,6|0,0:3|0:0,0:0:0:0:
400,192,123500,2,0,L|464:192,1,55,2|2,1:2|0:3,0:0:0:0:
328,192,123734,1,2,0:3:0:0:
128,192,123852,6,0,L|128:136,1,55,4|0,0:0|0:0,0:0:0:0:
328,192,124086,2,0,L|328:128,1,55,10|0,0:0|0:0,0:0:0:0:
128,192,124320,2,0,L|128:136,1,55,2|2,0:3|0:3,0:0:0:0:
168,192,124496,1,2,0:3:0:0:
304,192,124555,2,0,L|304:128,1,55,8|8,0:2|0:0,0:0:0:0:
232,192,124789,2,0,L|232:128,1,55,0|0,1:0|1:0,0:0:0:0:
40,192,125023,2,0,L|40:136,1,55,8|2,0:0|0:0,0:0:0:0:
240,192,125258,2,0,L|328:192,1,55,4|0,0:3|0:0,0:0:0:0:
80,192,125492,2,0,L|16:192,1,55,4|0,0:3|0:0,0:0:0:0:
240,192,125727,5,4,0:1:0:0:
392,192,125961,1,2,0:0:0:0:
448,192,126078,1,2,0:0:0:0:
472,192,126195,1,12,0:3:0:0:
448,192,126312,1,2,0:0:0:0:
392,192,126430,1,2,0:0:0:0:
232,192,126547,2,0,P|192:168|232:128,1,110,2|2,0:3|0:2,0:0:0:0:
408,192,127016,2,0,P|472:176|496:128,1,110,8|0,0:3|1:0,0:0:0:0:
488,192,127367,1,0,1:0:0:0:
464,192,127426,1,0,1:0:0:0:
432,192,127484,1,0,1:0:0:0:
392,192,127543,1,0,1:0:0:0:
248,192,127602,6,0,L|248:136,1,55,8|4,0:3|0:3,0:0:0:0:
440,192,127836,2,0,L|464:168,3,27.5,2|2|2|2,0:3|0:3|0:3|0:3,0:0:0:0:
320,192,128070,2,0,L|320:128,1,55,10|2,0:0|0:0,0:0:0:0:
128,192,128305,2,0,L|128:128,1,55,8|0,0:1|0:0,0:0:0:0:
208,192,128539,2,0,L|208:136,1,55,0|0,1:0|0:0,0:0:0:0:
24,192,128773,1,4,0:3:0:0:
208,192,128891,1,8,0:0:0:0:
392,192,129008,2,0,L|24:192,1,366.666666666667,2|0,1:0|0:0,0:0:0:0:
24,192,129359,1,0,1:0:0:0:
240,192,129477,5,0,1:0:0:0:
240,192,129535,1,0,1:0:0:0:
112,192,129593,1,0,1:0:0:0:
112,192,129652,1,0,1:0:0:0:
240,192,129711,2,0,L|288:192,1,27.5,0|0,1:0|1:0,0:0:0:0:
136,192,129828,2,0,L|104:192,1,27.5,0|0,1:0|1:0,0:0:0:0:
240,192,129945,1,0,1:0:0:0:
288,192,130004,1,0,1:0:0:0:
416,192,130062,1,0,1:0:0:0:
416,192,130121,1,0,1:0:0:0:
296,192,130180,2,0,L|248:192,1,27.5,0|0,1:0|1:0,0:0:0:0:
400,192,130297,1,0,1:0:0:0:
440,192,130355,1,0,1:0:0:0:
440,192,130414,5,0,1:0:0:0:
400,192,130473,1,0,1:0:0:0:
240,192,130531,1,0,1:0:0:0:
208,192,130590,1,0,1:0:0:0:
208,192,130648,1,0,1:0:0:0:
240,192,130707,1,0,1:0:0:0:
368,192,130766,1,0,1:0:0:0:
400,192,130824,1,0,1:0:0:0:
400,192,130883,1,0,1:0:0:0:
368,192,130941,1,0,1:0:0:0:
232,192,131000,2,0,L|216:168,3,27.5,0|0|0|0,1:0|1:0|1:0|1:0,0:0:0:0:
352,192,131234,1,0,1:0:0:0:
392,192,131293,1,0,1:0:0:0:
256,192,131352,5,8,1:3:0:0:
72,192,131469,1,2,0:0:0:0:
136,192,131586,1,2,0:0:0:0:
320,192,131703,1,2,0:0:0:0:
136,192,131820,2,0,L|136:136,1,55,0|0,1:0|0:0,0:0:0:0:
320,192,132055,2,0,L|320:128,1,55,0|0,1:0|0:0,0:0:0:0:
136,192,132289,1,2,0:0:0:0:
320,192,132406,1,2,0:0:0:0:
136,192,132523,1,2,0:0:0:0:
320,192,132641,1,2,0:0:0:0:
104,192,132758,5,2,2:2:0:0:
64,192,132816,1,2,2:2:0:0:
40,192,132875,1,2,2:2:0:0:
32,192,132934,1,2,2:2:0:0:
32,192,132992,1,2,2:2:0:0:
40,192,133051,1,2,2:2:0:0:
64,192,133110,1,2,2:2:0:0:
104,192,133168,1,2,2:2:0:0:
272,192,133227,5,4,1:1:0:0:
256,192,140727,12,0,147758,0:0:0:0:
200,192,147992,5,2,0:0:0:0:
168,192,148051,1,2,0:0:0:0:
168,192,148109,1,2,0:0:0:0:
200,192,148168,1,2,0:0:0:0:
328,192,148227,6,0,P|480:120|312:56,1,440,0|2,3:0|0:3,0:0:0:0:
112,192,149398,2,0,L|184:192,1,55,2|0,0:0|0:0,0:0:0:0:
296,192,149633,2,0,P|360:176|376:128,1,110,2|0,0:3|0:0,0:0:0:0:
248,192,149984,1,2,0:0:0:0:
184,192,150102,6,0,P|24:128|184:48,1,440,2|0,3:2|0:0,0:0:0:0:
384,192,151273,2,0,L|464:192,1,55,2|0,0:0|0:0,0:0:0:0:
360,192,151508,2,0,P|288:176|256:112,1,110,2|0,0:3|0:0,0:0:0:0:
400,192,151859,1,2,0:0:0:0:
472,192,151977,6,0,P|504:144|392:56,1,220,2|2,3:2|0:3,0:0:0:0:
192,192,152680,2,0,L|280:120,2,110,2|2|0,0:0|0:2|3:0,0:0:0:0:
392,192,153383,2,0,L|392:136,1,55,2|2,0:3|0:0,0:0:0:0:
136,192,153852,6,0,L|336:192,1,197.99999395752,2|2,3:2|0:3,0:0:0:0:
72,192,154555,2,0,L|32:152,2,55,2|2|2,0:3|0:3|0:0,0:0:0:0:
208,192,154906,2,0,L|272:192,2,55,2|2|2,0:0|0:0|0:3,0:0:0:0:
24,192,155258,2,0,L|24:128,1,55,2|0,0:3|0:0,0:0:0:0:
72,192,155492,1,2,0:3:0:0:
136,192,155609,1,2,0:3:0:0:
176,192,155668,1,2,0:3:0:0:
312,192,155727,6,0,B|378:186|432:168|472:88|437:50|276:29|192:72|176:144,1,440,2|2,3:2|0:0,0:0:0:0:
384,192,156898,2,0,L|328:192,1,55,2|2,0:0|0:0,0:0:0:0:
200,192,157133,2,0,P|160:144|192:112,1,110,2|2,0:3|0:0,0:0:0:0:
320,192,157484,1,2,0:0:0:0:
384,192,157602,6,0,P|408:160|368:112,1,110,2|0,3:2|3:0,0:0:0:0:
64,192,158070,2,0,L|176:192,1,110,2|0,0:3|3:0,0:0:0:0:
376,192,158539,2,0,L|256:192,1,110,2|2,0:3|0:3,0:0:0:0:
144,192,159008,2,0,P|104:152|160:128,1,110,2|0,0:0|3:0,0:0:0:0:
272,192,159359,1,0,3:0:0:0:
344,192,159477,5,2,3:0:0:0:
144,192,159711,1,2,0:0:0:0:
264,192,159945,1,2,0:3:0:0:
40,192,160180,2,0,P|56:136|152:96,1,165,2|2,0:0|0:0,0:0:0:0:
232,192,160648,1,2,0:3:0:0:
440,192,160883,2,0,P|488:152|448:120,1,110,2|0,3:3|0:0,0:0:0:0:
400,192,161234,1,0,3:0:0:0:
360,192,161293,1,0,3:0:0:0:
224,192,161352,6,0,P|160:168|144:128,2,110,2|2|2,0:0|0:0|0:0,0:0:0:0:
432,192,162055,2,0,P|480:144|408:104,1,165,2|2,0:0|0:0,0:0:0:0:
136,192,162758,1,2,0:0:0:0:
64,192,162875,2,0,L|64:128,1,55,2|2,0:0|0:0,0:0:0:0:
256,192,163109,1,2,0:0:0:0:
328,192,163227,5,2,3:2:0:0:
128,192,163461,1,0,3:0:0:0:
248,192,163695,1,2,0:3:0:0:
24,192,163930,2,0,P|24:128|120:88,1,165,2|2,0:0|0:0,0:0:0:0:
184,192,164398,1,2,0:3:0:0:
488,192,164633,1,2,0:3:0:0:
488,192,164750,1,2,0:3:0:0:
432,192,164867,1,2,0:3:0:0:
376,192,164984,1,2,0:3:0:0:
432,192,165102,5,2,3:0:0:0:
488,192,165219,1,2,3:0:0:0:
432,192,165336,1,2,3:0:0:0:
488,192,165453,1,2,3:0:0:0:
424,192,165570,1,2,3:0:0:0:
360,192,165687,1,2,3:0:0:0:
296,192,165805,1,2,3:0:0:0:
360,192,165922,1,2,3:0:0:0:
288,192,166039,1,2,3:0:0:0:
216,192,166156,1,2,3:0:0:0:
152,192,166273,1,2,3:0:0:0:
216,192,166391,1,2,3:0:0:0:
400,192,166508,2,0,P|400:160|344:112,1,110,2|0,0:2|3:2,0:0:0:0:
216,192,166859,1,2,3:2:0:0:
24,192,166977,6,0,L|80:192,1,55,4|0,1:2|0:0,0:0:0:0:
192,192,167328,1,2,0:2:0:0:
80,192,167562,1,2,0:2:0:0:
224,192,167680,1,2,0:2:0:0:
64,192,167914,2,0,P|32:152|72:120,1,110,2|0,1:2|0:2,0:0:0:0:
248,192,168383,2,0,L|136:192,1,110,2|0,1:2|0:2,0:0:0:0:
272,192,168734,1,2,0:2:0:0:
472,192,168852,6,0,L|472:136,1,55,2|2,1:2|0:2,0:0:0:0:
360,192,169203,1,2,0:2:0:0:
472,192,169437,1,2,0:2:0:0:
328,192,169555,1,2,0:2:0:0:
496,192,169789,2,0,L|376:192,1,110,0|0,1:2|0:2,0:0:0:0:
200,192,170258,2,0,L|144:192,1,55,2|2,1:2|0:0,0:0:0:0:
272,192,170492,1,2,0:0:0:0:
468,192,170609,2,0,L|508:192,1,27.5,2|2,0:0|0:0,0:0:0:0:
300,192,170727,5,0,1:0:0:0:
184,192,170844,2,0,L|144:192,2,27.5,0|0|0,1:0|1:0|0:0,0:0:0:0:
256,192,171078,1,2,0:0:0:0:
388,192,171195,2,0,L|452:192,1,55,2|0,1:2|0:0,0:0:0:0:
308,192,171430,1,2,1:2:0:0:
100,192,171547,6,0,L|68:192,2,27.5,0|0|0,1:0|1:0|1:0,0:0:0:0:
240,192,171781,2,0,L|288:192,2,27.5,2|0|0,1:2|1:2|1:2,0:0:0:0:
168,192,172016,1,2,0:0:0:0:
32,192,172133,2,0,L|96:192,1,55,2|0,1:2|0:0,0:0:0:0:
224,192,172367,2,0,L|280:192,1,55,2|2,0:2|0:2,0:0:0:0:
240,192,172543,1,2,0:2:0:0:
88,192,172602,6,0,L|16:192,2,55,0|2|2,1:0|0:0|0:0,0:0:0:0:
288,192,172953,2,0,L|352:192,2,55,0|2|2,1:0|1:2|0:0,0:0:0:0:
88,192,173305,2,0,L|40:192,2,27.5,2|2|2,1:2|1:2|1:2,0:0:0:0:
152,192,173539,1,2,1:2:0:0:
343,192,173656,1,2,1:2:0:0:
288,192,173773,1,2,1:2:0:0:
232,192,173891,1,2,1:2:0:0:
424,192,174008,1,2,1:2:0:0:
232,192,174125,2,0,L|168:192,1,55,2|2,1:2|1:2,0:0:0:0:
312,192,174359,5,2,2:2:0:0:
432,192,174477,2,0,L|368:192,1,55,0|0,1:0|2:0,0:0:0:0:
264,192,174828,1,2,0:2:0:0:
152,192,175062,1,2,0:2:0:0:
288,192,175180,1,2,0:2:0:0:
104,192,175414,2,0,L|40:192,2,55,0|2|2,1:0|0:2|0:2,0:0:0:0:
296,192,175883,2,0,P|360:168|392:128,1,110,0|0,1:0|1:0,0:0:0:0:
264,192,176234,1,2,1:2:0:0:
64,192,176352,5,2,1:2:0:0:
16,192,176469,1,2,0:0:0:0:
144,192,176703,1,2,0:0:0:0:
256,192,176937,1,2,0:2:0:0:
120,192,177055,1,2,0:2:0:0:
312,192,177289,2,0,L|376:192,2,55,2|2|2,1:2|0:0|0:0,0:0:0:0:
112,192,177758,2,0,L|184:192,1,55,0|2,1:0|0:0,0:0:0:0:
312,192,177992,2,0,L|312:120,1,55,0|2,1:0|0:0,0:0:0:0:
112,192,178227,6,0,L|64:192,1,27.5,0|0,1:0|1:0,0:0:0:0:
232,192,178461,2,0,L|272:192,2,27.5,2|2|2,1:2|1:2|1:2,0:0:0:0:
176,192,178695,1,2,0:0:0:0:
360,192,178930,2,0,L|400:192,1,27.5,2|2,1:2|1:2,0:0:0:0:
240,192,179164,2,0,L|200:192,2,27.5,2|2|2,1:2|1:2|1:2,0:0:0:0:
480,192,179633,1,4,1:3:0:0:
432,192,179750,1,4,1:3:0:0:
384,192,179867,1,4,1:3:0:0:
72,192,180102,6,0,L|40:192,2,27.5,2|2|2,0:0|0:0|0:0,0:0:0:0:
200,192,180336,2,0,L|240:192,2,27.5,2|2|2,0:0|0:0|0:0,0:0:0:0:
145,192,180570,2,0,L|201:192,1,55,2|2,3:2|3:2,0:0:0:0:
336,192,180805,2,0,L|384:192,2,27.5,2|2|2,3:2|3:2|3:2,0:0:0:0:
200,192,181039,1,2,0:0:0:0:
228,192,181098,1,2,0:0:0:0:
256,192,181156,1,2,0:0:0:0:
320,192,181273,2,0,L|384:192,1,55,2|2,0:0|0:0,0:0:0:0:
184,192,181508,5,0,1:0:0:0:
152,192,181566,1,0,1:0:0:0:
152,192,181625,1,0,1:0:0:0:
184,192,181684,1,0,1:0:0:0:
304,192,181742,1,0,1:0:0:0:
336,192,181801,1,0,1:0:0:0:
216,192,181859,1,0,1:0:0:0:
184,192,181918,1,0,1:0:0:0:
344,192,181977,6,0,L|400:192,2,55,4|2|2,1:1|1:2|1:2,0:0:0:0:
208,192,182328,2,0,P|152:168|176:104,1,110,4|2,0:3|0:0,0:0:0:0:
289,192,182680,2,0,L|353:192,1,55,4|0,0:3|0:0,0:0:0:0:
208,192,182914,2,0,P|168:152|216:120,1,110,4|0,0:3|0:0,0:0:0:0:
264,192,183266,1,0,1:0:0:0:
400,192,183383,2,0,L|464:192,1,55,0|0,1:0|1:0,0:0:0:0:
328,192,183617,1,4,0:3:0:0:
208,192,183734,1,2,1:2:0:0:
408,192,183852,6,0,L|464:192,2,55,4|2|2,1:3|1:2|1:2,0:0:0:0:
280,192,184203,2,0,L|400:192,1,110,4|2,0:3|0:0,0:0:0:0:
263,192,184555,2,0,L|199:192,1,55,4|2,0:3|0:0,0:0:0:0:
336,192,184789,2,0,P|368:152|328:136,1,110,4|2,0:3|0:0,0:0:0:0:
256,192,185141,1,0,1:0:0:0:
120,192,185258,2,0,L|56:192,2,55,4|2|2,0:3|1:2|1:2,0:0:0:0:
320,192,185609,2,0,L|352:192,1,27.5,2|2,1:2|1:2,0:0:0:0:
192,192,185727,5,4,3:3:0:0:
80,192,185844,2,0,L|32:192,2,27.5,2|2|2,1:2|1:2|1:2,0:0:0:0:
144,192,186078,1,4,0:3:0:0:
272,192,186195,2,0,L|192:192,1,55,2|2,1:2|1:2,0:0:0:0:
88,192,186430,1,4,0:3:0:0:
280,192,186547,6,0,L|320:192,2,27.5,2|2|4,1:2|1:2|0:3,0:0:0:0:
144,192,186781,2,0,L|104:192,2,27.5,2|2|2,1:2|1:2|1:2,0:0:0:0:
208,192,187016,1,4,0:3:0:0:
336,192,187133,2,0,L|392:192,1,55,0|0,0:0|0:0,0:0:0:0:
256,192,187367,2,0,L|192:192,1,55,8|2,0:3|0:0,0:0:0:0:
232,192,187543,1,2,1:2:0:0:
384,192,187602,6,0,P|440:168|448:120,1,110,8|8,1:3|0:0,0:0:0:0:
256,192,187953,2,0,P|192:160|224:96,1,110,4|8,1:3|0:1,0:0:0:0:
392,192,188305,6,0,L|440:192,2,27.5,6|2|2,0:3|0:3|0:3,0:0:0:0:
328,192,188539,1,4,0:3:0:0:
128,192,188656,2,0,L|96:192,2,27.5,2|2|2,2:2|2:2|2:2,0:0:0:0:
200,192,188891,1,4,0:3:0:0:
392,192,189008,1,2,0:0:0:0:
200,192,189125,2,0,L|128:192,1,55,2|0,1:2|0:0,0:0:0:0:
344,192,189359,2,0,L|392:192,1,27.5,2|2,1:2|1:2,0:0:0:0:
224,192,189477,5,4,0:3:0:0:
144,192,189594,2,0,L|200:192,1,55,4|4,0:3|0:3,0:0:0:0:
344,192,189828,2,0,L|416:192,1,55,4|4,0:3|0:3,0:0:0:0:
272,192,190062,1,4,0:3:0:0:
72,192,190180,2,0,L|40:192,2,27.5,4|2|4,0:3|2:2|0:3,0:0:0:0:
272,192,190414,1,4,0:3:0:0:
320,192,190531,1,4,0:3:0:0:
320,192,190648,1,4,0:3:0:0:
272,192,190766,1,4,0:3:0:0:
72,192,190883,5,4,0:3:0:0:
272,192,191000,1,4,0:3:0:0:
320,192,191117,1,4,0:3:0:0:
288,192,191176,1,2,2:2:0:0:
152,192,191234,2,0,L|104:192,1,27.5,4|2,0:3|2:2,0:0:0:0:
264,192,191352,5,4,0:3:0:0:
352,192,191469,2,0,L|416:192,1,55,4|4,0:3|0:3,0:0:0:0:
272,192,191703,2,0,L|208:192,1,55,4|4,0:3|0:3,0:0:0:0:
352,192,191937,1,4,0:3:0:0:
160,192,192055,2,0,L|128:192,2,27.5,4|2|4,0:3|2:2|0:3,0:0:0:0:
352,192,192289,1,4,0:3:0:0:
296,192,192406,1,4,0:3:0:0:
240,192,192523,1,4,0:3:0:0:
184,192,192641,1,4,0:3:0:0:
376,192,192758,5,4,0:3:0:0:
184,192,192875,1,4,0:3:0:0:
136,184,192992,1,4,0:3:0:0:
168,192,193051,1,4,0:3:0:0:
304,192,193109,2,0,L|352:192,1,27.5,4|4,0:3|0:3,0:0:0:0:
184,192,193227,6,0,L|136:192,1,27.5,4|4,0:3|0:3,0:0:0:0:
296,192,193344,1,4,0:3:0:0:
328,192,193402,1,4,0:3:0:0:
328,192,193461,1,4,0:3:0:0:
296,192,193519,1,4,0:3:0:0:
157,192,193578,1,4,0:3:0:0:
120,192,193637,1,4,0:3:0:0:
96,192,193695,1,4,0:3:0:0:
96,192,193754,1,4,0:3:0:0:
120,192,193812,1,4,0:3:0:0:
157,192,193871,1,4,0:3:0:0:
296,192,193930,1,4,0:3:0:0:
328,192,193988,1,4,0:3:0:0:
312,192,194047,1,4,0:3:0:0:
280,192,194105,1,4,0:3:0:0:
136,192,194164,5,4,0:3:0:0:
96,192,194223,1,4,0:3:0:0:
72,192,194281,1,4,0:3:0:0:
64,192,194340,1,4,0:3:0:0:
64,192,194398,1,4,0:3:0:0:
72,192,194457,1,4,0:3:0:0:
96,192,194516,1,4,0:3:0:0:
136,192,194574,1,4,0:3:0:0:
280,192,194633,2,0,L|312:192,1,27.5,4|4,0:3|0:3,0:0:0:0:
164,192,194750,2,0,L|119:192,1,27.5,4|4,0:3|0:3,0:0:0:0:
280,192,194867,2,0,L|312:192,1,27.5,4|4,0:3|0:3,0:0:0:0:
164,192,194984,5,4,0:3:0:0:
128,192,195043,1,4,0:3:0:0:
112,192,195102,1,4,0:3:0:0:
176,192,195219,2,0,L|208:192,2,27.5,2|2|2,3:2|3:2|3:2,0:0:0:0:
112,192,195453,1,0,3:2:0:0:
176,192,195570,1,0,3:2:0:0:
308,192,195687,2,0,L|388:192,1,55,0|0,3:2|3:2,0:0:0:0:
160,192,195922,2,0,P|128:152|168:128,1,110,2|0,3:2|3:2,0:0:0:0:
200,192,196215,1,2,3:2:0:0:
240,192,196273,1,2,3:2:0:0:
308,192,196391,1,0,3:2:0:0:
104,192,196508,2,0,L|64:192,1,27.5,2|0,0:2|0:0,0:0:0:0:
175,192,196742,1,0,0:0:0:0:
304,192,196859,6,0,L|392:192,1,55,2|0,0:0|0:0,0:0:0:0:
289,192,197094,2,0,L|233:192,1,55,2|0,0:0|0:0,0:0:0:0:
304,192,197328,1,2,0:0:0:0:
360,192,197445,1,0,0:0:0:0:
416,192,197562,1,2,0:0:0:0:
360,192,197680,2,0,L|320:192,2,27.5,0|2|0,0:0|0:0|0:0,0:0:0:0:
416,192,197914,2,0,P|456:160|416:144,1,110,2|0,0:0|0:0,0:0:0:0:
216,192,198383,2,0,L|216:144,1,27.5,2|2,0:0|0:0,0:0:0:0:
312,192,198617,1,0,0:0:0:0:
184,192,198734,6,0,L|96:192,1,55,2|0,0:0|0:0,0:0:0:0:
199,192,198969,2,0,L|255:192,1,55,2|0,0:0|0:0,0:0:0:0:
184,192,199203,1,2,0:0:0:0:
128,192,199320,1,0,0:0:0:0:
72,192,199437,1,0,0:0:0:0:
128,192,199555,2,0,L|168:192,2,27.5,0|2|0,0:0|0:0|0:0,0:0:0:0:
72,192,199789,2,0,P|32:160|72:144,1,110,2|0,0:0|0:0,0:0:0:0:
376,192,200258,2,0,L|440:192,2,55,0|0|0,3:0|3:0|3:0,0:0:0:0:
192,192,200609,2,0,L|144:192,1,27.5,0|0,3:0|3:0,0:0:0:0:
304,192,200727,5,4,0:3:0:0:
392,192,200844,2,0,L|424:192,2,27.5,2|2|2,0:2|0:2|0:2,0:0:0:0:
328,192,201078,1,4,0:3:0:0:
136,192,201195,2,0,L|64:192,1,55,4|0,1:1|0:0,0:0:0:0:
208,192,201430,1,2,1:0:0:0:
400,192,201547,2,0,L|440:192,2,27.5,4|2|0,1:3|1:1|1:3,0:0:0:0:
208,192,201781,2,0,L|176:192,2,27.5,4|2|0,1:3|1:1|1:3,0:0:0:0:
272,192,202016,1,0,1:0:0:0:
455,192,202133,2,0,L|399:192,1,55,2|2,1:0|1:0,0:0:0:0:
208,192,202367,2,0,P|184:144|216:136,1,82.5,2|0,1:0|1:0,0:0:0:0:
344,192,202602,6,0,P|376:168|336:128,1,110,4|0,1:2|0:0,0:0:0:0:
152,192,202953,2,0,L|280:192,1,110,4|0,1:2|0:0,0:0:0:0:
464,192,203305,2,0,L|280:192,1,142.99999345398,4|0,1:2|0:0,0:0:0:0:
120,192,203656,2,0,L|304:192,1,176,4|0,1:2|0:0,0:0:0:0:
104,192,204008,1,8,0:1:0:0:
24,192,204125,2,0,L|24:128,1,55,8|8,0:1|0:1,0:0:0:0:
216,192,204359,1,8,0:1:0:0:
408,192,204477,5,6,1:0:0:0:
216,192,204594,2,0,L|160:192,1,55,2|0,1:0|1:0,0:0:0:0:
344,192,204828,2,0,L|280:192,1,55,2|8,1:0|0:1,0:0:0:0:
161,192,205062,1,2,1:0:0:0:
360,192,205180,2,0,L|416:192,1,55,2|0,1:0|1:0,0:0:0:0:
208,192,205414,2,0,P|168:136|208:120,1,110,2|0,1:0|0:0,0:0:0:0:
256,192,205766,1,0,1:0:0:0:
464,192,205883,2,0,P|496:144|432:112,1,110,10|0,0:1|0:0,0:0:0:0:
272,192,206234,1,2,1:0:0:0:
80,192,206352,5,2,1:0:0:0:
272,192,206469,2,0,L|336:192,1,55,2|0,1:0|1:0,0:0:0:0:
144,192,206703,2,0,L|144:136,1,55,2|8,1:0|0:1,0:0:0:0:
272,192,206937,1,0,1:0:0:0:
441,192,207055,2,0,L|377:192,1,55,2|0,1:0|0:0,0:0:0:0:
192,192,207289,2,0,P|216:136|264:128,1,110,2|0,1:0|0:0,0:0:0:0:
320,192,207641,1,0,1:0:0:0:
192,192,207758,2,0,L|112:192,1,55,8|2,0:1|1:0,0:0:0:0:
320,192,207992,2,0,L|320:128,1,55,0|0,1:0|1:0,0:0:0:0:
120,192,208227,6,0,L|47:192,1,55,2|2,1:0|1:0,0:0:0:0:
256,192,208461,2,0,L|304:192,2,27.5,0|0|0,1:0|1:0|1:0,0:0:0:0:
128,192,208695,2,0,L|56:192,1,55,8|2,0:1|1:0,0:0:0:0:
112,192,208871,1,0,0:0:0:0:
248,192,208930,6,0,L|321:192,1,55,0|2,0:0|1:0,0:0:0:0:
112,192,209164,2,0,L|64:192,2,27.5,2|0|2,1:0|1:0|1:0,0:0:0:0:
184,192,209398,1,0,1:0:0:0:
256,192,209516,1,0,1:0:0:0:
73,192,209633,2,0,L|17:192,2,55,8|2|2,0:1|1:0|1:0,0:0:0:0:
136,192,209984,1,0,0:0:0:0:
328,192,210102,6,0,L|384:192,1,55,0|0,0:0|0:0,0:0:0:0:
312,192,210336,2,0,L|280:192,2,27.5,2|2|2,0:0|0:0|0:0,0:0:0:0:
440,192,210570,2,0,L|496:192,1,55,0|0,0:0|0:0,0:0:0:0:
495,192,210805,2,0,L|432:192,1,55,2|2,0:0|0:0,0:0:0:0:
285,192,211039,1,2,0:2:0:0:
224,192,211156,1,2,0:2:0:0:
344,192,211273,1,2,0:2:0:0:
224,192,211391,1,2,0:2:0:0:
416,192,211508,2,0,P|480:160|456:104,1,110,8|8,0:2|0:2,0:0:0:0:
344,192,211859,1,8,0:2:0:0:
152,192,211977,5,6,1:0:0:0:
344,192,212094,2,0,L|400:192,1,55,2|0,1:0|1:0,0:0:0:0:
207,192,212328,2,0,L|151:192,1,55,2|8,1:0|0:1,0:0:0:0:
280,192,212562,1,2,1:0:0:0:
472,192,212680,2,0,L|416:192,1,55,2|0,1:0|1:0,0:0:0:0:
232,192,212914,2,0,P|200:152|232:112,1,110,2|0,1:0|0:0,0:0:0:0:
296,192,213266,1,0,1:0:0:0:
112,192,213383,2,0,L|56:192,2,55,10|0|0,0:1|0:0|0:0,0:0:0:0:
304,192,213734,1,2,1:0:0:0:
496,192,213852,5,2,1:0:0:0:
304,192,213969,2,0,L|232:192,1,55,2|0,1:0|1:0,0:0:0:0:
440,192,214203,2,0,L|496:192,1,55,2|8,1:0|0:1,0:0:0:0:
368,192,214437,1,0,1:0:0:0:
184,192,214555,2,0,L|112:192,1,55,2|0,1:0|0:0,0:0:0:0:
312,192,214789,2,0,P|384:168|392:112,1,110,2|0,1:0|0:0,0:0:0:0:
336,192,215141,1,0,1:0:0:0:
144,192,215258,2,0,L|64:192,2,55,8|2|0,0:1|1:0|1:0,0:0:0:0:
336,192,215609,2,0,L|384:192,1,27.5,0|0,1:0|1:0,0:0:0:0:
232,192,215727,5,2,1:0:0:0:
48,192,215844,2,0,L|16:192,2,27.5,2|0|0,1:0|1:0|1:0,0:0:0:0:
256,192,216195,2,0,L|328:192,2,55,8|2|0,0:1|1:0|0:0,0:0:0:0:
72,192,216547,2,0,L|32:192,1,27.5,2|0,1:0|1:0,0:0:0:0:
176,192,216664,1,2,1:0:0:0:
360,192,216781,2,0,L|408:192,2,27.5,2|0|0,1:0|1:0|1:0,0:0:0:0:
296,192,217016,1,0,1:0:0:0:
112,192,217133,2,0,L|56:192,1,55,8|2,0:1|1:0,0:0:0:0:
256,192,217367,2,0,P|312:168|320:136,1,82.5,2|0,1:0|0:0,0:0:0:0:
176,192,217602,6,0,P|144:160|192:120,1,110,4|2,1:3|0:0,0:0:0:0:
366,192,217953,2,0,L|230:192,1,110,8|2,1:3|0:0,0:0:0:0:
440,192,218305,1,4,1:3:0:0:
360,192,218422,1,4,1:3:0:0:
280,192,218539,1,8,1:3:0:0:
480,192,218656,1,12,1:3:0:0:
384,192,218773,1,4,1:3:0:0:
480,192,218891,2,0,L|480:160,1,27.5,4|4,1:3|1:3,0:0:0:0:
344,192,219008,1,4,1:3:0:0:
200,192,219125,2,0,L|144:192,1,55,4|4,1:3|1:3,0:0:0:0:
328,192,219359,1,8,1:3:0:0:
129,192,219477,5,2,0:1:0:0:
19,192,219594,2,0,L|131:192,1,110,2|2,0:1|0:1,0:0:0:0:
320,192,219945,1,4,1:0:0:0:
408,192,220062,1,2,1:0:0:0:
216,192,220180,2,0,L|160:192,1,55,2|0,1:0|0:0,0:0:0:0:
376,192,220414,2,0,P|416:160|376:128,1,110,2|0,1:0|0:0,0:0:0:0:
304,192,220766,1,0,1:0:0:0:
80,192,220883,2,0,L|24:192,2,55,8|2|0,0:1|1:0|1:0,0:0:0:0:
264,192,221234,1,0,1:0:0:0:
456,192,221352,5,2,1:0:0:0:
249,192,221469,2,0,L|313:192,1,55,2|0,1:0|0:0,0:0:0:0:
496,192,221703,2,0,L|432:192,1,55,2|8,1:0|1:1,0:0:0:0:
312,192,221937,1,0,1:0:0:0:
496,192,222055,2,0,L|440:192,1,55,2|0,1:0|0:0,0:0:0:0:
249,192,222289,2,0,P|193:168|177:120,1,110,2|0,1:1|0:0,0:0:0:0:
249,192,222641,1,2,1:0:0:0:
432,192,222758,2,0,L|504:192,1,55,8|2,0:1|1:0,0:0:0:0:
280,192,222992,2,0,L|280:136,1,55,2|0,1:0|0:0,0:0:0:0:
488,192,223227,6,0,L|432:192,1,55,4|0,1:3|0:0,0:0:0:0:
240,192,223461,2,0,L|192:192,2,27.5,2|2|2,1:0|1:1|1:0,0:0:0:0:
368,192,223695,2,0,L|448:192,1,55,8|0,0:1|1:0,0:0:0:0:
212,192,223930,2,0,L|148:192,1,55,2|0,1:0|0:0,0:0:0:0:
352,192,224164,2,0,L|400:192,2,27.5,2|2|2,1:0|1:0|1:0,0:0:0:0:
288,192,224398,1,0,1:0:0:0:
232,192,224516,1,0,1:0:0:0:
432,192,224633,2,0,L|504:192,2,55,8|2|0,0:1|1:0|1:0,0:0:0:0:
368,192,224984,1,2,1:0:0:0:
184,192,225102,6,0,L|128:192,1,55,2|0,0:0|0:0,0:0:0:0:
200,192,225336,2,0,L|232:192,2,27.5,2|2|2,0:0|0:0|0:0,0:0:0:0:
72,192,225570,2,0,L|16:192,1,55,8|0,0:0|0:0,0:0:0:0:
17,192,225805,2,0,L|80:192,1,55,2|2,0:0|0:0,0:0:0:0:
144,192,226039,1,2,0:3:0:0:
264,192,226156,1,2,0:3:0:0:
144,192,226273,2,0,L|64:192,1,55,0|0,1:0|0:0,0:0:0:0:
304,192,226508,2,0,L|368:192,1,55,2|2,1:1|1:1,0:0:0:0:
144,192,226742,2,0,L|88:192,1,55,2|2,1:1|1:1,0:0:0:0:
360,192,226977,6,0,L|432:192,1,55,4|0,1:0|0:0,0:0:0:0:
224,192,227211,2,0,L|192:192,2,27.5,2|2|2,1:1|1:2|1:2,0:0:0:0:
279,192,227445,2,0,L|215:192,1,55,8|0,0:1|0:0,0:0:0:0:
34,192,227680,2,0,L|98:192,1,55,2|0,1:1|0:0,0:0:0:0:
279,192,227914,2,0,L|327:192,2,27.5,2|0|2,1:1|1:2|1:0,0:0:0:0:
224,192,228148,2,0,L|304:192,1,55,2|2,1:2|1:2,0:0:0:0:
464,192,228383,2,0,L|400:192,1,55,2|2,1:2|1:2,0:0:0:0:
200,192,228617,6,0,B|64:192|8:136|8:48|288:24,1,440,4|2,0:1|0:0,0:0:0:0:
312,192,229613,1,2,0:0:0:0:
344,192,229672,1,2,0:0:0:0:
376,192,229730,1,2,0:0:0:0:
408,192,229789,2,0,B|456:176|520:88|192:0|184:160,1,385,2|2,0:0|0:0,0:0:0:0:
320,192,230727,6,0,B|416:194|424:112|280:40|112:88,1,385,2|2,0:0|0:0,0:0:0:0:
144,192,231605,1,2,0:0:0:0:
280,192,231664,2,0,P|424:136|280:48,1,385,2|2,0:0|0:3,0:0:0:0:
104,192,232602,6,0,B|24:168|24:80|320:8|312:160,1,385,0|2,0:1|0:3,0:0:0:0:
176,192,233539,2,0,P|128:160|192:104,1,165,2|2,0:3|0:3,0:0:0:0:
248,192,234008,2,0,L|112:96,1,165,2|2,0:3|0:3,0:0:0:0:
320,192,234477,6,0,P|376:176|352:88,1,165,2|2,3:2|0:0,0:0:0:0:
312,192,234887,1,2,0:0:0:0:
184,192,234945,2,0,P|104:168|72:80,1,165,2|2,0:3|0:0,0:0:0:0:
208,192,235414,2,0,P|264:144|208:104,1,165,2|2,0:3|0:3,0:0:0:0:
400,192,235883,2,0,P|472:176|472:88,1,165,2|0,0:3|1:0,0:0:0:0:
432,192,236293,1,0,1:0:0:0:
288,192,236352,5,4,0:1:0:0:
224,192,236469,1,4,0:3:0:0:
168,192,236586,1,4,0:3:0:0:
224,192,236703,1,4,0:3:0:0:
280,192,236820,1,4,0:3:0:0:
336,192,236937,1,4,0:3:0:0:
280,192,237055,1,4,0:3:0:0:
336,192,237172,1,4,0:3:0:0:
392,192,237289,1,4,0:3:0:0:
424,192,237406,1,4,0:3:0:0:
424,192,237523,1,4,0:3:0:0:
392,192,237641,1,4,0:3:0:0:
192,192,237758,1,4,0:3:0:0:
136,192,237875,1,4,0:3:0:0:
192,192,237992,1,4,0:3:0:0:
384,192,238109,1,4,0:3:0:0:
440,192,238227,5,4,0:3:0:0:
384,192,238344,1,4,0:3:0:0:
328,192,238461,1,4,0:3:0:0:
272,192,238578,1,4,0:3:0:0:
328,192,238695,1,4,0:3:0:0:
384,192,238812,1,4,0:3:0:0:
328,192,238930,1,4,0:3:0:0:
272,192,239047,1,4,0:3:0:0:
88,192,239164,1,4,0:3:0:0:
32,192,239281,1,4,0:3:0:0:
32,192,239398,1,4,0:3:0:0:
88,192,239516,1,4,0:3:0:0:
144,192,239633,1,4,0:3:0:0:
88,192,239750,1,4,0:3:0:0:
32,192,239867,1,4,0:3:0:0:
88,192,239984,1,4,0:3:0:0:
320,192,240102,5,0,1:0:0:0:
360,192,240160,1,0,1:0:0:0:
384,192,240219,1,0,1:0:0:0:
392,192,240277,1,0,1:0:0:0:
392,192,240336,1,0,1:0:0:0:
384,192,240394,1,0,1:0:0:0:
360,192,240453,1,0,1:0:0:0:
320,192,240512,1,0,1:0:0:0:
280,192,240570,1,0,1:0:0:0:
248,192,240629,1,0,1:0:0:0:
248,192,240687,1,0,1:0:0:0:
280,192,240746,1,0,1:0:0:0:
336,192,240805,1,0,1:0:0:0:
368,192,240863,1,0,1:0:0:0:
400,192,240922,1,0,1:0:0:0:
368,192,240980,1,0,1:0:0:0:
232,192,241039,5,0,1:0:0:0:
200,192,241098,1,0,1:0:0:0:
200,192,241156,1,0,1:0:0:0:
232,192,241215,1,0,1:0:0:0:
264,192,241273,1,0,1:0:0:0:
296,192,241332,1,0,1:0:0:0:
296,192,241391,1,0,1:0:0:0:
264,192,241449,1,0,1:0:0:0:
144,192,241508,1,0,1:0:0:0:
112,192,241566,1,0,1:0:0:0:
240,192,241625,1,0,1:0:0:0:
272,192,241684,1,0,1:0:0:0:
144,192,241742,1,0,1:0:0:0:
112,192,241801,1,0,1:0:0:0:
240,192,241859,1,0,1:0:0:0:
272,192,241918,1,0,1:0:0:0:
112,192,241977,5,0,0:0:0:0:
80,192,242006,1,0,0:0:0:0:
64,192,242035,1,0,0:0:0:0:
56,192,242064,1,0,0:0:0:0:
56,192,242094,1,0,0:0:0:0:
64,192,242123,1,0,0:0:0:0:
80,192,242152,1,0,0:0:0:0:
112,192,242181,1,0,0:0:0:0:
176,192,242269,1,0,0:0:0:0:
312,192,242328,5,0,0:0:0:0:
344,192,242357,1,0,0:0:0:0:
360,192,242386,1,0,0:0:0:0:
368,192,242415,1,0,0:0:0:0:
368,192,242445,1,0,0:0:0:0:
360,192,242474,1,0,0:0:0:0:
344,192,242503,1,0,0:0:0:0:
312,192,242532,1,0,0:0:0:0:
248,192,242621,1,0,0:0:0:0:
296,192,242680,5,0,0:0:0:0:
328,192,242709,1,0,0:0:0:0:
344,192,242738,1,0,0:0:0:0:
352,192,242767,1,0,0:0:0:0:
352,192,242797,1,0,0:0:0:0:
344,192,242826,1,0,0:0:0:0:
328,192,242855,1,0,0:0:0:0:
296,192,242884,1,0,0:0:0:0:
200,192,242914,5,0,0:0:0:0:
168,192,242943,1,0,0:0:0:0:
144,192,242973,1,0,0:0:0:0:
128,192,243002,1,0,0:0:0:0:
120,192,243031,1,0,0:0:0:0:
120,192,243060,1,0,0:0:0:0:
128,192,243089,1,0,0:0:0:0:
144,192,243118,1,0,0:0:0:0:
168,192,243148,1,0,0:0:0:0:
200,192,243177,1,0,0:0:0:0:
232,192,243207,1,0,0:0:0:0:
264,192,243236,1,0,0:0:0:0:
360,192,243266,1,0,0:0:0:0:
384,192,243295,1,0,0:0:0:0:
400,192,243324,1,0,0:0:0:0:
400,192,243353,1,0,0:0:0:0:
304,192,243383,5,4,0:1:0:0:
232,192,243500,1,0,1:2:0:0:
416,192,243617,1,0,1:2:0:0:
232,192,243734,1,2,1:1:0:0:
440,192,243852,6,0,P|480:144|440:128,1,110,6|0,1:1|0:0,0:0:0:0:
144,192,244320,2,0,L|264:192,1,110,10|0,1:0|0:0,0:0:0:0:
440,192,244672,1,0,1:0:0:0:
376,192,244789,2,0,P|320:176|280:128,1,110,4|0,1:3|0:0,0:0:0:0:
352,192,245141,1,0,1:0:0:0:
486,192,245258,2,0,L|366:192,1,110,10|0,1:0|0:0,0:0:0:0:
240,192,245609,1,2,1:0:0:0:
56,192,245727,5,4,1:3:0:0:
56,192,245844,1,2,1:2:0:0:
112,192,245961,1,2,1:2:0:0:
176,192,246078,1,2,1:2:0:0:
368,192,246195,2,0,P|416:160|360:112,1,110,10|0,1:0|0:0,0:0:0:0:
208,192,246547,1,2,1:0:0:0:
144,192,246664,2,0,L|144:128,1,55,4|0,1:3|1:0,0:0:0:0:
280,192,246898,2,0,L|344:192,1,55,2|2,1:1|1:2,0:0:0:0:
208,192,247133,1,8,1:0:0:0:
24,192,247250,2,0,L|104:192,1,55,2|0,1:1|1:0,0:0:0:0:
264,192,247484,1,2,1:0:0:0:
448,192,247602,5,4,1:3:0:0:
496,192,247719,1,2,1:2:0:0:
496,192,247836,1,2,1:2:0:0:
448,192,247953,1,2,1:2:0:0:
312,192,248070,2,0,P|248:176|232:120,1,110,10|0,1:0|0:0,0:0:0:0:
416,192,248422,1,2,1:0:0:0:
480,192,248539,2,0,P|464:136|416:128,1,110,4|0,1:3|1:0,0:0:0:0:
352,192,248891,1,2,1:0:0:0:
216,192,249008,2,0,P|176:160|216:128,1,110,8|0,1:1|1:0,0:0:0:0:
272,192,249359,1,2,1:0:0:0:
464,192,249477,6,0,L|344:192,1,110,4|2,1:3|0:0,0:0:0:0:
168,192,249828,2,0,L|288:192,1,110,8|2,1:3|0:0,0:0:0:0:
464,192,250180,2,0,L|400:192,1,55,4|4,1:3|1:3,0:0:0:0:
184,192,250414,2,0,L|72:192,1,110,8|2,1:3|0:0,0:0:0:0:
267,192,250766,2,0,L|387:192,1,110,4|2,0:3|0:0,0:0:0:0:
184,192,251117,2,0,L|112:192,1,55,8|2,1:3|0:0,0:0:0:0:
376,192,251352,6,0,P|416:160|368:128,1,110,0|2,1:0|0:0,0:0:0:0:
320,192,251703,1,2,0:0:0:0:
240,192,251820,2,0,L|368:192,1,110,10|2,1:1|1:0,0:0:0:0:
280,192,252172,1,2,1:0:0:0:
240,192,252230,1,2,1:0:0:0:
200,192,252289,2,0,L|136:192,1,55,0|0,1:0|1:0,0:0:0:0:
272,192,252523,2,0,L|336:192,1,55,2|0,1:0|1:0,0:0:0:0:
200,192,252758,1,8,1:1:0:0:
384,192,252875,2,0,L|456:192,1,55,2|2,1:0|1:0,0:0:0:0:
256,192,253109,1,2,1:0:0:0:
72,192,253227,5,4,1:3:0:0:
24,192,253344,1,2,1:2:0:0:
72,192,253461,1,2,1:2:0:0:
128,192,253578,1,2,1:2:0:0:
264,192,253695,2,0,P|336:168|360:128,1,110,10|0,1:0|0:0,0:0:0:0:
160,192,254047,1,2,1:0:0:0:
88,192,254164,2,0,P|56:144|88:136,1,110,0|0,1:0|1:0,0:0:0:0:
160,192,254516,1,2,1:0:0:0:
352,192,254633,2,0,L|472:192,1,110,8|0,1:0|0:0,0:0:0:0:
256,192,254984,2,0,L|216:192,1,27.5,2|2,1:0|1:0,0:0:0:0:
360,192,255102,5,4,1:3:0:0:
464,192,255219,2,0,L|400:192,1,55,2|2,1:0|1:0,0:0:0:0:
352,192,255453,1,2,1:2:0:0:
409,192,255570,1,10,1:1:0:0:
464,192,255687,1,2,1:2:0:0:
409,192,255805,1,2,1:2:0:0:
352,192,255922,1,2,1:2:0:0:
409,192,256039,1,2,1:2:0:0:
352,192,256156,1,2,1:2:0:0:
160,192,256273,1,2,1:0:0:0:
120,192,256332,1,0,1:0:0:0:
104,192,256391,1,0,1:0:0:0:
232,192,256508,2,0,L|288:192,1,55,10|0,1:0|1:0,0:0:0:0:
160,192,256742,2,0,L|96:192,1,55,2|0,1:0|1:0,0:0:0:0:
312,192,256977,6,0,L|312:136,1,55,0|0,1:0|1:0,0:0:0:0:
128,192,257211,2,0,L|112:168,3,27.5,4|4|4|4,0:3|0:3|0:3|0:3,0:0:0:0:
272,192,257445,2,0,L|344:192,2,55,4|0|0,1:0|1:0|1:0,0:0:0:0:
81,192,257797,1,2,1:2:0:0:
145,192,257914,1,2,1:2:0:0:
201,192,258031,1,2,1:2:0:0:
241,192,258148,1,2,1:2:0:0:
201,192,258266,1,2,1:2:0:0:
17,192,258383,2,0,L|17:128,1,55,2|2,1:2|1:2,0:0:0:0:
201,192,258617,1,2,1:1:0:0:
17,192,258734,1,2,1:1:0:0:
289,192,258852,5,4,1:0:0:0:
352,192,258969,1,2,1:2:0:0:
384,192,259086,1,2,1:2:0:0:
352,192,259203,1,2,1:2:0:0:
160,192,259320,2,0,L|272:192,1,110,10|0,1:0|0:0,0:0:0:0:
80,192,259672,1,2,0:0:0:0:
144,192,259789,2,0,P|200:168|224:128,1,110,8|0,0:3|0:0,0:0:0:0:
160,192,260141,1,2,0:0:0:0:
26,192,260258,2,0,L|146:192,1,110,10|0,0:0|0:0,0:0:0:0:
272,192,260609,1,2,0:0:0:0:
456,192,260727,5,10,0:3:0:0:
456,192,260844,1,2,0:2:0:0:
400,192,260961,1,2,0:2:0:0:
336,192,261078,1,2,0:2:0:0:
144,192,261195,2,0,L|264:192,1,110,10|2,0:0|0:0,0:0:0:0:
56,192,261547,1,8,0:0:0:0:
16,192,261664,2,0,L|56:152,1,55,8|0,0:3|0:0,0:0:0:0:
192,192,261898,2,0,L|247:192,1,55,2|2,0:0|0:0,0:0:0:0:
120,192,262133,1,2,0:0:0:0:
328,192,262250,2,0,L|384:192,1,55,2|0,0:0|0:0,0:0:0:0:
200,192,262484,1,0,0:0:0:0:
16,192,262602,5,8,0:3:0:0:
16,192,262719,1,2,0:0:0:0:
56,192,262836,1,2,0:0:0:0:
112,192,262953,1,2,0:0:0:0:
296,192,263070,2,0,P|360:160|360:128,1,110,10|0,0:0|0:0,0:0:0:0:
168,192,263422,1,2,0:0:0:0:
104,192,263539,2,0,P|96:160|168:120,1,110,2|0,0:0|0:0,0:0:0:0:
224,192,263891,1,2,0:0:0:0:
358,192,264008,2,0,P|386:157|336:120,1,110,10|0,0:0|0:0,0:0:0:0:
288,192,264359,1,2,0:0:0:0:
248,192,264418,1,2,0:0:0:0:
104,192,264477,6,0,L|216:192,1,110,8|0,0:3|0:0,0:0:0:0:
398,192,264828,2,0,L|286:192,1,110,4|0,0:3|0:0,0:0:0:0:
104,192,265180,2,0,L|40:192,1,55,10|10,0:3|0:3,0:0:0:0:
272,192,265414,2,0,L|392:192,1,110,4|0,0:3|0:0,0:0:0:0:
184,192,265766,2,0,L|64:192,1,110,8|0,0:3|0:0,0:0:0:0:
272,192,266117,2,0,L|272:136,1,55,10|10,0:3|0:3,0:0:0:0:
48,192,266352,6,0,P|24:144|48:96,1,110,2|0,0:3|0:0,0:0:0:0:
64,192,266644,1,4,0:3:0:0:
96,192,266703,1,4,0:3:0:0:
136,192,266762,1,4,0:3:0:0:
272,192,266820,1,6,1:1:0:0:
328,192,266937,1,2,0:0:0:0:
328,192,267055,1,2,0:0:0:0:
272,192,267172,1,2,0:0:0:0:
328,192,267289,1,8,1:3:0:0:
272,192,267406,1,2,0:0:0:0:
80,192,267523,2,0,L|24:192,1,55,2|2,0:0|0:0,0:0:0:0:
240,192,267758,2,0,L|304:192,2,55,10|2|2,0:1|0:0|0:0,0:0:0:0:
48,192,268109,1,2,0:1:0:0:
240,192,268227,5,0,1:3:0:0:
312,192,268344,1,2,0:0:0:0:
352,192,268461,1,2,0:0:0:0:
368,192,268578,1,2,0:0:0:0:
176,192,268695,2,0,P|152:152|200:120,1,110,10|2,0:1|0:0,0:0:0:0:
392,192,269047,1,2,0:1:0:0:
480,192,269164,2,0,L|480:136,1,55,10|2,0:3|0:0,0:0:0:0:
424,192,269398,1,2,0:0:0:0:
352,192,269516,1,2,0:0:0:0:
152,192,269633,2,0,L|272:192,1,110,10|10,0:1|0:1,0:0:0:0:
452,192,269984,2,0,L|484:192,1,27.5,10|10,0:1|0:1,0:0:0:0:
328,192,270102,5,4,0:1:0:0:
264,192,270219,1,0,0:0:0:0:
448,192,270336,1,0,0:0:0:0:
496,192,270453,1,0,0:0:0:0:
448,192,270570,1,0,0:0:0:0:
384,192,270687,1,0,0:0:0:0:
320,192,270805,1,0,0:0:0:0:
384,192,270922,1,0,0:0:0:0:
448,192,271039,1,0,0:0:0:0:
384,192,271156,1,0,0:0:0:0:
200,192,271273,2,0,L|152:192,2,27.5,2|2|2,0:0|0:0|0:0,0:0:0:0:
384,192,271508,1,2,0:0:0:0:
488,192,271625,1,2,0:0:0:0:
432,192,271742,1,2,0:0:0:0:
224,192,271859,1,2,0:0:0:0:
152,192,271977,5,2,0:0:0:0:
96,192,272094,1,0,0:0:0:0:
152,192,272211,1,0,0:0:0:0:
208,192,272328,1,0,0:0:0:0:
80,192,272445,2,0,L|16:192,2,55,2|2|0,0:0|0:0|0:0,0:0:0:0:
280,192,272797,1,2,0:0:0:0:
344,192,272914,1,2,0:0:0:0:
368,192,273031,1,0,0:0:0:0:
344,192,273148,1,0,0:0:0:0:
280,192,273266,1,0,0:0:0:0:
88,192,273383,2,0,P|56:152|96:128,1,110,2|0,0:0|0:0,0:0:0:0:
232,192,273734,2,0,L|280:192,1,27.5,2|2,0:0|0:0,0:0:0:0:
120,192,273852,5,4,0:3:0:0:
64,192,273969,1,4,0:3:0:0:
259,192,274086,1,4,0:3:0:0:
320,192,274203,1,4,0:3:0:0:
259,192,274320,1,4,0:3:0:0:
320,192,274437,1,4,0:3:0:0:
376,192,274555,1,4,0:3:0:0:
376,192,274672,1,4,0:3:0:0:
320,192,274789,1,4,0:3:0:0:
264,192,274906,1,4,0:3:0:0:
456,192,275023,2,0,L|488:192,2,27.5,6|6|6,0:3|0:3|0:3,0:0:0:0:
256,192,275258,6,0,L|208:192,1,27.5,6|6,0:3|0:3,0:0:0:0:
368,192,275375,1,6,0:3:0:0:
408,192,275434,1,6,0:3:0:0:
408,192,275492,1,6,0:3:0:0:
368,192,275551,1,6,0:3:0:0:
232,192,275609,2,0,L|184:192,1,27.5,6|6,0:3|0:3,0:0:0:0:
344,192,275727,6,0,L|440:192,2,65.9999979858399,4|2|2,1:0|0:0|0:0,0:0:0:0:
152,192,276078,2,0,L|272:192,1,110,4|2,1:2|0:0,0:0:0:0:
456,192,276430,2,0,L|392:192,1,55,6|0,1:2|0:0,0:0:0:0:
176,192,276664,2,0,P|104:176|96:120,1,110,8|0,1:3|0:0,0:0:0:0:
152,192,277016,1,0,0:0:0:0:
352,192,277133,1,2,0:0:0:0:
392,192,277191,1,2,0:0:0:0:
424,192,277250,1,2,0:0:0:0:
440,192,277309,1,2,0:0:0:0:
440,192,277367,1,2,0:0:0:0:
424,192,277426,1,2,0:0:0:0:
392,192,277485,1,2,0:0:0:0:
352,192,277543,1,2,0:0:0:0:
200,192,277602,6,0,P|128:160|128:112,1,110,4|0,0:1|0:0,0:0:0:0:
337,192,278070,2,0,L|393:192,1,55,2|2,0:0|0:0,0:0:0:0:
264,192,278305,1,0,0:0:0:0:
72,192,278422,1,2,0:0:0:0:
40,192,278480,1,0,0:0:0:0:
24,192,278539,2,0,P|56:120|104:112,1,110,2|0,0:2|0:0,0:0:0:0:
288,192,279008,2,0,L|352:192,1,55,2|2,0:0|0:0,0:0:0:0:
32,192,279359,1,2,0:0:0:0:
16,192,279418,1,0,0:0:0:0:
32,192,279477,6,0,L|160:192,1,110,2|0,0:0|0:0,0:0:0:0:
400,192,279945,2,0,P|432:136|400:128,1,110,2|0,0:0|0:0,0:0:0:0:
216,192,280297,2,0,L|152:192,1,55,2|0,0:0|0:0,0:0:0:0:
360,192,280648,1,2,0:0:0:0:
160,192,280883,2,0,L|96:192,1,55,2|2,0:0|0:0,0:0:0:0:
416,192,281234,1,2,0:0:0:0:
456,192,281293,1,0,0:0:0:0:
472,192,281352,6,0,P|440:144|384:128,1,110,2|0,3:2|0:0,0:0:0:0:
184,192,281820,2,0,L|128:192,1,55,2|2,0:0|0:0,0:0:0:0:
256,192,282055,1,2,0:0:0:0:
440,192,282172,1,2,0:0:0:0:
480,192,282230,1,0,0:0:0:0:
488,192,282289,2,0,P|456:120|408:112,1,110,2|0,0:0|0:0,0:0:0:0:
224,192,282758,2,0,L|160:192,1,55,2|2,0:0|0:0,0:0:0:0:
480,192,283109,1,2,0:0:0:0:
496,192,283168,1,0,0:0:0:0:
480,192,283227,6,0,L|352:192,1,110,2|0,0:0|0:0,0:0:0:0:
64,192,283695,2,0,P|32:160|80:120,1,110,2|0,0:0|0:0,0:0:0:0:
256,192,284047,2,0,L|320:192,1,55,2|0,0:0|0:0,0:0:0:0:
104,192,284398,1,2,0:0:0:0:
456,192,284633,2,0,L|456:136,1,55,2|2,0:0|3:0,0:0:0:0:
128,192,284984,1,2,1:2:0:0:
88,192,285043,1,0,0:0:0:0:
56,192,285102,5,0,1:0:0:0:
16,192,285219,1,2,1:2:0:0:
56,192,285336,1,0,1:0:0:0:
112,192,285453,1,2,1:2:0:0:
256,192,285570,2,0,L|312:192,1,55,2|2,1:3|1:2,0:0:0:0:
112,192,285805,1,0,1:0:0:0:
312,192,285922,1,2,1:2:0:0:
352,192,285980,1,0,0:0:0:0:
392,192,286039,1,0,1:0:0:0:
448,192,286156,1,2,1:2:0:0:
448,192,286273,1,0,1:0:0:0:
392,192,286391,1,2,1:2:0:0:
200,192,286508,1,2,1:1:0:0:
136,192,286625,2,0,L|136:128,1,55,2|0,1:1|1:1,0:0:0:0:
328,192,286859,1,0,1:0:0:0:
400,192,286977,5,2,1:2:0:0:
432,192,287094,1,0,1:0:0:0:
400,192,287211,1,2,1:3:0:0:
328,192,287328,1,0,1:0:0:0:
136,192,287445,1,2,1:2:0:0:
200,192,287562,1,2,1:2:0:0:
264,192,287680,1,0,1:0:0:0:
80,192,287797,1,2,1:3:0:0:
40,192,287855,1,0,0:0:0:0:
16,192,287914,2,0,L|80:192,1,55,2|0,1:3|1:0,0:0:0:0:
209,192,288148,2,0,L|281:192,1,55,2|0,1:2|1:0,0:0:0:0:
136,192,288383,1,2,1:1:0:0:
48,192,288500,2,0,L|16:192,2,27.5,2|0|0,1:1|0:0|1:1,0:0:0:0:
248,192,288734,1,2,1:3:0:0:
288,192,288793,1,0,0:0:0:0:
320,192,288852,5,2,1:2:0:0:
368,192,288969,1,2,1:2:0:0:
320,192,289086,1,0,1:3:0:0:
264,192,289203,1,0,1:2:0:0:
128,192,289320,1,2,1:3:0:0:
320,192,289437,2,0,L|392:192,1,55,2|0,1:1|1:1,0:0:0:0:
184,192,289672,1,2,1:3:0:0:
144,192,289731,1,0,0:0:0:0:
112,192,289789,1,2,1:2:0:0:
56,192,289906,1,2,1:2:0:0:
104,192,290023,1,2,1:2:0:0:
168,192,290141,1,2,1:3:0:0:
352,192,290258,5,2,1:2:0:0:
384,192,290316,1,2,1:2:0:0:
384,192,290375,1,2,1:2:0:0:
352,192,290434,1,2,1:2:0:0:
224,192,290492,1,2,1:2:0:0:
184,192,290551,1,2,1:2:0:0:
312,192,290609,1,2,1:2:0:0:
352,192,290668,1,2,1:2:0:0:
224,192,290727,5,4,0:3:0:0:
32,192,290844,2,0,L|32:136,1,55,4|0,0:3|0:0,0:0:0:0:
96,192,291078,1,0,0:0:0:0:
160,192,291195,1,0,3:0:0:0:
192,192,291254,1,0,3:0:0:0:
192,192,291312,1,0,3:0:0:0:
160,192,291371,1,0,3:0:0:0:
128,192,291430,1,0,3:0:0:0:
96,192,291488,1,0,3:0:0:0:
128,192,291547,1,0,3:0:0:0:
160,192,291605,1,0,3:0:0:0:
192,192,291664,5,0,3:0:0:0:
224,192,291723,1,0,3:0:0:0:
248,192,291781,1,0,3:0:0:0:
248,192,291840,1,0,3:0:0:0:
216,192,291898,1,0,3:0:0:0:
184,192,291957,1,0,3:0:0:0:
152,192,292016,1,0,3:0:0:0:
184,192,292074,1,0,3:0:0:0:
320,192,292133,1,0,3:0:0:0:
360,192,292191,1,0,3:0:0:0:
360,192,292250,1,0,3:0:0:0:
320,192,292309,1,0,3:0:0:0:
184,192,292367,1,0,3:0:0:0:
136,192,292426,1,0,3:0:0:0:
136,192,292484,1,0,3:0:0:0:
184,192,292543,1,0,3:0:0:0:
320,192,292602,6,0,B|320:16|320:16|320:368|320:368|320:280|320:280|320:336|320:336|320:368|320:368|320:16|320:16|320:352|320:352|320:184|320:184,1,1540,4|0,0:3|0:0,0:0:0:0:
288,192,295941,1,0,0:0:0:0:
256,192,296000,1,0,0:0:0:0:
224,192,296059,1,0,0:0:0:0:
192,192,296117,1,0,0:0:0:0:
160,192,296176,1,0,0:0:0:0:
128,192,296234,1,0,0:0:0:0:
96,192,296293,1,0,0:0:0:0:
96,192,298774,6,0,L|56:192,1,27.5,2|2,0:0|0:0,0:0:0:0:
175,192,299046,1,2,0:0:0:0:
304,192,299183,5,2,0:0:0:0:
175,192,299455,1,2,0:0:0:0:
304,192,299728,1,2,0:0:0:0:
416,192,300000,1,2,0:0:0:0:
360,192,300137,2,0,L|320:192,2,27.5,2|2|2,0:0|0:0|0:0,0:0:0:0:
416,192,300409,1,2,0:0:0:0:
128,192,300955,2,0,L|128:144,1,27.5,2|2,0:0|0:0,0:0:0:0:
224,192,301228,1,2,0:0:0:0:
72,192,301364,5,2,0:0:0:0:
201,192,301636,1,2,0:0:0:0:
72,192,301909,1,2,0:0:0:0:
184,192,302181,1,2,0:0:0:0:
240,192,302318,2,0,L|280:192,2,27.5,2|2|2,0:0|0:0|0:0,0:0:0:0:
184,192,302590,1,2,0:0:0:0:
408,192,303137,2,0,L|472:192,2,55,2|2|2,0:0|0:0|0:0,0:0:0:0:
272,192,303546,6,0,L|232:192,1,27.5,2|2,0:0|0:0,0:0:0:0:
360,192,303819,2,0,L|408:192,2,27.5,2|2|2,0:0|0:0|0:0,0:0:0:0:
224,192,304228,2,0,L|160:192,2,55,2|2|2,0:0|0:0|0:0,0:0:0:0:
360,192,304637,6,0,L|400:192,1,27.5,2|2,0:0|0:0,0:0:0:0:
272,192,304910,2,0,L|224:192,2,27.5,2|2|2,0:0|0:0|0:0,0:0:0:0:
408,192,305319,1,2,0:0:0:0:
472,192,305455,1,2,0:0:0:0:
408,192,305591,1,2,0:0:0:0:
176,192,305864,5,2,0:0:0:0:
352,192,306273,1,2,0:0:0:0:
48,192,306682,2,0,L|48:152,1,27.5,2|2,0:0|0:0,0:0:0:0:
328,192,307091,2,0,L|328:144,1,27.5,2|2,0:0|0:0,0:0:0:0:
48,192,307500,1,2,0:0:0:0:
112,192,307637,1,2,0:0:0:0:
336,192,307909,6,0,L|384:192,1,27.5,2|2,0:0|0:0,0:0:0:0:
256,192,308182,1,2,0:0:0:0:
120,192,308455,1,2,0:0:0:0:
256,192,308728,1,2,0:0:0:0:
328,192,308864,2,0,L|376:192,2,27.5,2|2|2,0:0|0:0|0:0,0:0:0:0:
256,192,309137,1,2,0:0:0:0:
496,192,309682,2,0,L|464:192,1,27.5,2|2,0:0|0:0,0:0:0:0:
352,192,309955,1,2,0:0:0:0:
216,192,310091,5,2,0:0:0:0:
352,192,310364,1,2,0:0:0:0:
216,192,310637,1,2,0:0:0:0:
88,192,310909,1,2,0:0:0:0:
160,192,311046,2,0,L|200:192,2,27.5,2|2|2,0:0|0:0|0:0,0:0:0:0:
88,192,311319,1,2,0:0:0:0:
416,192,311864,2,0,L|488:192,2,55,2|2|2,0:0|0:0|0:0,0:0:0:0:
192,192,312409,6,0,L|192:152,1,27.5,2|2,0:0|0:0,0:0:0:0:
344,192,312682,2,0,L|376:192,2,27.5,2|2|2,0:0|0:0|0:0,0:0:0:0:
96,192,313228,2,0,L|96:152,1,27.5,2|2,0:0|0:0,0:0:0:0:
192,192,313500,2,0,L|240:192,2,27.5,2|2|2,0:0|0:0|0:0,0:0:0:0:
16,192,314046,1,2,0:0:0:0:
72,192,314182,1,2,0:0:0:0:
128,192,314319,1,2,0:0:0:0:
280,192,314455,5,2,0:0:0:0:
352,192,314591,2,0,P|392:152|368:104,1,110,2|2,0:0|0:0,0:0:0:0:
248,192,315137,2,0,P|176:160|168:128,1,110,2|2,0:0|0:0,0:0:0:0:
328,192,315682,2,0,L|440:192,1,110,2|2,0:0|0:0,0:0:0:0:
288,192,316228,1,2,0:0:0:0:
480,192,316500,1,2,0:0:0:0:
144,192,316773,5,2,3:2:0:0:
104,192,316864,1,2,3:2:0:0:
72,192,316955,1,2,3:2:0:0:
48,192,317046,1,2,3:2:0:0:
32,192,317137,1,2,3:2:0:0:
24,192,317228,1,2,3:2:0:0:
24,192,317319,1,2,3:2:0:0:
32,192,317410,1,2,3:2:0:0:
48,192,317501,1,2,3:2:0:0:
72,192,317592,1,2,3:2:0:0:
104,192,317683,1,2,3:2:0:0:
144,192,317774,1,2,3:2:0:0:
184,192,317864,1,2,3:2:0:0:
320,192,318137,5,2,0:0:0:0:
88,192,318409,2,0,L|88:160,1,27.5,2|2,0:0|0:0,0:0:0:0:
192,192,318682,2,0,L|224:192,2,27.5,2|2|2,0:0|0:0|0:0,0:0:0:0:
72,192,319155,1,2,0:0:0:0:
48,192,319221,1,2,0:0:0:0:
80,192,319316,5,2,0:0:0:0:
152,192,319482,1,2,0:0:0:0:
232,192,319649,1,2,0:0:0:0:
80,192,319879,1,2,0:0:0:0:
272,192,320288,1,2,0:0:0:0:
56,192,320774,1,2,0:0:0:0:
