osu file format v14

[General]
AudioFilename: 12 The King Of Lions.mp3
AudioLeadIn: 0
PreviewTime: 199861
Countdown: 0
SampleSet: Soft
StackLeniency: 0.2
Mode: 0
LetterboxInBreaks: 0
WidescreenStoryboard: 0

[Editor]
Bookmarks: 257003
DistanceSpacing: 0.5
BeatDivisor: 4
GridSize: 4
TimelineZoom: 5.959997

[Metadata]
Title:The King of Lions
TitleUnicode:The King of Lions
Artist:Camellia
ArtistUnicode:かめりあ
Creator:HalfDeckOfCards
Version:Soverain
Source:
Tags:invaidas from da jungle c92 ctcd-0016 cametek かめるかめりあ pumpcore dubcore
BeatmapID:1398110
BeatmapSetID:660258

[Difficulty]
HPDrainRate:5.7
CircleSize:4.4
OverallDifficulty:9
ApproachRate:9.8
SliderMultiplier:2.4
SliderTickRate:1

[Events]
//Background and Video events
0,0,"hai-hoang-gorgontuanp.jpg",0,0
//Break Periods
2,74432,78146
2,79575,82718
2,147861,155861
//Storyboard Layer 0 (Background)
//Storyboard Layer 1 (Fail)
//Storyboard Layer 2 (Pass)
//Storyboard Layer 3 (Foreground)
//Storyboard Sound Samples

[TimingPoints]
-139,285.714285714286,4,2,1,60,1,0
2003,-400,4,2,1,60,0,0
2146,-400,4,2,1,35,0,0
2289,-400,4,2,1,40,0,0
2432,-400,4,2,1,45,0,0
2575,-400,4,2,1,50,0,0
2718,-400,4,2,1,55,0,0
2861,-400,4,2,1,60,0,0
3003,-400,4,2,1,55,0,0
3146,-400,4,2,1,50,0,0
3289,-400,4,2,1,45,0,0
3432,-400,4,2,1,40,0,0
4861,-400,4,2,1,60,0,0
5003,-400,4,2,1,35,0,0
5111,-400,4,2,1,40,0,0
5289,-400,4,2,1,45,0,0
5432,-400,4,2,1,40,0,0
5575,-400,4,2,1,35,0,0
5718,-400,4,2,1,30,0,0
9003,-133.333333333333,4,2,1,60,0,0
9861,-40,4,2,1,60,0,0
10003,-40,4,2,1,20,0,0
10146,-133.333333333333,4,2,1,60,0,0
14718,-80,4,2,1,60,0,0
15718,-133.333333333333,4,2,1,60,0,0
19289,-79.9999999999999,4,2,1,60,0,0
20146,-57.1428571428571,4,2,1,60,0,0
20432,-79.9999999999999,4,2,1,60,0,0
20861,-200,4,2,1,60,0,0
21289,-57.1428571428571,4,2,1,60,0,0
21575,-79.9999999999999,4,2,1,60,0,0
22432,-57.1428571428571,4,2,1,60,0,0
22718,-79.9999999999999,4,2,1,60,0,0
24718,-57.1428571428571,4,2,1,60,0,0
25003,-79.9999999999999,4,2,1,60,0,0
25432,-200,4,2,1,60,0,0
25861,-57.1428571428571,4,2,1,60,0,0
26146,-79.9999999999999,4,2,1,60,0,0
27003,-57.1428571428571,4,2,1,60,0,0
27289,-100,4,2,1,60,0,0
28146,-333.333333333333,4,2,1,60,0,0
28432,-100,4,2,1,60,0,0
36146,-133.333333333333,4,2,1,60,0,0
37289,-500,4,2,1,60,0,0
37575,-50,4,2,1,60,0,0
37861,-100,4,2,1,60,0,0
38003,-71.4285714285714,4,2,1,60,0,0
38146,-80,4,2,1,60,0,0
38432,-100,4,2,1,60,0,0
38861,-66.6666666666667,4,2,1,60,0,0
39146,-100,4,2,1,60,0,0
39861,-58.8235294117647,4,2,1,60,0,0
40146,-80,4,2,1,60,0,0
40718,-100,4,2,1,60,0,0
41861,-38.4615384615385,4,2,1,60,0,0
42146,-50,4,2,1,60,0,0
42432,-80,4,2,1,60,0,0
43003,-100,4,2,1,60,0,0
43432,-66.6666666666667,4,2,1,60,0,0
43718,-100,4,2,1,60,0,0
44432,-80,4,2,1,60,0,0
45575,-99.9999999999999,4,2,1,60,0,0
46432,-133.333333333333,4,2,1,60,0,0
46718,-37.037037037037,4,2,1,60,0,0
47003,-58.8235294117647,4,2,1,60,0,0
47289,-80,4,2,1,60,0,0
47575,-100,4,2,1,60,0,0
47861,-58.8235294117647,4,2,1,60,0,0
48146,-100,4,2,1,60,0,0
48432,-66.6666666666667,4,2,1,60,0,0
49003,-250,4,2,1,60,0,0
49146,-66.6666666666667,4,2,1,60,0,0
49289,-200,4,2,1,60,0,0
49432,-58.8235294117647,4,2,1,60,0,0
49575,-80,4,2,1,60,0,0
49861,-100,4,2,1,60,0,0
51003,-38.4615384615385,4,2,1,60,0,0
51289,-62.5,4,2,1,60,0,0
51575,-80,4,2,1,60,0,0
53718,-33.3333333333333,4,2,1,60,0,0
54003,-100,4,2,1,60,0,0
55575,-80,4,2,1,60,0,0
56432,-71.4285714285714,4,2,1,60,0,0
56718,-80,4,2,1,60,0,0
57432,-71.4285714285714,4,2,1,60,0,0
58146,-66.6666666666667,4,2,1,60,0,0
58432,-80,4,2,1,60,0,0
58718,-71.4285714285714,4,2,1,60,0,0
59003,-80,4,2,1,60,0,0
59432,-142.857142857143,4,2,1,60,0,0
59861,-71.4285714285714,4,2,1,60,0,0
60146,-38.4615384615385,4,2,1,60,0,0
60432,-80,4,2,1,60,0,0
61003,-71.4285714285714,4,2,1,60,0,0
61289,-80,4,2,1,60,0,0
62003,-71.4285714285714,4,2,1,60,0,0
62718,-80,4,2,1,60,0,0
63861,-66.6666666666667,4,2,1,60,0,0
64146,-100,4,2,1,60,0,0
64432,-80,4,2,1,60,0,0
64575,-66.6666666666667,4,2,1,60,0,0
64718,-133.333333333333,4,2,1,60,0,0
65289,-79.9999999999999,4,2,1,60,0,0
65575,-62.5,4,2,1,60,0,0
65861,-79.9999999999999,4,2,1,60,0,0
66718,-62.5,4,2,1,60,0,0
67003,-79.9999999999999,4,2,1,60,0,0
67289,-71.4285714285714,4,2,1,60,0,0
67575,-79.9999999999999,4,2,1,60,0,0
67861,-62.5,4,2,1,60,0,0
68146,-79.9999999999999,4,2,1,60,0,0
68718,-41.6666666666667,4,2,1,60,0,0
69003,-62.5,4,2,1,60,0,0
69289,-41.6666666666667,4,2,1,60,0,0
69575,-83.3333333333333,4,2,1,60,0,0
69789,-76.9230769230769,4,2,1,60,0,0
70003,-71.4285714285714,4,2,1,60,0,0
70218,-66.6666666666667,4,2,1,60,0,0
70432,-62.5,4,2,1,60,0,0
70718,-83.3333333333333,4,2,1,60,0,0
70932,-76.9230769230769,4,2,1,60,0,0
71146,-71.4285714285714,4,2,1,60,0,0
71361,-66.6666666666667,4,2,1,60,0,0
71575,-62.5,4,2,1,60,0,0
71861,-66.6666666666667,4,2,1,60,0,0
73003,-100,4,2,1,60,0,0
78718,-50,4,2,1,60,0,0
87861,-100,4,2,1,60,0,0
90432,-80,4,2,1,60,0,0
90720,-66.6666666666667,4,2,1,60,0,0
91003,-57.1428571428571,4,2,1,60,0,0
92432,-52.6315789473684,4,2,1,60,0,1
92861,-80,4,2,1,60,0,1
94432,-100,4,2,1,60,0,1
94718,-52.6315789473684,4,2,1,60,0,1
95146,-80,4,2,1,60,0,1
96718,-34.4827586206897,4,2,1,60,0,1
97003,-52.6315789473684,4,2,1,60,0,1
97432,-80,4,2,1,60,0,1
99003,-100,4,2,1,60,0,1
99289,-52.6315789473684,4,2,1,60,0,1
99718,-80,4,2,1,60,0,1
101003,-58.8235294117647,4,2,1,60,0,1
101289,-100,4,2,1,60,0,1
101575,-52.6315789473684,4,2,1,60,0,1
102003,-80,4,2,1,60,0,1
103575,-100,4,2,1,60,0,1
103861,-52.6315789473684,4,2,1,60,0,1
104289,-80,4,2,1,60,0,1
105861,-133.333333333333,4,2,1,60,0,1
106146,-52.6315789473684,4,2,1,60,0,1
106575,-80,4,2,1,60,0,1
109575,-37.037037037037,4,2,1,60,0,1
109861,-80,4,2,1,60,0,1
110146,-57.1428571428571,4,2,1,60,0,1
110432,-71.4285714285714,4,2,1,60,0,1
110718,-50,4,2,1,60,0,1
111146,-80,4,2,1,60,0,1
112718,-100,4,2,1,60,0,1
113003,-52.6315789473684,4,2,1,60,0,1
113432,-80,4,2,1,60,0,1
115003,-43.4782608695652,4,2,1,60,0,1
115289,-52.6315789473684,4,2,1,60,0,1
115718,-66.6666666666667,4,2,1,60,0,1
116289,-200,4,2,1,60,0,1
116575,-52.6315789473684,4,2,1,60,0,1
116718,-80,4,2,1,60,0,1
117289,-58.8235294117647,4,2,1,60,0,1
117575,-100,4,2,1,60,0,1
118003,-71.4285714285714,4,2,1,60,0,1
118289,-80,4,2,1,60,0,1
118718,-55.5555555555556,4,2,1,60,0,1
119289,-111.111111111111,4,2,1,60,0,1
119861,-222.222222222222,4,2,1,60,0,1
120432,-80,4,2,1,60,0,1
121861,-100,4,2,1,60,0,1
122146,-52.6315789473684,4,2,1,60,0,1
122575,-80,4,2,1,60,0,1
124146,-34.4827586206897,4,2,1,60,0,1
124432,-58.8235294117647,4,2,1,60,0,1
124718,-80,4,2,1,60,0,1
126289,-71.4285714285714,4,2,1,60,0,1
129003,-62.5,4,2,1,60,0,1
129289,-80,4,2,1,60,0,1
131003,-100,4,2,1,60,0,1
131289,-52.6315789473684,4,2,1,60,0,1
131575,-80,4,2,1,60,0,1
133289,-66.6666666666667,4,2,1,60,0,1
133575,-52.6315789473684,4,2,1,60,0,1
133861,-71.4285714285714,4,2,1,60,0,1
134575,-142.857142857143,4,2,1,60,0,1
134861,-52.6315789473684,4,2,1,60,0,1
135003,-80,4,2,1,60,0,1
135575,-58.8235294117647,4,2,1,60,0,1
135861,-100,4,2,1,60,0,1
136289,-71.4285714285714,4,2,1,60,0,1
136575,-80,4,2,1,60,0,1
137003,-100,4,2,1,60,0,1
137289,-133.333333333333,4,2,1,60,0,1
137575,-100,4,2,1,60,0,1
138146,-71.4285714285714,4,2,1,60,0,1
138718,-80,4,2,1,60,0,1
140146,-100,4,2,1,60,0,1
140432,-58.8235294117647,4,2,1,60,0,1
140718,-80,4,2,1,60,0,1
142432,-71.4285714285714,4,2,1,60,0,1
142718,-80,4,2,1,60,0,1
143861,-83.3333333333333,4,2,1,60,0,1
144146,-76.9230769230769,4,2,1,60,0,1
144432,-71.4285714285714,4,2,1,60,0,1
144718,-66.6666666666667,4,2,1,60,0,1
145003,-100,4,2,1,60,0,1
147289,-80,4,2,1,60,0,0
156432,-200,4,2,1,35,0,0
169861,-133.333333333333,4,2,1,45,0,0
173575,-100,4,2,1,60,0,0
174432,-40,4,2,1,60,0,0
174718,-100,4,2,1,60,0,0
179289,-80,4,2,1,60,0,0
180289,-100,4,2,1,60,0,0
182289,-80,4,2,1,60,0,0
182718,-100,4,2,1,60,0,0
183861,-80,4,2,1,60,0,0
184718,-57.1428571428571,4,2,1,60,0,0
185003,-80,4,2,1,60,0,0
185432,-200,4,2,1,60,0,0
185861,-57.1428571428571,4,2,1,60,0,0
186146,-80,4,2,1,60,0,0
187003,-57.1428571428571,4,2,1,60,0,0
187289,-80,4,2,1,60,0,0
189289,-57.1428571428571,4,2,1,60,0,0
189575,-80,4,2,1,60,0,0
190003,-200,4,2,1,60,0,0
190432,-57.1428571428571,4,2,1,60,0,0
190718,-80,4,2,1,60,0,0
191575,-57.1428571428571,4,2,1,60,0,0
191861,-100,4,2,1,60,0,0
192718,-133.333333333333,4,2,1,60,0,0
196432,-100,4,2,1,60,0,0
199861,-133.333333333333,4,2,1,60,0,0
201861,-500,4,2,1,60,0,0
202146,-66.6666666666667,4,2,1,60,0,0
202432,-80,4,2,1,60,0,0
203146,-71.4285714285714,4,2,1,60,0,0
204432,-80,4,2,1,60,0,0
205575,-66.6666666666667,4,2,1,60,0,0
206146,-57.1428571428571,4,2,1,60,0,0
206432,-38.4615384615385,4,2,1,60,0,0
206718,-80,4,2,1,60,0,0
207718,-71.4285714285714,4,2,1,60,0,0
209003,-80,4,2,1,60,0,0
210146,-50,4,2,1,60,0,0
210718,-80,4,2,1,60,0,0
211289,-71.4285714285714,4,2,1,60,0,0
211575,-80,4,2,1,60,0,0
212289,-71.4285714285714,4,2,1,60,0,0
213575,-80,4,2,1,60,0,0
214718,-66.6666666666667,4,2,1,60,0,0
215003,-37.037037037037,4,2,1,60,0,0
215289,-45.4545454545455,4,2,1,60,0,0
215575,-37.037037037037,4,2,1,60,0,0
215861,-100,4,2,1,60,0,0
217003,-80,4,2,1,60,0,0
218146,-100,4,2,1,60,0,0
220432,-71.4285714285714,4,2,1,60,0,0
220861,-58.8235294117647,4,2,1,60,0,0
221432,-66.6666666666667,4,2,1,60,0,0
221861,-71.4285714285714,4,2,1,60,0,0
222861,-250,4,2,1,60,0,0
223003,-71.4285714285714,4,2,1,60,0,0
223146,-58.8235294117647,4,2,1,60,0,0
223718,-66.6666666666667,4,2,1,60,0,0
224146,-71.4285714285714,4,2,1,60,0,0
224718,-37.037037037037,4,2,1,60,0,0
225003,-66.6666666666667,4,2,1,60,0,0
225432,-58.8235294117647,4,2,1,60,0,0
226003,-66.6666666666667,4,2,1,60,0,0
227289,-80,4,2,1,60,0,0
227432,-133.333333333333,4,2,1,60,0,0
227718,-80,4,2,1,60,0,0
227861,-133.333333333333,4,2,1,60,0,0
228146,-80,4,2,1,60,0,0
228575,-133.333333333333,4,2,1,60,0,0
228861,-80,4,2,1,60,0,0
229575,-71.4285714285714,4,2,1,60,0,0
230003,-58.8235294117647,4,2,1,60,0,0
230575,-66.6666666666667,4,2,1,60,0,0
231003,-71.4285714285714,4,2,1,60,0,0
231861,-111.111111111111,4,2,1,60,0,0
232146,-71.4285714285714,4,2,1,60,0,0
232289,-58.8235294117647,4,2,1,60,0,0
233003,-80,4,2,1,60,0,0
233861,-43.4782608695652,4,2,1,60,0,0
234146,-66.6666666666667,4,2,1,60,0,0
236432,-80,4,2,1,60,0,0
237575,-100,4,2,1,60,0,0
238718,-50,4,2,1,60,0,1
239146,-80,4,2,1,60,0,1
240718,-100,4,2,1,60,0,1
241003,-50,4,2,1,60,0,1
241432,-80,4,2,1,60,0,1
243003,-35.7142857142857,4,2,1,60,0,1
243289,-50,4,2,1,60,0,1
243718,-80,4,2,1,60,0,1
245289,-100,4,2,1,60,0,1
245575,-50,4,2,1,60,0,1
246003,-80,4,2,1,60,0,1
247289,-58.8235294117647,4,2,1,60,0,1
247575,-100,4,2,1,60,0,1
247861,-50,4,2,1,60,0,1
248289,-80,4,2,1,60,0,1
249861,-100,4,2,1,60,0,1
250146,-50,4,2,1,60,0,1
250575,-80,4,2,1,60,0,1
252146,-41.6666666666667,4,2,1,60,0,1
252432,-50,4,2,1,60,0,1
252861,-80,4,2,1,60,0,1
255861,-100,4,2,1,60,0,0
257003,-100,4,2,1,60,0,0

[Colours]
Combo1 : 172,145,123
Combo2 : 246,170,52
Combo3 : 130,92,97
Combo4 : 239,198,169

[HitObjects]
412,268,2003,6,0,L|416:292,1,15
376,352,2146,2,0,L|378:338,36,7.5
100,116,4861,6,0,L|96:92,1,15
136,32,5003,2,0,L|133:45,20,7.5
256,192,5861,12,2,9003,0:0:0:0:
56,324,9146,5,0,0:0:0:0:
200,352,9289,1,0,0:0:0:0:
216,216,9432,5,0,0:0:0:0:
68,204,9575,1,0,0:0:0:0:
141,237,9718,1,0,0:0:0:0:
84,96,9861,6,0,B|168:40|168:40|140:248,1,300,8|0,0:0|0:0,0:0:0:0:
128,340,10146,5,2,0:0:0:0:
484,320,10432,2,0,P|456:316|424:328,1,45.0000017166138
356,184,10575,2,0,P|372:232|364:288,1,90.0000034332277
468,120,10861,2,0,P|466:75|481:33,1,90.0000034332277
296,132,11146,2,0,P|275:65|335:102,1,180.000006866455
364,360,11861,5,0,0:0:0:0:
512,212,12003,1,0,0:0:0:0:
335,100,12432,6,0,L|243:92,1,90.0000034332277
152,60,12718,2,0,P|144:84|144:112,1,45.0000017166138
252,100,12861,2,0,L|341:107,1,90.0000034332277
216,212,13146,2,0,L|126:219,1,90.0000034332277
248,328,13432,2,0,B|264:324|284:304|284:304|320:336|392:328,1,135.000005149841
504,192,13718,6,0,P|476:188|448:196,1,45.0000017166138
472,112,13861,2,0,P|445:100|416:101,1,45.0000017166138
388,160,14003,1,0,0:0:0:0:
508,8,14146,5,0,0:0:0:0:
480,268,14289,1,0,0:0:0:0:
120,160,14718,6,0,P|80:56|156:136,1,300,6|0,0:0|0:0,0:0:0:0:
112,284,15146,2,0,P|199:350|153:250,1,300,6|0,0:0|0:0,0:0:0:0:
112,140,15718,6,0,P|89:76|143:117,1,180.000006866455
143,115,16432,6,0,P|169:104|205:104,1,45.0000017166138
408,108,16575,1,0,0:0:0:0:
400,92,17003,6,0,L|408:196,1,90.0000034332277
416,360,17289,1,0,0:0:0:0:
452,288,17432,2,0,B|410:271|410:271|360:300,1,90.0000034332277
216,204,17718,2,0,B|257:218|257:218|306:187,1,90.0000034332277
268,332,18003,1,0,0:0:0:0:
256,96,18146,6,0,L|252:132,28,22.5000008583069
60,96,19289,6,0,P|128:128|80:316,1,300,2|0,0:0|0:0,0:0:0:0:
404,360,19718,2,0,P|333:239|434:143,1,300,2|0,0:0|0:0,0:0:0:0:
228,100,20146,6,0,B|251:70|244:26|244:26|289:79|252:171,1,210.000002002716,8|0,0:0|0:0,0:0:0:0:
52,308,20432,6,0,B|116:268|116:268|204:300,1,150,2|0,0:0|0:0,0:0:0:0:
184,272,20646,2,0,B|113:246|113:246|49:286,1,150,2|0,0:0|0:0,0:0:0:0:
48,264,20861,6,0,B|112:224|112:224|182:249,1,150,2|0,0:0|0:0,0:0:0:0:
408,300,21289,6,0,L|392:76,1,210.000002002716,8|0,0:0|0:0,0:0:0:0:
368,384,21575,6,0,B|280:336|280:336|296:108,1,300,2|0,0:0|0:0,0:0:0:0:
424,0,22003,2,0,B|512:48|512:48|498:247,1,300,2|0,0:0|0:0,0:0:0:0:
244,72,22432,6,0,B|296:47|316:-1|316:-1|313:48|377:105,1,210.000002002716,8|0,0:0|0:0,0:0:0:0:
496,248,22718,6,0,P|426:223|354:243,1,150,2|0,0:0|0:0,0:0:0:0:
371,344,22932,2,0,P|440:368|512:348,1,150,2|0,0:0|0:0,0:0:0:0:
496,232,23146,2,0,P|426:207|354:227,1,150,2|0,0:0|0:0,0:0:0:0:
371,364,23361,2,0,P|440:388|512:368,1,150,2|0,0:0|0:0,0:0:0:0:
204,384,23575,5,10,0:0:0:0:
236,72,23861,6,0,B|264:8|345:-2|345:-2|408:64|512:32,1,300,2|0,0:0|0:0,0:0:0:0:
276,312,24289,2,0,B|248:376|167:386|167:386|104:320|0:352,1,300,2|0,0:0|0:0,0:0:0:0:
292,176,24718,6,0,B|295:143|329:115|329:115|390:170|342:240,1,210.000002002716,8|0,0:0|0:0,0:0:0:0:
99,10,25003,6,0,L|253:79,1,150,2|0,0:0|0:0,0:0:0:0:
54,19,25218,2,0,L|199:55,1,150,2|0,0:0|0:0,0:0:0:0:
15,35,25432,6,0,L|183:47,1,150,2|0,0:0|0:0,0:0:0:0:
506,151,25861,6,0,B|462:182|407:159|407:159|399:226|328:241,1,210.000002002716,8|0,0:0|0:0,0:0:0:0:
52,240,26146,6,0,B|32:224|-8:216|-8:216|20:192|132:172|60:288|212:256,1,300,2|0,0:0|0:0,0:0:0:0:
452,68,26575,2,0,B|472:52|512:44|512:44|484:20|372:0|444:116|292:84,1,300,2|0,0:0|0:0,0:0:0:0:
352,360,27003,6,0,B|393:329|449:352|449:352|457:285|512:275,1,210.000002002716,8|0,0:0|0:0,0:0:0:0:
288,172,27289,6,0,P|269:202|265:250,2,60,2|0|0,0:0|0:0|0:0,0:0:0:0:
492,160,27503,2,0,L|364:168,1,120,2|0,0:0|0:0,0:0:0:0:
288,172,27718,6,0,P|264:145|251:98,2,60,2|0|0,0:0|0:0|0:0,0:0:0:0:
492,160,27932,2,0,L|364:168,1,120,2|0,0:0|0:0,0:0:0:0:
234,175,28146,6,0,L|298:171,1,53.9999983520508,2|0,0:0|0:0,0:0:0:0:
492,160,28432,5,10,0:0:0:0:
348,284,28575,1,2,0:0:0:0:
496,344,28718,1,8,0:0:0:0:
500,316,28789,1,0,0:0:0:0:
504,288,28861,1,0,0:0:0:0:
330,311,29003,5,8,0:0:0:0:
332,252,29075,1,2,0:0:0:0:
383,282,29146,1,0,0:0:0:0:
204,312,29289,5,8,0:0:0:0:
380,344,29432,1,2,0:0:0:0:
212,328,29575,6,0,P|168:312|80:316,1,120,8|0,0:0|0:0,0:0:0:0:
8,192,29861,2,0,P|67:194|124:175,1,120,8|0,0:0|0:0,0:0:0:0:
240,32,30146,6,0,L|228:172,1,120,8|0,0:0|0:0,0:0:0:0:
12,200,30432,2,0,L|1:80,1,120,8|0,0:0|0:0,0:0:0:0:
248,48,30718,5,8,0:0:0:0:
284,236,30861,1,0,0:0:0:0:
272,140,31003,5,8,0:0:0:0:
236,328,31146,1,0,0:0:0:0:
244,60,31289,5,8,0:0:0:0:
280,248,31432,1,0,0:0:0:0:
268,152,31575,5,8,0:0:0:0:
232,340,31718,1,0,0:0:0:0:
84,260,31861,6,0,B|68:287|68:287|81:337,2,60,8|0|0,0:0|0:0|0:0,0:0:0:0:
280,248,32075,2,0,P|210:243|144:265,1,120,8|0,0:0|0:0,0:0:0:0:
84,260,32289,6,0,B|68:232|68:232|81:182,2,60,8|0|0,0:0|0:0|0:0,0:0:0:0:
280,248,32503,2,0,P|213:262|144:250,1,120,8|0,0:0|0:0,0:0:0:0:
0,260,32718,5,8,0:0:0:0:
472,72,33003,5,10,0:0:0:0:
456,66,33075,1,2,0:0:0:0:
441,61,33146,1,2,0:0:0:0:
426,58,33218,1,2,0:0:0:0:
410,56,33289,1,10,0:0:0:0:
394,55,33361,1,2,0:0:0:0:
378,58,33432,1,2,0:0:0:0:
363,65,33503,1,2,0:0:0:0:
349,72,33575,1,10,0:0:0:0:
334,77,33646,1,2,0:0:0:0:
318,79,33718,1,2,0:0:0:0:
302,78,33789,1,2,0:0:0:0:
286,75,33861,1,10,0:0:0:0:
271,71,33932,1,2,0:0:0:0:
256,66,34003,1,2,0:0:0:0:
241,60,34075,1,2,0:0:0:0:
232,52,34146,5,10,0:0:0:0:
286,30,34218,1,2,0:0:0:0:
340,53,34289,1,2,0:0:0:0:
364,106,34361,1,2,0:0:0:0:
344,161,34432,1,10,0:0:0:0:
307,207,34503,1,2,0:0:0:0:
302,266,34575,1,2,0:0:0:0:
330,318,34646,1,2,0:0:0:0:
383,345,34718,1,10,0:0:0:0:
442,339,34789,1,2,0:0:0:0:
487,300,34861,1,2,0:0:0:0:
503,244,34932,1,2,0:0:0:0:
485,187,35003,6,0,L|480:240,2,30,8|0|0,0:0|0:0|0:0,0:0:0:0:
424,80,35146,2,0,L|429:132,2,30,8|0|0,0:0|0:0|0:0,0:0:0:0:
488,4,35289,5,0,0:0:0:0:
512,72,35432,1,0,0:0:0:0:
324,160,35575,5,0,0:0:0:0:
392,184,35718,1,0,0:0:0:0:
374,363,35861,5,0,0:0:0:0:
442,339,36003,1,0,0:0:0:0:
504,148,36146,6,0,L|508:196,1,45.0000017166138
480,256,36289,2,0,L|484:208,1,45.0000017166138
504,384,36432,5,2,0:0:0:0:
374,363,36575,5,2,0:0:0:0:
404,340,36646,1,2,0:0:0:0:
442,339,36718,1,2,0:0:0:0:
324,160,36861,5,2,0:0:0:0:
360,160,36932,1,2,0:0:0:0:
392,184,37003,1,2,0:0:0:0:
488,4,37146,5,2,0:0:0:0:
512,32,37218,1,2,0:0:0:0:
512,72,37289,6,0,P|508:88|508:108,1,36,10|0,0:0|0:0,0:0:0:0:
496,184,37575,6,0,B|448:104|508:12|508:12|448:104|340:96,1,360,6|0,0:0|0:0,0:0:0:0:
392,192,37861,5,8,0:0:0:0:
508,12,38003,6,0,L|456:88,1,83.9999974365235
404,176,38146,5,0,0:0:0:0:
381,212,38218,1,0,0:0:0:0:
375,182,38289,1,0,0:0:0:0:
410,206,38361,1,0,0:0:0:0:
432,304,38432,6,0,P|461:326|475:356,1,60,8|0,0:0|0:0,0:0:0:0:
248,256,38575,2,0,P|213:241|192:216,1,60
160,28,38718,5,2,0:0:0:0:
72,260,38861,6,0,L|60:168,1,90.0000034332277
96,128,39003,2,0,L|84:219,1,90.0000034332277,8|0,0:0|0:0,0:0:0:0:
72,336,39146,5,0,0:0:0:0:
100,328,39218,1,0,0:0:0:0:
228,132,39361,5,0,0:0:0:0:
200,124,39432,1,0,0:0:0:0:
40,24,39575,5,8,0:0:0:0:
324,12,39718,2,0,P|288:8|244:28,1,60
96,128,39861,6,0,B|136:120|164:92|164:92|200:124|200:124|236:104|236:104|268:124|268:124|316:100|372:120,1,306.000005836487,2|0,0:0|0:0,0:0:0:0:
464,72,40146,5,8,0:0:0:0:
304,224,40289,1,0,0:0:0:0:
492,187,40432,5,2,0:0:0:0:
460,206,40503,1,0,0:0:0:0:
438,236,40575,1,0,0:0:0:0:
430,272,40646,1,0,0:0:0:0:
464,364,40718,6,0,P|428:348|392:352,1,60,8|0,0:0|0:0,0:0:0:0:
312,220,40861,2,0,P|324:252|312:296,1,60
312,384,41003,5,2,0:0:0:0:
160,344,41146,2,0,P|199:341|231:357,1,60
304,224,41289,2,0,P|316:256|304:300,1,60,8|0,0:0|0:0,0:0:0:0:
460,376,41432,2,0,P|424:360|388:364,1,60
312,372,41575,5,2,0:0:0:0:
364,152,41718,1,0,0:0:0:0:
512,272,41861,6,0,B|520:256|538:238|538:238|504:264|424:284,1,155.999992858887,2|0,0:0|0:0,0:0:0:0:
188,336,42003,1,0,0:0:0:0:
244,176,42146,6,0,B|210:149|210:149|236:228,1,120,2|0,0:0|0:0,0:0:0:0:
432,96,42289,2,0,B|465:69|465:69|440:148,1,120,2|0,0:0|0:0,0:0:0:0:
260,44,42432,5,8,0:0:0:0:
430,272,42575,1,0,0:0:0:0:
324,139,42718,5,0,0:0:0:0:
364,152,42789,1,0,0:0:0:0:
338,166,42861,1,0,0:0:0:0:
351,125,42932,1,0,0:0:0:0:
268,48,43003,6,0,P|232:32|192:36,1,60,8|0,0:0|0:0,0:0:0:0:
4,132,43146,2,0,P|41:119|80:126,1,60
156,196,43289,5,2,0:0:0:0:
20,348,43432,6,0,B|64:364|64:364|111:335,1,90.0000034332277
112,308,43575,2,0,B|68:292|68:292|20:320,1,90.0000034332277,8|0,0:0|0:0,0:0:0:0:
248,264,43718,5,0,0:0:0:0:
220,272,43789,1,0,0:0:0:0:
44,208,43932,5,0,0:0:0:0:
72,216,44003,1,0,0:0:0:0:
200,376,44146,5,2,0:0:0:0:
348,296,44289,1,2,0:0:0:0:
492,380,44432,6,0,B|464:336|464:336|496:228,1,150,2|0,0:0|0:0,0:0:0:0:
468,124,44718,1,2,0:0:0:0:
356,284,44861,1,2,0:0:0:0:
200,112,45003,5,6,0:0:0:0:
219,100,45075,1,0,0:0:0:0:
240,94,45146,1,0,0:0:0:0:
263,94,45218,1,0,0:0:0:0:
312,36,45289,6,0,B|340:80|340:80|308:188,1,150,2|0,0:0|0:0,0:0:0:0:
156,284,45575,6,0,B|236:276|236:276|228:280|228:280|332:268,1,180,2|0,0:0|0:0,0:0:0:0:
72,220,45861,2,0,P|42:261|60:332,1,120,8|0,0:0|0:0,0:0:0:0:
318,269,46146,5,2,0:0:0:0:
160,236,46289,2,0,L|232:252,1,60
418,272,46432,6,0,B|466:320|466:320|400:336,1,135.000005149841,8|0,0:0|0:3,0:3:0:0:
264,168,46718,6,0,B|168:92|256:8|256:8|332:72|296:132|296:132|384:172|364:100|468:144,1,486.000001853943,6|0,0:0|0:0,0:0:0:0:
512,204,47003,5,8,0:0:0:0:
400,335,47146,2,0,P|352:364|303:359,1,102.000001945496
160,236,47289,5,2,0:0:0:0:
124,228,47361,1,0,0:0:0:0:
60,276,47432,1,0,0:0:0:0:
24,284,47503,1,0,0:0:0:0:
56,188,47575,6,0,P|56:153|74:118,1,60,8|0,0:0|0:0,0:0:0:0:
124,320,47718,2,0,P|140:349|142:389,1,60
310,273,47861,5,2,0:0:0:0:
472,360,48003,2,0,P|419:339|372:351,1,102.000001945496
512,204,48146,1,8,0:0:0:0:
399,28,48289,5,0,0:0:0:0:
416,55,48361,1,0,0:0:0:0:
442,134,48432,6,0,L|330:122,2,90.0000034332277,2|0|0,0:0|0:0|0:0,0:0:0:0:
396,240,48646,5,2,0:0:0:0:
413,212,48718,1,2,0:0:0:0:
256,116,48861,1,2,0:0:0:0:
301,332,49003,6,0,P|315:323|338:317,1,24
321,320,49146,6,0,L|213:328,1,90.0000034332277,2|0,0:0|0:0,0:0:0:0:
55,229,49289,6,0,P|40:219|18:211,1,30,8|0,0:0|0:0,0:0:0:0:
30,215,49432,6,0,L|137:229,1,102.000001945496,2|0,0:0|0:0,0:0:0:0:
296,80,49575,5,2,0:0:0:0:
259,86,49646,1,0,0:0:0:0:
222,93,49718,1,0,0:0:0:0:
185,99,49789,1,0,0:0:0:0:
88,36,49861,6,0,L|100:108,1,60,8|0,0:0|0:0,0:0:0:0:
24,224,50003,2,0,L|30:151,1,60
232,264,50146,6,0,P|284:240|356:248,1,120,2|0,0:0|0:0,0:0:0:0:
488,360,50432,1,8,0:0:0:0:
488,284,50503,1,0,0:0:0:0:
488,204,50575,1,0,0:0:0:0:
300,340,50718,5,2,0:0:0:0:
512,384,50861,1,0,0:0:0:0:
360,228,51003,6,0,B|282:206|282:206|200:260,1,155.999992858887,12|0,0:0|0:0,0:0:0:0:
61,355,51146,1,0,0:0:0:0:
100,152,51289,6,0,B|146:172|146:172|227:118|227:118|227:74,1,192,8|0,0:0|0:0,0:0:0:0:
219,247,51575,6,0,P|199:287|203:343,1,75,8|0,0:0|0:0,0:0:0:0:
100,152,51718,2,0,P|95:114|77:82,1,75
312,124,51861,1,8,0:0:0:0:
196,316,52003,1,0,0:0:0:0:
372,332,52146,5,8,0:0:0:0:
436,292,52218,1,8,0:0:0:0:
512,284,52289,1,8,0:0:0:0:
440,312,52361,1,8,0:0:0:0:
368,296,52432,6,0,P|333:344|371:332,1,150,8|0,0:0|0:0,0:0:0:0:
224,384,52718,2,0,P|220:341|205:308,1,75,8|0,0:0|0:0,0:0:0:0:
312,124,52861,2,0,P|299:165|302:201,1,75
372,332,53003,1,8,0:0:0:0:
120,256,53146,1,0,0:0:0:0:
284,288,53289,5,2,0:0:0:0:
248,296,53361,1,2,0:0:0:0:
212,304,53432,1,0,0:0:0:0:
428,176,53575,5,4,0:0:0:0:
325,38,53718,5,0,2:0:0:0:
316,84,53789,2,0,P|257:47|325:37,2,180.000006866455,0|0|0,2:0|2:0|2:0,2:0:0:0:
476,88,54003,5,2,0:0:0:0:
112,24,54146,1,2,0:0:0:0:
28,376,54432,5,2,0:0:0:0:
384,316,54575,1,2,0:0:0:0:
256,192,54718,12,2,55432,0:0:0:0:
140,80,55575,5,2,0:0:0:0:
160,76,55646,1,2,0:0:0:0:
184,72,55718,1,2,0:0:0:0:
204,68,55789,1,2,0:0:0:0:
280,96,55861,6,0,P|279:130|253:188,1,75,6|0,0:0|0:0,0:0:0:0:
476,68,56003,2,0,P|487:100|531:146,1,75,2|0,0:0|0:0,0:0:0:0:
400,216,56146,2,0,P|388:180|388:143,1,75,8|0,0:0|0:0,0:0:0:0:
232,240,56289,1,6,0:0:0:0:
464,344,56432,6,0,P|456:364|456:396,1,41.9999987182618,2|0,0:0|0:0,0:0:0:0:
473,328,56503,2,0,P|490:340|521:349,1,41.9999987182618,2|0,0:0|0:0,0:0:0:0:
479,313,56575,2,0,P|457:310|426:318,1,41.9999987182618,2|0,0:0|0:0,0:0:0:0:
272,336,56718,6,0,B|237:326|200:352|200:352|183:310|137:297,1,150,8|0,0:0|0:0,0:0:0:0:
280,96,57003,1,2,0:0:0:0:
188,48,57146,6,0,P|210:18|264:0,1,75
376,52,57289,2,0,P|390:86|379:141,1,75,8|0,0:0|0:0,0:0:0:0:
216,176,57432,5,0,0:0:0:0:
216,176,57503,1,0,0:0:0:0:
216,176,57575,2,0,P|252:200|296:205,1,83.9999974365235,2|0,0:0|0:0,0:0:0:0:
467,133,57718,2,0,P|425:118|381:125,1,83.9999974365235
318,291,57861,1,8,0:0:0:0:
512,56,58003,1,0,0:0:0:0:
440,295,58146,6,0,B|455:260|490:248|490:248|454:224|393:212|325:248|305:319,1,270.000010299683,2|0,0:0|0:0,0:0:0:0:
80,336,58432,6,0,B|133:280|133:280|221:319,1,150,8|0,0:0|0:0,0:0:0:0:
72,132,58718,6,0,L|92:176,1,41.9999987182618,2|0,0:0|0:0,0:0:0:0:
66,148,58789,2,0,L|96:185,1,41.9999987182618,2|0,0:0|0:0,0:0:0:0:
60,165,58861,2,0,L|99:193,1,41.9999987182618,2|0,0:0|0:0,0:0:0:0:
308,160,59003,6,0,B|254:215|254:215|166:176,1,150,8|0,0:0|0:0,0:0:0:0:
272,384,59289,1,2,0:0:0:0:
80,336,59432,6,0,L|60:292,1,41.9999987182618
86,320,59575,2,0,L|55:282,1,41.9999987182618,8|0,0:0|0:0,0:0:0:0:
92,303,59718,2,0,L|52:274,1,41.9999987182618
319,291,59861,6,0,P|352:276|336:304,1,83.9999974365235,2|0,0:0|0:0,0:0:0:0:
467,133,60003,2,0,P|434:118|450:146,1,83.9999974365235
249,149,60146,6,0,B|216:109|216:109|317:165,1,155.999992858887,8|0,0:0|0:0,0:0:0:0:
512,280,60289,1,0,0:0:0:0:
256,328,60432,5,2,0:0:0:0:
240,296,60503,2,0,P|276:300|316:349,1,75,2|0,0:0|0:0,0:0:0:0:
493,249,60646,5,2,0:0:0:0:
512,280,60717,2,0,P|475:278|430:233,1,75,2|0,0:0|0:0,0:0:0:0:
307,159,60861,1,0,0:0:0:0:
468,44,61003,6,0,B|448:30|448:30|441:4,1,41.9999987182618,2|0,0:0|0:0,0:0:0:0:
451,45,61075,2,0,B|448:70|448:70|429:89,1,41.9999987182618,2|0,0:0|0:0,0:0:0:0:
436,49,61146,2,0,P|409:45|384:60,1,41.9999987182618,2|0,0:0|0:0,0:0:0:0:
157,175,61289,6,0,L|330:156,1,150,8|0,0:0|0:0,0:0:0:0:
104,360,61575,1,2,0:0:0:0:
144,248,61718,6,0,P|158:273|214:313,1,75
8,352,61861,2,0,P|18:324|12:256,1,75,8|0,0:0|0:0,0:0:0:0:
144,104,62003,5,0,0:0:0:0:
144,104,62075,1,0,0:0:0:0:
144,104,62146,2,0,P|158:78|214:38,1,83.9999974365235,2|0,0:0|0:0,0:0:0:0:
8,0,62289,2,0,P|18:27|12:95,1,83.9999974365235
19,279,62432,1,8,0:0:0:0:
260,348,62575,1,0,0:0:0:0:
492,256,62718,6,0,P|456:256|404:288,1,75,2|0,0:0|0:0,0:0:0:0:
260,368,62861,1,0,0:0:0:0:
332,196,63003,5,2,0:0:0:0:
261,157,63099,5,2,0:0:0:0:
238,234,63194,5,2,0:0:0:0:
309,272,63289,5,2,0:0:0:0:
273,259,63361,1,0,0:0:0:0:
248,232,63432,1,0,0:0:0:0:
228,262,63503,1,0,0:0:0:0:
197,283,63575,1,2,0:0:0:0:
376,128,63718,1,2,0:0:0:0:
24,144,63861,6,0,B|139:133|139:133|172:147|172:147|308:135,1,270.000010299683,2|0,0:0|0:0,0:0:0:0:
112,248,64146,6,0,P|68:252|40:268,1,60,8|0,0:0|0:0,0:0:0:0:
208,36,64289,2,0,P|251:43|282:35,1,60
284,232,64432,6,0,B|271:267|271:267|237:241,1,75,2|0,0:0|0:0,0:0:0:0:
56,56,64575,6,0,B|71:13|71:13|111:44,1,90.0000034332277
72,282,64718,6,0,P|59:228|111:247,1,135.000005149841,12|0,0:0|0:0,0:0:0:0:
140,332,65003,6,0,P|147:320|171:314,3,22.5000008583069
224,344,65146,2,0,P|218:353|217:364,3,22.5000008583069
296,364,65289,6,0,B|328:344|328:344|370:355,1,75,12|0,0:0|0:0,0:0:0:0:
512,300,65432,2,0,B|480:320|480:320|443:310,1,75,4|0,0:0|0:0,0:0:0:0:
280,240,65575,6,0,B|297:225|297:225|336:230,1,48,2|0,0:0|0:0,0:0:0:0:
332,185,65646,2,0,B|337:206|337:206|314:239,1,48
353,258,65718,2,0,B|331:250|331:250|317:213,1,48
140,332,65861,5,8,0:0:0:0:
96,160,66003,1,0,0:0:0:0:
56,98,66146,5,2,0:0:0:0:
179,270,66289,1,0,0:0:0:0:
160,200,66432,5,8,0:0:0:0:
96,32,66575,1,0,0:0:0:0:
29,292,66718,6,0,P|35:265|23:229,1,48,2|0,0:0|0:0,0:0:0:0:
103,280,66789,2,0,P|116:300|120:323,1,48
179,270,66861,2,0,L|240:264,1,48
484,164,67003,6,0,B|522:211|522:211|504:306,1,150,8|0,0:0|0:0,0:0:0:0:
292,316,67289,6,0,P|340:292|380:296,1,83.9999974365235,2|0,0:0|0:0,0:0:0:0:
416,232,67432,2,0,P|384:259|343:268,1,83.9999974365235
232,384,67575,6,0,B|193:336|193:336|210:249,1,150,8|0,0:0|0:0,0:0:0:0:
483,92,67861,6,0,P|477:119|489:155,1,48,2|0,0:0|0:0,0:0:0:0:
409,104,67932,2,0,P|396:84|392:61,1,48
333,114,68003,2,0,L|272:120,1,48
72,136,68146,5,8,0:0:0:0:
160,292,68289,1,0,0:0:0:0:
132,364,68432,5,2,0:0:0:0:
100,64,68575,1,0,0:0:0:0:
175,199,68718,6,0,B|135:204|135:204|110:224|110:224|80:212|80:212|41:218,2,143.999995605469,8|0|0,0:0|0:0|0:0,0:0:0:0:
284,320,69003,6,0,B|276:276|300:224|300:224|268:132|268:132|292:76|280:28,1,288,2|0,0:0|0:0,0:0:0:0:
512,160,69289,6,0,B|473:155|473:155|443:167|443:167|417:147|417:147|377:142,1,143.999995605469,8|0,0:0|0:0,0:0:0:0:
184,68,69432,1,0,0:0:0:0:
393,262,69575,6,0,P|432:299|378:290,1,143.999995605469,8|0,0:0|0:0,0:0:0:0:
379,290,69789,6,0,P|436:300|393:261,1,155.999992858887,8|0,0:0|0:0,0:0:0:0:
392,263,70003,6,0,P|439:303|378:291,1,167.999994873047,8|0,0:0|0:0,0:0:0:0:
378,291,70218,6,0,P|442:304|391:262,1,180.000006866455,8|0,0:0|0:0,0:0:0:0:
393,261,70432,6,0,P|447:305|378:291,1,192,8|0,0:0|0:0,0:0:0:0:
171,97,70718,6,0,P|128:63|183:67,1,143.999995605469,8|0,0:0|0:0,0:0:0:0:
183,68,70932,6,0,P|125:63|171:98,1,155.999992858887,8|0,0:0|0:0,0:0:0:0:
172,96,71146,6,0,P|121:60|183:66,1,167.999994873047,8|0,0:0|0:0,0:0:0:0:
183,67,71361,6,0,P|118:59|172:97,1,180.000006866455,8|0,0:0|0:0,0:0:0:0:
171,98,71575,6,0,P|113:58|183:66,1,192,8|0,0:0|0:0,0:0:0:0:
124,244,71861,6,0,B|183:242|227:206|227:206|199:230|192:274,1,180.000006866455,8|0,0:0|0:0,0:0:0:0:
476,216,72075,2,0,B|416:224|368:194|368:194|399:214|413:257,1,180.000006866455,8|0,0:0|0:0,0:0:0:0:
306,287,72289,1,8,0:0:0:0:
512,376,72432,6,0,B|472:343|481:298|481:298|465:339|409:350,1,180.000006866455,8|0,0:0|0:0,0:0:0:0:
384,80,72646,2,0,B|439:91|455:132|455:132|446:87|486:54,1,180.000006866455,8|0,0:0|0:0,0:0:0:0:
476,216,72861,1,8,0:0:0:0:
160,352,73003,5,2,0:0:0:0:
104,308,73075,2,0,P|92:328|88:348,4,30
36,280,73289,2,0,P|40:252|20:200,1,60,8|0,0:0|0:0,0:0:0:0:
144,68,73432,5,0,0:0:0:0:
172,78,73503,1,0,0:0:0:0:
200,89,73575,1,8,0:0:0:0:
177,107,73718,5,0,0:0:0:0:
148,97,73789,1,0,0:0:0:0:
153,126,73932,5,0,0:0:0:0:
416,0,74146,5,6,0:0:0:0:
256,100,78718,6,0,B|241:66|255:37|255:37|207:48|190:115|220:149|264:196|264:196|229:186|229:186|299:223|290:294|254:348,1,480
20,132,83289,6,0,B|-16:168|-4:216|-4:216|40:208|76:240|76:240|128:196|216:224|216:224|244:320|176:376,1,480,2|2,0:0|0:0,0:0:0:0:
8,304,83718,1,0,0:0:0:0:
416,252,83861,5,6,0:0:0:0:
289,158,84146,1,2,0:0:0:0:
383,33,84432,1,2,0:0:0:0:
508,127,84646,5,2,0:0:0:0:
508,127,84718,1,2,0:0:0:0:
416,252,84861,1,0,0:0:0:0:
383,33,85003,1,2,0:0:0:0:
416,252,85289,1,2,0:0:0:0:
186,366,85575,5,2,0:0:0:0:
8,304,85789,1,2,0:0:0:0:
8,304,85861,1,2,0:0:0:0:
108,120,86003,1,0,0:0:0:0:
128,260,86146,5,6,0:0:0:0:
28,28,86432,1,2,0:0:0:0:
108,120,86575,1,0,0:0:0:0:
8,304,86718,5,2,0:0:0:0:
186,366,86932,1,2,0:0:0:0:
186,366,87003,1,2,0:0:0:0:
240,184,87146,1,0,0:0:0:0:
368,320,87289,5,2,0:0:0:0:
304,24,87575,1,2,0:0:0:0:
408,208,87861,6,0,P|437:199|466:204,3,60,10|0|0|0,0:0|0:0|0:0|0:0,0:0:0:0:
378,116,88146,2,0,P|407:108|430:89,3,60,10|0|0|0,0:0|0:0|0:0|0:0,0:0:0:0:
502,236,88432,6,0,P|477:221|447:219,3,60,10|0|0|0,0:0|0:0|0:0|0:0,0:0:0:0:
446,43,88718,2,0,P|434:66|395:88,3,60,10|0|0|0,0:0|0:0|0:0|0:0,0:0:0:0:
316,188,89003,5,10,0:0:0:0:
287,178,89075,1,0,0:0:0:0:
257,174,89146,1,0,0:0:0:0:
228,179,89218,1,0,0:0:0:0:
201,193,89289,1,10,0:0:0:0:
175,207,89361,1,0,0:0:0:0:
145,211,89432,1,0,0:0:0:0:
116,206,89503,1,0,0:0:0:0:
87,196,89575,1,10,0:0:0:0:
145,186,89646,1,0,0:0:0:0:
185,142,89718,1,0,0:0:0:0:
189,83,89789,1,0,0:0:0:0:
157,34,89861,1,10,0:0:0:0:
101,14,89932,1,0,0:0:0:0:
45,33,90003,1,0,0:0:0:0:
12,82,90075,1,0,0:0:0:0:
16,140,90146,6,0,P|20:176|8:204,1,60,10|0,0:0|0:0,0:0:0:0:
68,356,90289,2,0,P|58:327|63:298,1,60,2|0,0:0|0:0,0:0:0:0:
104,104,90432,6,0,P|119:138|117:175,1,75,10|0,0:0|0:0,0:0:0:0:
152,364,90575,2,0,P|149:325|164:290,1,75,2|0,0:0|0:0,0:0:0:0:
188,52,90718,6,0,P|211:80|219:117,1,75,10|0,0:0|0:0,0:0:0:0:
240,384,90861,2,0,P|249:339|277:304,1,90.0000034332277,2|0,0:0|0:0,0:0:0:0:
320,92,91003,6,0,P|328:76|328:36,2,52.500000500679,10|0|0,0:0|0:0|0:0,0:0:0:0:
424,224,91146,2,0,P|416:240|416:280,2,52.500000500679,10|0|0,0:0|0:0|0:0,0:0:0:0:
368,160,91289,5,2,0:0:0:0:
256,192,91432,12,0,92289,0:0:0:0:
32,172,92432,6,0,B|72:192|124:156|124:156|96:244|108:272|172:316|172:316|144:156|276:220|204:32,1,569.999984779358,6|0,0:0|0:0,0:0:0:0:
60,84,92861,5,2,0:0:0:0:
172,316,93003,1,2,0:0:0:0:
408,88,93146,5,2,0:0:0:0:
404,123,93218,1,2,0:0:0:0:
312,280,93361,5,2,0:0:0:0:
316,245,93432,1,2,0:0:0:0:
488,184,93575,5,2,0:0:0:0:
460,205,93646,1,2,0:0:0:0:
232,184,93789,5,2,0:0:0:0:
260,163,93861,1,2,0:0:0:0:
504,300,94003,5,2,0:0:0:0:
469,295,94075,1,2,0:0:0:0:
216,68,94218,5,2,0:0:0:0:
251,73,94289,1,2,0:0:0:0:
160,164,94432,6,0,B|109:140|95:103|95:103|93:156|53:184,1,180
20,268,94718,6,0,B|61:281|110:245|110:245|120:276|103:314|103:314|155:254|237:284|237:284|217:342|269:398|269:398|320:328|392:356,1,569.999984779358,6|0,0:0|0:0,0:0:0:0:
464,364,95146,5,2,0:0:0:0:
464,364,95218,1,2,0:0:0:0:
464,364,95289,1,2,0:0:0:0:
368,172,95432,5,2,0:0:0:0:
332,168,95503,1,2,0:0:0:0:
144,172,95646,5,2,0:0:0:0:
180,168,95718,1,2,0:0:0:0:
392,264,95861,5,2,0:0:0:0:
357,253,95932,1,2,0:0:0:0:
120,264,96075,5,2,0:0:0:0:
155,253,96146,1,2,0:0:0:0:
440,92,96289,5,2,0:0:0:0:
403,98,96361,1,2,0:0:0:0:
72,92,96503,5,2,0:0:0:0:
109,98,96575,1,2,0:0:0:0:
264,180,96718,6,0,B|256:148|272:120|272:120|224:168|264:228,1,174.000005310059,8|0,0:0|0:0,0:0:0:0:
400,344,96861,1,0,0:0:0:0:
172,384,97003,6,0,B|108:392|76:316|108:252|200:240|256:288|248:356|308:384|308:384|284:292|368:256|340:168,1,569.999984779358,6|0,0:0|0:0,0:0:0:0:
320,68,97432,5,2,0:0:0:0:
412,344,97575,1,2,0:0:0:0:
181,175,97718,5,2,0:0:0:0:
144,172,97789,1,2,0:0:0:0:
320,68,97932,5,2,0:0:0:0:
357,65,98003,1,2,0:0:0:0:
108,160,98146,5,2,0:0:0:0:
71,157,98218,1,2,0:0:0:0:
393,53,98361,5,2,0:0:0:0:
430,50,98432,1,2,0:0:0:0:
40,140,98575,5,2,0:0:0:0:
3,137,98646,1,2,0:0:0:0:
464,32,98789,5,2,0:0:0:0:
501,29,98861,1,2,0:0:0:0:
244,80,99003,6,0,B|221:102|221:102|206:41|206:41|244:1|244:1|257:39,1,180
320,68,99289,6,0,B|284:60|244:80|244:80|204:44|204:44|148:100|57:60|57:60|128:148|28:216|96:248|96:248|76:204|104:164,1,569.999984779358,6|0,0:0|0:0,0:0:0:0:
176,216,99718,5,2,0:0:0:0:
176,216,99789,1,2,0:0:0:0:
176,216,99861,1,2,0:0:0:0:
44,356,100003,5,2,0:0:0:0:
80,348,100075,1,2,0:0:0:0:
168,224,100218,5,2,0:0:0:0:
204,232,100289,1,2,0:0:0:0:
264,344,100432,5,2,0:0:0:0:
292,340,100503,1,2,0:0:0:0:
368,256,100646,5,2,0:0:0:0:
392,260,100718,1,2,0:0:0:0:
476,312,100861,5,2,0:0:0:0:
491,311,100932,1,2,0:0:0:0:
408,376,101003,6,0,B|348:336|348:336|200:384,1,204.000003890991,8|0,0:0|0:0,0:0:0:0:
44,272,101289,6,0,B|128:264|128:264|112:272|112:272|204:264,1,180
416,160,101575,6,0,B|448:140|492:152|492:152|464:128|348:92|384:220|244:184|244:184|288:220|336:220|336:220|284:280|312:360,1,569.999984779358,6|0,0:0|0:0,0:0:0:0:
456,244,102003,5,2,0:0:0:0:
500,0,102146,1,2,0:0:0:0:
284,36,102289,5,2,0:0:0:0:
248,28,102361,1,2,0:0:0:0:
100,132,102503,5,2,0:0:0:0:
136,124,102575,1,2,0:0:0:0:
308,116,102718,5,2,0:0:0:0:
271,120,102789,1,2,0:0:0:0:
76,212,102932,5,2,0:0:0:0:
113,216,103003,1,2,0:0:0:0:
356,184,103146,5,2,0:0:0:0:
322,200,103218,1,2,0:0:0:0:
28,280,103361,5,2,0:0:0:0:
62,296,103432,1,2,0:0:0:0:
252,368,103575,6,0,B|204:356|187:307|187:307|185:360|145:388,1,180
320,284,103861,6,0,B|388:276|424:348|424:348|356:124|512:228|496:56|440:28|440:28|464:80|428:128,1,569.999984779358,6|0,0:0|0:0,0:0:0:0:
352,68,104289,5,2,0:0:0:0:
352,68,104361,1,2,0:0:0:0:
352,68,104432,1,2,0:0:0:0:
44,112,104575,5,2,0:0:0:0:
80,120,104646,1,2,0:0:0:0:
228,192,104789,5,2,0:0:0:0:
264,184,104861,1,2,0:0:0:0:
16,208,105003,5,2,0:0:0:0:
52,206,105075,1,2,0:0:0:0:
300,176,105218,5,2,0:0:0:0:
336,168,105289,1,2,0:0:0:0:
48,296,105432,5,2,0:0:0:0:
82,284,105503,1,2,0:0:0:0:
372,160,105646,5,2,0:0:0:0:
408,152,105718,1,2,0:0:0:0:
116,100,105861,5,0,0:0:0:0:
124,120,105932,1,0,0:0:0:0:
152,212,106003,5,0,0:0:0:0:
160,192,106074,1,0,0:0:0:0:
208,124,106146,6,0,B|168:104|124:120|124:120|156:72|240:64|320:76|380:184|336:272|292:312|292:312|304:256|276:216,1,569.999984779358,6|0,0:0|0:0,0:0:0:0:
264,384,106575,5,2,0:0:0:0:
160,192,106718,1,0,0:0:0:0:
36,120,106861,5,2,0:0:0:0:
52,152,106932,1,2,0:0:0:0:
36,264,107075,5,2,0:0:0:0:
52,232,107146,1,2,0:0:0:0:
100,68,107289,5,2,0:0:0:0:
116,100,107361,1,2,0:0:0:0:
100,316,107503,5,2,0:0:0:0:
116,284,107575,1,2,0:0:0:0:
168,16,107718,5,2,0:0:0:0:
184,48,107789,1,2,0:0:0:0:
168,368,107932,5,2,0:0:0:0:
184,336,108003,1,2,0:0:0:0:
404,180,108146,5,2,0:0:0:0:
382,211,108218,1,2,0:0:0:0:
346,199,108289,1,2,0:0:0:0:
346,161,108361,1,2,0:0:0:0:
382,150,108432,1,8,0:0:0:0:
398,335,108575,5,8,0:0:0:0:
350,47,108718,1,8,0:0:0:0:
338,195,108861,5,10,0:0:0:0:
374,187,108932,1,10,0:0:0:0:
410,179,109003,1,8,0:0:0:0:
254,103,109146,5,8,0:0:0:0:
290,119,109218,1,8,0:0:0:0:
490,275,109361,5,8,0:0:0:0:
454,259,109432,1,8,0:0:0:0:
186,347,109575,6,0,B|226:319|268:328|268:328|290:359|328:368,2,162.000000617981
111,221,109861,6,0,B|150:222|150:222|192:198,1,75
241,218,110003,2,0,B|201:216|201:216|159:240,1,75
53,363,110146,6,0,P|64:285|12:344,1,210.000002002716
12,344,110432,1,0,0:0:0:0:
448,152,110718,6,0,B|480:102|450:45|450:45|534:64|542:176|454:177|416:235|476:316|452:356|452:356|432:292|384:256|348:256,1,600,4|0,0:0|0:0,0:0:0:0:
372,96,111146,5,4,0:0:0:0:
452,356,111289,1,8,0:0:0:0:
96,244,111432,5,0,0:0:0:0:
60,248,111503,2,0,P|96:228|152:236,1,75,0|2,0:0|0:0,0:0:0:0:
312,164,111646,5,0,0:0:0:0:
348,168,111717,2,0,P|312:148|256:156,1,75
98,123,111861,5,0,0:0:0:0:
63,110,111932,2,0,P|104:107|151:138,1,75
309,43,112075,5,0,0:0:0:0:
344,30,112146,2,0,P|302:27|255:58,1,75,2|0,0:0|0:0,0:0:0:0:
132,348,112289,5,0,0:0:0:0:
97,360,112360,2,0,P|126:331|182:324,1,75,0|8,0:0|0:0,0:0:0:0:
320,272,112503,5,0,0:0:0:0:
355,280,112574,2,0,P|323:254|266:252,1,75
476,352,112718,6,0,P|452:268|492:176,1,180
412,52,113003,6,0,B|372:85|372:152|372:152|330:99|272:92|272:92|256:160|204:180|140:156|104:128|100:68|128:-8|184:-4|244:8,1,569.999984779358,6|0,0:0|0:0,0:0:0:0:
280,100,113432,5,2,0:0:0:0:
280,100,113503,1,2,0:0:0:0:
280,100,113575,2,0,P|300:144|288:192,1,75,8|0,0:0|0:0,0:0:0:0:
136,192,113718,5,0,0:0:0:0:
164,168,113789,2,0,P|120:188|72:176,1,75,0|2,0:0|0:0,0:0:0:0:
52,360,113932,5,0,0:0:0:0:
24,384,114003,2,0,P|68:364|116:376,1,75
228,288,114146,5,0,0:0:0:0:
256,312,114217,2,0,P|212:292|164:304,1,75
48,112,114361,5,0,0:0:0:0:
20,88,114432,2,0,P|64:108|112:96,1,75,2|0,0:0|0:0,0:0:0:0:
168,32,114575,5,0,0:0:0:0:
196,8,114646,2,0,P|152:28|104:16,1,75,0|8,0:0|0:0,0:0:0:0:
28,254,114789,5,0,0:0:0:0:
0,278,114860,2,0,P|44:258|92:270,1,75
292,352,115003,6,0,P|355:381|425:364,1,138.000002632141
512,128,115146,1,0,0:0:0:0:
420,368,115289,6,0,B|436:301|401:245|401:245|436:297|492:297|492:297|521:256|493:209|493:209|425:183|417:127|429:63|478:42|478:42|465:65|471:97,1,569.999984779358,6|0,0:0|0:0,0:0:0:0:
308,116,115718,5,0,0:0:0:0:
500,380,115861,1,8,0:0:0:0:
324,304,116003,6,0,P|278:286|223:299,1,90.0000034332277
166,119,116146,2,0,P|173:167|212:208,1,90.0000034332277,2|0,0:0|0:0,0:0:0:0:
87,348,116289,6,0,P|122:322|140:281,1,90.0000034332277
31,287,116575,6,0,P|85:269|141:280,1,113.999996955872
281,148,116718,5,2,0:0:0:0:
272,106,116789,1,0,0:0:0:0:
256,132,116861,1,0,0:0:0:0:
297,123,116932,1,0,0:0:0:0:
436,88,117003,5,8,0:0:0:0:
445,46,117074,1,0,0:0:0:0:
461,72,117146,1,0,0:0:0:0:
420,63,117217,1,0,0:0:0:0:
312,20,117289,6,0,P|256:12|204:40,1,102.000001945496
92,144,117432,2,0,P|53:176|3:183,1,102.000001945496
15,59,117575,6,0,B|71:75|129:59|129:59|170:111|170:111|243:103|289:126,1,300,2|0,0:0|0:0,0:0:0:0:
452,316,118003,6,0,P|445:265|463:231,1,83.9999974365235,4|0,0:0|0:3,0:3:0:0:
461,72,118146,2,0,P|488:115|486:153,1,83.9999974365235,8|0,0:0|0:0,0:0:0:0:
336,208,118289,6,0,P|302:221|242:203,1,75
120,316,118432,2,0,P|85:301|48:304,1,75,2|0,0:0|0:0,0:0:0:0:
236,368,118575,2,0,L|233:281,1,75
456,352,118718,6,0,P|478:232|397:321,1,323.999990112305
456,352,119003,2,0,P|478:232|397:321,1,323.999990112305
213,295,119289,5,8,0:0:0:0:
160,28,119432,2,0,L|174:99,1,53.9999983520508
264,216,119575,2,0,B|192:180|192:180|128:248,1,161.999995056153
132,216,119861,6,0,B|187:156|187:156|259:192,1,161.999995056153,2|0,0:0|0:0,0:0:0:0:
72,384,120432,1,8,0:0:0:0:
461,72,120718,5,0,0:0:0:0:
461,72,120789,1,0,0:0:0:0:
461,72,120861,2,0,L|448:176,1,75
324,336,121003,5,0,0:0:0:0:
332,372,121075,2,0,L|345:268,1,75
459,110,121218,5,0,0:0:0:0:
451,146,121289,2,0,L|438:42,1,75,2|0,0:0|0:0,0:0:0:0:
300,184,121432,5,0,0:0:0:0:
264,176,121504,2,0,L|368:163,1,75,0|8,0:0|0:0,0:0:0:0:
476,316,121646,5,0,0:0:0:0:
512,308,121718,2,0,L|408:295,1,75
158,369,121861,6,0,B|219:358|219:358|275:380|275:380|343:369,1,180
437,298,122146,6,0,B|464:332|463:372|463:372|561:254|443:265|483:136|483:136|436:184|376:184|376:184|325:155|264:176,1,569.999984779358,6|0,0:0|0:0,0:0:0:0:
24,260,122575,5,0,0:0:0:0:
24,260,122646,1,0,0:0:0:0:
24,260,122718,2,0,L|114:273,1,75,8|0,0:0|0:0,0:0:0:0:
263,176,122861,5,0,0:0:0:0:
300,172,122932,2,0,L|225:182,1,75,0|2,0:0|0:0,0:0:0:0:
80,108,123075,5,0,0:0:0:0:
45,94,123146,2,0,L|113:123,1,75
332,320,123289,5,0,0:0:0:0:
312,352,123361,2,0,P|320:304|304:264,1,75
200,36,123503,5,0,0:0:0:0:
220,4,123575,2,0,P|212:52|228:92,1,75,2|0,0:0|0:0,0:0:0:0:
196,324,123718,5,0,0:0:0:0:
159,328,123789,2,0,L|233:317,1,75,0|8,0:0|0:0,0:0:0:0:
415,270,123932,5,0,0:0:0:0:
437,298,124004,2,0,P|425:250|438:209,1,75
440,44,124146,6,0,B|458:29|459:13|459:13|468:52|436:80|436:80|456:112|452:148,1,174.000005310059
464,372,124289,1,0,0:0:0:0:
159,328,124432,6,0,B|148:304|132:288|96:272|96:272|232:324|200:236|324:304,1,306.000005836487,6|0,0:0|0:0,0:0:0:0:
16,384,124718,6,0,P|31:340|21:304,1,75,8|0,0:0|0:0,0:0:0:0:
12,128,124861,1,0,0:0:0:0:
168,196,125003,1,2,0:0:0:0:
116,20,125146,6,0,P|104:60|116:104,1,75
12,128,125289,2,0,P|18:169|47:204,1,75,8|0,0:0|0:0,0:0:0:0:
248,52,125432,2,0,P|224:81|217:117,1,75
248,364,125575,5,2,0:0:0:0:
512,256,125861,5,8,0:0:0:0:
248,364,126003,1,0,0:0:0:0:
344,120,126146,1,2,0:0:0:0:
376,284,126289,6,0,L|356:184,1,83.9999974365235
184,60,126432,2,0,L|280:92,1,83.9999974365235,8|0,0:0|0:0,0:0:0:0:
468,8,126575,2,0,L|391:75,1,83.9999974365235
116,212,126718,5,2,0:0:0:0:
96,364,126861,5,0,0:0:0:0:
55,370,126932,1,0,0:0:0:0:
15,376,127003,1,8,0:0:0:0:
116,212,127146,5,0,0:0:0:0:
76,203,127217,1,0,0:0:0:0:
36,195,127288,1,2,0:0:0:0:
96,20,127432,5,0,0:0:0:0:
55,26,127503,1,0,0:0:0:0:
15,32,127574,1,8,0:0:0:0:
36,195,127718,5,0,0:0:0:0:
77,189,127789,1,0,0:0:0:0:
117,183,127861,1,8,0:0:0:0:
148,251,127932,1,0,0:0:0:0:
207,297,128003,1,0,0:0:0:0:
280,311,128075,1,0,0:0:0:0:
352,289,128146,1,8,0:0:0:0:
406,237,128218,1,0,0:0:0:0:
430,166,128289,1,0,0:0:0:0:
418,92,128360,1,0,0:0:0:0:
374,32,128432,5,8,0:0:0:0:
492,328,128646,1,0,0:0:0:0:
492,328,128717,1,0,0:0:0:0:
296,232,128861,1,0,0:0:0:0:
492,120,129003,6,0,P|385:73|434:167,1,288,2|0,0:0|0:0,0:0:0:0:
296,232,129289,1,12,0:0:0:0:
492,328,129432,1,0,0:0:0:0:
228,372,129575,1,2,0:0:0:0:
117,183,129718,5,0,0:0:0:0:
152,172,129789,2,0,P|104:172|64:208,1,75,0|8,0:0|0:0,0:0:0:0:
48,324,129932,5,0,0:0:0:0:
16,304,130003,2,0,L|108:296,1,75
250,249,130146,5,2,0:0:0:0:
285,260,130217,2,0,P|237:260|197:224,1,75
183,87,130361,5,0,0:0:0:0:
151,67,130432,2,0,L|243:75,1,75,8|0,0:0|0:0,0:0:0:0:
392,174,130575,5,0,0:0:0:0:
428,166,130646,2,0,P|380:161|337:194,1,75,0|2,0:0|0:0,0:0:0:0:
236,376,130789,5,0,0:0:0:0:
204,356,130860,2,0,L|296:348,1,75
456,272,131003,6,0,B|424:272|396:256|396:256|344:276|344:276|308:252|264:260,1,180,8|0,0:0|0:0,0:0:0:0:
226,74,131289,6,0,P|360:24|353:173,1,341.999990867615,4|0,0:0|0:0,0:0:0:0:
356,171,131575,1,8,0:0:0:0:
81,185,131718,5,0,0:0:0:0:
44,180,131789,1,0,0:0:0:0:
8,176,131861,1,2,0:0:0:0:
80,308,132003,5,0,0:0:0:0:
117,303,132074,1,0,0:0:0:0:
153,299,132146,2,0,L|136:380,2,75,8|0|0,0:0|0:0|0:0,0:0:0:0:
48,48,132432,6,0,P|128:28|184:64,1,150,2|0,0:0|0:0,0:0:0:0:
181,61,132646,1,0,0:0:0:0:
181,61,132718,1,8,0:0:0:0:
320,283,132861,5,0,0:0:0:0:
336,251,132932,2,0,L|264:271,1,75,0|2,0:0|0:0,0:0:0:0:
36,284,133075,5,0,0:0:0:0:
20,252,133146,2,0,L|92:272,1,75
0,172,133289,6,0,P|56:168|104:148,1,90.0000034332277,8|0,0:0|0:0,0:0:0:0:
356,171,133432,2,0,P|300:167|252:147,1,90.0000034332277
56,72,133575,6,0,B|24:52|-4:72|-4:72|24:92|56:72,1,113.999996955872,2|0,0:0|0:0,0:0:0:0:
300,72,133718,2,0,B|332:52|360:72|360:72|332:92|300:72,1,113.999996955872,2|0,0:0|0:0,0:0:0:0:
176,212,133861,5,8,0:0:0:0:
92,272,134003,2,0,L|7:295,1,83.9999974365235
179,331,134146,5,2,0:0:0:0:
263,271,134289,2,0,L|347:294,1,83.9999974365235
448,159,134432,2,0,L|385:220,1,83.9999974365235,8|0,0:0|0:0,0:0:0:0:
449,376,134575,6,0,L|427:291,1,83.9999974365235,0|2,0:0|0:0,0:0:0:0:
512,76,134861,6,0,B|460:56|460:56|400:72,1,113.999996955872
197,202,135003,5,8,0:0:0:0:
156,212,135075,1,0,0:0:0:0:
181,227,135146,1,0,0:0:0:0:
171,186,135217,1,0,0:0:0:0:
176,80,135289,5,2,0:0:0:0:
186,39,135360,1,0,0:0:0:0:
160,55,135432,1,0,0:0:0:0:
201,65,135503,1,0,0:0:0:0:
302,85,135575,6,0,L|424:68,1,102.000001945496,8|0,0:0|0:0,0:0:0:0:
298,214,135718,2,0,L|196:201,1,102.000001945496
356,360,135861,6,0,P|400:304|520:328,1,180,2|0,0:0|0:0,0:0:0:0:
501,309,136146,1,8,0:0:0:0:
500,120,136289,6,0,P|496:168|508:228,1,83.9999974365235
403,154,136432,2,0,P|407:106|395:46,1,83.9999974365235,2|0,0:0|0:0,0:0:0:0:
196,201,136575,6,0,P|232:185|284:193,1,75
80,272,136718,2,0,P|41:278|-7:256,1,75,8|0,0:0|0:0,0:0:0:0:
180,360,136861,2,0,L|188:276,1,75
52,24,137003,6,0,B|56:84|56:84|44:112|44:112|64:140|64:140|72:208,1,180,2|0,0:0|0:0,0:0:0:0:
80,272,137289,1,8,0:0:0:0:
388,232,137432,5,2,0:0:0:0:
412,300,137503,1,2,0:0:0:0:
364,356,137575,6,0,B|320:368|280:332|280:332|252:368|180:360,1,180,8|0,0:0|0:0,0:0:0:0:
284,216,137861,2,0,P|210:190|208:267,1,180
207,266,138146,6,0,P|163:274|111:258,1,83.9999974365235,8|0,0:0|0:0,0:0:0:0:
107,102,138289,2,0,L|111:194,1,83.9999974365235,2|0,0:0|0:0,0:0:0:0:
412,300,138432,6,0,P|456:308|508:292,1,83.9999974365235,10|0,0:0|0:0,0:0:0:0:
512,136,138575,2,0,L|508:228,1,83.9999974365235,2|0,0:0|0:0,0:0:0:0:
496,384,138718,5,8,0:0:0:0:
321,254,138861,5,0,0:0:0:0:
346,226,138932,2,0,P|312:246|257:254,1,75,0|8,0:0|0:0,0:0:0:0:
20,194,139075,5,0,0:0:0:0:
5,160,139146,2,0,P|28:191|76:219,1,75
413,123,139290,5,2,0:0:0:0:
441,99,139362,2,0,P|427:136|388:176,1,75
167,273,139504,5,0,0:0:0:0:
132,256,139575,2,0,P|169:266|225:259,1,75,8|0,0:0|0:0,0:0:0:0:
472,272,139718,5,0,0:0:0:0:
507,254,139789,2,0,P|469:245|413:254,1,75,0|2,0:0|0:0,0:0:0:0:
40,348,139932,5,0,0:0:0:0:
4,344,140003,2,0,P|36:323|91:312,1,75
272,196,140146,6,0,B|312:240|312:240|292:360,1,180,8|0,0:0|0:0,0:0:0:0:
496,384,140432,6,0,B|464:328|400:328|400:328|364:368|292:360|292:360|252:324|204:332,1,306.000005836487,12|0,0:0|0:0,0:0:0:0:
71,313,140718,1,8,0:0:0:0:
244,104,140861,5,0,0:0:0:0:
216,80,140932,2,0,L|204:156,1,75,0|2,0:0|0:0,0:0:0:0:
3,309,141075,5,0,0:0:0:0:
35,325,141146,1,0,0:0:0:0:
71,313,141218,1,0,0:0:0:0:
103,333,141289,2,0,L|91:257,1,75,8|0,0:0|0:0,0:0:0:0:
40,192,141432,2,0,P|84:172|132:184,1,75
296,36,141575,5,2,0:0:0:0:
340,12,141646,2,0,L|352:88,1,75
484,124,141789,5,2,0:0:0:0:
456,100,141860,2,0,L|444:176,1,75,8|0,0:0|0:0,0:0:0:0:
424,284,142003,5,2,0:0:0:0:
396,308,142075,1,0,0:0:0:0:
368,352,142146,1,8,0:0:0:0:
328,316,142218,1,0,0:0:0:0:
296,300,142289,1,0,0:0:0:0:
352,248,142361,1,2,0:0:0:0:
424,284,142432,6,0,P|466:268|507:272,1,83.9999974365235,8|0,0:0|0:0,0:0:0:0:
296,300,142575,2,0,P|254:319|213:318,1,83.9999974365235,2|0,0:0|0:0,0:0:0:0:
12,332,142718,5,12,0:0:0:0:
248,188,142861,1,2,0:0:0:0:
50,142,143003,5,8,0:0:0:0:
284,184,143146,1,2,0:0:0:0:
53,242,143289,5,8,0:0:0:0:
320,180,143432,1,2,0:0:0:0:
3,55,143575,5,8,0:0:0:0:
356,176,143718,1,2,0:0:0:0:
192,80,143861,6,0,L|288:88,1,71.9999978027344,8|0,0:0|0:0,0:0:0:0:
356,176,144004,2,0,L|269:183,1,71.9999978027344,2|0,0:0|0:0,0:0:0:0:
376,24,144146,6,0,P|360:44|356:108,1,77.9999964294435,8|0,0:0|0:0,0:0:0:0:
512,160,144289,2,0,L|425:167,1,77.9999964294435,2|0,0:0|0:0,0:0:0:0:
192,244,144432,6,0,P|198:219|174:159,1,83.9999974365235,8|0,0:0|0:0,0:0:0:0:
36,68,144575,2,0,L|132:76,1,83.9999974365235,2|0,0:0|0:0,0:0:0:0:
316,360,144718,6,0,P|299:322|260:281,1,90.0000034332277,8|0,0:0|0:0,0:0:0:0:
104,213,144861,2,0,P|60:207|16:216,1,90.0000034332277,2|0,0:0|0:0,0:0:0:0:
95,384,145003,5,8,0:0:0:0:
144,350,145074,1,0,0:0:0:0:
201,334,145145,1,8,0:0:0:0:
261,337,145217,1,0,0:0:0:0:
316,359,145289,1,8,0:0:0:0:
357,316,145360,1,0,0:0:0:0:
377,260,145431,1,8,0:0:0:0:
370,201,145503,1,0,0:0:0:0:
339,150,145575,1,8,0:0:0:0:
321,206,145646,1,0,0:0:0:0:
273,241,145717,1,8,0:0:0:0:
214,239,145789,1,0,0:0:0:0:
167,203,145860,1,8,0:0:0:0:
151,147,145932,1,0,0:0:0:0:
172,92,146003,1,8,0:0:0:0:
222,60,146075,1,0,0:0:0:0:
281,64,146146,5,2,0:0:0:0:
256,192,146289,12,8,147003,0:0:0:0:
452,324,147289,5,6,0:0:0:0:
44,56,156432,5,0,0:0:0:0:
112,20,156575,1,0,0:0:0:0:
184,48,156718,1,0,0:0:0:0:
184,48,156789,1,0,0:0:0:0:
184,48,156861,1,0,0:0:0:0:
264,145,157003,5,0,0:0:0:0:
268,144,157075,1,0,0:0:0:0:
271,142,157146,1,0,0:0:0:0:
424,28,157432,5,0,0:0:0:0:
408,104,157575,2,0,L|416:168,1,60
452,260,157861,5,0,0:0:0:0:
423,263,158003,1,0,0:0:0:0:
388,332,158146,1,0,0:0:0:0:
359,327,158288,1,0,0:0:0:0:
304,268,158432,1,0,0:0:0:0:
275,273,158574,1,0,0:0:0:0:
28,368,158718,5,0,0:0:0:0:
100,340,158861,1,0,0:0:0:0:
176,360,159003,1,0,0:0:0:0:
179,345,159074,1,0,0:0:0:0:
180,330,159145,1,0,0:0:0:0:
178,315,159217,1,0,0:0:0:0:
172,301,159288,1,0,0:0:0:0:
100,332,159432,1,0,0:0:0:0:
32,292,159575,2,0,P|40:260|36:220,1,60
180,112,159861,6,0,P|212:100|260:104,1,60
308,128,160146,1,0,0:0:0:0:
294,50,160289,1,0,0:0:0:0:
221,21,160432,1,0,0:0:0:0:
161,70,160575,1,0,0:0:0:0:
173,147,160718,1,0,0:0:0:0:
246,176,160861,1,0,0:0:0:0:
432,40,161003,5,0,0:0:0:0:
444,116,161146,1,0,0:0:0:0:
456,192,161289,1,0,0:0:0:0:
456,192,161361,1,0,0:0:0:0:
456,192,161432,1,0,0:0:0:0:
468,268,161575,5,0,0:0:0:0:
468,272,161646,1,0,0:0:0:0:
468,276,161718,1,0,0:0:0:0:
352,264,162003,5,0,0:0:0:0:
296,320,162146,2,0,P|268:336|216:332,1,60
96,364,162432,5,0,0:0:0:0:
92,336,162575,1,0,0:0:0:0:
128,268,162718,5,0,0:0:0:0:
132,240,162861,1,0,0:0:0:0:
92,176,163003,5,0,0:0:0:0:
88,148,163146,1,0,0:0:0:0:
224,16,163289,5,0,0:0:0:0:
296,48,163432,1,0,0:0:0:0:
372,32,163575,1,0,0:0:0:0:
385,25,163646,1,0,0:0:0:0:
399,20,163717,1,0,0:0:0:0:
414,18,163789,1,0,0:0:0:0:
429,19,163861,2,0,P|417:47|425:91,1,60
440,152,164146,1,0,0:0:0:0:
440,152,164289,1,0,0:0:0:0:
372,192,164432,5,0,0:0:0:0:
334,260,164575,1,0,0:0:0:0:
402,297,164718,1,0,0:0:0:0:
439,229,164861,1,0,0:0:0:0:
300,344,165003,5,0,0:0:0:0:
240,296,165146,1,0,0:0:0:0:
244,280,165218,1,0,0:0:0:0:
168,280,165289,1,0,0:0:0:0:
164,263,165361,1,0,0:0:0:0:
108,320,165432,1,0,0:0:0:0:
97,306,165504,1,0,0:0:0:0:
56,368,165575,5,0,0:0:0:0:
12,304,165718,1,0,0:0:0:0:
36,232,165861,1,0,0:0:0:0:
36,232,165932,1,0,0:0:0:0:
36,232,166003,1,0,0:0:0:0:
96,144,166146,5,0,0:0:0:0:
96,148,166218,1,0,0:0:0:0:
96,152,166289,1,0,0:0:0:0:
64,380,166575,5,0,0:0:0:0:
120,324,166718,2,0,P|126:286|124:256,1,60
12,112,167003,5,0,0:0:0:0:
0,83,167146,1,0,0:0:0:0:
73,58,167289,1,0,0:0:0:0:
67,27,167432,1,0,0:0:0:0:
144,41,167575,1,0,0:0:0:0:
146,11,167718,1,0,0:0:0:0:
228,108,167861,6,0,P|252:112|284:104,1,30
336,60,168003,2,0,P|350:61|365:66,1,30
460,136,168146,5,0,0:0:0:0:
473,109,168217,1,0,0:0:0:0:
479,80,168288,1,0,0:0:0:0:
478,50,168360,1,0,0:0:0:0:
469,21,168431,1,0,0:0:0:0:
344,144,168575,2,0,P|340:184|364:240,1,90
384,264,168861,1,0,0:0:0:0:
200,252,169003,5,0,0:0:0:0:
100,280,169146,1,0,0:0:0:0:
0,164,169289,5,0,0:0:0:0:
100,192,169432,1,0,0:0:0:0:
232,80,169575,5,0,0:0:0:0:
132,108,169718,1,0,0:0:0:0:
284,168,169861,2,0,P|352:176|396:168,1,90.0000034332277
492,312,170146,5,0,0:0:0:0:
416,288,170289,1,0,0:0:0:0:
340,312,170432,2,0,P|348:332|348:368,4,45.0000017166138
172,72,171003,6,0,P|164:52|164:16,4,45.0000017166138
376,108,171575,6,0,P|396:100|432:100,4,45.0000017166138
136,276,172146,6,0,P|116:284|80:284,4,45.0000017166138
256,192,172575,12,0,173575,0:0:0:0:
56,96,173718,5,0,0:0:0:0:
208,124,173861,1,0,0:0:0:0:
56,288,174003,5,0,0:0:0:0:
208,260,174146,1,0,0:0:0:0:
131,271,174289,1,0,0:0:0:0:
181,27,174432,6,0,B|93:75|93:75|137:299,1,300,8|0,0:0|0:0,0:0:0:0:
400,92,174718,6,0,P|416:128|412:164,1,60,2|0,0:0|0:0,0:0:0:0:
472,60,174861,2,0,P|476:20|461:-12,1,60
324,135,175003,5,0,0:0:0:0:
295,124,175074,1,0,0:0:0:0:
266,118,175145,1,0,0:0:0:0:
236,118,175217,1,0,0:0:0:0:
207,123,175288,1,0,0:0:0:0:
16,384,175718,5,0,0:0:0:0:
104,348,175861,2,0,P|104:268|80:232,1,120
207,315,176146,6,0,L|288:312,1,60
347,311,176289,2,0,L|428:308,1,60
487,307,176432,1,0,0:0:0:0:
487,307,176718,2,0,P|487:227|511:191,1,120
468,0,177003,6,0,P|444:8|400:0,1,60
400,84,177146,2,0,P|378:97|334:101,1,60
230,7,177289,5,0,0:0:0:0:
204,22,177360,1,0,0:0:0:0:
178,36,177431,1,0,0:0:0:0:
150,26,177503,1,0,0:0:0:0:
121,17,177574,1,0,0:0:0:0:
8,160,177718,5,0,0:0:0:0:
20,158,177861,1,0,0:0:0:0:
32,156,178003,1,0,0:0:0:0:
240,88,178146,6,0,B|180:72|180:72|120:120,1,120
204,296,178432,2,0,L|196:160,1,120
112,352,178718,1,0,0:0:0:0:
316,288,178861,2,0,P|376:272|432:280,2,120
316,80,179289,6,0,P|380:16|356:140,1,300,6|0,0:0|0:0,0:0:0:0:
316,288,179718,2,0,P|380:352|356:228,1,300,6|0,0:0|0:0,0:0:0:0:
32,156,180289,5,0,0:0:0:0:
104,88,180432,2,0,P|188:124|244:108,1,120
380,144,180718,6,0,L|376:212,1,60
300,60,180861,2,0,L|304:-8,1,60
213,120,181003,1,0,0:0:0:0:
213,120,181289,2,0,P|154:119|104:88,1,120
8,328,181575,6,0,P|36:320|72:324,1,60
108,192,181718,2,0,P|83:206|47:212,1,60
208,288,181861,5,0,0:0:0:0:
248,278,181932,1,0,0:0:0:0:
223,262,182003,1,0,0:0:0:0:
231,303,182075,1,0,0:0:0:0:
512,248,182289,6,0,B|448:212|432:264|360:220|360:220|388:256|384:296,1,225
380,376,182575,1,0,0:0:0:0:
416,120,182718,6,0,L|420:164,28,30
488,24,183861,6,0,B|432:-4|296:-8|392:92|252:76|196:40,1,300,2|0,0:0|0:0,0:0:0:0:
0,100,184289,2,0,B|-15:38|21:-7|85:-30|144:-8|144:-8|118:25|128:92,1,300,2|0,0:0|0:0,0:0:0:0:
56,268,184718,6,0,B|33:219|74:170|74:170|132:192|136:260,1,210.000002002716,8|0,0:0|0:0,0:0:0:0:
400,340,185003,6,0,B|348:316|348:316|256:352,1,150,2|0,0:0|0:0,0:0:0:0:
384,288,185218,2,0,B|327:278|327:278|248:336,1,150,2|0,0:0|0:0,0:0:0:0:
360,240,185432,6,0,B|302:245|302:245|241:322,1,150,2|0,0:0|0:0,0:0:0:0:
12,384,185861,6,0,B|32:356|60:332|112:324|150:352|150:352|115:361|108:378,1,210.000002002716,8|0,0:0|0:0,0:0:0:0:
488,300,186146,6,0,B|452:300|428:284|428:284|368:335|308:324|263:280|263:280|284:248|324:240,1,300,2|0,0:0|0:0,0:0:0:0:
60,144,186575,2,0,B|36:108|0:100|0:100|92:52|164:80|192:148,1,300,2|0,0:0|0:0,0:0:0:0:
109,376,187003,6,0,B|64:280|64:280|-2:387,1,210.000002002716,8|0,0:0|0:0,0:0:0:0:
190,145,187289,6,0,B|232:144|256:112|256:112|284:136|344:140,1,150,2|0,0:0|0:0,0:0:0:0:
376,12,187503,2,0,P|317:-6|336:51,1,150,2|0,0:0|0:0,0:0:0:0:
288,224,187718,6,0,B|330:225|354:257|354:257|382:233|421:231,1,150,2|0,0:0|0:0,0:0:0:0:
468,352,187932,2,0,P|409:370|428:312,1,150,2|0,0:0|0:0,0:0:0:0:
252,332,188146,5,8,0:0:0:0:
456,40,188432,6,0,B|388:16|388:16|320:52|320:52|256:-20|164:12,1,300,2|0,0:0|0:0,0:0:0:0:
20,192,188861,2,0,B|132:188|196:128|196:128|148:184|164:232,1,300,2|0,0:0|0:0,0:0:0:0:
28,376,189289,6,0,B|16:320|76:293|76:293|108:348|164:345,1,210.000002002716,8|0,0:0|0:0,0:0:0:0:
476,272,189575,6,0,P|404:324|332:312,1,150,2|0,0:0|0:0,0:0:0:0:
340,304,189789,2,0,P|413:304|469:257,1,150,2|0,0:0|0:0,0:0:0:0:
464,240,190003,6,0,P|408:287|334:286,1,150,2|0,0:0|0:0,0:0:0:0:
416,68,190432,6,0,B|360:36|360:36|384:196,1,210.000002002716,8|0,0:0|0:0,0:0:0:0:
104,340,190718,6,0,B|64:344|32:376|32:376|60:240|-40:276|12:140,1,300,2|0,0:0|0:0,0:0:0:0:
132,8,191146,2,0,B|172:4|204:-28|204:-28|176:108|276:72|224:208,1,300,2|0,0:0|0:0,0:0:0:0:
458,353,191575,6,0,B|490:297|490:297|346:318,1,210.000002002716,8|0,0:0|0:0,0:0:0:0:
0,168,191861,6,0,B|50:134|50:134|119:163,1,120,2|0,0:0|0:0,0:0:0:0:
233,180,192075,2,0,P|256:168|272:132,2,60,2|0|0,0:0|0:0|0:0,0:0:0:0:
0,168,192289,6,0,B|47:206|47:206|118:184,1,120,2|0,0:0|0:0,0:0:0:0:
233,180,192503,2,0,P|256:192|272:228,2,60,2|0|0,0:0|0:0|0:0,0:0:0:0:
0,168,192718,6,0,L|144:173,1,135.000005149841,2|0,0:0|0:0,0:0:0:0:
344,180,193003,6,0,P|372:176|400:184,1,45.0000017166138,8|0,0:0|0:0,0:0:0:0:
416,104,193146,2,0,P|441:116|459:139,1,45.0000017166138
480,204,193289,1,8,0:0:0:0:
480,204,193361,1,0,0:0:0:0:
480,204,193432,1,0,0:0:0:0:
168,352,193575,6,0,P|140:348|112:356,1,45.0000017166138,8|0,0:0|0:0,0:0:0:0:
96,276,193718,2,0,P|70:288|52:311,1,45.0000017166138
32,376,193861,1,8,0:0:0:0:
32,376,193933,1,0,0:0:0:0:
32,376,194004,1,0,0:0:0:0:
184,40,194146,6,8,L|196:96,1,45.0000017166138,8|0,0:0|0:0,0:0:0:0:
260,120,194289,2,0,L|248:176,1,45.0000017166138
200,220,194432,1,8,0:0:0:0:
200,220,194503,1,0,0:0:0:0:
200,220,194575,1,0,0:0:0:0:
328,360,194718,6,0,L|340:304,1,45.0000017166138,8|0,0:0|0:0,0:0:0:0:
404,280,194861,2,0,L|392:224,1,45.0000017166138
344,180,195004,1,8,0:0:0:0:
344,180,195075,1,0,0:0:0:0:
344,180,195147,1,0,0:0:0:0:
83,198,195289,6,0,B|107:190|107:190|143:194,1,45.0000017166138,8|0,0:0|0:0,0:0:0:0:
139,270,195432,2,0,B|115:278|115:278|79:274,1,45.0000017166138
23,250,195575,1,8,0:0:0:0:
23,250,195646,1,0,0:0:0:0:
23,250,195718,1,0,0:0:0:0:
428,26,195861,6,0,B|404:18|404:18|368:22,1,45.0000017166138,8|0,0:0|0:0,0:0:0:0:
372,98,196004,2,0,B|396:106|396:106|432:102,1,45.0000017166138
488,78,196147,1,8,0:0:0:0:
488,78,196218,1,0,0:0:0:0:
488,78,196290,1,0,0:0:0:0:
512,316,196432,6,0,P|493:348|474:363,2,60,8|0|0,0:0|0:0|0:0,0:0:0:0:
303,356,196646,2,0,P|352:323|411:315,1,120,8|0,0:0|0:0,0:0:0:0:
512,316,196861,6,0,P|493:283|474:268,2,60,8|0|0,0:0|0:0|0:0,0:0:0:0:
303,275,197075,2,0,P|352:307|411:315,1,120,8|0,0:0|0:0,0:0:0:0:
228,320,197289,5,8,0:0:0:0:
36,104,197575,5,8,0:0:0:0:
51,112,197646,1,0,0:0:0:0:
68,120,197717,1,2,0:0:0:0:
85,125,197789,1,0,0:0:0:0:
102,129,197860,1,8,0:0:0:0:
120,132,197932,1,0,0:0:0:0:
138,132,198003,1,2,0:0:0:0:
156,130,198075,1,0,0:0:0:0:
174,127,198146,1,8,0:0:0:0:
191,122,198217,1,0,0:0:0:0:
208,116,198289,1,2,0:0:0:0:
224,107,198360,1,0,0:0:0:0:
239,97,198432,1,8,0:0:0:0:
253,86,198503,1,0,0:0:0:0:
265,73,198575,1,2,0:0:0:0:
277,60,198646,1,0,0:0:0:0:
288,44,198718,5,8,0:0:0:0:
295,102,198789,1,0,0:0:0:0:
335,145,198860,1,2,0:0:0:0:
393,157,198932,1,0,0:0:0:0:
447,133,199003,1,8,0:0:0:0:
477,82,199075,1,0,0:0:0:0:
471,23,199146,1,2,0:0:0:0:
418,49,199217,1,0,0:0:0:0:
385,98,199288,1,8,0:0:0:0:
382,157,199360,1,0,0:0:0:0:
410,210,199432,1,2,0:0:0:0:
441,260,199503,1,0,0:0:0:0:
437,319,199574,1,8,0:0:0:0:
401,366,199646,1,0,0:0:0:0:
345,385,199717,1,8,0:0:0:0:
288,369,199789,1,0,0:0:0:0:
250,323,199861,5,2,0:0:0:0:
441,260,200003,1,0,0:0:0:0:
344,304,200146,1,0,0:0:0:0:
344,304,200218,1,0,0:0:0:0:
344,304,200289,2,0,L|336:264,2,22.5000008583069
401,366,200432,5,0,0:0:0:0:
304,216,200575,1,0,0:0:0:0:
441,260,200718,5,0,0:0:0:0:
250,323,200861,1,0,0:0:0:0:
295,102,201003,5,0,0:0:0:0:
165,111,201146,5,2,0:0:0:0:
156,76,201218,1,2,0:0:0:0:
147,41,201289,1,2,0:0:0:0:
99,167,201432,5,2,0:0:0:0:
74,192,201504,1,2,0:0:0:0:
48,220,201575,1,2,0:0:0:0:
180,196,201718,5,2,0:0:0:0:
215,206,201790,1,2,0:0:0:0:
251,215,201861,6,0,P|244:232|244:256,1,36,8|0,0:0|0:0,0:0:0:0:
324,332,202146,6,0,L|420:324,1,90.0000034332277,2|0,0:0|0:0,0:0:0:0:
251,215,202289,2,0,L|347:223,1,90.0000034332277
165,111,202432,5,8,0:0:0:0:
130,97,202503,1,0,0:0:0:0:
93,96,202574,1,0,0:0:0:0:
57,108,202646,1,0,0:0:0:0:
4,56,202718,6,0,B|56:108|56:108|28:288,1,225,2|0,0:0|0:0,0:0:0:0:
12,376,203003,1,8,0:0:0:0:
176,232,203146,6,0,P|217:235|257:218,1,83.9999974365235
332,32,203289,2,0,L|332:120,1,83.9999974365235,2|0,0:0|0:0,0:0:0:0:
332,348,203432,1,0,0:0:0:0:
164,264,203575,6,0,P|205:260|243:276,1,83.9999974365235,8|0,0:0|0:0,0:0:0:0:
492,184,203718,2,0,P|450:187|412:171,1,83.9999974365235
332,348,203861,6,0,B|384:212|280:236|336:92,1,251.999992309571,2|0,0:0|0:0,0:0:0:0:
432,40,204146,2,0,B|472:24|472:24|524:36,1,83.9999974365235,8|0,0:0|0:0,0:0:0:0:
208,68,204289,2,0,B|168:52|168:52|128:61,1,83.9999974365235
56,184,204432,6,0,L|68:276,2,75,2|0|0,0:0|0:0|0:0,0:0:0:0:
140,372,204718,1,8,0:0:0:0:
106,356,204789,1,0,0:0:0:0:
72,340,204860,1,0,0:0:0:0:
42,362,204932,1,0,0:0:0:0:
12,384,205003,1,2,0:0:0:0:
48,96,205146,5,0,0:0:0:0:
252,272,205289,1,8,0:0:0:0:
12,384,205432,1,0,0:0:0:0:
216,364,205575,6,0,P|264:372|312:348,1,90.0000034332277,2|0,0:0|0:0,0:0:0:0:
484,296,205718,1,0,0:0:0:0:
80,256,205861,6,0,L|176:264,1,90.0000034332277,8|0,0:0|0:0,0:0:0:0:
504,296,206003,1,0,0:0:0:0:
464,76,206146,6,0,L|340:68,1,105.000001001358
236,128,206289,2,0,P|180:140|104:120,1,105.000001001358,2|0,0:0|0:0,0:0:0:0:
36,20,206432,6,0,B|48:40|32:84|32:84|48:76|48:76|24:108|36:156,1,155.999992858887,8|0,0:0|0:0,0:0:0:0:
32,364,206575,1,0,0:0:0:0:
236,128,206718,5,2,0:0:0:0:
244,124,206789,1,0,0:0:0:0:
244,116,206861,2,0,L|232:208,1,75
216,352,207003,5,8,0:0:0:0:
253,349,207074,1,0,0:0:0:0:
290,346,207145,1,0,0:0:0:0:
328,343,207217,1,0,0:0:0:0:
404,372,207289,6,0,B|408:332|392:300|392:300|412:228|412:228|392:180|404:144,1,225,2|0,0:0|0:0,0:0:0:0:
472,40,207575,1,8,0:0:0:0:
216,24,207718,6,0,P|264:20|298:35,1,83.9999974365235
133,133,207861,2,0,L|49:129,1,83.9999974365235,2|0,0:0|0:0,0:0:0:0:
220,272,208003,1,0,0:0:0:0:
380,216,208146,6,0,L|464:212,1,83.9999974365235,8|0,0:0|0:0,0:0:0:0:
264,348,208289,2,0,P|225:362|183:357,1,83.9999974365235
12,284,208432,6,0,P|116:244|84:328,1,251.999992309571,2|0,0:0|0:0,0:0:0:0:
12,284,208718,2,0,P|-4:236|8:184,1,83.9999974365235,8|0,0:0|0:0,0:0:0:0:
120,52,208861,2,0,P|136:100|124:152,1,83.9999974365235
32,372,209003,6,0,L|120:364,1,75,2|0,0:0|0:0,0:0:0:0:
0,203,209146,2,0,L|88:211,1,75
243,82,209289,5,8,0:0:0:0:
192,26,209360,1,0,0:0:0:0:
123,58,209432,1,0,0:0:0:0:
132,132,209503,1,0,0:0:0:0:
207,148,209575,6,0,P|240:160|287:146,1,75,2|0,0:0|0:0,0:0:0:0:
460,100,209718,1,0,0:0:0:0:
304,256,209861,1,8,0:0:0:0:
396,12,210003,1,0,0:0:0:0:
432,296,210146,6,0,B|461:267|461:267|382:284,1,120,2|0,0:0|0:0,0:0:0:0:
228,308,210289,2,0,B|257:336|257:336|178:319,1,120
16,352,210432,2,0,B|4:390|4:390|64:337,1,120,8|0,0:0|0:0,0:0:0:0:
116,176,210575,2,0,B|87:146|87:146|104:225,1,120
336,368,210718,5,2,0:0:0:0:
196,208,210861,1,2,0:0:0:0:
232,214,210932,1,0,0:0:0:0:
269,208,211003,1,8,0:0:0:0:
297,183,211075,1,0,0:0:0:0:
323,157,211146,1,0,0:0:0:0:
357,143,211218,1,0,0:0:0:0:
395,142,211289,6,0,L|392:236,1,83.9999974365235,6|0,0:0|0:0,0:0:0:0:
504,24,211432,2,0,L|507:118,1,83.9999974365235,6|0,0:0|0:0,0:0:0:0:
328,56,211575,5,10,0:0:0:0:
292,66,211646,1,0,0:0:0:0:
256,56,211717,1,0,0:0:0:0:
220,64,211789,1,0,0:0:0:0:
152,18,211861,6,0,P|204:62|176:226,1,225,2|0,0:0|0:0,0:0:0:0:
116,292,212146,1,8,0:0:0:0:
12,140,212289,6,0,L|116:128,1,83.9999974365235
392,225,212432,2,0,L|288:213,1,83.9999974365235,2|0,0:0|0:0,0:0:0:0:
116,292,212575,1,0,0:0:0:0:
324,40,212718,6,0,P|308:72|316:144,1,83.9999974365235,8|0,0:0|0:0,0:0:0:0:
195,207,212861,2,0,P|198:242|243:299,1,83.9999974365235
412,336,213003,6,0,B|444:344|476:376|476:376|440:288|536:288|504:184,1,251.999992309571,2|0,0:0|0:0,0:0:0:0:
412,336,213289,2,0,P|371:344|330:335,1,83.9999974365235,8|0,0:0|0:0,0:0:0:0:
222,283,213432,2,0,P|200:248|195:207,1,83.9999974365235
152,18,213575,6,0,P|167:56|165:98,2,75,2|0|0,0:0|0:0|0:0,0:0:0:0:
69,257,213861,1,8,0:0:0:0:
89,226,213932,1,0,0:0:0:0:
120,206,214003,1,0,0:0:0:0:
157,199,214075,1,0,0:0:0:0:
194,207,214146,1,2,0:0:0:0:
44,76,214289,5,0,0:0:0:0:
316,120,214432,1,8,0:0:0:0:
140,328,214575,1,0,0:0:0:0:
360,224,214718,6,0,B|316:237|316:237|260:220,1,90.0000034332277,2|0,0:0|0:0,0:0:0:0:
28,64,214861,1,2,0:0:0:0:
193,122,215003,6,0,B|142:94|142:94|159:220,2,162.000000617981,2|0|2,0:0|0:0|0:0,0:0:0:0:
140,328,215289,6,0,L|276:340,1,132.00000402832,2|0,0:0|0:0,0:0:0:0:
491,212,215432,2,0,L|355:224,1,132.00000402832,2|0,0:0|0:0,0:0:0:0:
222,41,215575,6,0,B|220:24|198:13|198:13|192:36|218:61|218:61|186:85|194:133,1,162.000000617981,12|0,0:0|0:0,0:0:0:0:
400,368,215718,1,0,0:0:0:0:
448,80,215861,6,0,P|434:106|431:136,1,60,8|0,0:0|0:0,0:0:0:0:
400,368,216003,2,0,P|386:341|383:311,1,60
479,231,216146,5,0,0:0:0:0:
449,229,216217,1,0,0:0:0:0:
419,227,216288,1,8,0:0:0:0:
389,225,216360,1,0,0:0:0:0:
359,223,216431,1,0,0:0:0:0:
496,328,216575,1,0,0:0:0:0:
272,184,216718,5,8,0:0:0:0:
512,128,216861,1,0,0:0:0:0:
295,41,217003,6,0,B|254:46|254:46|203:30,1,75,8|0,0:0|0:0,0:0:0:0:
0,96,217146,2,0,B|40:90|40:90|91:106,1,75
280,236,217289,5,0,0:0:0:0:
212,202,217360,1,0,0:0:0:0:
160,149,217431,1,8,0:0:0:0:
126,211,217503,1,0,0:0:0:0:
65,255,217574,1,0,0:0:0:0:
344,112,217718,1,0,0:0:0:0:
176,360,217861,6,0,B|181:319|181:319|165:268,1,75,8|0,0:0|0:0,0:0:0:0:
344,112,218003,2,0,B|339:153|339:153|355:204,1,75,8|0,0:0|0:0,0:0:0:0:
148,12,218146,6,0,L|151:86,1,60,2|0,0:0|0:0,0:0:0:0:
136,0,218289,2,0,L|139:74,1,60,2|0,0:0|0:0,0:0:0:0:
20,196,218432,6,0,L|16:270,1,60,2|0,0:0|0:0,0:0:0:0:
32,184,218575,2,0,L|28:258,1,60,2|0,0:0|0:0,0:0:0:0:
260,328,218718,5,2,0:0:0:0:
318,318,218789,1,2,0:0:0:0:
362,279,218860,1,2,0:0:0:0:
380,222,218932,1,2,0:0:0:0:
452,276,219003,5,2,0:0:0:0:
479,223,219074,1,2,0:0:0:0:
478,165,219145,1,2,0:0:0:0:
446,114,219218,1,2,0:0:0:0:
512,36,219289,5,2,0:0:0:0:
256,192,219361,12,2,220003,0:0:0:0:
60,60,220146,5,6,0:0:0:0:
392,116,220432,6,0,B|363:83|363:83|375:20,1,83.9999974365235,6|0,0:0|0:0,0:0:0:0:
252,32,220575,2,0,B|237:72|237:72|176:93,1,83.9999974365235,2|0,0:0|0:0,0:0:0:0:
248,196,220718,2,0,B|290:187|290:187|339:230,1,83.9999974365235,10|0,0:0|0:0,0:0:0:0:
412,344,220861,6,0,P|276:352|248:282,1,204.000003890991,0|2,0:0|0:0,0:0:0:0:
0,212,221146,2,0,P|136:220|163:150,1,204.000003890991,0|8,0:0|0:0,0:0:0:0:
392,116,221432,6,0,B|396:84|376:52|376:52|412:64|448:132|376:192|376:192|428:248|412:320,1,360.000013732911
250,308,221861,5,8,0:0:0:0:
488,192,222003,1,0,0:0:0:0:
296,116,222146,1,2,0:0:0:0:
492,16,222289,6,0,P|472:52|480:112,1,83.9999974365235
512,308,222432,1,8,0:0:0:0:
296,116,222575,1,0,0:0:0:0:
136,348,222718,6,0,P|125:307|134:267,1,83.9999974365235,2|0,0:0|0:0,0:0:0:0:
136,76,222861,6,0,P|131:87|136:104,1,24
133,98,223003,6,0,P|114:62|122:6,1,83.9999974365235,8|0,0:0|0:0,0:0:0:0:
4,188,223146,6,0,L|236:176,1,204.000003890991,0|2,0:0|0:0,0:0:0:0:
492,16,223432,2,0,B|444:32|424:88|424:88|400:36|344:24,1,204.000003890991,0|8,0:0|0:0,0:0:0:0:
512,332,223718,6,0,B|448:324|424:244|424:244|416:336|320:384|236:352,1,360.000013732911
280,132,224146,6,0,P|293:173|285:221,1,83.9999974365235,8|0,0:0|0:0,0:0:0:0:
48,368,224289,1,0,0:0:0:0:
48,368,224432,6,0,P|35:327|43:279,1,83.9999974365235,2|0,0:0|0:0,0:0:0:0:
132,72,224575,1,0,0:0:0:0:
0,168,224718,6,0,B|32:172|57:162|57:162|105:186|105:186|136:172|165:182,1,162.000000617981,8|0,0:0|0:0,0:0:0:0:
424,164,224861,1,0,0:0:0:0:
259,358,225003,6,0,B|340:320|340:320|444:360,1,180.000006866455,2|0,0:0|0:0,0:0:0:0:
512,154,225289,2,0,L|404:166,1,90.0000034332277,8|0,0:0|0:0,0:0:0:0:
132,72,225432,6,0,P|232:44|332:112,1,204.000003890991,0|2,0:0|0:0,0:0:0:0:
424,352,225718,2,0,P|419:270|359:326,1,204.000003890991,0|8,0:0|0:0,0:0:0:0:
152,352,226003,6,0,B|112:356|80:331|80:331|28:363|28:363|28:312|104:224|-16:252|39:132,1,360.000013732911
259,358,226432,5,8,0:0:0:0:
512,236,226575,1,0,0:0:0:0:
312,192,226718,1,2,0:0:0:0:
424,352,226861,6,0,P|401:311|402:266,1,90.0000034332277
460,76,227003,1,8,0:0:0:0:
312,192,227146,1,0,0:0:0:0:
184,48,227289,6,0,L|188:136,1,75,8|0,0:0|0:0,0:0:0:0:
140,260,227432,6,0,B|188:212|188:212|248:257,1,135.000005149841,8|0,0:0|0:0,0:0:0:0:
60,360,227718,6,0,L|56:272,1,75,8|0,0:0|0:0,0:0:0:0:
104,148,227861,6,0,B|55:195|55:195|-4:150,1,135.000005149841,8|0,0:0|0:0,0:0:0:0:
184,48,228146,5,8,0:0:0:0:
312,192,228289,5,2,0:0:0:0:
312,192,228361,1,2,0:0:0:0:
312,192,228432,1,6,0:0:0:0:
346,282,228575,5,2,0:0:0:0:
380,254,228646,1,2,0:0:0:0:
405,216,228717,1,6,0:0:0:0:
393,361,228861,5,2,0:0:0:0:
452,318,228932,1,2,0:0:0:0:
489,253,229003,1,6,0:0:0:0:
248,140,229146,5,2,0:0:0:0:
512,368,229289,1,0,0:0:0:0:
296,364,229575,6,0,B|248:360|248:360|260:361|260:361|224:358|224:358|236:359|236:359|200:357|200:357|212:358|212:358|176:355|176:355|188:356|188:356|120:351,1,251.999992309571,4|0,0:0|0:0,0:0:0:0:
32,232,229861,6,0,L|136:224,1,83.9999974365235,8|0,0:0|0:0,0:0:0:0:
376,184,230003,6,0,P|256:212|236:284,1,204.000003890991,2|2,0:0|0:0,0:0:0:0:
96,56,230289,2,0,B|156:52|184:100|184:100|232:40|296:60,1,204.000003890991,0|8,0:0|0:0,0:0:0:0:
452,276,230575,6,0,B|400:348|400:348|224:384|224:384|128:328,1,360.000013732911
32,132,231003,5,8,0:0:0:0:
376,184,231146,1,0,0:0:0:0:
188,0,231289,1,2,0:0:0:0:
235,278,231432,6,0,P|240:212|231:186,1,83.9999974365235
188,0,231575,1,8,0:0:0:0:
376,184,231718,1,2,0:0:0:0:
484,24,231861,6,0,L|296:36,1,161.999995056153,2|0,0:0|0:0,0:0:0:0:
32,132,232146,6,0,L|127:138,1,83.9999974365235,8|0,0:0|0:0,0:0:0:0:
429,274,232289,6,0,B|360:272|360:272|331:256|331:256|298:275|298:275|221:277,1,204.000003890991,2|2,0:0|0:0,0:0:0:0:
32,132,232575,2,0,B|96:116|96:116|48:304,1,204.000003890991,0|8,0:0|0:0,0:0:0:0:
32,380,232861,1,0,0:0:0:0:
234,277,233003,6,0,B|280:281|303:252|303:252|328:276|379:275,1,150,8|0,0:0|0:0,0:0:0:0:
488,276,233218,2,0,P|467:220|483:190,2,75,8|0|0,0:0|0:0|0:0,0:0:0:0:
234,277,233432,6,0,B|280:272|304:300|304:300|328:276|380:276,1,150,8|0,0:0|0:0,0:0:0:0:
488,276,233646,2,0,P|467:331|483:361,2,75,8|0|0,0:0|0:0|0:0,0:0:0:0:
234,277,233861,6,0,L|376:276,2,138.000002632141,8|0|0,0:0|0:0|0:0,0:0:0:0:
8,136,234146,6,0,P|23:182|15:226,3,90.0000034332277,2|0|2|0,0:0|0:0|0:0|0:0,0:0:0:0:
103,138,234432,2,0,P|91:95|61:63,3,90.0000034332277,2|0|2|0,0:0|0:0|0:0|0:0,0:0:0:0:
248,116,234718,6,0,P|294:101|338:109,3,90.0000034332277,2|0|2|0,0:0|0:0|0:0|0:0,0:0:0:0:
250,21,235004,2,0,P|207:33|175:63,3,90.0000034332277,2|0|2|0,0:0|0:0|0:0|0:0,0:0:0:0:
248,116,235289,6,0,P|294:101|338:109,1,90.0000034332277,10|0,0:0|0:0,0:0:0:0:
264,268,235432,2,0,P|218:283|174:275,1,90.0000034332277,2|0,0:0|0:0,0:0:0:0:
352,24,235575,6,0,P|394:46|420:83,1,90.0000034332277,10|0,0:0|0:0,0:0:0:0:
159,359,235718,2,0,P|120:339|93:304,1,90.0000034332277,2|0,0:0|0:0,0:0:0:0:
334,107,235861,6,0,P|290:101|248:115,1,90.0000034332277,10|0,0:0|0:0,0:0:0:0:
177,276,236003,2,0,P|221:282|264:268,1,90.0000034332277,2|0,0:0|0:0,0:0:0:0:
418,79,236146,6,0,P|391:44|352:24,1,90.0000034332277,10|0,0:0|0:0,0:0:0:0:
93,304,236289,2,0,P|120:339|160:360,1,90.0000034332277,2|0,0:0|0:0,0:0:0:0:
350,23,236432,5,8,0:0:0:0:
424,8,236504,1,0,0:0:0:0:
482,54,236575,1,8,0:0:0:0:
480,130,236646,1,0,0:0:0:0:
422,175,236718,1,8,0:0:0:0:
350,158,236789,1,0,0:0:0:0:
317,91,236861,1,8,0:0:0:0:
285,22,236932,1,0,0:0:0:0:
212,5,237003,1,8,0:0:0:0:
154,50,237075,1,0,0:0:0:0:
154,126,237146,1,8,0:0:0:0:
210,172,237218,1,0,0:0:0:0:
285,160,237289,6,0,P|280:132|284:104,6,37.5,12|0|0|0|8|0|0,0:0|0:0|0:0|0:0|0:0|0:0|0:0,0:0:0:0:
272,268,237575,6,0,L|185:257,1,60,2|0,0:0|0:0,0:0:0:0:
0,216,237718,2,0,L|87:205,1,60
154,50,237861,2,0,L|143:137,1,60
144,272,238003,5,0,0:0:0:0:
139,240,238075,1,0,0:0:0:0:
135,212,238146,1,0,0:0:0:0:
356,164,238289,5,0,0:0:0:0:
428,196,238361,1,0,0:0:0:0:
460,248,238432,1,0,0:0:0:0:
464,296,238503,1,0,0:0:0:0:
452,324,238575,1,0,0:0:0:0:
440,340,238646,1,0,0:0:0:0:
424,348,238718,6,0,B|380:360|352:356|284:308|284:308|296:344|296:344|236:280|148:308|112:360|112:360|108:328|152:260|48:264|108:152,1,600,6|0,0:0|0:0,0:0:0:0:
28,312,239146,5,2,0:0:0:0:
280,192,239289,1,2,0:0:0:0:
84,48,239432,5,2,0:0:0:0:
120,60,239503,1,2,0:0:0:0:
460,44,239646,5,2,0:0:0:0:
424,56,239717,1,2,0:0:0:0:
280,192,239861,5,2,0:0:0:0:
280,156,239932,1,2,0:0:0:0:
272,24,240075,5,2,0:0:0:0:
272,60,240146,1,2,0:0:0:0:
476,200,240289,5,2,0:0:0:0:
440,188,240360,1,2,0:0:0:0:
62,194,240503,5,2,0:0:0:0:
98,182,240574,1,2,0:0:0:0:
212,48,240718,6,0,B|248:40|272:60|272:60|292:40|332:44,1,120
472,76,241003,6,0,B|480:36|464:4|464:4|504:24|532:80|520:148|432:188|432:188|376:280|436:360|476:372|476:372|448:324|460:276,1,600,6|0,0:0|0:0,0:0:0:0:
456,300,241432,5,2,0:0:0:0:
456,300,241503,1,2,0:0:0:0:
456,300,241575,1,2,0:0:0:0:
276,124,241718,5,2,0:0:0:0:
295,157,241789,1,2,0:0:0:0:
184,240,241932,5,2,0:0:0:0:
165,273,242003,1,2,0:0:0:0:
324,181,242146,5,2,0:0:0:0:
358,195,242218,1,2,0:0:0:0:
136,297,242361,5,2,0:0:0:0:
102,311,242433,1,2,0:0:0:0:
395,197,242575,5,2,0:0:0:0:
431,188,242647,1,2,0:0:0:0:
65,313,242789,5,2,0:0:0:0:
29,304,242861,1,2,0:0:0:0:
8,136,243003,6,0,B|56:146|89:119|89:119|116:146|171:141,1,167.999994873047,8|0,0:0|0:0,0:0:0:0:
472,76,243146,1,0,0:0:0:0:
436,280,243289,6,0,B|476:256|524:277|524:277|504:244|456:221|390:212|322:235|280:304|280:304|296:340|364:392|428:400|500:360,1,600,6|0,0:0|0:0,0:0:0:0:
472,372,243718,5,2,0:0:0:0:
102,311,243861,1,2,0:0:0:0:
340,108,244003,5,2,0:0:0:0:
304,104,244075,1,2,0:0:0:0:
140,24,244218,5,2,0:0:0:0:
136,60,244290,1,2,0:0:0:0:
248,200,244432,5,2,0:0:0:0:
212,204,244504,1,2,0:0:0:0:
8,136,244646,5,2,0:0:0:0:
12,172,244718,1,2,0:0:0:0:
316,300,244861,5,2,0:0:0:0:
280,304,244933,1,2,0:0:0:0:
106,275,245075,5,2,0:0:0:0:
102,311,245146,1,2,0:0:0:0:
280,304,245289,6,0,P|352:332|404:320,1,120
484,224,245575,6,0,P|400:324|396:80,1,600,6|0,0:0|0:0,0:0:0:0:
356,204,246003,5,2,0:0:0:0:
356,204,246075,1,2,0:0:0:0:
356,204,246146,1,2,0:0:0:0:
368,38,246289,5,2,0:0:0:0:
372,74,246361,1,2,0:0:0:0:
488,260,246503,5,2,0:0:0:0:
484,224,246575,1,2,0:0:0:0:
280,304,246718,5,2,0:0:0:0:
248,308,246790,1,2,0:0:0:0:
32,184,246932,5,2,0:0:0:0:
56,180,247004,1,2,0:0:0:0:
228,56,247146,5,2,0:0:0:0:
212,52,247218,1,2,0:0:0:0:
136,44,247289,6,0,B|228:-8|228:-8|328:48,1,204.000003890991,8|0,0:0|0:0,0:0:0:0:
484,224,247575,6,0,P|408:168|316:188,1,180
96,296,247861,6,0,B|156:308|180:384|180:384|248:272|348:416|440:328|440:328|396:308|380:272|380:272|348:320|300:329,1,600,6|0,0:0|0:0,0:0:0:0:
180,380,248289,5,2,0:0:0:0:
224,136,248432,1,2,0:0:0:0:
58,280,248575,5,2,0:0:0:0:
22,292,248646,2,0,P|62:288|114:304,1,75,2|0,0:0|0:0,0:0:0:0:
343,142,248789,5,2,0:0:0:0:
331,106,248860,2,0,P|335:146|319:198,1,75,2|0,0:0|0:0,0:0:0:0:
348,332,249003,5,2,0:0:0:0:
356,368,249075,2,0,L|360:276,1,75,2|0,0:0|0:0,0:0:0:0:
400,36,249218,5,2,0:0:0:0:
366,19,249289,2,0,P|397:44|422:92,1,75,2|0,0:0|0:0,0:0:0:0:
476,240,249432,5,2,0:0:0:0:
512,232,249504,2,0,L|420:228,1,75,2|0,0:0|0:0,0:0:0:0:
224,276,249646,5,2,0:0:0:0:
188,268,249718,2,0,L|280:264,1,75,2|0,0:0|0:0,0:0:0:0:
465,377,249861,6,0,B|411:348|411:348|329:377,1,120
157,87,250146,6,0,B|102:98|42:54|42:54|88:96|86:134|86:134|-1:182|58:274|58:274|182:190|154:306|263:263,1,600,6|0,0:0|0:0,0:0:0:0:
236,40,250575,5,2,0:0:0:0:
236,40,250646,1,2,0:0:0:0:
236,40,250718,2,0,P|255:87|247:119,1,75,2|0,0:0|0:0,0:0:0:0:
448,144,250861,5,2,0:0:0:0:
480,124,250932,2,0,B|444:136|444:136|392:120,1,75,2|0,0:0|0:0,0:0:0:0:
260,264,251075,5,2,0:0:0:0:
228,244,251146,2,0,B|264:256|264:256|316:240,1,75,2|0,0:0|0:0,0:0:0:0:
460,344,251289,5,2,0:0:0:0:
496,336,251361,2,0,P|460:320|404:328,1,75,2|0,0:0|0:0,0:0:0:0:
144,332,251503,5,2,0:0:0:0:
180,340,251575,2,0,P|144:356|88:348,1,75,2|0,0:0|0:0,0:0:0:0:
16,176,251718,5,2,0:0:0:0:
32,140,251789,2,0,L|40:224,1,75,2|0,0:0|0:0,0:0:0:0:
226,71,251932,5,2,0:0:0:0:
210,35,252003,2,0,L|202:119,1,75,2|0,0:0|0:0,0:0:0:0:
180,340,252146,6,0,P|144:376|200:360,1,143.999995605469,8|0,0:0|0:0,0:0:0:0:
408,125,252289,1,0,0:0:0:0:
225,243,252432,6,0,B|185:227|137:251|137:251|177:187|309:147|297:315|381:319|381:319|353:219|433:227|405:111,1,600,6|0,0:0|0:0,0:0:0:0:
348,44,252861,5,2,0:0:0:0:
180,340,253003,1,2,0:0:0:0:
164,44,253146,5,2,0:0:0:0:
128,34,253218,1,2,0:0:0:0:
348,44,253361,5,2,0:0:0:0:
383,34,253432,1,2,0:0:0:0:
268,276,253575,5,2,0:0:0:0:
90,37,253718,5,2,0:0:0:0:
57,54,253790,1,2,0:0:0:0:
421,37,253932,5,2,0:0:0:0:
454,54,254004,1,2,0:0:0:0:
244,204,254146,5,2,0:0:0:0:
32,81,254289,5,2,0:0:0:0:
18,116,254361,1,2,0:0:0:0:
479,81,254503,5,2,0:0:0:0:
493,116,254575,1,2,0:0:0:0:
268,132,254718,5,6,0:0:0:0:
17,153,254861,5,8,0:0:0:0:
24,188,254932,2,0,P|66:168|106:168,1,75,10|0,0:0|0:0,0:0:0:0:
494,153,255075,5,8,0:0:0:0:
488,188,255146,2,0,P|446:168|406:168,1,75,10|0,0:0|0:0,0:0:0:0:
244,60,255289,5,6,0:0:0:0:
24,224,255432,5,8,0:0:0:0:
14,259,255503,2,0,L|98:255,1,75,2|0,0:0|0:0,0:0:0:0:
488,224,255646,5,8,0:0:0:0:
498,259,255717,2,0,L|414:255,1,75,2|0,0:0|0:0,0:0:0:0:
216,308,255861,5,4,0:0:0:0:
256,60,256004,1,0,0:0:0:0:
324,204,256146,5,0,0:0:0:0:
256,40,256289,1,0,0:0:0:0:
200,148,256432,5,0,0:0:0:0:
256,20,256574,1,0,0:0:0:0:
300,360,256718,5,8,0:0:0:0:
256,20,257003,5,6,0:0:0:0:
