osu file format v14

[General]
AudioFilename: audio.mp3
AudioLeadIn: 0
PreviewTime: 202170
Countdown: 0
SampleSet: Soft
StackLeniency: 0.7
Mode: 3
LetterboxInBreaks: 0
SpecialStyle: 0
WidescreenStoryboard: 1

[Editor]
Bookmarks: 9884,147027,256741
DistanceSpacing: 0.8
BeatDivisor: 4
GridSize: 8
TimelineZoom: 2.6

[Metadata]
Title:The King of Lions
TitleUnicode:The King of Lions
Artist:Camellia
ArtistUnicode:かめりあ
Creator:Eedow
Version:JUNGLE WARFARE
Source:
Tags:INVAIDAS FROM DA JUNGLE
BeatmapID:1396822
BeatmapSetID:659564

[Difficulty]
HPDrainRate:8
CircleSize:4
OverallDifficulty:8
ApproachRate:5
SliderMultiplier:1.4
SliderTickRate:1

[Events]
//Background and Video events
0,0,"bg.png",0,0
//Break Periods
2,147512,155255
//Storyboard Layer 0 (Background)
//Storyboard Layer 1 (Fail)
//Storyboard Layer 2 (Pass)
//Storyboard Layer 3 (Foreground)
//Storyboard Sound Samples

[TimingPoints]
2170,285.714285714286,4,2,0,10,1,0

[HitObjects]
64,192,9027,5,0,0:0:0:0:
448,192,9027,1,0,0:0:0:0:
448,192,9884,128,0,10098:0:0:0:0:
64,192,9884,128,0,10098:0:0:0:0:
448,192,10170,1,0,0:0:0:0:
192,192,10170,1,0,0:0:0:0:
64,192,10170,1,0,0:0:0:0:
320,192,10170,1,0,0:0:0:0:
320,192,11312,128,0,12384:0:0:0:0:
64,192,12455,128,0,13527:0:0:0:0:
320,192,12455,1,0,0:0:0:0:
320,192,12884,1,0,0:0:0:0:
320,192,13312,1,0,0:0:0:0:
320,192,13455,1,0,0:0:0:0:
448,192,13598,128,0,14670:0:0:0:0:
64,192,13598,1,0,0:0:0:0:
64,192,13741,1,0,0:0:0:0:
192,192,14027,1,0,0:0:0:0:
192,192,14170,1,0,0:0:0:0:
448,192,14741,1,0,0:0:0:0:
64,192,14741,1,0,0:0:0:0:
192,192,14741,1,0,0:0:0:0:
448,192,15170,1,0,0:0:0:0:
64,192,15170,1,0,0:0:0:0:
192,192,15170,1,0,0:0:0:0:
192,192,15884,128,0,16955:0:0:0:0:
192,192,17027,1,0,0:0:0:0:
448,192,17027,128,0,18098:0:0:0:0:
192,192,17455,1,0,0:0:0:0:
192,192,17884,1,0,0:0:0:0:
192,192,18027,1,0,0:0:0:0:
448,192,18170,1,0,0:0:0:0:
64,192,18170,128,0,19241:0:0:0:0:
448,192,18312,1,0,0:0:0:0:
320,192,18598,1,0,0:0:0:0:
320,192,18741,1,0,0:0:0:0:
64,192,19312,128,0,19527:0:0:0:0:
320,192,19312,128,0,19527:0:0:0:0:
192,192,19312,128,0,19527:0:0:0:0:
448,192,19598,1,0,0:0:0:0:
192,192,19741,128,0,19955:0:0:0:0:
320,192,19741,128,0,19955:0:0:0:0:
64,192,19741,128,0,19955:0:0:0:0:
448,192,20027,1,0,0:0:0:0:
448,192,20170,1,0,0:0:0:0:
192,192,20312,128,0,20455:0:0:0:0:
448,192,20455,128,0,20598:0:0:0:0:
64,192,20455,128,0,20598:0:0:0:0:
320,192,20455,128,0,20598:0:0:0:0:
448,192,20670,128,0,20812:0:0:0:0:
64,192,20670,128,0,20812:0:0:0:0:
320,192,20670,128,0,20812:0:0:0:0:
448,192,20884,128,0,21098:0:0:0:0:
320,192,20884,128,0,21098:0:0:0:0:
64,192,20884,128,0,21098:0:0:0:0:
192,192,21170,1,0,0:0:0:0:
192,192,21312,1,0,0:0:0:0:
64,192,21455,128,0,21598:0:0:0:0:
448,192,21598,128,0,21812:0:0:0:0:
192,192,21598,128,0,21812:0:0:0:0:
320,192,21598,128,0,21812:0:0:0:0:
64,192,21884,1,0,0:0:0:0:
448,192,22027,128,0,22241:0:0:0:0:
320,192,22027,128,0,22241:0:0:0:0:
192,192,22027,128,0,22241:0:0:0:0:
64,192,22312,1,0,0:0:0:0:
64,192,22455,1,0,0:0:0:0:
320,192,22598,128,0,22741:0:0:0:0:
448,192,22741,128,0,22884:0:0:0:0:
64,192,22741,128,0,22884:0:0:0:0:
192,192,22741,128,0,22884:0:0:0:0:
448,192,22955,128,0,23098:0:0:0:0:
192,192,22955,128,0,23098:0:0:0:0:
64,192,22955,128,0,23098:0:0:0:0:
448,192,23170,128,0,23312:0:0:0:0:
192,192,23170,128,0,23312:0:0:0:0:
64,192,23170,128,0,23312:0:0:0:0:
448,192,23384,128,0,23527:0:0:0:0:
192,192,23384,128,0,23527:0:0:0:0:
64,192,23384,128,0,23527:0:0:0:0:
64,192,23598,128,0,23741:0:0:0:0:
192,192,23598,128,0,23741:0:0:0:0:
448,192,23598,128,0,23741:0:0:0:0:
64,192,23884,128,0,24098:0:0:0:0:
192,192,23884,128,0,24098:0:0:0:0:
320,192,23884,128,0,24098:0:0:0:0:
448,192,24170,1,0,0:0:0:0:
320,192,24312,128,0,24527:0:0:0:0:
192,192,24312,128,0,24527:0:0:0:0:
64,192,24312,128,0,24527:0:0:0:0:
448,192,24598,1,0,0:0:0:0:
448,192,24741,1,0,0:0:0:0:
192,192,24884,128,0,25027:0:0:0:0:
64,192,25027,128,0,25170:0:0:0:0:
448,192,25027,128,0,25170:0:0:0:0:
320,192,25027,128,0,25170:0:0:0:0:
448,192,25241,128,0,25384:0:0:0:0:
320,192,25241,128,0,25384:0:0:0:0:
64,192,25241,128,0,25384:0:0:0:0:
64,192,25455,128,0,25670:0:0:0:0:
448,192,25455,128,0,25670:0:0:0:0:
320,192,25455,128,0,25670:0:0:0:0:
192,192,25741,1,0,0:0:0:0:
192,192,25884,1,0,0:0:0:0:
64,192,26027,128,0,26170:0:0:0:0:
448,192,26170,128,0,26384:0:0:0:0:
320,192,26170,128,0,26384:0:0:0:0:
192,192,26170,128,0,26384:0:0:0:0:
64,192,26455,1,0,0:0:0:0:
448,192,26598,128,0,26812:0:0:0:0:
320,192,26598,128,0,26812:0:0:0:0:
192,192,26598,128,0,26812:0:0:0:0:
64,192,26884,1,0,0:0:0:0:
64,192,27027,1,0,0:0:0:0:
320,192,27170,128,0,27312:0:0:0:0:
448,192,27312,1,0,0:0:0:0:
64,192,27312,1,0,0:0:0:0:
448,192,27527,1,0,0:0:0:0:
64,192,27527,1,0,0:0:0:0:
448,192,27741,1,0,0:0:0:0:
64,192,27741,1,0,0:0:0:0:
448,192,27955,1,0,0:0:0:0:
64,192,27955,1,0,0:0:0:0:
448,192,28170,1,0,0:0:0:0:
64,192,28170,1,0,0:0:0:0:
448,192,28455,5,0,0:0:0:0:
320,192,28455,1,0,0:0:0:0:
192,192,28455,1,0,0:0:0:0:
64,192,28527,1,0,0:0:0:0:
320,192,28598,1,0,0:0:0:0:
192,192,28670,1,0,0:0:0:0:
448,192,28741,1,0,0:0:0:0:
64,192,28741,1,0,0:0:0:0:
192,192,28884,1,0,0:0:0:0:
320,192,28884,1,0,0:0:0:0:
64,192,29027,1,0,0:0:0:0:
448,192,29027,1,0,0:0:0:0:
320,192,29098,1,0,0:0:0:0:
192,192,29170,1,0,0:0:0:0:
448,192,29241,1,0,0:0:0:0:
64,192,29312,1,0,0:0:0:0:
192,192,29312,1,0,0:0:0:0:
448,192,29455,1,0,0:0:0:0:
320,192,29455,1,0,0:0:0:0:
64,192,29598,1,0,0:0:0:0:
192,192,29598,1,0,0:0:0:0:
448,192,29670,1,0,0:0:0:0:
192,192,29741,1,0,0:0:0:0:
320,192,29812,1,0,0:0:0:0:
64,192,29884,1,0,0:0:0:0:
448,192,29884,1,0,0:0:0:0:
320,192,30027,1,0,0:0:0:0:
192,192,30027,1,0,0:0:0:0:
448,192,30170,1,0,0:0:0:0:
64,192,30170,1,0,0:0:0:0:
192,192,30241,1,0,0:0:0:0:
320,192,30312,1,0,0:0:0:0:
64,192,30384,1,0,0:0:0:0:
448,192,30455,1,0,0:0:0:0:
320,192,30455,1,0,0:0:0:0:
192,192,30598,1,0,0:0:0:0:
64,192,30598,1,0,0:0:0:0:
448,192,30741,1,0,0:0:0:0:
320,192,30741,1,0,0:0:0:0:
64,192,30812,1,0,0:0:0:0:
320,192,30884,1,0,0:0:0:0:
192,192,30955,1,0,0:0:0:0:
448,192,31027,1,0,0:0:0:0:
64,192,31027,1,0,0:0:0:0:
320,192,31170,1,0,0:0:0:0:
192,192,31170,1,0,0:0:0:0:
64,192,31312,1,0,0:0:0:0:
448,192,31312,1,0,0:0:0:0:
320,192,31384,1,0,0:0:0:0:
192,192,31455,1,0,0:0:0:0:
448,192,31527,1,0,0:0:0:0:
192,192,31598,1,0,0:0:0:0:
64,192,31598,1,0,0:0:0:0:
320,192,31741,1,0,0:0:0:0:
64,192,31884,1,0,0:0:0:0:
448,192,31884,1,0,0:0:0:0:
448,192,32098,1,0,0:0:0:0:
64,192,32098,1,0,0:0:0:0:
64,192,32312,1,0,0:0:0:0:
448,192,32312,1,0,0:0:0:0:
448,192,32527,1,0,0:0:0:0:
64,192,32527,1,0,0:0:0:0:
448,192,32741,1,0,0:0:0:0:
64,192,32741,1,0,0:0:0:0:
64,192,33027,1,0,0:0:0:0:
448,192,33027,1,0,0:0:0:0:
320,192,33098,1,0,0:0:0:0:
64,192,33170,1,0,0:0:0:0:
192,192,33170,1,0,0:0:0:0:
320,192,33241,1,0,0:0:0:0:
448,192,33312,1,0,0:0:0:0:
64,192,33312,1,0,0:0:0:0:
192,192,33384,1,0,0:0:0:0:
320,192,33455,1,0,0:0:0:0:
448,192,33455,1,0,0:0:0:0:
192,192,33527,1,0,0:0:0:0:
448,192,33598,1,0,0:0:0:0:
64,192,33598,1,0,0:0:0:0:
320,192,33670,1,0,0:0:0:0:
192,192,33741,1,0,0:0:0:0:
64,192,33741,1,0,0:0:0:0:
320,192,33812,1,0,0:0:0:0:
64,192,33884,1,0,0:0:0:0:
448,192,33884,1,0,0:0:0:0:
192,192,33955,1,0,0:0:0:0:
320,192,34027,1,0,0:0:0:0:
448,192,34027,1,0,0:0:0:0:
192,192,34098,1,0,0:0:0:0:
64,192,34170,1,0,0:0:0:0:
448,192,34170,1,0,0:0:0:0:
320,192,34241,1,0,0:0:0:0:
192,192,34241,1,0,0:0:0:0:
64,192,34312,1,0,0:0:0:0:
448,192,34312,1,0,0:0:0:0:
320,192,34384,1,0,0:0:0:0:
192,192,34384,1,0,0:0:0:0:
448,192,34455,1,0,0:0:0:0:
64,192,34455,1,0,0:0:0:0:
192,192,34527,1,0,0:0:0:0:
320,192,34527,1,0,0:0:0:0:
448,192,34598,1,0,0:0:0:0:
64,192,34598,1,0,0:0:0:0:
192,192,34670,1,0,0:0:0:0:
320,192,34670,1,0,0:0:0:0:
64,192,34741,1,0,0:0:0:0:
448,192,34741,1,0,0:0:0:0:
320,192,34812,1,0,0:0:0:0:
192,192,34812,1,0,0:0:0:0:
64,192,34884,1,0,0:0:0:0:
448,192,34884,1,0,0:0:0:0:
320,192,34955,1,0,0:0:0:0:
192,192,34955,1,0,0:0:0:0:
448,192,35027,1,0,0:0:0:0:
64,192,35027,1,0,0:0:0:0:
192,192,35062,1,0,0:0:0:0:
320,192,35098,1,0,0:0:0:0:
448,192,35134,1,0,0:0:0:0:
64,192,35170,1,0,0:0:0:0:
192,192,35205,1,0,0:0:0:0:
320,192,35241,1,0,0:0:0:0:
448,192,35277,1,0,0:0:0:0:
64,192,35312,1,0,0:0:0:0:
192,192,35312,1,0,0:0:0:0:
320,192,35455,1,0,0:0:0:0:
448,192,35598,1,0,0:0:0:0:
64,192,35741,128,0,35884:0:0:0:0:
448,192,35884,128,0,36170:0:0:0:0:
192,192,36170,1,0,0:0:0:0:
192,192,36312,1,0,0:0:0:0:
448,192,36455,1,0,0:0:0:0:
64,192,36527,1,0,0:0:0:0:
320,192,36598,1,0,0:0:0:0:
64,192,36670,1,0,0:0:0:0:
192,192,36741,1,0,0:0:0:0:
64,192,36884,1,0,0:0:0:0:
448,192,36955,1,0,0:0:0:0:
192,192,37027,1,0,0:0:0:0:
320,192,37170,1,0,0:0:0:0:
64,192,37241,1,0,0:0:0:0:
192,192,37312,128,0,37598:0:0:0:0:
448,192,37312,1,0,0:0:0:0:
320,192,37598,128,0,37812:0:0:0:0:
448,192,37598,128,0,37812:0:0:0:0:
64,192,37598,128,0,37812:0:0:0:0:
320,192,37884,1,0,0:0:0:0:
64,192,37884,1,0,0:0:0:0:
448,192,37884,1,0,0:0:0:0:
320,192,38027,128,0,38170:0:0:0:0:
448,192,38170,1,0,0:0:0:0:
64,192,38170,1,0,0:0:0:0:
192,192,38241,1,0,0:0:0:0:
64,192,38312,1,0,0:0:0:0:
192,192,38384,1,0,0:0:0:0:
64,192,38455,128,0,38527:0:0:0:0:
448,192,38455,128,0,38598:0:0:0:0:
320,192,38455,128,0,38598:0:0:0:0:
64,192,38598,128,0,38741:0:0:0:0:
448,192,38741,1,0,0:0:0:0:
320,192,38741,1,0,0:0:0:0:
320,192,38884,128,0,39170:0:0:0:0:
64,192,39027,1,0,0:0:0:0:
448,192,39027,1,0,0:0:0:0:
192,192,39027,1,0,0:0:0:0:
64,192,39170,1,0,0:0:0:0:
64,192,39241,1,0,0:0:0:0:
448,192,39312,1,0,0:0:0:0:
320,192,39312,1,0,0:0:0:0:
64,192,39384,1,0,0:0:0:0:
448,192,39455,1,0,0:0:0:0:
64,192,39598,128,0,39670:0:0:0:0:
448,192,39598,128,0,39812:0:0:0:0:
320,192,39598,128,0,39670:0:0:0:0:
192,192,39741,128,0,39884:0:0:0:0:
64,192,39884,128,0,40098:0:0:0:0:
448,192,39884,128,0,40098:0:0:0:0:
320,192,39884,128,0,40098:0:0:0:0:
64,192,40170,1,0,0:0:0:0:
448,192,40170,1,0,0:0:0:0:
320,192,40170,1,0,0:0:0:0:
192,192,40312,128,0,40455:0:0:0:0:
448,192,40455,1,0,0:0:0:0:
64,192,40455,1,0,0:0:0:0:
320,192,40527,1,0,0:0:0:0:
448,192,40598,1,0,0:0:0:0:
320,192,40670,1,0,0:0:0:0:
64,192,40741,128,0,40884:0:0:0:0:
192,192,40741,128,0,40884:0:0:0:0:
448,192,40741,128,0,40812:0:0:0:0:
448,192,40884,128,0,41027:0:0:0:0:
64,192,41027,1,0,0:0:0:0:
192,192,41027,1,0,0:0:0:0:
320,192,41170,128,0,41241:0:0:0:0:
64,192,41312,1,0,0:0:0:0:
192,192,41312,128,0,41384:0:0:0:0:
448,192,41312,128,0,41384:0:0:0:0:
64,192,41455,1,0,0:0:0:0:
320,192,41455,128,0,41527:0:0:0:0:
448,192,41598,128,0,41670:0:0:0:0:
64,192,41598,1,0,0:0:0:0:
192,192,41598,128,0,41670:0:0:0:0:
320,192,41741,128,0,41812:0:0:0:0:
64,192,41884,1,0,0:0:0:0:
192,192,41884,1,0,0:0:0:0:
448,192,41884,1,0,0:0:0:0:
448,192,42170,128,0,42384:0:0:0:0:
64,192,42170,128,0,42384:0:0:0:0:
192,192,42312,1,0,0:0:0:0:
320,192,42312,1,0,0:0:0:0:
448,192,42455,1,0,0:0:0:0:
64,192,42455,1,0,0:0:0:0:
192,192,42455,1,0,0:0:0:0:
320,192,42598,128,0,42741:0:0:0:0:
64,192,42741,1,0,0:0:0:0:
448,192,42741,1,0,0:0:0:0:
192,192,42812,1,0,0:0:0:0:
64,192,42884,1,0,0:0:0:0:
192,192,42955,1,0,0:0:0:0:
320,192,43027,128,0,43170:0:0:0:0:
448,192,43027,128,0,43170:0:0:0:0:
64,192,43027,128,0,43098:0:0:0:0:
64,192,43170,128,0,43312:0:0:0:0:
320,192,43312,1,0,0:0:0:0:
448,192,43312,1,0,0:0:0:0:
448,192,43455,128,0,43741:0:0:0:0:
192,192,43598,1,0,0:0:0:0:
320,192,43598,1,0,0:0:0:0:
64,192,43598,1,0,0:0:0:0:
64,192,43741,1,0,0:0:0:0:
64,192,43812,1,0,0:0:0:0:
448,192,43884,1,0,0:0:0:0:
320,192,43884,1,0,0:0:0:0:
64,192,43955,1,0,0:0:0:0:
448,192,44027,1,0,0:0:0:0:
320,192,44170,128,0,44241:0:0:0:0:
64,192,44170,128,0,44241:0:0:0:0:
448,192,44170,128,0,44384:0:0:0:0:
64,192,44312,128,0,44384:0:0:0:0:
192,192,44312,128,0,44384:0:0:0:0:
320,192,44455,128,0,44670:0:0:0:0:
448,192,44455,128,0,44670:0:0:0:0:
64,192,44455,128,0,44670:0:0:0:0:
448,192,44741,1,0,0:0:0:0:
64,192,44741,1,0,0:0:0:0:
192,192,44884,1,0,0:0:0:0:
448,192,44884,1,0,0:0:0:0:
320,192,45027,1,0,0:0:0:0:
64,192,45098,1,0,0:0:0:0:
448,192,45170,1,0,0:0:0:0:
64,192,45241,1,0,0:0:0:0:
448,192,45312,1,0,0:0:0:0:
320,192,45312,1,0,0:0:0:0:
192,192,45455,1,0,0:0:0:0:
448,192,45598,1,0,0:0:0:0:
64,192,45598,1,0,0:0:0:0:
320,192,45646,1,0,0:0:0:0:
192,192,45693,1,0,0:0:0:0:
448,192,45741,1,0,0:0:0:0:
64,192,45741,1,0,0:0:0:0:
320,192,45789,1,0,0:0:0:0:
192,192,45836,1,0,0:0:0:0:
448,192,45884,1,0,0:0:0:0:
64,192,45884,1,0,0:0:0:0:
448,192,45979,1,0,0:0:0:0:
64,192,46027,1,0,0:0:0:0:
448,192,46074,1,0,0:0:0:0:
320,192,46170,1,0,0:0:0:0:
192,192,46170,1,0,0:0:0:0:
64,192,46312,1,0,0:0:0:0:
320,192,46348,1,0,0:0:0:0:
192,192,46384,1,0,0:0:0:0:
448,192,46420,1,0,0:0:0:0:
64,192,46455,128,0,46955:0:0:0:0:
192,192,46491,128,0,46670:0:0:0:0:
320,192,46527,128,0,46670:0:0:0:0:
448,192,46562,128,0,46670:0:0:0:0:
192,192,46741,128,0,46955:0:0:0:0:
320,192,46741,128,0,46955:0:0:0:0:
448,192,46741,128,0,46955:0:0:0:0:
320,192,47027,1,0,0:0:0:0:
192,192,47027,1,0,0:0:0:0:
64,192,47027,1,0,0:0:0:0:
448,192,47027,1,0,0:0:0:0:
320,192,47170,128,0,47312:0:0:0:0:
448,192,47312,1,0,0:0:0:0:
64,192,47312,1,0,0:0:0:0:
192,192,47384,1,0,0:0:0:0:
64,192,47455,1,0,0:0:0:0:
192,192,47527,1,0,0:0:0:0:
448,192,47598,128,0,47741:0:0:0:0:
320,192,47598,128,0,47741:0:0:0:0:
64,192,47598,128,0,47670:0:0:0:0:
64,192,47741,128,0,47884:0:0:0:0:
448,192,47884,1,0,0:0:0:0:
320,192,47884,1,0,0:0:0:0:
320,192,48027,128,0,48312:0:0:0:0:
192,192,48170,1,0,0:0:0:0:
64,192,48170,1,0,0:0:0:0:
448,192,48170,1,0,0:0:0:0:
64,192,48312,1,0,0:0:0:0:
64,192,48384,1,0,0:0:0:0:
448,192,48455,1,0,0:0:0:0:
320,192,48455,1,0,0:0:0:0:
64,192,48527,1,0,0:0:0:0:
448,192,48598,1,0,0:0:0:0:
64,192,48670,1,0,0:0:0:0:
192,192,48670,1,0,0:0:0:0:
448,192,48741,1,0,0:0:0:0:
320,192,48741,1,0,0:0:0:0:
64,192,48884,1,0,0:0:0:0:
192,192,48884,1,0,0:0:0:0:
192,192,49027,128,0,49312:0:0:0:0:
64,192,49170,1,0,0:0:0:0:
448,192,49170,1,0,0:0:0:0:
320,192,49312,1,0,0:0:0:0:
64,192,49312,1,0,0:0:0:0:
448,192,49312,1,0,0:0:0:0:
320,192,49455,1,0,0:0:0:0:
192,192,49455,1,0,0:0:0:0:
64,192,49598,1,0,0:0:0:0:
448,192,49598,1,0,0:0:0:0:
320,192,49670,1,0,0:0:0:0:
448,192,49741,1,0,0:0:0:0:
320,192,49812,1,0,0:0:0:0:
192,192,49884,128,0,50027:0:0:0:0:
64,192,49884,128,0,50027:0:0:0:0:
448,192,49884,128,0,49955:0:0:0:0:
448,192,50027,128,0,50170:0:0:0:0:
64,192,50170,1,0,0:0:0:0:
192,192,50170,1,0,0:0:0:0:
64,192,50312,128,0,50598:0:0:0:0:
192,192,50312,128,0,50598:0:0:0:0:
320,192,50455,1,0,0:0:0:0:
448,192,50455,1,0,0:0:0:0:
320,192,50598,128,0,50884:0:0:0:0:
448,192,50598,128,0,50884:0:0:0:0:
64,192,50741,1,0,0:0:0:0:
192,192,50741,1,0,0:0:0:0:
64,192,50884,128,0,51098:0:0:0:0:
192,192,50884,128,0,51098:0:0:0:0:
448,192,51027,128,0,51098:0:0:0:0:
320,192,51027,128,0,51098:0:0:0:0:
64,192,51312,128,0,51598:0:0:0:0:
448,192,51312,128,0,51598:0:0:0:0:
320,192,51312,1,0,0:0:0:0:
192,192,51312,1,0,0:0:0:0:
320,192,51598,1,0,0:0:0:0:
192,192,51598,1,0,0:0:0:0:
320,192,51884,1,0,0:0:0:0:
192,192,51884,1,0,0:0:0:0:
448,192,52170,1,0,0:0:0:0:
64,192,52170,1,0,0:0:0:0:
320,192,52241,1,0,0:0:0:0:
192,192,52241,1,0,0:0:0:0:
320,192,52384,1,0,0:0:0:0:
192,192,52384,1,0,0:0:0:0:
448,192,52455,1,0,0:0:0:0:
64,192,52455,1,0,0:0:0:0:
448,192,52741,1,0,0:0:0:0:
64,192,52741,1,0,0:0:0:0:
448,192,53027,1,0,0:0:0:0:
64,192,53027,1,0,0:0:0:0:
192,192,53170,1,0,0:0:0:0:
320,192,53170,1,0,0:0:0:0:
64,192,53312,1,0,0:0:0:0:
448,192,53312,1,0,0:0:0:0:
320,192,53384,1,0,0:0:0:0:
192,192,53384,1,0,0:0:0:0:
320,192,53527,1,0,0:0:0:0:
192,192,53527,1,0,0:0:0:0:
320,192,53598,128,0,53812:0:0:0:0:
448,192,53598,128,0,53812:0:0:0:0:
64,192,53598,128,0,53812:0:0:0:0:
448,192,53884,1,0,0:0:0:0:
64,192,53884,1,0,0:0:0:0:
448,192,54027,1,0,0:0:0:0:
64,192,54027,1,0,0:0:0:0:
448,192,54170,1,0,0:0:0:0:
64,192,54170,1,0,0:0:0:0:
448,192,54455,1,0,0:0:0:0:
64,192,54455,1,0,0:0:0:0:
448,192,54598,1,0,0:0:0:0:
64,192,54598,1,0,0:0:0:0:
64,192,54741,128,0,55527:0:0:0:0:
448,192,54741,128,0,55527:0:0:0:0:
64,192,55598,1,0,0:0:0:0:
448,192,55598,1,0,0:0:0:0:
320,192,55670,1,0,0:0:0:0:
192,192,55670,1,0,0:0:0:0:
448,192,55741,1,0,0:0:0:0:
64,192,55741,1,0,0:0:0:0:
192,192,55812,1,0,0:0:0:0:
320,192,55812,1,0,0:0:0:0:
448,192,55884,128,0,56241:0:0:0:0:
64,192,55884,128,0,56241:0:0:0:0:
320,192,56027,128,0,56098:0:0:0:0:
192,192,56027,128,0,56098:0:0:0:0:
192,192,56170,1,0,0:0:0:0:
320,192,56170,1,0,0:0:0:0:
448,192,56312,128,0,56384:0:0:0:0:
64,192,56312,128,0,56384:0:0:0:0:
448,192,56455,1,0,0:0:0:0:
64,192,56455,1,0,0:0:0:0:
320,192,56527,1,0,0:0:0:0:
192,192,56598,1,0,0:0:0:0:
448,192,56670,1,0,0:0:0:0:
192,192,56741,1,0,0:0:0:0:
64,192,56741,1,0,0:0:0:0:
320,192,56884,1,0,0:0:0:0:
448,192,57027,1,0,0:0:0:0:
64,192,57027,1,0,0:0:0:0:
64,192,57170,128,0,57455:0:0:0:0:
192,192,57312,1,0,0:0:0:0:
448,192,57312,1,0,0:0:0:0:
320,192,57312,1,0,0:0:0:0:
320,192,57455,1,0,0:0:0:0:
320,192,57527,1,0,0:0:0:0:
448,192,57598,1,0,0:0:0:0:
64,192,57598,1,0,0:0:0:0:
192,192,57670,1,0,0:0:0:0:
320,192,57741,1,0,0:0:0:0:
64,192,57812,1,0,0:0:0:0:
320,192,57884,1,0,0:0:0:0:
448,192,57884,1,0,0:0:0:0:
192,192,58027,1,0,0:0:0:0:
64,192,58170,1,0,0:0:0:0:
448,192,58170,128,0,58384:0:0:0:0:
320,192,58241,128,0,58384:0:0:0:0:
64,192,58312,128,0,58384:0:0:0:0:
64,192,58455,1,0,0:0:0:0:
320,192,58455,1,0,0:0:0:0:
448,192,58455,1,0,0:0:0:0:
192,192,58598,1,0,0:0:0:0:
448,192,58741,1,0,0:0:0:0:
64,192,58741,1,0,0:0:0:0:
320,192,58812,1,0,0:0:0:0:
192,192,58884,1,0,0:0:0:0:
448,192,58955,1,0,0:0:0:0:
64,192,59027,1,0,0:0:0:0:
192,192,59027,1,0,0:0:0:0:
320,192,59170,1,0,0:0:0:0:
448,192,59312,1,0,0:0:0:0:
64,192,59312,1,0,0:0:0:0:
192,192,59455,1,0,0:0:0:0:
448,192,59598,128,0,59741:0:0:0:0:
320,192,59598,128,0,59741:0:0:0:0:
64,192,59741,1,0,0:0:0:0:
320,192,59884,1,0,0:0:0:0:
448,192,59884,1,0,0:0:0:0:
64,192,59955,1,0,0:0:0:0:
192,192,60027,1,0,0:0:0:0:
320,192,60098,1,0,0:0:0:0:
448,192,60170,128,0,60241:0:0:0:0:
64,192,60170,128,0,60241:0:0:0:0:
448,192,60455,1,0,0:0:0:0:
64,192,60455,1,0,0:0:0:0:
64,192,60527,128,0,60670:0:0:0:0:
448,192,60527,128,0,60670:0:0:0:0:
320,192,60670,1,0,0:0:0:0:
192,192,60670,1,0,0:0:0:0:
448,192,60741,1,0,0:0:0:0:
64,192,60741,1,0,0:0:0:0:
192,192,60884,1,0,0:0:0:0:
320,192,61027,1,0,0:0:0:0:
448,192,61027,1,0,0:0:0:0:
64,192,61098,1,0,0:0:0:0:
320,192,61170,1,0,0:0:0:0:
192,192,61241,1,0,0:0:0:0:
448,192,61312,1,0,0:0:0:0:
64,192,61312,1,0,0:0:0:0:
320,192,61455,1,0,0:0:0:0:
64,192,61598,1,0,0:0:0:0:
192,192,61598,1,0,0:0:0:0:
192,192,61741,128,0,62027:0:0:0:0:
320,192,61884,1,0,0:0:0:0:
64,192,61884,1,0,0:0:0:0:
448,192,61884,1,0,0:0:0:0:
448,192,62027,1,0,0:0:0:0:
448,192,62098,1,0,0:0:0:0:
64,192,62170,1,0,0:0:0:0:
192,192,62170,1,0,0:0:0:0:
448,192,62241,1,0,0:0:0:0:
192,192,62312,1,0,0:0:0:0:
320,192,62384,1,0,0:0:0:0:
448,192,62455,1,0,0:0:0:0:
64,192,62455,1,0,0:0:0:0:
192,192,62598,1,0,0:0:0:0:
448,192,62741,128,0,62955:0:0:0:0:
320,192,62741,128,0,62955:0:0:0:0:
64,192,62741,128,0,62955:0:0:0:0:
448,192,63027,1,0,0:0:0:0:
320,192,63027,1,0,0:0:0:0:
64,192,63122,1,0,0:0:0:0:
192,192,63122,1,0,0:0:0:0:
320,192,63217,1,0,0:0:0:0:
448,192,63217,1,0,0:0:0:0:
192,192,63312,1,0,0:0:0:0:
64,192,63312,1,0,0:0:0:0:
448,192,63384,1,0,0:0:0:0:
64,192,63455,1,0,0:0:0:0:
448,192,63527,1,0,0:0:0:0:
320,192,63598,1,0,0:0:0:0:
192,192,63598,1,0,0:0:0:0:
192,192,63741,1,0,0:0:0:0:
320,192,63741,1,0,0:0:0:0:
448,192,63884,1,0,0:0:0:0:
64,192,63884,1,0,0:0:0:0:
320,192,63931,1,0,0:0:0:0:
192,192,63979,1,0,0:0:0:0:
448,192,64027,1,0,0:0:0:0:
64,192,64027,1,0,0:0:0:0:
320,192,64074,1,0,0:0:0:0:
192,192,64122,1,0,0:0:0:0:
64,192,64170,1,0,0:0:0:0:
448,192,64170,1,0,0:0:0:0:
448,192,64265,1,0,0:0:0:0:
64,192,64312,1,0,0:0:0:0:
448,192,64360,1,0,0:0:0:0:
320,192,64455,1,0,0:0:0:0:
192,192,64455,1,0,0:0:0:0:
64,192,64598,1,0,0:0:0:0:
320,192,64634,1,0,0:0:0:0:
192,192,64670,1,0,0:0:0:0:
448,192,64705,1,0,0:0:0:0:
64,192,64741,128,0,65241:0:0:0:0:
192,192,64777,128,0,64955:0:0:0:0:
320,192,64812,128,0,64955:0:0:0:0:
448,192,64848,128,0,64955:0:0:0:0:
320,192,65027,128,0,65241:0:0:0:0:
448,192,65027,128,0,65241:0:0:0:0:
320,192,65312,1,0,0:0:0:0:
448,192,65312,1,0,0:0:0:0:
64,192,65312,1,0,0:0:0:0:
192,192,65312,1,0,0:0:0:0:
192,192,65455,1,0,0:0:0:0:
448,192,65598,1,0,0:0:0:0:
64,192,65598,1,0,0:0:0:0:
320,192,65670,1,0,0:0:0:0:
192,192,65741,1,0,0:0:0:0:
448,192,65812,1,0,0:0:0:0:
64,192,65884,1,0,0:0:0:0:
192,192,65884,1,0,0:0:0:0:
320,192,66027,1,0,0:0:0:0:
448,192,66170,1,0,0:0:0:0:
64,192,66170,1,0,0:0:0:0:
320,192,66312,128,0,66598:0:0:0:0:
448,192,66455,1,0,0:0:0:0:
192,192,66455,1,0,0:0:0:0:
64,192,66455,1,0,0:0:0:0:
64,192,66598,1,0,0:0:0:0:
64,192,66670,1,0,0:0:0:0:
448,192,66741,1,0,0:0:0:0:
320,192,66741,1,0,0:0:0:0:
64,192,66812,1,0,0:0:0:0:
320,192,66884,1,0,0:0:0:0:
192,192,66955,1,0,0:0:0:0:
448,192,67027,1,0,0:0:0:0:
64,192,67027,1,0,0:0:0:0:
320,192,67170,1,0,0:0:0:0:
192,192,67312,1,0,0:0:0:0:
448,192,67312,128,0,67527:0:0:0:0:
320,192,67384,128,0,67527:0:0:0:0:
192,192,67455,128,0,67527:0:0:0:0:
320,192,67598,1,0,0:0:0:0:
192,192,67598,1,0,0:0:0:0:
448,192,67598,1,0,0:0:0:0:
64,192,67741,1,0,0:0:0:0:
320,192,67884,1,0,0:0:0:0:
192,192,67884,1,0,0:0:0:0:
448,192,67955,1,0,0:0:0:0:
192,192,68027,1,0,0:0:0:0:
320,192,68098,1,0,0:0:0:0:
64,192,68170,1,0,0:0:0:0:
448,192,68170,1,0,0:0:0:0:
192,192,68312,1,0,0:0:0:0:
448,192,68455,1,0,0:0:0:0:
320,192,68455,1,0,0:0:0:0:
192,192,68598,1,0,0:0:0:0:
64,192,68741,1,0,0:0:0:0:
448,192,68741,1,0,0:0:0:0:
192,192,68812,1,0,0:0:0:0:
320,192,68884,1,0,0:0:0:0:
64,192,69027,128,0,69312:0:0:0:0:
320,192,69027,1,0,0:0:0:0:
320,192,69170,1,0,0:0:0:0:
448,192,69312,1,0,0:0:0:0:
192,192,69312,1,0,0:0:0:0:
64,192,69598,1,0,0:0:0:0:
192,192,69598,1,0,0:0:0:0:
448,192,69598,128,0,69884:0:0:0:0:
64,192,69812,1,0,0:0:0:0:
192,192,69812,1,0,0:0:0:0:
320,192,70027,1,0,0:0:0:0:
192,192,70027,1,0,0:0:0:0:
64,192,70170,128,0,70455:0:0:0:0:
448,192,70241,1,0,0:0:0:0:
320,192,70241,1,0,0:0:0:0:
448,192,70455,1,0,0:0:0:0:
320,192,70455,1,0,0:0:0:0:
448,192,70741,1,0,0:0:0:0:
64,192,70741,1,0,0:0:0:0:
320,192,70741,128,0,71027:0:0:0:0:
64,192,70955,1,0,0:0:0:0:
448,192,70955,1,0,0:0:0:0:
192,192,71170,1,0,0:0:0:0:
320,192,71170,1,0,0:0:0:0:
192,192,71312,128,0,71598:0:0:0:0:
448,192,71384,1,0,0:0:0:0:
64,192,71384,1,0,0:0:0:0:
448,192,71598,1,0,0:0:0:0:
64,192,71598,1,0,0:0:0:0:
64,192,71884,1,0,0:0:0:0:
192,192,71884,1,0,0:0:0:0:
448,192,71884,128,0,72170:0:0:0:0:
64,192,72098,1,0,0:0:0:0:
192,192,72098,1,0,0:0:0:0:
64,192,72312,1,0,0:0:0:0:
192,192,72312,1,0,0:0:0:0:
448,192,72455,1,0,0:0:0:0:
320,192,72455,1,0,0:0:0:0:
64,192,72455,128,0,72741:0:0:0:0:
448,192,72670,1,0,0:0:0:0:
320,192,72670,1,0,0:0:0:0:
448,192,72884,1,0,0:0:0:0:
320,192,72884,1,0,0:0:0:0:
320,192,73027,128,0,73384:0:0:0:0:
448,192,73027,128,0,73384:0:0:0:0:
192,192,73312,128,0,73384:0:0:0:0:
64,192,73312,128,0,73384:0:0:0:0:
448,192,73455,1,0,0:0:0:0:
448,192,73527,1,0,0:0:0:0:
64,192,73598,128,0,73670:0:0:0:0:
192,192,73598,128,0,73670:0:0:0:0:
448,192,73741,1,0,0:0:0:0:
448,192,73812,1,0,0:0:0:0:
448,192,73955,128,0,74098:0:0:0:0:
192,192,74027,1,0,0:0:0:0:
64,192,74027,1,0,0:0:0:0:
320,192,74170,128,0,74455:0:0:0:0:
448,192,74170,128,0,74455:0:0:0:0:
64,192,74170,128,0,74455:0:0:0:0:
192,192,74170,128,0,74455:0:0:0:0:
320,192,78741,128,0,79027:0:0:0:0:
448,192,78741,128,0,79027:0:0:0:0:
64,192,78741,128,0,79027:0:0:0:0:
192,192,78741,128,0,79027:0:0:0:0:
64,192,83312,128,0,83527:0:0:0:0:
448,192,83312,128,0,83527:0:0:0:0:
320,192,83312,128,0,83527:0:0:0:0:
64,192,83598,1,0,0:0:0:0:
64,192,83884,1,0,0:0:0:0:
64,192,84170,1,0,0:0:0:0:
320,192,84455,1,0,0:0:0:0:
320,192,84741,1,0,0:0:0:0:
320,192,85027,1,0,0:0:0:0:
320,192,85312,1,0,0:0:0:0:
192,192,85598,1,0,0:0:0:0:
192,192,85884,1,0,0:0:0:0:
192,192,86170,1,0,0:0:0:0:
192,192,86455,1,0,0:0:0:0:
448,192,86741,1,0,0:0:0:0:
448,192,87027,1,0,0:0:0:0:
448,192,87312,1,0,0:0:0:0:
448,192,87598,1,0,0:0:0:0:
320,192,87884,128,0,88098:0:0:0:0:
448,192,87884,128,0,88098:0:0:0:0:
64,192,87884,1,0,0:0:0:0:
192,192,87955,1,0,0:0:0:0:
64,192,88027,1,0,0:0:0:0:
192,192,88098,1,0,0:0:0:0:
64,192,88170,1,0,0:0:0:0:
448,192,88170,1,0,0:0:0:0:
320,192,88241,1,0,0:0:0:0:
192,192,88312,1,0,0:0:0:0:
320,192,88384,1,0,0:0:0:0:
448,192,88455,1,0,0:0:0:0:
64,192,88455,1,0,0:0:0:0:
192,192,88527,1,0,0:0:0:0:
320,192,88598,1,0,0:0:0:0:
448,192,88670,1,0,0:0:0:0:
64,192,88741,1,0,0:0:0:0:
192,192,88741,1,0,0:0:0:0:
448,192,88812,1,0,0:0:0:0:
320,192,88884,1,0,0:0:0:0:
192,192,88955,1,0,0:0:0:0:
320,192,89027,1,0,0:0:0:0:
64,192,89027,1,0,0:0:0:0:
448,192,89098,1,0,0:0:0:0:
192,192,89170,1,0,0:0:0:0:
64,192,89241,1,0,0:0:0:0:
448,192,89312,1,0,0:0:0:0:
320,192,89312,1,0,0:0:0:0:
64,192,89384,1,0,0:0:0:0:
192,192,89455,1,0,0:0:0:0:
320,192,89527,1,0,0:0:0:0:
192,192,89598,1,0,0:0:0:0:
448,192,89598,1,0,0:0:0:0:
64,192,89670,1,0,0:0:0:0:
320,192,89741,1,0,0:0:0:0:
192,192,89812,1,0,0:0:0:0:
448,192,89884,1,0,0:0:0:0:
64,192,89884,1,0,0:0:0:0:
320,192,89955,1,0,0:0:0:0:
192,192,90027,1,0,0:0:0:0:
320,192,90098,1,0,0:0:0:0:
64,192,90170,1,0,0:0:0:0:
448,192,90170,1,0,0:0:0:0:
192,192,90241,1,0,0:0:0:0:
448,192,90312,1,0,0:0:0:0:
320,192,90312,1,0,0:0:0:0:
192,192,90384,1,0,0:0:0:0:
448,192,90455,1,0,0:0:0:0:
64,192,90455,1,0,0:0:0:0:
320,192,90527,1,0,0:0:0:0:
64,192,90598,1,0,0:0:0:0:
192,192,90598,1,0,0:0:0:0:
320,192,90670,1,0,0:0:0:0:
64,192,90741,1,0,0:0:0:0:
448,192,90741,1,0,0:0:0:0:
192,192,90812,1,0,0:0:0:0:
448,192,90884,1,0,0:0:0:0:
320,192,90884,1,0,0:0:0:0:
192,192,90955,1,0,0:0:0:0:
448,192,91027,1,0,0:0:0:0:
64,192,91027,1,0,0:0:0:0:
320,192,91098,1,0,0:0:0:0:
192,192,91098,1,0,0:0:0:0:
448,192,91170,1,0,0:0:0:0:
64,192,91170,1,0,0:0:0:0:
320,192,91241,1,0,0:0:0:0:
192,192,91241,1,0,0:0:0:0:
448,192,91312,1,0,0:0:0:0:
64,192,91312,1,0,0:0:0:0:
320,192,91455,128,0,91812:0:0:0:0:
448,192,91527,128,0,91812:0:0:0:0:
64,192,91598,128,0,91670:0:0:0:0:
64,192,91741,1,0,0:0:0:0:
64,192,91812,1,0,0:0:0:0:
192,192,91884,1,0,0:0:0:0:
448,192,91884,1,0,0:0:0:0:
192,192,91955,1,0,0:0:0:0:
448,192,91955,1,0,0:0:0:0:
448,192,92098,1,0,0:0:0:0:
192,192,92098,1,0,0:0:0:0:
448,192,92170,1,0,0:0:0:0:
192,192,92170,1,0,0:0:0:0:
192,192,92312,1,0,0:0:0:0:
192,192,92384,1,0,0:0:0:0:
320,192,92455,128,0,92812:0:0:0:0:
448,192,92455,128,0,92812:0:0:0:0:
64,192,92455,128,0,92812:0:0:0:0:
448,192,92884,1,0,0:0:0:0:
320,192,92884,1,0,0:0:0:0:
64,192,92884,1,0,0:0:0:0:
448,192,93027,1,0,0:0:0:0:
320,192,93027,1,0,0:0:0:0:
64,192,93027,1,0,0:0:0:0:
64,192,93170,1,0,0:0:0:0:
192,192,93170,1,0,0:0:0:0:
448,192,93241,1,0,0:0:0:0:
320,192,93241,1,0,0:0:0:0:
64,192,93384,1,0,0:0:0:0:
192,192,93384,1,0,0:0:0:0:
320,192,93455,1,0,0:0:0:0:
448,192,93455,1,0,0:0:0:0:
64,192,93598,1,0,0:0:0:0:
448,192,93598,1,0,0:0:0:0:
320,192,93670,1,0,0:0:0:0:
192,192,93670,1,0,0:0:0:0:
64,192,93812,1,0,0:0:0:0:
448,192,93812,1,0,0:0:0:0:
320,192,93884,1,0,0:0:0:0:
192,192,93884,1,0,0:0:0:0:
192,192,94027,1,0,0:0:0:0:
320,192,94027,1,0,0:0:0:0:
448,192,94098,1,0,0:0:0:0:
64,192,94098,1,0,0:0:0:0:
192,192,94241,1,0,0:0:0:0:
320,192,94241,1,0,0:0:0:0:
448,192,94312,1,0,0:0:0:0:
64,192,94312,1,0,0:0:0:0:
320,192,94455,128,0,94741:0:0:0:0:
192,192,94741,128,0,95098:0:0:0:0:
64,192,94741,128,0,95098:0:0:0:0:
448,192,94741,128,0,95098:0:0:0:0:
448,192,95170,1,0,0:0:0:0:
64,192,95170,1,0,0:0:0:0:
192,192,95170,1,0,0:0:0:0:
320,192,95241,1,0,0:0:0:0:
448,192,95312,1,0,0:0:0:0:
64,192,95312,1,0,0:0:0:0:
192,192,95312,1,0,0:0:0:0:
192,192,95455,1,0,0:0:0:0:
320,192,95455,1,0,0:0:0:0:
448,192,95527,1,0,0:0:0:0:
64,192,95527,1,0,0:0:0:0:
320,192,95670,1,0,0:0:0:0:
192,192,95670,1,0,0:0:0:0:
448,192,95741,1,0,0:0:0:0:
64,192,95741,1,0,0:0:0:0:
448,192,95884,1,0,0:0:0:0:
320,192,95884,1,0,0:0:0:0:
64,192,95955,1,0,0:0:0:0:
192,192,95955,1,0,0:0:0:0:
448,192,96098,1,0,0:0:0:0:
320,192,96098,1,0,0:0:0:0:
64,192,96170,1,0,0:0:0:0:
192,192,96170,1,0,0:0:0:0:
64,192,96312,1,0,0:0:0:0:
192,192,96312,1,0,0:0:0:0:
448,192,96384,1,0,0:0:0:0:
320,192,96384,1,0,0:0:0:0:
64,192,96527,1,0,0:0:0:0:
192,192,96527,1,0,0:0:0:0:
448,192,96598,1,0,0:0:0:0:
320,192,96598,1,0,0:0:0:0:
192,192,96741,128,0,97027:0:0:0:0:
64,192,96884,1,0,0:0:0:0:
448,192,96884,1,0,0:0:0:0:
64,192,97027,128,0,97384:0:0:0:0:
448,192,97027,128,0,97384:0:0:0:0:
320,192,97027,128,0,97384:0:0:0:0:
448,192,97455,1,0,0:0:0:0:
320,192,97455,1,0,0:0:0:0:
64,192,97455,1,0,0:0:0:0:
320,192,97598,1,0,0:0:0:0:
448,192,97598,1,0,0:0:0:0:
64,192,97598,1,0,0:0:0:0:
448,192,97741,1,0,0:0:0:0:
192,192,97741,1,0,0:0:0:0:
64,192,97812,1,0,0:0:0:0:
320,192,97812,1,0,0:0:0:0:
448,192,97955,1,0,0:0:0:0:
192,192,97955,1,0,0:0:0:0:
64,192,98027,1,0,0:0:0:0:
320,192,98027,1,0,0:0:0:0:
320,192,98170,1,0,0:0:0:0:
192,192,98170,1,0,0:0:0:0:
448,192,98241,1,0,0:0:0:0:
64,192,98241,1,0,0:0:0:0:
320,192,98384,1,0,0:0:0:0:
192,192,98384,1,0,0:0:0:0:
448,192,98455,1,0,0:0:0:0:
64,192,98455,1,0,0:0:0:0:
64,192,98598,1,0,0:0:0:0:
448,192,98598,1,0,0:0:0:0:
320,192,98670,1,0,0:0:0:0:
192,192,98670,1,0,0:0:0:0:
448,192,98812,1,0,0:0:0:0:
64,192,98812,1,0,0:0:0:0:
192,192,98884,1,0,0:0:0:0:
320,192,98884,1,0,0:0:0:0:
192,192,99027,128,0,99312:0:0:0:0:
64,192,99312,128,0,99670:0:0:0:0:
320,192,99312,128,0,99670:0:0:0:0:
448,192,99312,128,0,99670:0:0:0:0:
320,192,99741,1,0,0:0:0:0:
448,192,99741,1,0,0:0:0:0:
64,192,99741,1,0,0:0:0:0:
192,192,99812,1,0,0:0:0:0:
64,192,99884,1,0,0:0:0:0:
448,192,99884,1,0,0:0:0:0:
320,192,99884,1,0,0:0:0:0:
64,192,100027,1,0,0:0:0:0:
192,192,100027,1,0,0:0:0:0:
448,192,100098,1,0,0:0:0:0:
320,192,100098,1,0,0:0:0:0:
64,192,100241,1,0,0:0:0:0:
192,192,100241,1,0,0:0:0:0:
448,192,100312,1,0,0:0:0:0:
320,192,100312,1,0,0:0:0:0:
64,192,100455,1,0,0:0:0:0:
192,192,100455,1,0,0:0:0:0:
192,192,100527,128,0,100812:0:0:0:0:
64,192,100527,128,0,100812:0:0:0:0:
448,192,100670,1,0,0:0:0:0:
320,192,100670,1,0,0:0:0:0:
320,192,100741,128,0,100884:0:0:0:0:
448,192,100741,128,0,100884:0:0:0:0:
192,192,100884,1,0,0:0:0:0:
64,192,100884,1,0,0:0:0:0:
448,192,100955,1,0,0:0:0:0:
320,192,100955,1,0,0:0:0:0:
448,192,101027,1,0,0:0:0:0:
192,192,101027,1,0,0:0:0:0:
64,192,101027,1,0,0:0:0:0:
320,192,101027,1,0,0:0:0:0:
320,192,101598,128,0,101955:0:0:0:0:
448,192,101598,128,0,101955:0:0:0:0:
64,192,101598,128,0,101955:0:0:0:0:
192,192,101598,128,0,101955:0:0:0:0:
320,192,102027,1,0,0:0:0:0:
448,192,102027,1,0,0:0:0:0:
64,192,102027,1,0,0:0:0:0:
192,192,102027,1,0,0:0:0:0:
320,192,102170,1,0,0:0:0:0:
448,192,102170,1,0,0:0:0:0:
64,192,102170,1,0,0:0:0:0:
192,192,102170,1,0,0:0:0:0:
192,192,102312,1,0,0:0:0:0:
448,192,102384,1,0,0:0:0:0:
320,192,102384,1,0,0:0:0:0:
64,192,102384,1,0,0:0:0:0:
320,192,102527,1,0,0:0:0:0:
64,192,102598,1,0,0:0:0:0:
192,192,102598,1,0,0:0:0:0:
448,192,102598,1,0,0:0:0:0:
192,192,102741,1,0,0:0:0:0:
64,192,102812,1,0,0:0:0:0:
448,192,102812,1,0,0:0:0:0:
320,192,102812,1,0,0:0:0:0:
320,192,102955,1,0,0:0:0:0:
448,192,103027,1,0,0:0:0:0:
64,192,103027,1,0,0:0:0:0:
192,192,103027,1,0,0:0:0:0:
192,192,103170,1,0,0:0:0:0:
320,192,103241,1,0,0:0:0:0:
448,192,103241,1,0,0:0:0:0:
64,192,103241,1,0,0:0:0:0:
320,192,103384,1,0,0:0:0:0:
192,192,103455,1,0,0:0:0:0:
448,192,103455,1,0,0:0:0:0:
64,192,103455,1,0,0:0:0:0:
320,192,103598,128,0,104241:0:0:0:0:
448,192,103884,128,0,104241:0:0:0:0:
64,192,103884,128,0,104241:0:0:0:0:
192,192,103884,128,0,104241:0:0:0:0:
448,192,104312,1,0,0:0:0:0:
192,192,104312,1,0,0:0:0:0:
64,192,104312,1,0,0:0:0:0:
320,192,104384,1,0,0:0:0:0:
448,192,104455,1,0,0:0:0:0:
64,192,104455,1,0,0:0:0:0:
192,192,104455,1,0,0:0:0:0:
64,192,104598,1,0,0:0:0:0:
448,192,104670,1,0,0:0:0:0:
320,192,104670,1,0,0:0:0:0:
192,192,104670,1,0,0:0:0:0:
448,192,104812,1,0,0:0:0:0:
192,192,104884,1,0,0:0:0:0:
320,192,104884,1,0,0:0:0:0:
64,192,104884,1,0,0:0:0:0:
64,192,105027,1,0,0:0:0:0:
448,192,105098,1,0,0:0:0:0:
192,192,105098,1,0,0:0:0:0:
320,192,105098,1,0,0:0:0:0:
448,192,105241,1,0,0:0:0:0:
320,192,105312,1,0,0:0:0:0:
64,192,105312,1,0,0:0:0:0:
192,192,105312,1,0,0:0:0:0:
64,192,105455,1,0,0:0:0:0:
448,192,105527,1,0,0:0:0:0:
320,192,105527,1,0,0:0:0:0:
192,192,105527,1,0,0:0:0:0:
448,192,105670,1,0,0:0:0:0:
192,192,105741,1,0,0:0:0:0:
320,192,105741,1,0,0:0:0:0:
64,192,105741,1,0,0:0:0:0:
192,192,105884,1,0,0:0:0:0:
448,192,105955,1,0,0:0:0:0:
64,192,106027,1,0,0:0:0:0:
320,192,106098,1,0,0:0:0:0:
448,192,106170,128,0,106527:0:0:0:0:
320,192,106170,128,0,106527:0:0:0:0:
64,192,106170,128,0,106527:0:0:0:0:
192,192,106170,128,0,106527:0:0:0:0:
64,192,106598,1,0,0:0:0:0:
448,192,106598,1,0,0:0:0:0:
448,192,106741,1,0,0:0:0:0:
192,192,106741,1,0,0:0:0:0:
320,192,106884,1,0,0:0:0:0:
64,192,106955,1,0,0:0:0:0:
192,192,107098,1,0,0:0:0:0:
448,192,107170,1,0,0:0:0:0:
320,192,107312,1,0,0:0:0:0:
64,192,107384,1,0,0:0:0:0:
192,192,107527,1,0,0:0:0:0:
448,192,107598,1,0,0:0:0:0:
320,192,107741,1,0,0:0:0:0:
64,192,107812,1,0,0:0:0:0:
192,192,107955,1,0,0:0:0:0:
448,192,108027,1,0,0:0:0:0:
320,192,108170,1,0,0:0:0:0:
64,192,108241,1,0,0:0:0:0:
320,192,108312,1,0,0:0:0:0:
192,192,108384,1,0,0:0:0:0:
448,192,108455,1,0,0:0:0:0:
192,192,108598,1,0,0:0:0:0:
64,192,108741,1,0,0:0:0:0:
64,192,108884,1,0,0:0:0:0:
320,192,108955,1,0,0:0:0:0:
448,192,109027,1,0,0:0:0:0:
192,192,109170,1,0,0:0:0:0:
448,192,109241,1,0,0:0:0:0:
64,192,109384,1,0,0:0:0:0:
448,192,109455,1,0,0:0:0:0:
448,192,109598,128,0,109670:0:0:0:0:
192,192,109598,1,0,0:0:0:0:
64,192,109598,1,0,0:0:0:0:
320,192,109741,128,0,109812:0:0:0:0:
192,192,109884,128,0,110098:0:0:0:0:
448,192,110027,128,0,110170:0:0:0:0:
64,192,110170,128,0,110312:0:0:0:0:
320,192,110312,1,0,0:0:0:0:
320,192,110455,128,0,111098:0:0:0:0:
448,192,110741,128,0,111098:0:0:0:0:
192,192,110741,128,0,111098:0:0:0:0:
64,192,110741,128,0,111098:0:0:0:0:
320,192,111170,128,0,111312:0:0:0:0:
448,192,111312,128,0,111384:0:0:0:0:
192,192,111312,128,0,111384:0:0:0:0:
64,192,111312,128,0,111384:0:0:0:0:
320,192,111455,128,0,111598:0:0:0:0:
64,192,111527,128,0,111670:0:0:0:0:
192,192,111598,1,0,0:0:0:0:
448,192,111598,1,0,0:0:0:0:
448,192,111670,128,0,111812:0:0:0:0:
192,192,111741,128,0,111884:0:0:0:0:
320,192,111884,128,0,112027:0:0:0:0:
64,192,111955,128,0,112098:0:0:0:0:
320,192,112098,128,0,112241:0:0:0:0:
448,192,112170,1,0,0:0:0:0:
192,192,112170,128,0,112312:0:0:0:0:
64,192,112170,1,0,0:0:0:0:
448,192,112312,128,0,112455:0:0:0:0:
192,192,112384,128,0,112527:0:0:0:0:
320,192,112455,1,0,0:0:0:0:
64,192,112455,1,0,0:0:0:0:
320,192,112527,128,0,112670:0:0:0:0:
64,192,112598,128,0,112741:0:0:0:0:
320,192,112741,128,0,113027:0:0:0:0:
448,192,113027,128,0,113384:0:0:0:0:
64,192,113027,128,0,113384:0:0:0:0:
192,192,113027,128,0,113384:0:0:0:0:
320,192,113455,1,0,0:0:0:0:
320,192,113527,1,0,0:0:0:0:
448,192,113598,128,0,113670:0:0:0:0:
64,192,113598,128,0,113670:0:0:0:0:
192,192,113598,128,0,113670:0:0:0:0:
192,192,113741,128,0,113884:0:0:0:0:
448,192,113812,128,0,113955:0:0:0:0:
64,192,113884,1,0,0:0:0:0:
320,192,113884,1,0,0:0:0:0:
192,192,113955,128,0,114098:0:0:0:0:
320,192,114027,128,0,114170:0:0:0:0:
64,192,114170,128,0,114312:0:0:0:0:
320,192,114241,128,0,114384:0:0:0:0:
192,192,114384,128,0,114527:0:0:0:0:
64,192,114455,1,0,0:0:0:0:
320,192,114455,1,0,0:0:0:0:
448,192,114455,128,0,114598:0:0:0:0:
64,192,114598,128,0,114741:0:0:0:0:
320,192,114670,128,0,114812:0:0:0:0:
448,192,114741,1,0,0:0:0:0:
192,192,114741,1,0,0:0:0:0:
192,192,114812,128,0,114955:0:0:0:0:
448,192,114884,128,0,115027:0:0:0:0:
192,192,115027,128,0,115312:0:0:0:0:
64,192,115170,128,0,115241:0:0:0:0:
448,192,115170,128,0,115241:0:0:0:0:
448,192,115312,128,0,115670:0:0:0:0:
320,192,115312,128,0,115670:0:0:0:0:
64,192,115312,128,0,115670:0:0:0:0:
192,192,115741,128,0,115884:0:0:0:0:
448,192,115884,128,0,115955:0:0:0:0:
320,192,115884,1,0,0:0:0:0:
64,192,115884,128,0,116098:0:0:0:0:
320,192,116027,128,0,116098:0:0:0:0:
448,192,116170,128,0,116670:0:0:0:0:
64,192,116170,128,0,116241:0:0:0:0:
192,192,116170,128,0,116241:0:0:0:0:
192,192,116312,128,0,116527:0:0:0:0:
320,192,116312,128,0,116527:0:0:0:0:
64,192,116598,128,0,116670:0:0:0:0:
192,192,116598,128,0,116670:0:0:0:0:
448,192,116741,1,0,0:0:0:0:
320,192,116741,1,0,0:0:0:0:
64,192,116812,1,0,0:0:0:0:
192,192,116884,1,0,0:0:0:0:
448,192,116955,1,0,0:0:0:0:
64,192,117027,1,0,0:0:0:0:
192,192,117027,1,0,0:0:0:0:
320,192,117027,1,0,0:0:0:0:
448,192,117098,1,0,0:0:0:0:
192,192,117170,1,0,0:0:0:0:
320,192,117241,1,0,0:0:0:0:
448,192,117312,128,0,117384:0:0:0:0:
64,192,117312,128,0,117384:0:0:0:0:
448,192,117455,128,0,117955:0:0:0:0:
64,192,117455,128,0,117955:0:0:0:0:
320,192,117598,128,0,117955:0:0:0:0:
192,192,117598,128,0,117955:0:0:0:0:
320,192,118027,128,0,118170:0:0:0:0:
64,192,118170,128,0,118241:0:0:0:0:
192,192,118170,1,0,0:0:0:0:
448,192,118170,128,0,118384:0:0:0:0:
192,192,118312,128,0,118384:0:0:0:0:
320,192,118455,128,0,118527:0:0:0:0:
64,192,118455,128,0,118670:0:0:0:0:
448,192,118598,128,0,118670:0:0:0:0:
192,192,118741,128,0,118955:0:0:0:0:
448,192,118812,128,0,118955:0:0:0:0:
64,192,118884,128,0,119098:0:0:0:0:
320,192,118955,128,0,119098:0:0:0:0:
448,192,119027,128,0,119241:0:0:0:0:
192,192,119027,128,0,119241:0:0:0:0:
320,192,119170,128,0,119241:0:0:0:0:
64,192,119170,128,0,119241:0:0:0:0:
448,192,119312,1,0,0:0:0:0:
64,192,119312,1,0,0:0:0:0:
192,192,119312,1,0,0:0:0:0:
320,192,119312,1,0,0:0:0:0:
320,192,119884,1,0,0:0:0:0:
192,192,119884,1,0,0:0:0:0:
448,192,120455,1,0,0:0:0:0:
64,192,120455,1,0,0:0:0:0:
192,192,120455,1,0,0:0:0:0:
320,192,120598,128,0,120955:0:0:0:0:
64,192,120670,128,0,121027:0:0:0:0:
192,192,120741,128,0,120812:0:0:0:0:
448,192,120741,1,0,0:0:0:0:
448,192,120812,128,0,121027:0:0:0:0:
192,192,120884,128,0,121027:0:0:0:0:
320,192,121027,128,0,121170:0:0:0:0:
64,192,121098,128,0,121241:0:0:0:0:
320,192,121241,128,0,121384:0:0:0:0:
448,192,121312,1,0,0:0:0:0:
64,192,121312,1,0,0:0:0:0:
192,192,121312,128,0,121455:0:0:0:0:
448,192,121455,128,0,121598:0:0:0:0:
192,192,121527,128,0,121670:0:0:0:0:
64,192,121598,1,0,0:0:0:0:
320,192,121598,1,0,0:0:0:0:
320,192,121670,128,0,121812:0:0:0:0:
64,192,121741,128,0,121884:0:0:0:0:
320,192,121884,128,0,122170:0:0:0:0:
448,192,122170,128,0,122527:0:0:0:0:
64,192,122170,128,0,122527:0:0:0:0:
192,192,122170,128,0,122527:0:0:0:0:
320,192,122598,1,0,0:0:0:0:
320,192,122670,1,0,0:0:0:0:
448,192,122741,128,0,122812:0:0:0:0:
64,192,122741,128,0,122812:0:0:0:0:
192,192,122741,128,0,122812:0:0:0:0:
192,192,122884,128,0,123027:0:0:0:0:
448,192,122955,128,0,123098:0:0:0:0:
64,192,123027,1,0,0:0:0:0:
320,192,123027,1,0,0:0:0:0:
64,192,123098,128,0,123241:0:0:0:0:
320,192,123170,128,0,123312:0:0:0:0:
192,192,123312,128,0,123455:0:0:0:0:
448,192,123384,128,0,123527:0:0:0:0:
64,192,123527,128,0,123670:0:0:0:0:
448,192,123598,1,0,0:0:0:0:
192,192,123598,1,0,0:0:0:0:
320,192,123598,128,0,123741:0:0:0:0:
192,192,123741,128,0,123884:0:0:0:0:
448,192,123812,128,0,123955:0:0:0:0:
64,192,123884,1,0,0:0:0:0:
320,192,123884,1,0,0:0:0:0:
192,192,123955,128,0,124098:0:0:0:0:
320,192,124027,128,0,124170:0:0:0:0:
64,192,124170,128,0,124312:0:0:0:0:
320,192,124312,128,0,124455:0:0:0:0:
448,192,124455,128,0,124670:0:0:0:0:
192,192,124455,128,0,124670:0:0:0:0:
64,192,124455,128,0,124670:0:0:0:0:
448,192,124741,1,0,0:0:0:0:
64,192,124741,1,0,0:0:0:0:
192,192,124741,1,0,0:0:0:0:
448,192,124884,128,0,125098:0:0:0:0:
64,192,124884,128,0,125098:0:0:0:0:
192,192,125027,1,0,0:0:0:0:
320,192,125027,1,0,0:0:0:0:
192,192,125170,128,0,125241:0:0:0:0:
448,192,125312,1,0,0:0:0:0:
64,192,125312,1,0,0:0:0:0:
320,192,125312,128,0,125384:0:0:0:0:
64,192,125455,128,0,125527:0:0:0:0:
448,192,125455,128,0,125527:0:0:0:0:
448,192,125598,128,0,125812:0:0:0:0:
64,192,125598,128,0,125812:0:0:0:0:
192,192,125884,1,0,0:0:0:0:
448,192,125884,1,0,0:0:0:0:
320,192,125884,1,0,0:0:0:0:
64,192,125884,1,0,0:0:0:0:
64,192,126027,128,0,126241:0:0:0:0:
448,192,126027,128,0,126241:0:0:0:0:
320,192,126170,1,0,0:0:0:0:
192,192,126170,1,0,0:0:0:0:
320,192,126312,128,0,126384:0:0:0:0:
192,192,126455,128,0,126527:0:0:0:0:
448,192,126455,1,0,0:0:0:0:
64,192,126455,1,0,0:0:0:0:
448,192,126598,128,0,126670:0:0:0:0:
64,192,126598,128,0,126670:0:0:0:0:
448,192,126741,1,0,0:0:0:0:
64,192,126741,1,0,0:0:0:0:
320,192,126884,1,0,0:0:0:0:
320,192,126955,1,0,0:0:0:0:
64,192,127027,1,0,0:0:0:0:
448,192,127027,1,0,0:0:0:0:
192,192,127027,1,0,0:0:0:0:
64,192,127170,1,0,0:0:0:0:
64,192,127241,1,0,0:0:0:0:
320,192,127312,1,0,0:0:0:0:
448,192,127312,1,0,0:0:0:0:
320,192,127455,1,0,0:0:0:0:
320,192,127527,1,0,0:0:0:0:
64,192,127598,1,0,0:0:0:0:
192,192,127598,1,0,0:0:0:0:
448,192,127598,1,0,0:0:0:0:
64,192,127741,1,0,0:0:0:0:
64,192,127812,1,0,0:0:0:0:
320,192,127884,1,0,0:0:0:0:
448,192,127884,1,0,0:0:0:0:
192,192,127884,1,0,0:0:0:0:
448,192,127955,1,0,0:0:0:0:
320,192,128027,1,0,0:0:0:0:
64,192,128098,1,0,0:0:0:0:
320,192,128170,1,0,0:0:0:0:
448,192,128170,1,0,0:0:0:0:
192,192,128170,1,0,0:0:0:0:
64,192,128241,1,0,0:0:0:0:
320,192,128312,1,0,0:0:0:0:
192,192,128384,1,0,0:0:0:0:
64,192,128455,1,0,0:0:0:0:
320,192,128455,1,0,0:0:0:0:
448,192,128455,1,0,0:0:0:0:
320,192,128670,1,0,0:0:0:0:
192,192,128741,1,0,0:0:0:0:
192,192,128884,1,0,0:0:0:0:
448,192,129027,128,0,129241:0:0:0:0:
320,192,129027,128,0,129241:0:0:0:0:
64,192,129027,128,0,129241:0:0:0:0:
320,192,129312,1,0,0:0:0:0:
448,192,129312,1,0,0:0:0:0:
192,192,129312,1,0,0:0:0:0:
64,192,129312,1,0,0:0:0:0:
320,192,129455,1,0,0:0:0:0:
192,192,129455,1,0,0:0:0:0:
448,192,129598,1,0,0:0:0:0:
64,192,129598,1,0,0:0:0:0:
320,192,129741,1,0,0:0:0:0:
320,192,129812,1,0,0:0:0:0:
448,192,129884,1,0,0:0:0:0:
192,192,129884,1,0,0:0:0:0:
64,192,129884,1,0,0:0:0:0:
192,192,130027,1,0,0:0:0:0:
320,192,130027,1,0,0:0:0:0:
64,192,130170,1,0,0:0:0:0:
448,192,130170,1,0,0:0:0:0:
192,192,130241,128,0,130312:0:0:0:0:
192,192,130384,128,0,130455:0:0:0:0:
448,192,130455,1,0,0:0:0:0:
64,192,130455,1,0,0:0:0:0:
320,192,130455,1,0,0:0:0:0:
192,192,130598,1,0,0:0:0:0:
448,192,130670,1,0,0:0:0:0:
192,192,130741,1,0,0:0:0:0:
64,192,130741,1,0,0:0:0:0:
448,192,130812,1,0,0:0:0:0:
192,192,130884,1,0,0:0:0:0:
64,192,131027,128,0,131527:0:0:0:0:
320,192,131027,128,0,131527:0:0:0:0:
192,192,131312,128,0,131527:0:0:0:0:
448,192,131312,128,0,131527:0:0:0:0:
320,192,131598,1,0,0:0:0:0:
448,192,131598,1,0,0:0:0:0:
64,192,131598,1,0,0:0:0:0:
448,192,131741,1,0,0:0:0:0:
448,192,131812,1,0,0:0:0:0:
64,192,131884,1,0,0:0:0:0:
192,192,131884,1,0,0:0:0:0:
192,192,132027,1,0,0:0:0:0:
192,192,132098,1,0,0:0:0:0:
320,192,132170,1,0,0:0:0:0:
448,192,132170,1,0,0:0:0:0:
64,192,132170,1,0,0:0:0:0:
320,192,132312,1,0,0:0:0:0:
192,192,132312,1,0,0:0:0:0:
448,192,132455,1,0,0:0:0:0:
64,192,132455,1,0,0:0:0:0:
320,192,132527,128,0,132598:0:0:0:0:
320,192,132670,128,0,132741:0:0:0:0:
192,192,132741,1,0,0:0:0:0:
448,192,132741,1,0,0:0:0:0:
64,192,132741,1,0,0:0:0:0:
320,192,132884,1,0,0:0:0:0:
64,192,132955,1,0,0:0:0:0:
448,192,133027,1,0,0:0:0:0:
320,192,133027,1,0,0:0:0:0:
64,192,133098,1,0,0:0:0:0:
320,192,133170,1,0,0:0:0:0:
64,192,133312,1,0,0:0:0:0:
448,192,133312,1,0,0:0:0:0:
192,192,133455,1,0,0:0:0:0:
320,192,133455,1,0,0:0:0:0:
192,192,133598,128,0,133812:0:0:0:0:
320,192,133598,128,0,133812:0:0:0:0:
64,192,133741,1,0,0:0:0:0:
448,192,133741,1,0,0:0:0:0:
192,192,133884,1,0,0:0:0:0:
320,192,133884,1,0,0:0:0:0:
64,192,134027,128,0,134098:0:0:0:0:
448,192,134027,128,0,134098:0:0:0:0:
448,192,134170,1,0,0:0:0:0:
64,192,134170,1,0,0:0:0:0:
192,192,134312,128,0,134384:0:0:0:0:
320,192,134312,128,0,134384:0:0:0:0:
192,192,134455,1,0,0:0:0:0:
320,192,134455,1,0,0:0:0:0:
448,192,134598,128,0,134848:0:0:0:0:
64,192,134598,128,0,134848:0:0:0:0:
320,192,134741,1,0,0:0:0:0:
192,192,134741,1,0,0:0:0:0:
192,192,134884,128,0,134955:0:0:0:0:
320,192,134884,128,0,134955:0:0:0:0:
64,192,135027,1,0,0:0:0:0:
448,192,135027,1,0,0:0:0:0:
320,192,135098,1,0,0:0:0:0:
192,192,135170,1,0,0:0:0:0:
448,192,135241,1,0,0:0:0:0:
192,192,135312,1,0,0:0:0:0:
320,192,135312,1,0,0:0:0:0:
64,192,135384,1,0,0:0:0:0:
320,192,135455,1,0,0:0:0:0:
192,192,135527,1,0,0:0:0:0:
64,192,135598,1,0,0:0:0:0:
448,192,135598,1,0,0:0:0:0:
448,192,135741,128,0,136098:0:0:0:0:
192,192,135884,128,0,136098:0:0:0:0:
64,192,135884,128,0,136098:0:0:0:0:
192,192,136170,1,0,0:0:0:0:
64,192,136170,1,0,0:0:0:0:
448,192,136170,1,0,0:0:0:0:
320,192,136312,128,0,136598:0:0:0:0:
192,192,136312,128,0,136598:0:0:0:0:
448,192,136455,1,0,0:0:0:0:
64,192,136455,1,0,0:0:0:0:
448,192,136598,128,0,136884:0:0:0:0:
64,192,136598,128,0,136884:0:0:0:0:
192,192,136741,1,0,0:0:0:0:
320,192,136741,1,0,0:0:0:0:
320,192,136884,128,0,137241:0:0:0:0:
192,192,136884,128,0,137241:0:0:0:0:
64,192,137027,128,0,137384:0:0:0:0:
448,192,137027,128,0,137384:0:0:0:0:
192,192,137312,1,0,0:0:0:0:
320,192,137312,1,0,0:0:0:0:
64,192,137455,1,0,0:0:0:0:
448,192,137455,1,0,0:0:0:0:
320,192,137527,1,0,0:0:0:0:
192,192,137527,1,0,0:0:0:0:
64,192,137598,1,0,0:0:0:0:
192,192,137598,1,0,0:0:0:0:
320,192,137598,1,0,0:0:0:0:
448,192,137598,1,0,0:0:0:0:
320,192,138170,1,0,0:0:0:0:
448,192,138170,1,0,0:0:0:0:
64,192,138170,1,0,0:0:0:0:
192,192,138170,1,0,0:0:0:0:
320,192,138312,1,0,0:0:0:0:
192,192,138312,1,0,0:0:0:0:
64,192,138455,1,0,0:0:0:0:
448,192,138455,1,0,0:0:0:0:
192,192,138598,1,0,0:0:0:0:
320,192,138598,1,0,0:0:0:0:
64,192,138741,1,0,0:0:0:0:
448,192,138741,1,0,0:0:0:0:
320,192,138884,1,0,0:0:0:0:
320,192,138955,1,0,0:0:0:0:
192,192,139027,1,0,0:0:0:0:
64,192,139027,1,0,0:0:0:0:
448,192,139027,1,0,0:0:0:0:
64,192,139170,128,0,139312:0:0:0:0:
320,192,139312,1,0,0:0:0:0:
448,192,139312,1,0,0:0:0:0:
192,192,139312,1,0,0:0:0:0:
64,192,139384,128,0,139527:0:0:0:0:
448,192,139527,128,0,139741:0:0:0:0:
64,192,139598,1,0,0:0:0:0:
192,192,139598,1,0,0:0:0:0:
320,192,139598,1,0,0:0:0:0:
192,192,139741,128,0,139812:0:0:0:0:
448,192,139812,128,0,139884:0:0:0:0:
320,192,139884,1,0,0:0:0:0:
64,192,139884,1,0,0:0:0:0:
192,192,139884,128,0,139955:0:0:0:0:
448,192,139955,128,0,140027:0:0:0:0:
192,192,140027,128,0,140170:0:0:0:0:
320,192,140170,128,0,140384:0:0:0:0:
64,192,140170,128,0,140384:0:0:0:0:
448,192,140170,128,0,140384:0:0:0:0:
448,192,140455,128,0,140670:0:0:0:0:
192,192,140455,128,0,140670:0:0:0:0:
64,192,140455,128,0,140670:0:0:0:0:
64,192,140741,1,0,0:0:0:0:
192,192,140741,1,0,0:0:0:0:
448,192,140741,1,0,0:0:0:0:
320,192,140884,1,0,0:0:0:0:
320,192,140955,1,0,0:0:0:0:
64,192,141027,1,0,0:0:0:0:
192,192,141027,1,0,0:0:0:0:
448,192,141027,1,0,0:0:0:0:
192,192,141170,1,0,0:0:0:0:
192,192,141241,1,0,0:0:0:0:
448,192,141312,1,0,0:0:0:0:
64,192,141312,1,0,0:0:0:0:
320,192,141312,1,0,0:0:0:0:
448,192,141455,128,0,141598:0:0:0:0:
192,192,141598,1,0,0:0:0:0:
64,192,141598,1,0,0:0:0:0:
320,192,141598,1,0,0:0:0:0:
448,192,141670,128,0,141812:0:0:0:0:
64,192,141812,1,0,0:0:0:0:
192,192,141812,1,0,0:0:0:0:
448,192,141884,1,0,0:0:0:0:
320,192,141884,1,0,0:0:0:0:
192,192,141884,1,0,0:0:0:0:
64,192,141955,1,0,0:0:0:0:
320,192,142027,1,0,0:0:0:0:
448,192,142027,1,0,0:0:0:0:
192,192,142098,1,0,0:0:0:0:
448,192,142170,1,0,0:0:0:0:
64,192,142170,1,0,0:0:0:0:
320,192,142241,1,0,0:0:0:0:
192,192,142312,1,0,0:0:0:0:
64,192,142384,1,0,0:0:0:0:
448,192,142384,1,0,0:0:0:0:
320,192,142455,1,0,0:0:0:0:
192,192,142455,1,0,0:0:0:0:
64,192,142598,1,0,0:0:0:0:
448,192,142598,1,0,0:0:0:0:
64,192,142741,128,0,142955:0:0:0:0:
448,192,142741,128,0,142955:0:0:0:0:
320,192,142741,128,0,142955:0:0:0:0:
192,192,142884,1,0,0:0:0:0:
448,192,143027,1,0,0:0:0:0:
320,192,143027,1,0,0:0:0:0:
64,192,143027,1,0,0:0:0:0:
192,192,143170,128,0,143312:0:0:0:0:
448,192,143170,128,0,143241:0:0:0:0:
320,192,143312,1,0,0:0:0:0:
448,192,143312,1,0,0:0:0:0:
64,192,143312,1,0,0:0:0:0:
64,192,143455,128,0,143527:0:0:0:0:
448,192,143455,128,0,143598:0:0:0:0:
64,192,143598,1,0,0:0:0:0:
320,192,143598,1,0,0:0:0:0:
192,192,143598,1,0,0:0:0:0:
320,192,143741,128,0,143812:0:0:0:0:
64,192,143741,128,0,143884:0:0:0:0:
192,192,143884,5,0,0:0:0:0:
320,192,143884,1,0,0:0:0:0:
448,192,143884,1,0,0:0:0:0:
192,192,144027,1,0,0:0:0:0:
320,192,144170,1,0,0:0:0:0:
448,192,144170,1,0,0:0:0:0:
64,192,144170,1,0,0:0:0:0:
64,192,144312,128,0,144384:0:0:0:0:
320,192,144312,128,0,144455:0:0:0:0:
448,192,144455,1,0,0:0:0:0:
64,192,144455,1,0,0:0:0:0:
192,192,144455,1,0,0:0:0:0:
448,192,144598,128,0,144670:0:0:0:0:
64,192,144598,128,0,144741:0:0:0:0:
448,192,144741,1,0,0:0:0:0:
320,192,144741,1,0,0:0:0:0:
192,192,144741,1,0,0:0:0:0:
192,192,144884,128,0,144955:0:0:0:0:
448,192,144884,128,0,145027:0:0:0:0:
320,192,145027,5,0,0:0:0:0:
64,192,145027,1,0,0:0:0:0:
192,192,145027,1,0,0:0:0:0:
448,192,145098,1,0,0:0:0:0:
320,192,145170,1,0,0:0:0:0:
192,192,145241,1,0,0:0:0:0:
64,192,145312,1,0,0:0:0:0:
320,192,145312,1,0,0:0:0:0:
448,192,145384,1,0,0:0:0:0:
192,192,145455,1,0,0:0:0:0:
320,192,145527,1,0,0:0:0:0:
64,192,145598,1,0,0:0:0:0:
448,192,145598,1,0,0:0:0:0:
192,192,145670,1,0,0:0:0:0:
320,192,145741,1,0,0:0:0:0:
192,192,145812,1,0,0:0:0:0:
64,192,145884,1,0,0:0:0:0:
448,192,145884,1,0,0:0:0:0:
320,192,145955,1,0,0:0:0:0:
192,192,146027,1,0,0:0:0:0:
320,192,146098,1,0,0:0:0:0:
448,192,146170,1,0,0:0:0:0:
64,192,146170,1,0,0:0:0:0:
448,192,146455,1,0,0:0:0:0:
64,192,146455,1,0,0:0:0:0:
448,192,146741,1,0,0:0:0:0:
64,192,146741,1,0,0:0:0:0:
64,192,147027,128,0,147241:0:0:0:0:
448,192,147027,128,0,147241:0:0:0:0:
320,192,147312,1,0,0:0:0:0:
448,192,147312,1,0,0:0:0:0:
64,192,147312,1,0,0:0:0:0:
192,192,147312,1,0,0:0:0:0:
320,192,156455,5,0,0:0:0:0:
192,192,156598,1,0,0:0:0:0:
448,192,156741,1,0,0:0:0:0:
64,192,156812,1,0,0:0:0:0:
320,192,156884,1,0,0:0:0:0:
192,192,156955,1,0,0:0:0:0:
448,192,157027,1,0,0:0:0:0:
64,192,157170,1,0,0:0:0:0:
320,192,157455,1,0,0:0:0:0:
320,192,157598,128,0,157741:0:0:0:0:
64,192,157741,1,0,0:0:0:0:
448,192,157884,1,0,0:0:0:0:
192,192,158027,1,0,0:0:0:0:
320,192,158170,1,0,0:0:0:0:
64,192,158312,1,0,0:0:0:0:
320,192,158455,1,0,0:0:0:0:
448,192,158598,1,0,0:0:0:0:
192,192,158741,128,0,158884:0:0:0:0:
448,192,158884,1,0,0:0:0:0:
192,192,159027,1,0,0:0:0:0:
320,192,159098,1,0,0:0:0:0:
64,192,159170,1,0,0:0:0:0:
192,192,159241,1,0,0:0:0:0:
448,192,159312,1,0,0:0:0:0:
320,192,159455,1,0,0:0:0:0:
192,192,159741,1,0,0:0:0:0:
320,192,159884,128,0,160027:0:0:0:0:
64,192,160027,1,0,0:0:0:0:
320,192,160170,1,0,0:0:0:0:
192,192,160312,1,0,0:0:0:0:
448,192,160455,1,0,0:0:0:0:
192,192,160598,1,0,0:0:0:0:
64,192,160741,128,0,161027:0:0:0:0:
320,192,161027,1,0,0:0:0:0:
192,192,161170,1,0,0:0:0:0:
448,192,161312,1,0,0:0:0:0:
64,192,161384,1,0,0:0:0:0:
320,192,161455,1,0,0:0:0:0:
192,192,161527,1,0,0:0:0:0:
448,192,161598,1,0,0:0:0:0:
64,192,161741,1,0,0:0:0:0:
320,192,162027,1,0,0:0:0:0:
320,192,162170,128,0,162312:0:0:0:0:
64,192,162312,1,0,0:0:0:0:
448,192,162455,1,0,0:0:0:0:
192,192,162598,1,0,0:0:0:0:
320,192,162741,1,0,0:0:0:0:
64,192,162884,1,0,0:0:0:0:
320,192,163027,1,0,0:0:0:0:
448,192,163170,1,0,0:0:0:0:
192,192,163312,128,0,163455:0:0:0:0:
448,192,163455,1,0,0:0:0:0:
192,192,163598,1,0,0:0:0:0:
448,192,163670,1,0,0:0:0:0:
64,192,163741,1,0,0:0:0:0:
320,192,163812,1,0,0:0:0:0:
64,192,163884,1,0,0:0:0:0:
448,192,164027,1,0,0:0:0:0:
64,192,164170,128,0,164312:0:0:0:0:
320,192,164312,1,0,0:0:0:0:
448,192,164455,128,0,164598:0:0:0:0:
192,192,164598,1,0,0:0:0:0:
448,192,164741,1,0,0:0:0:0:
320,192,164884,1,0,0:0:0:0:
64,192,165027,128,0,165170:0:0:0:0:
192,192,165170,1,0,0:0:0:0:
320,192,165241,1,0,0:0:0:0:
448,192,165312,1,0,0:0:0:0:
320,192,165384,1,0,0:0:0:0:
192,192,165455,1,0,0:0:0:0:
64,192,165527,1,0,0:0:0:0:
320,192,165598,1,0,0:0:0:0:
192,192,165741,1,0,0:0:0:0:
448,192,165884,1,0,0:0:0:0:
64,192,165955,1,0,0:0:0:0:
320,192,166027,1,0,0:0:0:0:
192,192,166098,1,0,0:0:0:0:
448,192,166170,1,0,0:0:0:0:
64,192,166312,1,0,0:0:0:0:
320,192,166598,1,0,0:0:0:0:
64,192,166884,1,0,0:0:0:0:
448,192,167027,1,0,0:0:0:0:
192,192,167170,1,0,0:0:0:0:
320,192,167312,1,0,0:0:0:0:
64,192,167455,1,0,0:0:0:0:
320,192,167598,1,0,0:0:0:0:
448,192,167741,1,0,0:0:0:0:
448,192,168027,1,0,0:0:0:0:
192,192,168170,1,0,0:0:0:0:
320,192,168241,1,0,0:0:0:0:
64,192,168312,1,0,0:0:0:0:
192,192,168384,1,0,0:0:0:0:
448,192,168455,1,0,0:0:0:0:
320,192,168598,1,0,0:0:0:0:
192,192,168884,1,0,0:0:0:0:
64,192,169170,1,0,0:0:0:0:
320,192,169312,1,0,0:0:0:0:
192,192,169455,1,0,0:0:0:0:
448,192,169598,1,0,0:0:0:0:
192,192,169741,1,0,0:0:0:0:
64,192,169884,128,0,170170:0:0:0:0:
320,192,170170,1,0,0:0:0:0:
192,192,170312,1,0,0:0:0:0:
448,192,170455,1,0,0:0:0:0:
64,192,170527,1,0,0:0:0:0:
320,192,170598,1,0,0:0:0:0:
192,192,170670,1,0,0:0:0:0:
448,192,170741,1,0,0:0:0:0:
192,192,170884,1,0,0:0:0:0:
448,192,171027,128,0,171527:0:0:0:0:
192,192,171170,128,0,171670:0:0:0:0:
64,192,171455,128,0,171955:0:0:0:0:
448,192,171598,128,0,172098:0:0:0:0:
192,192,171741,128,0,172241:0:0:0:0:
64,192,172027,128,0,172527:0:0:0:0:
448,192,172170,128,0,172670:0:0:0:0:
192,192,172312,128,0,172812:0:0:0:0:
64,192,172598,128,0,173527:0:0:0:0:
448,192,172741,128,0,173527:0:0:0:0:
192,192,172884,128,0,173527:0:0:0:0:
448,192,173598,1,0,0:0:0:0:
64,192,173598,1,0,0:0:0:0:
192,192,173598,1,0,0:0:0:0:
320,192,174455,128,0,174741:0:0:0:0:
448,192,174741,128,0,174884:0:0:0:0:
64,192,174741,1,0,0:0:0:0:
192,192,174741,1,0,0:0:0:0:
192,192,174884,128,0,175027:0:0:0:0:
448,192,175027,128,0,175098:0:0:0:0:
192,192,175098,128,0,175170:0:0:0:0:
320,192,175170,128,0,175241:0:0:0:0:
64,192,175241,128,0,175312:0:0:0:0:
320,192,175312,128,0,175455:0:0:0:0:
320,192,175741,128,0,176384:0:0:0:0:
64,192,175884,128,0,176527:0:0:0:0:
192,192,176027,128,0,176241:0:0:0:0:
448,192,176170,128,0,176812:0:0:0:0:
192,192,176312,128,0,177312:0:0:0:0:
320,192,176455,128,0,176670:0:0:0:0:
64,192,176598,128,0,176955:0:0:0:0:
320,192,176741,128,0,177098:0:0:0:0:
448,192,176884,128,0,177241:0:0:0:0:
64,192,177027,128,0,177455:0:0:0:0:
320,192,177170,128,0,177384:0:0:0:0:
448,192,177312,128,0,177812:0:0:0:0:
192,192,177384,128,0,177670:0:0:0:0:
320,192,177455,128,0,177527:0:0:0:0:
64,192,177527,128,0,178241:0:0:0:0:
320,192,177598,128,0,178098:0:0:0:0:
192,192,177741,128,0,177955:0:0:0:0:
448,192,177884,128,0,178670:0:0:0:0:
192,192,178027,128,0,178384:0:0:0:0:
320,192,178170,128,0,178812:0:0:0:0:
64,192,178312,128,0,178527:0:0:0:0:
192,192,178455,128,0,179241:0:0:0:0:
64,192,178598,128,0,178955:0:0:0:0:
448,192,178741,128,0,179241:0:0:0:0:
320,192,178884,128,0,179098:0:0:0:0:
64,192,179027,128,0,179241:0:0:0:0:
320,192,179170,128,0,179241:0:0:0:0:
448,192,179312,128,0,179455:0:0:0:0:
320,192,179312,1,0,0:0:0:0:
192,192,179312,1,0,0:0:0:0:
64,192,179312,1,0,0:0:0:0:
192,192,179455,128,0,179598:0:0:0:0:
448,192,179598,128,0,179670:0:0:0:0:
192,192,179670,128,0,179741:0:0:0:0:
448,192,179741,1,0,0:0:0:0:
64,192,179741,1,0,0:0:0:0:
320,192,179741,128,0,179812:0:0:0:0:
64,192,179812,128,0,179884:0:0:0:0:
320,192,179884,128,0,180027:0:0:0:0:
320,192,180312,128,0,180955:0:0:0:0:
64,192,180455,128,0,181098:0:0:0:0:
192,192,180598,128,0,180812:0:0:0:0:
448,192,180741,128,0,181384:0:0:0:0:
192,192,180884,128,0,181527:0:0:0:0:
320,192,181027,128,0,181241:0:0:0:0:
64,192,181170,128,0,181955:0:0:0:0:
320,192,181312,128,0,182027:0:0:0:0:
448,192,181455,128,0,181670:0:0:0:0:
192,192,181598,128,0,181812:0:0:0:0:
448,192,181741,128,0,181884:0:0:0:0:
192,192,181884,128,0,182384:0:0:0:0:
448,192,181955,128,0,182241:0:0:0:0:
64,192,182027,128,0,182098:0:0:0:0:
320,192,182098,128,0,182527:0:0:0:0:
64,192,182170,128,0,182670:0:0:0:0:
448,192,182312,128,0,182955:0:0:0:0:
192,192,182455,128,0,183098:0:0:0:0:
320,192,182598,128,0,182812:0:0:0:0:
64,192,182741,128,0,183241:0:0:0:0:
320,192,182884,128,0,183384:0:0:0:0:
448,192,183027,128,0,183527:0:0:0:0:
192,192,183170,128,0,183455:0:0:0:0:
64,192,183312,128,0,183598:0:0:0:0:
320,192,183455,128,0,183670:0:0:0:0:
192,192,183527,128,0,183741:0:0:0:0:
448,192,183598,128,0,183812:0:0:0:0:
64,192,183670,128,0,183812:0:0:0:0:
320,192,183741,128,0,183812:0:0:0:0:
192,192,183812,128,0,183884:0:0:0:0:
448,192,183884,128,0,184098:0:0:0:0:
320,192,183884,128,0,184098:0:0:0:0:
64,192,183884,128,0,184098:0:0:0:0:
192,192,184170,1,0,0:0:0:0:
448,192,184312,128,0,184527:0:0:0:0:
320,192,184312,128,0,184527:0:0:0:0:
64,192,184312,128,0,184527:0:0:0:0:
192,192,184598,1,0,0:0:0:0:
192,192,184741,1,0,0:0:0:0:
320,192,184884,128,0,185027:0:0:0:0:
448,192,185027,128,0,185170:0:0:0:0:
192,192,185027,128,0,185170:0:0:0:0:
64,192,185027,128,0,185170:0:0:0:0:
448,192,185241,128,0,185384:0:0:0:0:
64,192,185241,128,0,185384:0:0:0:0:
192,192,185241,128,0,185384:0:0:0:0:
448,192,185455,128,0,185670:0:0:0:0:
64,192,185455,128,0,185670:0:0:0:0:
192,192,185455,128,0,185670:0:0:0:0:
320,192,185741,1,0,0:0:0:0:
320,192,185884,1,0,0:0:0:0:
64,192,186027,128,0,186170:0:0:0:0:
448,192,186170,128,0,186384:0:0:0:0:
320,192,186170,128,0,186384:0:0:0:0:
192,192,186170,128,0,186384:0:0:0:0:
64,192,186455,1,0,0:0:0:0:
448,192,186598,128,0,186812:0:0:0:0:
320,192,186598,128,0,186812:0:0:0:0:
192,192,186598,128,0,186812:0:0:0:0:
64,192,186884,1,0,0:0:0:0:
64,192,187027,1,0,0:0:0:0:
448,192,187170,128,0,187312:0:0:0:0:
64,192,187312,128,0,187455:0:0:0:0:
192,192,187312,128,0,187455:0:0:0:0:
320,192,187312,128,0,187455:0:0:0:0:
320,192,187527,128,0,187670:0:0:0:0:
192,192,187527,128,0,187670:0:0:0:0:
64,192,187527,128,0,187670:0:0:0:0:
320,192,187741,128,0,187884:0:0:0:0:
192,192,187741,128,0,187884:0:0:0:0:
64,192,187741,128,0,187884:0:0:0:0:
320,192,187955,128,0,188098:0:0:0:0:
192,192,187955,128,0,188098:0:0:0:0:
64,192,187955,128,0,188098:0:0:0:0:
320,192,188170,128,0,188312:0:0:0:0:
192,192,188170,128,0,188312:0:0:0:0:
64,192,188170,128,0,188312:0:0:0:0:
64,192,188455,128,0,188670:0:0:0:0:
448,192,188455,128,0,188670:0:0:0:0:
320,192,188455,128,0,188670:0:0:0:0:
192,192,188741,1,0,0:0:0:0:
448,192,188884,128,0,189098:0:0:0:0:
320,192,188884,128,0,189098:0:0:0:0:
64,192,188884,128,0,189098:0:0:0:0:
192,192,189170,1,0,0:0:0:0:
192,192,189312,1,0,0:0:0:0:
448,192,189455,128,0,189598:0:0:0:0:
64,192,189598,128,0,189741:0:0:0:0:
192,192,189598,128,0,189741:0:0:0:0:
320,192,189598,128,0,189741:0:0:0:0:
320,192,189812,128,0,189955:0:0:0:0:
192,192,189812,128,0,189955:0:0:0:0:
64,192,189812,128,0,189955:0:0:0:0:
64,192,190027,128,0,190241:0:0:0:0:
192,192,190027,128,0,190241:0:0:0:0:
320,192,190027,128,0,190241:0:0:0:0:
448,192,190312,1,0,0:0:0:0:
448,192,190455,1,0,0:0:0:0:
192,192,190598,128,0,190741:0:0:0:0:
320,192,190741,128,0,190955:0:0:0:0:
448,192,190741,128,0,190955:0:0:0:0:
64,192,190741,128,0,190955:0:0:0:0:
192,192,191027,1,0,0:0:0:0:
448,192,191170,128,0,191384:0:0:0:0:
320,192,191170,128,0,191384:0:0:0:0:
64,192,191170,128,0,191384:0:0:0:0:
192,192,191455,1,0,0:0:0:0:
192,192,191598,1,0,0:0:0:0:
320,192,191741,128,0,191884:0:0:0:0:
448,192,191884,1,0,0:0:0:0:
64,192,191884,1,0,0:0:0:0:
448,192,192098,1,0,0:0:0:0:
64,192,192098,1,0,0:0:0:0:
448,192,192312,1,0,0:0:0:0:
64,192,192312,1,0,0:0:0:0:
448,192,192527,1,0,0:0:0:0:
64,192,192527,1,0,0:0:0:0:
448,192,192741,1,0,0:0:0:0:
64,192,192741,1,0,0:0:0:0:
64,192,193027,1,0,0:0:0:0:
192,192,193027,1,0,0:0:0:0:
448,192,193027,1,0,0:0:0:0:
320,192,193027,1,0,0:0:0:0:
320,192,193170,1,0,0:0:0:0:
192,192,193170,1,0,0:0:0:0:
64,192,193312,1,0,0:0:0:0:
448,192,193312,1,0,0:0:0:0:
320,192,193384,1,0,0:0:0:0:
192,192,193455,1,0,0:0:0:0:
448,192,193527,1,0,0:0:0:0:
192,192,193598,1,0,0:0:0:0:
64,192,193598,1,0,0:0:0:0:
448,192,193741,1,0,0:0:0:0:
320,192,193741,1,0,0:0:0:0:
192,192,193884,1,0,0:0:0:0:
64,192,193884,1,0,0:0:0:0:
448,192,193955,1,0,0:0:0:0:
192,192,194027,1,0,0:0:0:0:
320,192,194098,1,0,0:0:0:0:
448,192,194170,1,0,0:0:0:0:
64,192,194170,1,0,0:0:0:0:
320,192,194312,1,0,0:0:0:0:
192,192,194312,1,0,0:0:0:0:
448,192,194455,1,0,0:0:0:0:
64,192,194455,1,0,0:0:0:0:
192,192,194527,1,0,0:0:0:0:
320,192,194598,1,0,0:0:0:0:
64,192,194670,1,0,0:0:0:0:
320,192,194741,1,0,0:0:0:0:
448,192,194741,1,0,0:0:0:0:
64,192,194884,1,0,0:0:0:0:
192,192,194884,1,0,0:0:0:0:
448,192,195027,1,0,0:0:0:0:
320,192,195027,1,0,0:0:0:0:
64,192,195098,1,0,0:0:0:0:
320,192,195170,1,0,0:0:0:0:
192,192,195241,1,0,0:0:0:0:
64,192,195312,1,0,0:0:0:0:
448,192,195312,1,0,0:0:0:0:
192,192,195455,1,0,0:0:0:0:
320,192,195455,1,0,0:0:0:0:
64,192,195598,1,0,0:0:0:0:
448,192,195598,1,0,0:0:0:0:
320,192,195670,1,0,0:0:0:0:
192,192,195741,1,0,0:0:0:0:
448,192,195741,1,0,0:0:0:0:
64,192,195812,1,0,0:0:0:0:
448,192,195884,1,0,0:0:0:0:
320,192,195884,1,0,0:0:0:0:
64,192,196027,1,0,0:0:0:0:
192,192,196027,1,0,0:0:0:0:
448,192,196170,1,0,0:0:0:0:
320,192,196170,1,0,0:0:0:0:
64,192,196241,1,0,0:0:0:0:
320,192,196312,1,0,0:0:0:0:
192,192,196384,1,0,0:0:0:0:
448,192,196455,1,0,0:0:0:0:
64,192,196455,1,0,0:0:0:0:
64,192,196598,1,0,0:0:0:0:
448,192,196670,1,0,0:0:0:0:
192,192,196670,1,0,0:0:0:0:
320,192,196741,1,0,0:0:0:0:
192,192,196812,1,0,0:0:0:0:
320,192,196884,1,0,0:0:0:0:
64,192,196884,1,0,0:0:0:0:
448,192,196955,1,0,0:0:0:0:
192,192,197027,128,0,197312:0:0:0:0:
64,192,197098,1,0,0:0:0:0:
448,192,197098,1,0,0:0:0:0:
320,192,197170,128,0,197312:0:0:0:0:
448,192,197312,1,0,0:0:0:0:
64,192,197312,1,0,0:0:0:0:
192,192,197384,1,0,0:0:0:0:
320,192,197455,1,0,0:0:0:0:
192,192,197527,1,0,0:0:0:0:
448,192,197598,1,0,0:0:0:0:
64,192,197598,1,0,0:0:0:0:
320,192,197670,1,0,0:0:0:0:
64,192,197741,1,0,0:0:0:0:
192,192,197741,1,0,0:0:0:0:
320,192,197812,1,0,0:0:0:0:
64,192,197884,1,0,0:0:0:0:
448,192,197884,1,0,0:0:0:0:
192,192,197955,1,0,0:0:0:0:
320,192,198027,1,0,0:0:0:0:
448,192,198027,1,0,0:0:0:0:
192,192,198098,1,0,0:0:0:0:
64,192,198170,1,0,0:0:0:0:
448,192,198170,1,0,0:0:0:0:
320,192,198241,1,0,0:0:0:0:
64,192,198312,1,0,0:0:0:0:
192,192,198312,1,0,0:0:0:0:
320,192,198384,1,0,0:0:0:0:
448,192,198455,1,0,0:0:0:0:
64,192,198455,1,0,0:0:0:0:
192,192,198527,1,0,0:0:0:0:
320,192,198598,1,0,0:0:0:0:
448,192,198598,1,0,0:0:0:0:
192,192,198670,1,0,0:0:0:0:
448,192,198741,1,0,0:0:0:0:
64,192,198741,1,0,0:0:0:0:
320,192,198812,1,0,0:0:0:0:
192,192,198812,1,0,0:0:0:0:
448,192,198884,1,0,0:0:0:0:
64,192,198884,1,0,0:0:0:0:
192,192,198955,1,0,0:0:0:0:
320,192,198955,1,0,0:0:0:0:
448,192,199027,1,0,0:0:0:0:
64,192,199027,1,0,0:0:0:0:
320,192,199098,1,0,0:0:0:0:
192,192,199098,1,0,0:0:0:0:
448,192,199170,1,0,0:0:0:0:
64,192,199170,1,0,0:0:0:0:
192,192,199241,1,0,0:0:0:0:
320,192,199241,1,0,0:0:0:0:
448,192,199312,1,0,0:0:0:0:
64,192,199312,1,0,0:0:0:0:
192,192,199384,1,0,0:0:0:0:
320,192,199384,1,0,0:0:0:0:
448,192,199455,1,0,0:0:0:0:
64,192,199455,1,0,0:0:0:0:
192,192,199527,1,0,0:0:0:0:
320,192,199527,1,0,0:0:0:0:
448,192,199598,1,0,0:0:0:0:
64,192,199598,1,0,0:0:0:0:
192,192,199634,1,0,0:0:0:0:
320,192,199670,1,0,0:0:0:0:
448,192,199705,1,0,0:0:0:0:
64,192,199741,1,0,0:0:0:0:
192,192,199777,1,0,0:0:0:0:
320,192,199812,1,0,0:0:0:0:
448,192,199848,1,0,0:0:0:0:
64,192,199884,1,0,0:0:0:0:
192,192,199884,1,0,0:0:0:0:
448,192,200027,128,0,200170:0:0:0:0:
64,192,200170,128,0,200241:0:0:0:0:
448,192,200241,128,0,200312:0:0:0:0:
192,192,200312,128,0,200384:0:0:0:0:
320,192,200384,128,0,200455:0:0:0:0:
64,192,200455,128,0,200598:0:0:0:0:
320,192,200598,128,0,200741:0:0:0:0:
192,192,200741,128,0,200884:0:0:0:0:
448,192,200884,128,0,201027:0:0:0:0:
64,192,201027,128,0,201170:0:0:0:0:
448,192,201098,1,0,0:0:0:0:
320,192,201170,128,0,201312:0:0:0:0:
64,192,201241,1,0,0:0:0:0:
192,192,201312,128,0,201455:0:0:0:0:
448,192,201455,128,0,201598:0:0:0:0:
192,192,201527,1,0,0:0:0:0:
64,192,201598,128,0,201741:0:0:0:0:
320,192,201741,1,0,0:0:0:0:
192,192,201812,1,0,0:0:0:0:
448,192,201884,1,0,0:0:0:0:
64,192,201884,1,0,0:0:0:0:
320,192,201955,1,0,0:0:0:0:
192,192,202027,1,0,0:0:0:0:
320,192,202098,1,0,0:0:0:0:
192,192,202170,5,0,0:0:0:0:
448,192,202170,1,0,0:0:0:0:
64,192,202170,1,0,0:0:0:0:
320,192,202312,1,0,0:0:0:0:
192,192,202312,1,0,0:0:0:0:
448,192,202455,1,0,0:0:0:0:
64,192,202455,1,0,0:0:0:0:
192,192,202527,1,0,0:0:0:0:
320,192,202598,1,0,0:0:0:0:
64,192,202670,1,0,0:0:0:0:
448,192,202741,1,0,0:0:0:0:
320,192,202741,128,0,203027:0:0:0:0:
64,192,202884,128,0,203027:0:0:0:0:
448,192,203027,1,0,0:0:0:0:
192,192,203027,1,0,0:0:0:0:
192,192,203170,128,0,203312:0:0:0:0:
448,192,203312,1,0,0:0:0:0:
64,192,203312,1,0,0:0:0:0:
320,192,203312,128,0,203527:0:0:0:0:
64,192,203455,128,0,203741:0:0:0:0:
448,192,203598,128,0,203812:0:0:0:0:
320,192,203598,1,0,0:0:0:0:
192,192,203598,1,0,0:0:0:0:
192,192,203741,128,0,203884:0:0:0:0:
320,192,203884,128,0,204170:0:0:0:0:
448,192,203884,1,0,0:0:0:0:
64,192,203884,1,0,0:0:0:0:
64,192,204027,128,0,204170:0:0:0:0:
192,192,204170,128,0,204455:0:0:0:0:
448,192,204170,1,0,0:0:0:0:
448,192,204312,128,0,204455:0:0:0:0:
64,192,204455,128,0,204670:0:0:0:0:
320,192,204455,1,0,0:0:0:0:
448,192,204598,128,0,204741:0:0:0:0:
320,192,204598,128,0,204741:0:0:0:0:
64,192,204741,1,0,0:0:0:0:
192,192,204741,1,0,0:0:0:0:
448,192,204812,1,0,0:0:0:0:
192,192,204884,1,0,0:0:0:0:
320,192,204955,1,0,0:0:0:0:
448,192,205027,128,0,205241:0:0:0:0:
64,192,205027,1,0,0:0:0:0:
192,192,205170,128,0,205312:0:0:0:0:
64,192,205312,128,0,205527:0:0:0:0:
320,192,205312,1,0,0:0:0:0:
448,192,205312,1,0,0:0:0:0:
320,192,205455,128,0,205598:0:0:0:0:
64,192,205598,1,0,0:0:0:0:
448,192,205598,1,0,0:0:0:0:
192,192,205598,128,0,205812:0:0:0:0:
448,192,205741,128,0,205884:0:0:0:0:
320,192,205884,128,0,206098:0:0:0:0:
64,192,205884,1,0,0:0:0:0:
192,192,205884,1,0,0:0:0:0:
64,192,206027,128,0,206312:0:0:0:0:
320,192,206170,1,0,0:0:0:0:
192,192,206170,1,0,0:0:0:0:
448,192,206170,128,0,206455:0:0:0:0:
192,192,206312,128,0,206455:0:0:0:0:
320,192,206455,128,0,206598:0:0:0:0:
64,192,206455,128,0,206741:0:0:0:0:
448,192,206598,128,0,206741:0:0:0:0:
192,192,206741,1,0,0:0:0:0:
320,192,206741,1,0,0:0:0:0:
320,192,206884,1,0,0:0:0:0:
448,192,206884,1,0,0:0:0:0:
64,192,207027,1,0,0:0:0:0:
192,192,207027,1,0,0:0:0:0:
448,192,207098,1,0,0:0:0:0:
192,192,207170,1,0,0:0:0:0:
320,192,207241,1,0,0:0:0:0:
64,192,207312,1,0,0:0:0:0:
448,192,207312,128,0,207598:0:0:0:0:
192,192,207455,128,0,207598:0:0:0:0:
320,192,207598,1,0,0:0:0:0:
64,192,207598,1,0,0:0:0:0:
320,192,207741,128,0,207884:0:0:0:0:
192,192,207884,128,0,208098:0:0:0:0:
64,192,207884,1,0,0:0:0:0:
448,192,207884,1,0,0:0:0:0:
448,192,208027,128,0,208170:0:0:0:0:
64,192,208170,128,0,208384:0:0:0:0:
320,192,208170,1,0,0:0:0:0:
192,192,208170,1,0,0:0:0:0:
320,192,208312,128,0,208455:0:0:0:0:
448,192,208455,128,0,208670:0:0:0:0:
64,192,208455,1,0,0:0:0:0:
192,192,208455,1,0,0:0:0:0:
192,192,208598,128,0,208741:0:0:0:0:
448,192,208741,1,0,0:0:0:0:
320,192,208741,1,0,0:0:0:0:
64,192,208741,128,0,208955:0:0:0:0:
320,192,208884,128,0,209027:0:0:0:0:
64,192,209027,1,0,0:0:0:0:
192,192,209027,1,0,0:0:0:0:
448,192,209027,1,0,0:0:0:0:
192,192,209170,1,0,0:0:0:0:
320,192,209170,1,0,0:0:0:0:
448,192,209312,1,0,0:0:0:0:
64,192,209312,1,0,0:0:0:0:
320,192,209384,1,0,0:0:0:0:
192,192,209455,1,0,0:0:0:0:
448,192,209527,1,0,0:0:0:0:
64,192,209598,1,0,0:0:0:0:
192,192,209598,1,0,0:0:0:0:
64,192,209741,1,0,0:0:0:0:
320,192,209741,1,0,0:0:0:0:
192,192,209884,1,0,0:0:0:0:
320,192,209884,1,0,0:0:0:0:
448,192,210027,1,0,0:0:0:0:
192,192,210027,1,0,0:0:0:0:
64,192,210170,128,0,210384:0:0:0:0:
448,192,210170,1,0,0:0:0:0:
320,192,210170,1,0,0:0:0:0:
320,192,210312,128,0,210455:0:0:0:0:
448,192,210455,128,0,210670:0:0:0:0:
64,192,210455,1,0,0:0:0:0:
192,192,210455,1,0,0:0:0:0:
192,192,210598,128,0,210741:0:0:0:0:
448,192,210741,128,0,210884:0:0:0:0:
64,192,210741,128,0,210884:0:0:0:0:
320,192,210741,1,0,0:0:0:0:
192,192,210884,1,0,0:0:0:0:
320,192,210955,1,0,0:0:0:0:
64,192,211027,1,0,0:0:0:0:
448,192,211027,1,0,0:0:0:0:
192,192,211098,1,0,0:0:0:0:
320,192,211170,1,0,0:0:0:0:
448,192,211241,1,0,0:0:0:0:
320,192,211312,1,0,0:0:0:0:
64,192,211312,1,0,0:0:0:0:
192,192,211312,1,0,0:0:0:0:
320,192,211455,1,0,0:0:0:0:
64,192,211455,1,0,0:0:0:0:
192,192,211455,1,0,0:0:0:0:
448,192,211598,1,0,0:0:0:0:
320,192,211598,1,0,0:0:0:0:
64,192,211670,1,0,0:0:0:0:
320,192,211741,1,0,0:0:0:0:
192,192,211812,1,0,0:0:0:0:
64,192,211884,128,0,212170:0:0:0:0:
448,192,211884,1,0,0:0:0:0:
448,192,212027,128,0,212170:0:0:0:0:
320,192,212170,1,0,0:0:0:0:
192,192,212170,1,0,0:0:0:0:
192,192,212312,128,0,212598:0:0:0:0:
64,192,212455,1,0,0:0:0:0:
320,192,212455,1,0,0:0:0:0:
448,192,212455,128,0,212670:0:0:0:0:
64,192,212598,128,0,212884:0:0:0:0:
448,192,212741,1,0,0:0:0:0:
192,192,212741,1,0,0:0:0:0:
320,192,212741,128,0,212884:0:0:0:0:
448,192,212884,128,0,213170:0:0:0:0:
64,192,213027,1,0,0:0:0:0:
320,192,213027,1,0,0:0:0:0:
192,192,213027,128,0,213170:0:0:0:0:
320,192,213170,128,0,213455:0:0:0:0:
64,192,213312,128,0,213527:0:0:0:0:
448,192,213312,1,0,0:0:0:0:
192,192,213312,1,0,0:0:0:0:
448,192,213455,128,0,213741:0:0:0:0:
64,192,213598,1,0,0:0:0:0:
192,192,213598,128,0,213741:0:0:0:0:
320,192,213598,1,0,0:0:0:0:
320,192,213741,128,0,213884:0:0:0:0:
64,192,213741,128,0,213884:0:0:0:0:
448,192,213884,1,0,0:0:0:0:
192,192,213884,1,0,0:0:0:0:
320,192,213955,1,0,0:0:0:0:
64,192,214027,1,0,0:0:0:0:
192,192,214098,1,0,0:0:0:0:
320,192,214170,128,0,214455:0:0:0:0:
448,192,214170,1,0,0:0:0:0:
192,192,214312,128,0,214455:0:0:0:0:
64,192,214455,1,0,0:0:0:0:
448,192,214455,1,0,0:0:0:0:
320,192,214598,1,0,0:0:0:0:
192,192,214598,1,0,0:0:0:0:
448,192,214741,128,0,214884:0:0:0:0:
64,192,214741,128,0,214884:0:0:0:0:
192,192,214884,1,0,0:0:0:0:
320,192,214884,1,0,0:0:0:0:
64,192,215027,1,0,0:0:0:0:
448,192,215027,1,0,0:0:0:0:
192,192,215170,1,0,0:0:0:0:
320,192,215170,1,0,0:0:0:0:
448,192,215312,1,0,0:0:0:0:
64,192,215312,1,0,0:0:0:0:
448,192,215455,1,0,0:0:0:0:
64,192,215455,1,0,0:0:0:0:
192,192,215598,128,0,215812:0:0:0:0:
448,192,215741,128,0,215884:0:0:0:0:
64,192,215884,128,0,216098:0:0:0:0:
320,192,215884,1,0,0:0:0:0:
192,192,215884,1,0,0:0:0:0:
320,192,216027,128,0,216170:0:0:0:0:
64,192,216170,128,0,216241:0:0:0:0:
320,192,216241,128,0,216312:0:0:0:0:
192,192,216312,128,0,216384:0:0:0:0:
64,192,216312,1,0,0:0:0:0:
448,192,216312,1,0,0:0:0:0:
448,192,216384,128,0,216527:0:0:0:0:
192,192,216455,128,0,216598:0:0:0:0:
448,192,216598,128,0,216741:0:0:0:0:
64,192,216741,128,0,216884:0:0:0:0:
192,192,216741,1,0,0:0:0:0:
320,192,216741,1,0,0:0:0:0:
320,192,216884,128,0,217027:0:0:0:0:
448,192,217027,1,0,0:0:0:0:
64,192,217027,1,0,0:0:0:0:
192,192,217027,128,0,217241:0:0:0:0:
448,192,217170,128,0,217312:0:0:0:0:
192,192,217312,128,0,217384:0:0:0:0:
448,192,217384,128,0,217455:0:0:0:0:
320,192,217455,1,0,0:0:0:0:
192,192,217455,1,0,0:0:0:0:
64,192,217455,128,0,217527:0:0:0:0:
320,192,217527,128,0,217670:0:0:0:0:
64,192,217598,128,0,217741:0:0:0:0:
320,192,217741,128,0,217884:0:0:0:0:
64,192,217884,1,0,0:0:0:0:
448,192,217884,1,0,0:0:0:0:
192,192,217884,1,0,0:0:0:0:
192,192,218027,1,0,0:0:0:0:
448,192,218027,1,0,0:0:0:0:
64,192,218027,1,0,0:0:0:0:
64,192,218170,1,0,0:0:0:0:
448,192,218170,1,0,0:0:0:0:
192,192,218170,1,0,0:0:0:0:
320,192,218312,1,0,0:0:0:0:
192,192,218455,1,0,0:0:0:0:
320,192,218598,1,0,0:0:0:0:
192,192,218741,1,0,0:0:0:0:
320,192,218884,1,0,0:0:0:0:
192,192,218955,1,0,0:0:0:0:
320,192,219027,1,0,0:0:0:0:
192,192,219098,1,0,0:0:0:0:
320,192,219170,1,0,0:0:0:0:
192,192,219241,1,0,0:0:0:0:
64,192,219312,128,0,219741:0:0:0:0:
320,192,219312,128,0,219670:0:0:0:0:
448,192,219312,128,0,219527:0:0:0:0:
192,192,219455,128,0,219598:0:0:0:0:
448,192,219598,128,0,219812:0:0:0:0:
192,192,219670,128,0,219955:0:0:0:0:
320,192,219741,128,0,220170:0:0:0:0:
64,192,219812,128,0,220384:0:0:0:0:
448,192,219884,128,0,220098:0:0:0:0:
192,192,220027,128,0,220384:0:0:0:0:
448,192,220170,128,0,220241:0:0:0:0:
320,192,220241,128,0,220312:0:0:0:0:
448,192,220312,128,0,220384:0:0:0:0:
320,192,220384,128,0,220455:0:0:0:0:
448,192,220455,1,0,0:0:0:0:
64,192,220455,1,0,0:0:0:0:
192,192,220455,1,0,0:0:0:0:
64,192,220598,1,0,0:0:0:0:
448,192,220598,1,0,0:0:0:0:
192,192,220598,1,0,0:0:0:0:
448,192,220741,1,0,0:0:0:0:
320,192,220741,1,0,0:0:0:0:
64,192,220812,1,0,0:0:0:0:
320,192,220884,1,0,0:0:0:0:
192,192,220955,1,0,0:0:0:0:
64,192,221027,128,0,221312:0:0:0:0:
448,192,221027,1,0,0:0:0:0:
320,192,221170,128,0,221312:0:0:0:0:
448,192,221312,1,0,0:0:0:0:
192,192,221312,1,0,0:0:0:0:
448,192,221455,128,0,221598:0:0:0:0:
192,192,221598,1,0,0:0:0:0:
64,192,221598,1,0,0:0:0:0:
320,192,221598,1,0,0:0:0:0:
192,192,221741,1,0,0:0:0:0:
448,192,221741,1,0,0:0:0:0:
64,192,221884,1,0,0:0:0:0:
320,192,221884,1,0,0:0:0:0:
448,192,221884,1,0,0:0:0:0:
192,192,222027,1,0,0:0:0:0:
320,192,222027,1,0,0:0:0:0:
448,192,222170,1,0,0:0:0:0:
192,192,222170,1,0,0:0:0:0:
64,192,222170,1,0,0:0:0:0:
320,192,222312,1,0,0:0:0:0:
64,192,222312,1,0,0:0:0:0:
320,192,222455,1,0,0:0:0:0:
448,192,222455,1,0,0:0:0:0:
192,192,222455,1,0,0:0:0:0:
192,192,222598,1,0,0:0:0:0:
64,192,222598,1,0,0:0:0:0:
64,192,222741,128,0,223027:0:0:0:0:
448,192,222741,1,0,0:0:0:0:
320,192,222741,1,0,0:0:0:0:
448,192,222884,128,0,223027:0:0:0:0:
320,192,223027,1,0,0:0:0:0:
192,192,223027,1,0,0:0:0:0:
448,192,223098,1,0,0:0:0:0:
192,192,223170,1,0,0:0:0:0:
320,192,223241,1,0,0:0:0:0:
448,192,223312,128,0,223741:0:0:0:0:
64,192,223312,1,0,0:0:0:0:
192,192,223455,128,0,223741:0:0:0:0:
64,192,223598,128,0,223884:0:0:0:0:
320,192,223598,1,0,0:0:0:0:
320,192,223741,128,0,223884:0:0:0:0:
192,192,223884,1,0,0:0:0:0:
448,192,223884,1,0,0:0:0:0:
192,192,224027,1,0,0:0:0:0:
448,192,224027,1,0,0:0:0:0:
448,192,224170,1,0,0:0:0:0:
320,192,224170,1,0,0:0:0:0:
64,192,224170,1,0,0:0:0:0:
320,192,224312,1,0,0:0:0:0:
192,192,224312,1,0,0:0:0:0:
64,192,224455,1,0,0:0:0:0:
192,192,224455,1,0,0:0:0:0:
448,192,224455,1,0,0:0:0:0:
64,192,224598,1,0,0:0:0:0:
320,192,224598,1,0,0:0:0:0:
448,192,224741,1,0,0:0:0:0:
192,192,224741,128,0,225027:0:0:0:0:
448,192,224884,128,0,225027:0:0:0:0:
320,192,225027,128,0,225312:0:0:0:0:
64,192,225027,1,0,0:0:0:0:
64,192,225170,128,0,225312:0:0:0:0:
448,192,225312,1,0,0:0:0:0:
192,192,225312,1,0,0:0:0:0:
64,192,225384,1,0,0:0:0:0:
320,192,225455,1,0,0:0:0:0:
192,192,225527,1,0,0:0:0:0:
64,192,225598,128,0,225884:0:0:0:0:
448,192,225598,1,0,0:0:0:0:
448,192,225741,128,0,225884:0:0:0:0:
320,192,225884,1,0,0:0:0:0:
192,192,225884,1,0,0:0:0:0:
192,192,226027,128,0,226170:0:0:0:0:
64,192,226170,1,0,0:0:0:0:
448,192,226170,1,0,0:0:0:0:
320,192,226170,1,0,0:0:0:0:
320,192,226312,1,0,0:0:0:0:
192,192,226312,1,0,0:0:0:0:
448,192,226455,1,0,0:0:0:0:
64,192,226455,1,0,0:0:0:0:
192,192,226455,1,0,0:0:0:0:
64,192,226598,1,0,0:0:0:0:
320,192,226598,1,0,0:0:0:0:
320,192,226741,1,0,0:0:0:0:
448,192,226741,1,0,0:0:0:0:
192,192,226741,1,0,0:0:0:0:
192,192,226884,1,0,0:0:0:0:
64,192,226884,1,0,0:0:0:0:
448,192,227027,1,0,0:0:0:0:
320,192,227027,1,0,0:0:0:0:
64,192,227027,1,0,0:0:0:0:
320,192,227170,1,0,0:0:0:0:
192,192,227170,1,0,0:0:0:0:
448,192,227312,1,0,0:0:0:0:
320,192,227312,1,0,0:0:0:0:
192,192,227312,1,0,0:0:0:0:
64,192,227312,1,0,0:0:0:0:
320,192,227455,1,0,0:0:0:0:
448,192,227455,1,0,0:0:0:0:
64,192,227455,1,0,0:0:0:0:
192,192,227455,1,0,0:0:0:0:
448,192,227741,1,0,0:0:0:0:
320,192,227741,1,0,0:0:0:0:
64,192,227741,1,0,0:0:0:0:
192,192,227741,1,0,0:0:0:0:
320,192,227884,1,0,0:0:0:0:
448,192,227884,1,0,0:0:0:0:
64,192,227884,1,0,0:0:0:0:
192,192,227884,1,0,0:0:0:0:
320,192,228170,1,0,0:0:0:0:
448,192,228170,1,0,0:0:0:0:
64,192,228170,1,0,0:0:0:0:
192,192,228170,1,0,0:0:0:0:
64,192,228312,1,0,0:0:0:0:
192,192,228312,1,0,0:0:0:0:
448,192,228384,1,0,0:0:0:0:
320,192,228384,1,0,0:0:0:0:
64,192,228455,1,0,0:0:0:0:
192,192,228455,1,0,0:0:0:0:
448,192,228598,1,0,0:0:0:0:
320,192,228598,1,0,0:0:0:0:
64,192,228670,1,0,0:0:0:0:
192,192,228670,1,0,0:0:0:0:
448,192,228741,1,0,0:0:0:0:
320,192,228741,1,0,0:0:0:0:
64,192,228884,1,0,0:0:0:0:
192,192,228884,1,0,0:0:0:0:
320,192,228955,1,0,0:0:0:0:
448,192,228955,1,0,0:0:0:0:
64,192,229027,1,0,0:0:0:0:
192,192,229027,1,0,0:0:0:0:
320,192,229170,1,0,0:0:0:0:
448,192,229170,1,0,0:0:0:0:
64,192,229170,1,0,0:0:0:0:
192,192,229170,1,0,0:0:0:0:
64,192,229598,128,0,229812:0:0:0:0:
448,192,229598,128,0,229812:0:0:0:0:
320,192,229598,128,0,229812:0:0:0:0:
448,192,229884,1,0,0:0:0:0:
320,192,229884,1,0,0:0:0:0:
64,192,229884,1,0,0:0:0:0:
192,192,229955,1,0,0:0:0:0:
448,192,230027,1,0,0:0:0:0:
320,192,230098,1,0,0:0:0:0:
64,192,230170,1,0,0:0:0:0:
192,192,230170,1,0,0:0:0:0:
320,192,230312,1,0,0:0:0:0:
64,192,230455,1,0,0:0:0:0:
448,192,230455,1,0,0:0:0:0:
192,192,230598,128,0,230884:0:0:0:0:
64,192,230741,1,0,0:0:0:0:
320,192,230741,1,0,0:0:0:0:
448,192,230741,128,0,230955:0:0:0:0:
64,192,230884,128,0,231170:0:0:0:0:
448,192,231027,1,0,0:0:0:0:
192,192,231027,1,0,0:0:0:0:
320,192,231027,128,0,231170:0:0:0:0:
448,192,231170,128,0,231455:0:0:0:0:
64,192,231312,1,0,0:0:0:0:
320,192,231312,1,0,0:0:0:0:
192,192,231312,128,0,231455:0:0:0:0:
320,192,231455,128,0,231884:0:0:0:0:
448,192,231598,1,0,0:0:0:0:
192,192,231598,1,0,0:0:0:0:
64,192,231598,128,0,231812:0:0:0:0:
448,192,231741,1,0,0:0:0:0:
192,192,231741,1,0,0:0:0:0:
448,192,231884,128,0,232098:0:0:0:0:
64,192,231884,128,0,232098:0:0:0:0:
192,192,231884,128,0,232098:0:0:0:0:
64,192,232170,1,0,0:0:0:0:
192,192,232170,1,0,0:0:0:0:
448,192,232170,1,0,0:0:0:0:
320,192,232241,1,0,0:0:0:0:
64,192,232312,1,0,0:0:0:0:
192,192,232384,1,0,0:0:0:0:
320,192,232455,128,0,232598:0:0:0:0:
448,192,232455,1,0,0:0:0:0:
64,192,232598,128,0,232741:0:0:0:0:
448,192,232741,128,0,232884:0:0:0:0:
320,192,232741,1,0,0:0:0:0:
192,192,232741,1,0,0:0:0:0:
192,192,232884,128,0,233027:0:0:0:0:
320,192,233027,1,0,0:0:0:0:
64,192,233027,1,0,0:0:0:0:
448,192,233027,1,0,0:0:0:0:
192,192,233241,1,0,0:0:0:0:
448,192,233241,1,0,0:0:0:0:
64,192,233241,1,0,0:0:0:0:
320,192,233241,1,0,0:0:0:0:
320,192,233455,1,0,0:0:0:0:
448,192,233455,1,0,0:0:0:0:
64,192,233455,1,0,0:0:0:0:
192,192,233455,1,0,0:0:0:0:
320,192,233670,1,0,0:0:0:0:
448,192,233670,1,0,0:0:0:0:
64,192,233670,1,0,0:0:0:0:
192,192,233670,1,0,0:0:0:0:
192,192,234170,1,0,0:0:0:0:
448,192,234170,1,0,0:0:0:0:
320,192,234170,1,0,0:0:0:0:
64,192,234241,1,0,0:0:0:0:
192,192,234312,1,0,0:0:0:0:
320,192,234384,1,0,0:0:0:0:
448,192,234455,1,0,0:0:0:0:
64,192,234455,1,0,0:0:0:0:
192,192,234527,1,0,0:0:0:0:
320,192,234598,1,0,0:0:0:0:
192,192,234670,1,0,0:0:0:0:
448,192,234741,1,0,0:0:0:0:
64,192,234741,1,0,0:0:0:0:
320,192,234812,1,0,0:0:0:0:
192,192,234884,1,0,0:0:0:0:
320,192,234955,1,0,0:0:0:0:
448,192,235027,1,0,0:0:0:0:
64,192,235027,1,0,0:0:0:0:
192,192,235098,1,0,0:0:0:0:
320,192,235170,1,0,0:0:0:0:
448,192,235241,1,0,0:0:0:0:
320,192,235312,1,0,0:0:0:0:
192,192,235312,1,0,0:0:0:0:
64,192,235384,1,0,0:0:0:0:
320,192,235455,1,0,0:0:0:0:
192,192,235527,1,0,0:0:0:0:
448,192,235598,1,0,0:0:0:0:
64,192,235598,1,0,0:0:0:0:
320,192,235670,1,0,0:0:0:0:
192,192,235741,1,0,0:0:0:0:
320,192,235812,1,0,0:0:0:0:
448,192,235884,1,0,0:0:0:0:
64,192,235884,1,0,0:0:0:0:
192,192,235955,1,0,0:0:0:0:
320,192,236027,1,0,0:0:0:0:
192,192,236098,1,0,0:0:0:0:
448,192,236170,1,0,0:0:0:0:
64,192,236170,1,0,0:0:0:0:
320,192,236241,1,0,0:0:0:0:
192,192,236312,1,0,0:0:0:0:
64,192,236384,1,0,0:0:0:0:
448,192,236455,1,0,0:0:0:0:
192,192,236455,1,0,0:0:0:0:
320,192,236455,1,0,0:0:0:0:
64,192,236527,1,0,0:0:0:0:
448,192,236598,1,0,0:0:0:0:
192,192,236670,1,0,0:0:0:0:
448,192,236741,1,0,0:0:0:0:
320,192,236812,1,0,0:0:0:0:
192,192,236884,1,0,0:0:0:0:
64,192,236955,1,0,0:0:0:0:
320,192,237027,1,0,0:0:0:0:
64,192,237098,1,0,0:0:0:0:
448,192,237170,1,0,0:0:0:0:
64,192,237241,1,0,0:0:0:0:
448,192,237312,1,0,0:0:0:0:
320,192,237348,1,0,0:0:0:0:
64,192,237384,1,0,0:0:0:0:
192,192,237420,1,0,0:0:0:0:
320,192,237455,1,0,0:0:0:0:
448,192,237491,1,0,0:0:0:0:
192,192,237527,1,0,0:0:0:0:
64,192,237562,1,0,0:0:0:0:
448,192,237598,1,0,0:0:0:0:
320,192,237598,1,0,0:0:0:0:
192,192,237741,128,0,238241:0:0:0:0:
448,192,237884,128,0,238098:0:0:0:0:
64,192,237955,128,0,238027:0:0:0:0:
320,192,238027,128,0,238384:0:0:0:0:
64,192,238098,128,0,238312:0:0:0:0:
448,192,238170,128,0,238527:0:0:0:0:
192,192,238312,128,0,238455:0:0:0:0:
64,192,238384,128,0,238670:0:0:0:0:
320,192,238455,128,0,238598:0:0:0:0:
192,192,238527,128,0,238670:0:0:0:0:
448,192,238598,128,0,238670:0:0:0:0:
320,192,238670,128,0,238741:0:0:0:0:
448,192,238741,128,0,239098:0:0:0:0:
64,192,238741,128,0,239098:0:0:0:0:
192,192,238741,128,0,239098:0:0:0:0:
64,192,239170,1,0,0:0:0:0:
192,192,239170,1,0,0:0:0:0:
448,192,239170,1,0,0:0:0:0:
64,192,239312,1,0,0:0:0:0:
192,192,239312,1,0,0:0:0:0:
448,192,239312,1,0,0:0:0:0:
448,192,239455,1,0,0:0:0:0:
320,192,239455,1,0,0:0:0:0:
64,192,239527,1,0,0:0:0:0:
192,192,239527,1,0,0:0:0:0:
448,192,239670,1,0,0:0:0:0:
320,192,239670,1,0,0:0:0:0:
192,192,239741,1,0,0:0:0:0:
64,192,239741,1,0,0:0:0:0:
448,192,239884,1,0,0:0:0:0:
64,192,239884,1,0,0:0:0:0:
192,192,239955,1,0,0:0:0:0:
320,192,239955,1,0,0:0:0:0:
448,192,240098,1,0,0:0:0:0:
64,192,240098,1,0,0:0:0:0:
192,192,240170,1,0,0:0:0:0:
320,192,240170,1,0,0:0:0:0:
320,192,240312,1,0,0:0:0:0:
192,192,240312,1,0,0:0:0:0:
64,192,240384,1,0,0:0:0:0:
448,192,240384,1,0,0:0:0:0:
320,192,240527,1,0,0:0:0:0:
192,192,240527,1,0,0:0:0:0:
64,192,240598,1,0,0:0:0:0:
448,192,240598,1,0,0:0:0:0:
192,192,240741,128,0,241027:0:0:0:0:
320,192,241027,128,0,241384:0:0:0:0:
448,192,241027,128,0,241384:0:0:0:0:
64,192,241027,128,0,241384:0:0:0:0:
64,192,241455,1,0,0:0:0:0:
448,192,241455,1,0,0:0:0:0:
320,192,241455,1,0,0:0:0:0:
192,192,241527,1,0,0:0:0:0:
64,192,241598,1,0,0:0:0:0:
448,192,241598,1,0,0:0:0:0:
320,192,241598,1,0,0:0:0:0:
320,192,241741,1,0,0:0:0:0:
192,192,241741,1,0,0:0:0:0:
64,192,241812,1,0,0:0:0:0:
448,192,241812,1,0,0:0:0:0:
192,192,241955,1,0,0:0:0:0:
320,192,241955,1,0,0:0:0:0:
64,192,242027,1,0,0:0:0:0:
448,192,242027,1,0,0:0:0:0:
64,192,242170,1,0,0:0:0:0:
192,192,242170,1,0,0:0:0:0:
448,192,242241,1,0,0:0:0:0:
320,192,242241,1,0,0:0:0:0:
64,192,242384,1,0,0:0:0:0:
192,192,242384,1,0,0:0:0:0:
448,192,242455,1,0,0:0:0:0:
320,192,242455,1,0,0:0:0:0:
448,192,242598,1,0,0:0:0:0:
320,192,242598,1,0,0:0:0:0:
64,192,242670,1,0,0:0:0:0:
192,192,242670,1,0,0:0:0:0:
448,192,242812,1,0,0:0:0:0:
320,192,242812,1,0,0:0:0:0:
64,192,242884,1,0,0:0:0:0:
192,192,242884,1,0,0:0:0:0:
320,192,243027,128,0,243312:0:0:0:0:
448,192,243170,1,0,0:0:0:0:
64,192,243170,1,0,0:0:0:0:
448,192,243312,128,0,243670:0:0:0:0:
64,192,243312,128,0,243670:0:0:0:0:
192,192,243312,128,0,243670:0:0:0:0:
64,192,243741,1,0,0:0:0:0:
192,192,243741,1,0,0:0:0:0:
448,192,243741,1,0,0:0:0:0:
192,192,243884,1,0,0:0:0:0:
64,192,243884,1,0,0:0:0:0:
448,192,243884,1,0,0:0:0:0:
64,192,244027,1,0,0:0:0:0:
320,192,244027,1,0,0:0:0:0:
448,192,244098,1,0,0:0:0:0:
192,192,244098,1,0,0:0:0:0:
64,192,244241,1,0,0:0:0:0:
320,192,244241,1,0,0:0:0:0:
448,192,244312,1,0,0:0:0:0:
192,192,244312,1,0,0:0:0:0:
192,192,244455,1,0,0:0:0:0:
320,192,244455,1,0,0:0:0:0:
64,192,244527,1,0,0:0:0:0:
448,192,244527,1,0,0:0:0:0:
192,192,244670,1,0,0:0:0:0:
320,192,244670,1,0,0:0:0:0:
64,192,244741,1,0,0:0:0:0:
448,192,244741,1,0,0:0:0:0:
448,192,244884,1,0,0:0:0:0:
64,192,244884,1,0,0:0:0:0:
192,192,244955,1,0,0:0:0:0:
320,192,244955,1,0,0:0:0:0:
64,192,245098,1,0,0:0:0:0:
448,192,245098,1,0,0:0:0:0:
320,192,245170,1,0,0:0:0:0:
192,192,245170,1,0,0:0:0:0:
320,192,245312,128,0,245598:0:0:0:0:
448,192,245598,128,0,245955:0:0:0:0:
192,192,245598,128,0,245955:0:0:0:0:
64,192,245598,128,0,245955:0:0:0:0:
192,192,246027,1,0,0:0:0:0:
64,192,246027,1,0,0:0:0:0:
448,192,246027,1,0,0:0:0:0:
320,192,246098,1,0,0:0:0:0:
448,192,246170,1,0,0:0:0:0:
64,192,246170,1,0,0:0:0:0:
192,192,246170,1,0,0:0:0:0:
448,192,246312,1,0,0:0:0:0:
320,192,246312,1,0,0:0:0:0:
64,192,246384,1,0,0:0:0:0:
192,192,246384,1,0,0:0:0:0:
448,192,246527,1,0,0:0:0:0:
320,192,246527,1,0,0:0:0:0:
64,192,246598,1,0,0:0:0:0:
192,192,246598,1,0,0:0:0:0:
64,192,246741,1,0,0:0:0:0:
448,192,246741,1,0,0:0:0:0:
448,192,246812,128,0,247170:0:0:0:0:
64,192,246812,128,0,247098:0:0:0:0:
320,192,246955,1,0,0:0:0:0:
192,192,246955,1,0,0:0:0:0:
320,192,247027,128,0,247170:0:0:0:0:
192,192,247027,128,0,247098:0:0:0:0:
192,192,247170,1,0,0:0:0:0:
64,192,247170,1,0,0:0:0:0:
448,192,247241,1,0,0:0:0:0:
320,192,247241,1,0,0:0:0:0:
64,192,247312,1,0,0:0:0:0:
320,192,247312,1,0,0:0:0:0:
448,192,247312,1,0,0:0:0:0:
192,192,247312,1,0,0:0:0:0:
192,192,247884,128,0,248241:0:0:0:0:
64,192,247884,128,0,248241:0:0:0:0:
448,192,247884,128,0,248241:0:0:0:0:
320,192,247884,128,0,248241:0:0:0:0:
192,192,248312,1,0,0:0:0:0:
64,192,248312,1,0,0:0:0:0:
448,192,248312,1,0,0:0:0:0:
320,192,248312,1,0,0:0:0:0:
192,192,248455,1,0,0:0:0:0:
64,192,248455,1,0,0:0:0:0:
448,192,248455,1,0,0:0:0:0:
320,192,248455,1,0,0:0:0:0:
64,192,248598,1,0,0:0:0:0:
192,192,248670,1,0,0:0:0:0:
320,192,248670,1,0,0:0:0:0:
448,192,248670,1,0,0:0:0:0:
320,192,248812,1,0,0:0:0:0:
448,192,248884,1,0,0:0:0:0:
64,192,248884,1,0,0:0:0:0:
192,192,248884,1,0,0:0:0:0:
192,192,249027,1,0,0:0:0:0:
448,192,249098,1,0,0:0:0:0:
64,192,249098,1,0,0:0:0:0:
320,192,249098,1,0,0:0:0:0:
448,192,249241,1,0,0:0:0:0:
64,192,249312,1,0,0:0:0:0:
192,192,249312,1,0,0:0:0:0:
320,192,249312,1,0,0:0:0:0:
192,192,249455,1,0,0:0:0:0:
64,192,249527,1,0,0:0:0:0:
448,192,249527,1,0,0:0:0:0:
320,192,249527,1,0,0:0:0:0:
320,192,249670,1,0,0:0:0:0:
64,192,249741,1,0,0:0:0:0:
192,192,249741,1,0,0:0:0:0:
448,192,249741,1,0,0:0:0:0:
192,192,249884,128,0,250527:0:0:0:0:
64,192,250170,128,0,250527:0:0:0:0:
448,192,250170,128,0,250527:0:0:0:0:
320,192,250170,128,0,250527:0:0:0:0:
64,192,250598,1,0,0:0:0:0:
320,192,250598,1,0,0:0:0:0:
448,192,250598,1,0,0:0:0:0:
192,192,250670,1,0,0:0:0:0:
64,192,250741,1,0,0:0:0:0:
448,192,250741,1,0,0:0:0:0:
320,192,250741,1,0,0:0:0:0:
448,192,250884,1,0,0:0:0:0:
64,192,250955,1,0,0:0:0:0:
192,192,250955,1,0,0:0:0:0:
320,192,250955,1,0,0:0:0:0:
320,192,251098,1,0,0:0:0:0:
64,192,251170,1,0,0:0:0:0:
192,192,251170,1,0,0:0:0:0:
448,192,251170,1,0,0:0:0:0:
64,192,251312,1,0,0:0:0:0:
448,192,251384,1,0,0:0:0:0:
320,192,251384,1,0,0:0:0:0:
192,192,251384,1,0,0:0:0:0:
192,192,251527,1,0,0:0:0:0:
64,192,251598,1,0,0:0:0:0:
448,192,251598,1,0,0:0:0:0:
320,192,251598,1,0,0:0:0:0:
448,192,251741,1,0,0:0:0:0:
64,192,251812,1,0,0:0:0:0:
192,192,251812,1,0,0:0:0:0:
320,192,251812,1,0,0:0:0:0:
64,192,251955,1,0,0:0:0:0:
320,192,252027,1,0,0:0:0:0:
192,192,252027,1,0,0:0:0:0:
448,192,252027,1,0,0:0:0:0:
192,192,252170,128,0,252812:0:0:0:0:
320,192,252312,1,0,0:0:0:0:
448,192,252312,1,0,0:0:0:0:
64,192,252312,1,0,0:0:0:0:
64,192,252455,128,0,252812:0:0:0:0:
448,192,252455,128,0,252812:0:0:0:0:
320,192,252455,128,0,252812:0:0:0:0:
320,192,252884,1,0,0:0:0:0:
448,192,252884,1,0,0:0:0:0:
64,192,252884,1,0,0:0:0:0:
192,192,252884,1,0,0:0:0:0:
320,192,253027,1,0,0:0:0:0:
448,192,253027,1,0,0:0:0:0:
64,192,253027,1,0,0:0:0:0:
192,192,253027,1,0,0:0:0:0:
320,192,253170,1,0,0:0:0:0:
448,192,253241,1,0,0:0:0:0:
64,192,253241,1,0,0:0:0:0:
192,192,253241,1,0,0:0:0:0:
64,192,253384,1,0,0:0:0:0:
192,192,253455,1,0,0:0:0:0:
448,192,253455,1,0,0:0:0:0:
320,192,253455,1,0,0:0:0:0:
448,192,253598,1,0,0:0:0:0:
64,192,253598,1,0,0:0:0:0:
192,192,253598,1,0,0:0:0:0:
320,192,253741,1,0,0:0:0:0:
192,192,253812,1,0,0:0:0:0:
64,192,253812,1,0,0:0:0:0:
448,192,253812,1,0,0:0:0:0:
64,192,253955,1,0,0:0:0:0:
192,192,254027,1,0,0:0:0:0:
320,192,254027,1,0,0:0:0:0:
448,192,254027,1,0,0:0:0:0:
192,192,254170,1,0,0:0:0:0:
448,192,254170,1,0,0:0:0:0:
64,192,254170,1,0,0:0:0:0:
320,192,254312,1,0,0:0:0:0:
448,192,254384,1,0,0:0:0:0:
64,192,254384,1,0,0:0:0:0:
192,192,254384,1,0,0:0:0:0:
320,192,254455,128,0,254527:0:0:0:0:
64,192,254527,1,0,0:0:0:0:
320,192,254598,1,0,0:0:0:0:
192,192,254598,1,0,0:0:0:0:
448,192,254598,1,0,0:0:0:0:
64,192,254741,1,0,0:0:0:0:
448,192,254741,1,0,0:0:0:0:
320,192,254741,1,0,0:0:0:0:
192,192,254741,1,0,0:0:0:0:
448,192,254884,1,0,0:0:0:0:
64,192,254884,1,0,0:0:0:0:
192,192,254884,1,0,0:0:0:0:
64,192,254955,1,0,0:0:0:0:
448,192,254955,1,0,0:0:0:0:
192,192,254955,1,0,0:0:0:0:
64,192,255098,1,0,0:0:0:0:
448,192,255098,1,0,0:0:0:0:
320,192,255098,1,0,0:0:0:0:
448,192,255170,1,0,0:0:0:0:
320,192,255170,1,0,0:0:0:0:
64,192,255170,1,0,0:0:0:0:
320,192,255312,1,0,0:0:0:0:
448,192,255312,1,0,0:0:0:0:
192,192,255312,1,0,0:0:0:0:
64,192,255312,1,0,0:0:0:0:
64,192,255455,1,0,0:0:0:0:
192,192,255455,1,0,0:0:0:0:
320,192,255455,1,0,0:0:0:0:
320,192,255527,1,0,0:0:0:0:
192,192,255527,1,0,0:0:0:0:
64,192,255527,1,0,0:0:0:0:
448,192,255670,1,0,0:0:0:0:
320,192,255670,1,0,0:0:0:0:
192,192,255670,1,0,0:0:0:0:
448,192,255741,1,0,0:0:0:0:
320,192,255741,1,0,0:0:0:0:
192,192,255741,1,0,0:0:0:0:
64,192,255884,1,0,0:0:0:0:
448,192,255884,1,0,0:0:0:0:
448,192,256170,1,0,0:0:0:0:
64,192,256170,1,0,0:0:0:0:
448,192,256455,1,0,0:0:0:0:
64,192,256455,1,0,0:0:0:0:
64,192,256741,128,0,256955:0:0:0:0:
448,192,256741,128,0,256955:0:0:0:0:
320,192,257027,1,0,0:0:0:0:
448,192,257027,1,0,0:0:0:0:
64,192,257027,1,0,0:0:0:0:
192,192,257027,1,0,0:0:0:0:
