osu file format v14

[General]
AudioFilename: audio.mp3
AudioLeadIn: 0
PreviewTime: 202170
Countdown: 0
SampleSet: Soft
StackLeniency: 0.7
Mode: 3
LetterboxInBreaks: 0
SpecialStyle: 0
WidescreenStoryboard: 1

[Editor]
Bookmarks: 9884,147027,256741
DistanceSpacing: 0.8
BeatDivisor: 12
GridSize: 8
TimelineZoom: 2.6

[Metadata]
Title:The King of Lions
TitleUnicode:The King of Lions
Artist:Camellia
ArtistUnicode:かめりあ
Creator:Eedow
Version:JUNGLE WARFARE (SV Edition)
Source:
Tags:INVAIDAS FROM DA JUNGLE
BeatmapID:1431909
BeatmapSetID:659564

[Difficulty]
HPDrainRate:8
CircleSize:4
OverallDifficulty:8
ApproachRate:5
SliderMultiplier:1.4
SliderTickRate:1

[Events]
//Background and Video events
0,0,"bg.png",0,0
//Break Periods
2,147512,155255
//Storyboard Layer 0 (Background)
//Storyboard Layer 1 (Fail)
//Storyboard Layer 2 (Pass)
//Storyboard Layer 3 (Foreground)
//Storyboard Sound Samples

[TimingPoints]
2170,285.714285714286,4,2,0,10,1,0
9884,-200,4,2,0,10,0,0
10098,-40,4,2,0,10,0,0
10170,-100,4,2,0,10,0,0
14741,-10,4,2,0,10,0,0
14812,-10000,4,2,0,10,0,0
15098,-40,4,2,0,10,0,0
15170,-100,4,2,0,10,0,0
19312,-33.3333333333333,4,2,0,10,0,0
19384,-200,4,2,0,10,0,0
19527,-100,4,2,0,10,0,0
19741,-33.3333333333333,4,2,0,10,0,0
19812,-200,4,2,0,10,0,0
19955,-100,4,2,0,10,0,0
20455,-50,4,2,0,10,0,0
20527,-10000,4,2,0,10,0,0
20598,-100,4,2,0,10,0,0
20670,-50,4,2,0,10,0,0
20741,-10000,4,2,0,10,0,0
20812,-100,4,2,0,10,0,0
20884,-33.3333333333333,4,2,0,10,0,0
20955,-200,4,2,0,10,0,0
21098,-100,4,2,0,10,0,0
21598,-33.3333333333333,4,2,0,10,0,0
21670,-200,4,2,0,10,0,0
21812,-100,4,2,0,10,0,0
22027,-33.3333333333333,4,2,0,10,0,0
22098,-200,4,2,0,10,0,0
22241,-100,4,2,0,10,0,0
22741,-50,4,2,0,10,0,0
22813,-10000,4,2,0,10,0,0
22884,-100,4,2,0,10,0,0
22955,-50,4,2,0,10,0,0
23027,-10000,4,2,0,10,0,0
23098,-100,4,2,0,10,0,0
23170,-50,4,2,0,10,0,0
23242,-10000,4,2,0,10,0,0
23313,-100,4,2,0,10,0,0
23384,-50,4,2,0,10,0,0
23456,-10000,4,2,0,10,0,0
23527,-100,4,2,0,10,0,0
23598,-50,4,2,0,10,0,0
23670,-10000,4,2,0,10,0,0
23870,-10,4,2,0,10,0,0
23884,-33.333,4,2,0,10,0,0
23956,-200,4,2,0,10,0,0
24099,-100,4,2,0,10,0,0
24313,-33.333,4,2,0,10,0,0
24384,-200,4,2,0,10,0,0
24527,-100,4,2,0,10,0,0
25027,-50,4,2,0,10,0,0
25099,-10000,4,2,0,10,0,0
25170,-100,4,2,0,10,0,0
25242,-50,4,2,0,10,0,0
25313,-10000,4,2,0,10,0,0
25384,-100,4,2,0,10,0,0
25456,-33.333,4,2,0,10,0,0
25527,-200,4,2,0,10,0,0
25670,-100,4,2,0,10,0,0
26170,-33.333,4,2,0,10,0,0
26242,-200,4,2,0,10,0,0
26384,-100,4,2,0,10,0,0
26599,-33.333,4,2,0,10,0,0
26670,-200,4,2,0,10,0,0
26813,-100,4,2,0,10,0,0
27312,-200,4,2,0,10,0,0
27455,-50,4,2,0,10,0,0
27527,-200,4,2,0,10,0,0
27670,-50,4,2,0,10,0,0
27741,-200,4,2,0,10,0,0
27884,-50,4,2,0,10,0,0
27955,-200,4,2,0,10,0,0
28098,-50,4,2,0,10,0,0
28170,-200,4,2,0,10,0,0
28384,-40,4,2,0,10,0,0
28455,-100,4,2,0,10,0,0
33027,-66.6666666666667,4,2,0,10,0,0
33063,-200,4,2,0,10,0,0
33098,-100,4,2,0,10,0,0
33170,-66.6666666666667,4,2,0,10,0,0
33206,-200,4,2,0,10,0,0
33241,-100,4,2,0,10,0,0
33312,-66.6666666666667,4,2,0,10,0,0
33348,-200,4,2,0,10,0,0
33383,-100,4,2,0,10,0,0
33455,-66.6666666666667,4,2,0,10,0,0
33491,-200,4,2,0,10,0,0
33526,-100,4,2,0,10,0,0
33598,-66.6666666666667,4,2,0,10,0,0
33634,-200,4,2,0,10,0,0
33669,-100,4,2,0,10,0,0
33741,-66.6666666666667,4,2,0,10,0,0
33777,-200,4,2,0,10,0,0
33812,-100,4,2,0,10,0,0
33884,-66.6666666666667,4,2,0,10,0,0
33920,-200,4,2,0,10,0,0
33955,-100,4,2,0,10,0,0
34027,-66.6666666666667,4,2,0,10,0,0
34063,-200,4,2,0,10,0,0
34098,-100,4,2,0,10,0,0
34170,-57.1428571428571,4,2,0,10,0,0
34205,-400,4,2,0,10,0,0
34241,-57.1428571428571,4,2,0,10,0,0
34276,-400,4,2,0,10,0,0
34312,-57.1428571428571,4,2,0,10,0,0
34347,-400,4,2,0,10,0,0
34384,-57.1428571428571,4,2,0,10,0,0
34419,-400,4,2,0,10,0,0
34455,-57.1428571428571,4,2,0,10,0,0
34490,-400,4,2,0,10,0,0
34527,-57.1428571428571,4,2,0,10,0,0
34562,-400,4,2,0,10,0,0
34598,-57.1428571428571,4,2,0,10,0,0
34633,-400,4,2,0,10,0,0
34670,-57.1428571428571,4,2,0,10,0,0
34705,-400,4,2,0,10,0,0
34741,-57.1428571428571,4,2,0,10,0,0
34776,-400,4,2,0,10,0,0
34812,-57.1428571428571,4,2,0,10,0,0
34847,-400,4,2,0,10,0,0
34884,-57.1428571428571,4,2,0,10,0,0
34919,-400,4,2,0,10,0,0
34955,-57.1428571428571,4,2,0,10,0,0
34990,-400,4,2,0,10,0,0
35027,-50,4,2,0,10,0,0
35045,-10000,4,2,0,10,0,0
35062,-50,4,2,0,10,0,0
35080,-10000,4,2,0,10,0,0
35098,-50,4,2,0,10,0,0
35116,-10000,4,2,0,10,0,0
35134,-50,4,2,0,10,0,0
35152,-10000,4,2,0,10,0,0
35170,-50,4,2,0,10,0,0
35188,-10000,4,2,0,10,0,0
35205,-50,4,2,0,10,0,0
35223,-10000,4,2,0,10,0,0
35241,-50,4,2,0,10,0,0
35259,-10000,4,2,0,10,0,0
35277,-50,4,2,0,10,0,0
35295,-10000,4,2,0,10,0,0
35312,-10,4,2,0,10,0,0
35319,-10000,4,2,0,10,0,0
35384,-100,4,2,0,10,0,0
36455,-66.667,4,2,0,10,0,0
36490,-200,4,2,0,10,0,0
36526,-66.667,4,2,0,10,0,0
36562,-200,4,2,0,10,0,0
36598,-66.667,4,2,0,10,0,0
36633,-200,4,2,0,10,0,0
36669,-66.667,4,2,0,10,0,0
36705,-200,4,2,0,10,0,0
36740,-100,4,2,0,10,0,0
36883,-66.667,4,2,0,10,0,0
36919,-200,4,2,0,10,0,0
36955,-66.667,4,2,0,10,0,0
36990,-200,4,2,0,10,0,0
37026,-100,4,2,0,10,0,0
37169,-66.667,4,2,0,10,0,0
37205,-200,4,2,0,10,0,0
37240,-66.667,4,2,0,10,0,0
37276,-200,4,2,0,10,0,0
37312,-66.6666666666667,4,2,0,10,0,0
37455,-200,4,2,0,10,0,0
37598,-50,4,2,0,10,0,0
37634,-10000,4,2,0,10,0,0
37670,-50,4,2,0,10,0,0
37705,-10000,4,2,0,10,0,0
37741,-50,4,2,0,10,0,0
37777,-10000,4,2,0,10,0,0
37812,-50,4,2,0,10,0,0
37848,-10000,4,2,0,10,0,0
37884,-100,4,2,0,10,0,0
41312,-50,4,2,0,10,0,0
41348,-10000,4,2,0,10,0,0
41384,-100,4,2,0,10,0,0
41455,-50,4,2,0,10,0,0
41491,-10000,4,2,0,10,0,0
41527,-100,4,2,0,10,0,0
41598,-50,4,2,0,10,0,0
41634,-10000,4,2,0,10,0,0
41670,-100,4,2,0,10,0,0
41884,-50,4,2,0,10,0,0
41920,-10000,4,2,0,10,0,0
41955,-200,4,2,0,10,0,0
42134,-28.5714285714286,4,2,0,10,0,0
42170,-66.6666666666667,4,2,0,10,0,0
42241,-200,4,2,0,10,0,0
42312,-50,4,2,0,10,0,0
42348,-10000,4,2,0,10,0,0
42384,-100,4,2,0,10,0,0
44170,-50,4,2,0,10,0,0
44205,-10000,4,2,0,10,0,0
44241,-100,4,2,0,10,0,0
44312,-50,4,2,0,10,0,0
44347,-10000,4,2,0,10,0,0
44383,-100,4,2,0,10,0,0
44455,-40,4,2,0,10,0,0
44527,-400,4,2,0,10,0,0
44669,-100,4,2,0,10,0,0
44741,-66.667,4,2,0,10,0,0
44812,-200,4,2,0,10,0,0
44884,-66.667,4,2,0,10,0,0
44955,-200,4,2,0,10,0,0
45026,-50,4,2,0,10,0,0
45062,-10000,4,2,0,10,0,0
45098,-50,4,2,0,10,0,0
45134,-10000,4,2,0,10,0,0
45169,-50,4,2,0,10,0,0
45205,-10000,4,2,0,10,0,0
45241,-50,4,2,0,10,0,0
45276,-10000,4,2,0,10,0,0
45312,-66.667,4,2,0,10,0,0
45384,-200,4,2,0,10,0,0
45455,-66.667,4,2,0,10,0,0
45526,-200,4,2,0,10,0,0
45598,-50,4,2,0,10,0,0
45622,-10000,4,2,0,10,0,0
45645,-50,4,2,0,10,0,0
45669,-10000,4,2,0,10,0,0
45693,-50,4,2,0,10,0,0
45717,-10000,4,2,0,10,0,0
45741,-50,4,2,0,10,0,0
45764,-10000,4,2,0,10,0,0
45788,-50,4,2,0,10,0,0
45812,-10000,4,2,0,10,0,0
45836,-50,4,2,0,10,0,0
45860,-10000,4,2,0,10,0,0
45884,-50,4,2,0,10,0,0
45931,-10000,4,2,0,10,0,0
45979,-100,4,2,0,10,0,0
46074,-50,4,2,0,10,0,0
46122,-10000,4,2,0,10,0,0
46169,-100,4,2,0,10,0,0
46312,-50,4,2,0,10,0,0
46330,-10000,4,2,0,10,0,0
46348,-50,4,2,0,10,0,0
46366,-10000,4,2,0,10,0,0
46384,-50,4,2,0,10,0,0
46401,-10000,4,2,0,10,0,0
46419,-50,4,2,0,10,0,0
46437,-10000,4,2,0,10,0,0
46455,-50,4,2,0,10,0,0
46473,-10000,4,2,0,10,0,0
46491,-50,4,2,0,10,0,0
46509,-10000,4,2,0,10,0,0
46526,-50,4,2,0,10,0,0
46544,-10000,4,2,0,10,0,0
46562,-50,4,2,0,10,0,0
46580,-10000,4,2,0,10,0,0
46598,-66.667,4,2,0,10,0,0
46634,-200,4,2,0,10,0,0
46669,-100,4,2,0,10,0,0
46741,-10,4,2,0,10,0,0
46755,-10000,4,2,0,10,0,0
46812,-200,4,2,0,10,0,0
46955,-100,4,2,0,10,0,0
47027,-100,4,2,0,10,0,0
48670,-50,4,2,0,10,0,0
48705,-10000,4,2,0,10,0,0
48741,-66.6666666666667,4,2,0,10,0,0
48812,-200,4,2,0,10,0,0
48884,-66.6666666666667,4,2,0,10,0,0
48955,-200,4,2,0,10,0,0
49027,-100,4,2,0,10,0,0
49312,-66.6666666666667,4,2,0,10,0,0
49384,-200,4,2,0,10,0,0
49455,-66.6666666666667,4,2,0,10,0,0
49527,-200,4,2,0,10,0,0
49598,-100,4,2,0,10,0,0
50170,-50,4,2,0,10,0,0
50206,-10000,4,2,0,10,0,0
50241,-100,4,2,0,10,0,0
50455,-50,4,2,0,10,0,0
50491,-10000,4,2,0,10,0,0
50526,-100,4,2,0,10,0,0
50741,-50,4,2,0,10,0,0
50777,-10000,4,2,0,10,0,0
50812,-100,4,2,0,10,0,0
51027,-50,4,2,0,10,0,0
51062,-10000,4,2,0,10,0,0
51098,-200,4,2,0,10,0,0
51277,-28.5714285714286,4,2,0,10,0,0
51312,-66.6666666666667,4,2,0,10,0,0
51384,-200,4,2,0,10,0,0
51527,-66.6666666666667,4,2,0,10,0,0
51670,-200,4,2,0,10,0,0
51812,-66.6666666666667,4,2,0,10,0,0
51955,-200,4,2,0,10,0,0
52098,-66.6666666666667,4,2,0,10,0,0
52170,-50,4,2,0,10,0,0
52205,-10000,4,2,0,10,0,0
52241,-50,4,2,0,10,0,0
52277,-10000,4,2,0,10,0,0
52312,-200,4,2,0,10,0,0
52348,-66.6666666666667,4,2,0,10,0,0
52384,-50,4,2,0,10,0,0
52420,-10000,4,2,0,10,0,0
52455,-50,4,2,0,10,0,0
52491,-10000,4,2,0,10,0,0
52527,-200,4,2,0,10,0,0
52670,-66.6666666666667,4,2,0,10,0,0
52812,-200,4,2,0,10,0,0
52955,-66.6666666666667,4,2,0,10,0,0
53098,-200,4,2,0,10,0,0
53170,-66.6666666666667,4,2,0,10,0,0
53241,-200,4,2,0,10,0,0
53312,-50,4,2,0,10,0,0
53347,-10000,4,2,0,10,0,0
53383,-50,4,2,0,10,0,0
53419,-10000,4,2,0,10,0,0
53454,-200,4,2,0,10,0,0
53490,-66.667,4,2,0,10,0,0
53526,-50,4,2,0,10,0,0
53562,-10000,4,2,0,10,0,0
53597,-33.3333333333333,4,2,0,10,0,0
53670,-200,4,2,0,10,0,0
53812,-100,4,2,0,10,0,0
53884,-10000,4,2,0,10,0,0
53955,-50,4,2,0,10,0,0
54027,-10000,4,2,0,10,0,0
54098,-50,4,2,0,10,0,0
54170,-10000,4,2,0,10,0,0
54384,-50,4,2,0,10,0,0
54455,-10000,4,2,0,10,0,0
54526,-50,4,2,0,10,0,0
54598,-10000,4,2,0,10,0,0
54669,-50,4,2,0,10,0,0
54741,-133.333333333333,4,2,0,10,0,0
55527,-100,4,2,0,10,0,0
55598,-50,4,2,0,10,0,0
55634,-10000,4,2,0,10,0,0
55670,-50,4,2,0,10,0,0
55706,-10000,4,2,0,10,0,0
55741,-50,4,2,0,10,0,0
55777,-10000,4,2,0,10,0,0
55812,-50,4,2,0,10,0,0
55848,-10000,4,2,0,10,0,0
55884,-66.6666666666667,4,2,0,10,0,0
55955,-200,4,2,0,10,0,0
56027,-100,4,2,0,10,0,0
60170,-50,4,2,0,10,0,0
60205,-10000,4,2,0,10,0,0
60241,-200,4,2,0,10,0,0
60420,-28.5714285714286,4,2,0,10,0,0
60455,-50,4,2,0,10,0,0
60491,-10000,4,2,0,10,0,0
60527,-66.6666666666667,4,2,0,10,0,0
60598,-200,4,2,0,10,0,0
60670,-50,4,2,0,10,0,0
60705,-10000,4,2,0,10,0,0
60741,-50,4,2,0,10,0,0
60777,-10000,4,2,0,10,0,0
60812,-100,4,2,0,10,0,0
62741,-40,4,2,0,10,0,0
62812,-400,4,2,0,10,0,0
62955,-100,4,2,0,10,0,0
63027,-66.6666666666667,4,2,0,10,0,0
63074,-200,4,2,0,10,0,0
63122,-66.6666666666667,4,2,0,10,0,0
63170,-200,4,2,0,10,0,0
63217,-66.6666666666667,4,2,0,10,0,0
63265,-200,4,2,0,10,0,0
63312,-50,4,2,0,10,0,0
63348,-10000,4,2,0,10,0,0
63384,-50,4,2,0,10,0,0
63420,-10000,4,2,0,10,0,0
63455,-50,4,2,0,10,0,0
63491,-10000,4,2,0,10,0,0
63527,-50,4,2,0,10,0,0
63562,-10000,4,2,0,10,0,0
63598,-66.6666666666667,4,2,0,10,0,0
63670,-200,4,2,0,10,0,0
63741,-66.6666666666667,4,2,0,10,0,0
63812,-200,4,2,0,10,0,0
63884,-50,4,2,0,10,0,0
63908,-10000,4,2,0,10,0,0
63931,-50,4,2,0,10,0,0
63955,-10000,4,2,0,10,0,0
63979,-50,4,2,0,10,0,0
64003,-10000,4,2,0,10,0,0
64027,-50,4,2,0,10,0,0
64050,-10000,4,2,0,10,0,0
64074,-50,4,2,0,10,0,0
64098,-10000,4,2,0,10,0,0
64122,-50,4,2,0,10,0,0
64146,-10000,4,2,0,10,0,0
64170,-50,4,2,0,10,0,0
64217,-10000,4,2,0,10,0,0
64265,-100,4,2,0,10,0,0
64360,-50,4,2,0,10,0,0
64408,-10000,4,2,0,10,0,0
64455,-100,4,2,0,10,0,0
64598,-50,4,2,0,10,0,0
64616,-10000,4,2,0,10,0,0
64634,-50,4,2,0,10,0,0
64652,-10000,4,2,0,10,0,0
64670,-50,4,2,0,10,0,0
64687,-10000,4,2,0,10,0,0
64705,-50,4,2,0,10,0,0
64723,-10000,4,2,0,10,0,0
64741,-50,4,2,0,10,0,0
64759,-10000,4,2,0,10,0,0
64777,-50,4,2,0,10,0,0
64795,-10000,4,2,0,10,0,0
64812,-50,4,2,0,10,0,0
64830,-10000,4,2,0,10,0,0
64848,-50,4,2,0,10,0,0
64866,-10000,4,2,0,10,0,0
64884,-66.6666666666667,4,2,0,10,0,0
64920,-200,4,2,0,10,0,0
64955,-100,4,2,0,10,0,0
65027,-40,4,2,0,10,0,0
65098,-10000,4,2,0,10,0,0
65170,-200,4,2,0,10,0,0
65241,-100,4,2,0,10,0,0
65312,-10,4,2,0,10,0,0
65319,-10000,4,2,0,10,0,0
65384,-100,4,2,0,10,0,0
69312,-50,4,2,0,10,0,0
69348,-10000,4,2,0,10,0,0
69384,-200,4,2,0,10,0,0
69562,-28.5714285714286,4,2,0,10,0,0
69598,-10,4,2,0,10,0,0
69605,-10000,4,2,0,10,0,0
69669,-100,4,2,0,10,0,0
69812,-10,4,2,0,10,0,0
69819,-10000,4,2,0,10,0,0
69883,-100,4,2,0,10,0,0
70027,-10,4,2,0,10,0,0
70034,-10000,4,2,0,10,0,0
70098,-100,4,2,0,10,0,0
70241,-10,4,2,0,10,0,0
70248,-10000,4,2,0,10,0,0
70312,-100,4,2,0,10,0,0
70455,-10,4,2,0,10,0,0
70462,-10000,4,2,0,10,0,0
70526,-100,4,2,0,10,0,0
70741,-10,4,2,0,10,0,0
70748,-10000,4,2,0,10,0,0
70812,-100,4,2,0,10,0,0
70955,-10,4,2,0,10,0,0
70962,-10000,4,2,0,10,0,0
71026,-100,4,2,0,10,0,0
71170,-10,4,2,0,10,0,0
71177,-10000,4,2,0,10,0,0
71241,-100,4,2,0,10,0,0
71384,-10,4,2,0,10,0,0
71391,-10000,4,2,0,10,0,0
71455,-100,4,2,0,10,0,0
71598,-10,4,2,0,10,0,0
71605,-10000,4,2,0,10,0,0
71669,-100,4,2,0,10,0,0
71884,-10,4,2,0,10,0,0
71891,-10000,4,2,0,10,0,0
71955,-100,4,2,0,10,0,0
72098,-10,4,2,0,10,0,0
72105,-10000,4,2,0,10,0,0
72169,-100,4,2,0,10,0,0
72312,-10,4,2,0,10,0,0
72319,-10000,4,2,0,10,0,0
72383,-100,4,2,0,10,0,0
72455,-10,4,2,0,10,0,0
72462,-10000,4,2,0,10,0,0
72526,-100,4,2,0,10,0,0
72670,-10,4,2,0,10,0,0
72677,-10000,4,2,0,10,0,0
72741,-100,4,2,0,10,0,0
72884,-10,4,2,0,10,0,0
72891,-10000,4,2,0,10,0,0
72955,-100,4,2,0,10,0,0
73027,-133.333333333333,4,2,0,10,0,0
73170,-80,4,2,0,10,0,0
73312,-100,4,2,0,10,0,0
74170,-40,4,2,0,10,0,0
74241,-200,4,2,0,10,0,0
74455,-100,4,2,0,10,0,0
78741,-40,4,2,0,10,0,0
78812,-200,4,2,0,10,0,0
79027,-100,4,2,0,10,0,0
83312,-33.3333333333333,4,2,0,10,0,0
83384,-200,4,2,0,10,0,0
83527,-100,4,2,0,10,0,0
87884,-50,4,2,0,10,0,0
87920,-10000,4,2,0,10,0,0
87955,-100,4,2,0,10,0,0
90170,-50,4,2,0,10,0,0
90206,-10000,4,2,0,10,0,0
90241,-100,4,2,0,10,0,0
90312,-50,4,2,0,10,0,0
90348,-10000,4,2,0,10,0,0
90383,-100,4,2,0,10,0,0
90455,-50,4,2,0,10,0,0
90491,-10000,4,2,0,10,0,0
90526,-100,4,2,0,10,0,0
90598,-50,4,2,0,10,0,0
90634,-10000,4,2,0,10,0,0
90669,-100,4,2,0,10,0,0
90741,-50,4,2,0,10,0,0
90777,-10000,4,2,0,10,0,0
90812,-100,4,2,0,10,0,0
90884,-50,4,2,0,10,0,0
90920,-10000,4,2,0,10,0,0
90955,-100,4,2,0,10,0,0
91027,-50,4,2,0,10,0,0
91063,-10000,4,2,0,10,0,0
91098,-50,4,2,0,10,0,0
91134,-10000,4,2,0,10,0,0
91170,-50,4,2,0,10,0,0
91206,-10000,4,2,0,10,0,0
91241,-50,4,2,0,10,0,0
91277,-10000,4,2,0,10,0,0
91312,-50,4,2,0,10,0,0
91348,-10000,4,2,0,10,0,0
91384,-100,4,2,0,10,0,0
92455,-50,4,2,0,10,0,0
92527,-66.6666666666667,4,2,0,10,0,0
92598,-200,4,2,0,10,0,0
92812,-100,4,2,0,10,0,0
92884,-10,4,2,0,10,0,0
92891,-10000,4,2,0,10,0,0
92955,-100,4,2,0,10,0,0
93027,-10,4,2,0,10,0,0
93034,-10000,4,2,0,10,0,0
93098,-100,4,2,0,10,0,0
93170,-10,4,2,0,10,0,0
93177,-10000,4,2,0,10,0,0
93241,-10,4,2,0,10,0,0
93248,-10000,4,2,0,10,0,0
93312,-100,4,2,0,10,0,0
93384,-10,4,2,0,10,0,0
93391,-10000,4,2,0,10,0,0
93455,-10,4,2,0,10,0,0
93462,-10000,4,2,0,10,0,0
93526,-100,4,2,0,10,0,0
93598,-10,4,2,0,10,0,0
93605,-10000,4,2,0,10,0,0
93669,-10,4,2,0,10,0,0
93676,-10000,4,2,0,10,0,0
93740,-100,4,2,0,10,0,0
93812,-10,4,2,0,10,0,0
93819,-10000,4,2,0,10,0,0
93883,-10,4,2,0,10,0,0
93890,-10000,4,2,0,10,0,0
93954,-100,4,2,0,10,0,0
94027,-10,4,2,0,10,0,0
94034,-10000,4,2,0,10,0,0
94098,-10,4,2,0,10,0,0
94105,-10000,4,2,0,10,0,0
94169,-100,4,2,0,10,0,0
94241,-10,4,2,0,10,0,0
94248,-10000,4,2,0,10,0,0
94312,-10,4,2,0,10,0,0
94319,-10000,4,2,0,10,0,0
94383,-100,4,2,0,10,0,0
94455,-66.6666666666667,4,2,0,10,0,0
94527,-50,4,2,0,10,0,0
94598,-400,4,2,0,10,0,0
94741,-50,4,2,0,10,0,0
94812,-66.6666666666667,4,2,0,10,0,0
94884,-200,4,2,0,10,0,0
95098,-100,4,2,0,10,0,0
95170,-10,4,2,0,10,0,0
95177,-10000,4,2,0,10,0,0
95241,-10,4,2,0,10,0,0
95248,-10000,4,2,0,10,0,0
95312,-10,4,2,0,10,0,0
95319,-10000,4,2,0,10,0,0
95383,-100,4,2,0,10,0,0
95455,-10,4,2,0,10,0,0
95462,-10000,4,2,0,10,0,0
95526,-10,4,2,0,10,0,0
95533,-10000,4,2,0,10,0,0
95597,-100,4,2,0,10,0,0
95669,-10,4,2,0,10,0,0
95676,-10000,4,2,0,10,0,0
95740,-10,4,2,0,10,0,0
95747,-10000,4,2,0,10,0,0
95811,-100,4,2,0,10,0,0
95883,-10,4,2,0,10,0,0
95890,-10000,4,2,0,10,0,0
95954,-10,4,2,0,10,0,0
95961,-10000,4,2,0,10,0,0
96025,-100,4,2,0,10,0,0
96097,-10,4,2,0,10,0,0
96104,-10000,4,2,0,10,0,0
96168,-10,4,2,0,10,0,0
96175,-10000,4,2,0,10,0,0
96239,-100,4,2,0,10,0,0
96312,-10,4,2,0,10,0,0
96319,-10000,4,2,0,10,0,0
96383,-10,4,2,0,10,0,0
96390,-10000,4,2,0,10,0,0
96454,-100,4,2,0,10,0,0
96526,-10,4,2,0,10,0,0
96533,-10000,4,2,0,10,0,0
96597,-10,4,2,0,10,0,0
96604,-10000,4,2,0,10,0,0
96668,-100,4,2,0,10,0,0
96741,-50.251256281407,4,2,0,10,0,0
96812,-10000,4,2,0,10,0,0
96884,-10,4,2,0,10,0,0
96891,-10000,4,2,0,10,0,0
96955,-100,4,2,0,10,0,0
97027,-50,4,2,0,10,0,0
97099,-66.667,4,2,0,10,0,0
97170,-200,4,2,0,10,0,0
97384,-100,4,2,0,10,0,0
97456,-10,4,2,0,10,0,0
97463,-10000,4,2,0,10,0,0
97527,-100,4,2,0,10,0,0
97599,-10,4,2,0,10,0,0
97606,-10000,4,2,0,10,0,0
97670,-100,4,2,0,10,0,0
97742,-10,4,2,0,10,0,0
97749,-10000,4,2,0,10,0,0
97813,-10,4,2,0,10,0,0
97820,-10000,4,2,0,10,0,0
97884,-100,4,2,0,10,0,0
97956,-10,4,2,0,10,0,0
97963,-10000,4,2,0,10,0,0
98027,-10,4,2,0,10,0,0
98034,-10000,4,2,0,10,0,0
98098,-100,4,2,0,10,0,0
98170,-10,4,2,0,10,0,0
98177,-10000,4,2,0,10,0,0
98241,-10,4,2,0,10,0,0
98248,-10000,4,2,0,10,0,0
98312,-100,4,2,0,10,0,0
98384,-10,4,2,0,10,0,0
98391,-10000,4,2,0,10,0,0
98455,-10,4,2,0,10,0,0
98462,-10000,4,2,0,10,0,0
98526,-100,4,2,0,10,0,0
98599,-10,4,2,0,10,0,0
98606,-10000,4,2,0,10,0,0
98670,-10,4,2,0,10,0,0
98677,-10000,4,2,0,10,0,0
98741,-100,4,2,0,10,0,0
98813,-10,4,2,0,10,0,0
98820,-10000,4,2,0,10,0,0
98884,-10,4,2,0,10,0,0
98891,-10000,4,2,0,10,0,0
98955,-100,4,2,0,10,0,0
99027,-66.667,4,2,0,10,0,0
99099,-50,4,2,0,10,0,0
99170,-400,4,2,0,10,0,0
99313,-50,4,2,0,10,0,0
99384,-66.667,4,2,0,10,0,0
99456,-200,4,2,0,10,0,0
99670,-100,4,2,0,10,0,0
99742,-10,4,2,0,10,0,0
99749,-10000,4,2,0,10,0,0
99813,-10,4,2,0,10,0,0
99820,-10000,4,2,0,10,0,0
99884,-10,4,2,0,10,0,0
99891,-10000,4,2,0,10,0,0
99955,-100,4,2,0,10,0,0
100027,-10,4,2,0,10,0,0
100034,-10000,4,2,0,10,0,0
100098,-10,4,2,0,10,0,0
100105,-10000,4,2,0,10,0,0
100169,-100,4,2,0,10,0,0
100241,-10,4,2,0,10,0,0
100248,-10000,4,2,0,10,0,0
100312,-10,4,2,0,10,0,0
100319,-10000,4,2,0,10,0,0
100383,-100,4,2,0,10,0,0
100455,-10,4,2,0,10,0,0
100462,-10000,4,2,0,10,0,0
100526,-10,4,2,0,10,0,0
100533,-10000,4,2,0,10,0,0
100597,-100,4,2,0,10,0,0
100669,-10,4,2,0,10,0,0
100676,-10000,4,2,0,10,0,0
100740,-10,4,2,0,10,0,0
100747,-10000,4,2,0,10,0,0
100811,-100,4,2,0,10,0,0
100884,-10,4,2,0,10,0,0
100891,-10000,4,2,0,10,0,0
100955,-10,4,2,0,10,0,0
100962,-10000,4,2,0,10,0,0
101026,-10000,4,2,0,10,0,0
101527,-12.5,4,2,0,10,0,0
101598,-50,4,2,0,10,0,0
101670,-66.667,4,2,0,10,0,0
101741,-200,4,2,0,10,0,0
101955,-100,4,2,0,10,0,0
102027,-10,4,2,0,10,0,0
102034,-10000,4,2,0,10,0,0
102098,-100,4,2,0,10,0,0
102170,-10,4,2,0,10,0,0
102177,-10000,4,2,0,10,0,0
102241,-100,4,2,0,10,0,0
102313,-10,4,2,0,10,0,0
102320,-10000,4,2,0,10,0,0
102384,-10,4,2,0,10,0,0
102391,-10000,4,2,0,10,0,0
102455,-100,4,2,0,10,0,0
102527,-10,4,2,0,10,0,0
102534,-10000,4,2,0,10,0,0
102598,-10,4,2,0,10,0,0
102605,-10000,4,2,0,10,0,0
102669,-100,4,2,0,10,0,0
102741,-10,4,2,0,10,0,0
102748,-10000,4,2,0,10,0,0
102812,-10,4,2,0,10,0,0
102819,-10000,4,2,0,10,0,0
102883,-100,4,2,0,10,0,0
102955,-10,4,2,0,10,0,0
102962,-10000,4,2,0,10,0,0
103026,-10,4,2,0,10,0,0
103033,-10000,4,2,0,10,0,0
103097,-100,4,2,0,10,0,0
103170,-10,4,2,0,10,0,0
103177,-10000,4,2,0,10,0,0
103241,-10,4,2,0,10,0,0
103248,-10000,4,2,0,10,0,0
103312,-100,4,2,0,10,0,0
103384,-10,4,2,0,10,0,0
103391,-10000,4,2,0,10,0,0
103455,-10,4,2,0,10,0,0
103462,-10000,4,2,0,10,0,0
103526,-100,4,2,0,10,0,0
103598,-66.667,4,2,0,10,0,0
103670,-50,4,2,0,10,0,0
103741,-400,4,2,0,10,0,0
103884,-50,4,2,0,10,0,0
103955,-66.667,4,2,0,10,0,0
104027,-200,4,2,0,10,0,0
104241,-100,4,2,0,10,0,0
104313,-10,4,2,0,10,0,0
104320,-10000,4,2,0,10,0,0
104384,-10,4,2,0,10,0,0
104391,-10000,4,2,0,10,0,0
104455,-10,4,2,0,10,0,0
104462,-10000,4,2,0,10,0,0
104526,-100,4,2,0,10,0,0
104598,-10,4,2,0,10,0,0
104605,-10000,4,2,0,10,0,0
104669,-10,4,2,0,10,0,0
104676,-10000,4,2,0,10,0,0
104740,-100,4,2,0,10,0,0
104812,-10,4,2,0,10,0,0
104819,-10000,4,2,0,10,0,0
104883,-10,4,2,0,10,0,0
104890,-10000,4,2,0,10,0,0
104954,-100,4,2,0,10,0,0
105026,-10,4,2,0,10,0,0
105033,-10000,4,2,0,10,0,0
105097,-10,4,2,0,10,0,0
105104,-10000,4,2,0,10,0,0
105168,-100,4,2,0,10,0,0
105240,-10,4,2,0,10,0,0
105247,-10000,4,2,0,10,0,0
105311,-10,4,2,0,10,0,0
105318,-10000,4,2,0,10,0,0
105382,-100,4,2,0,10,0,0
105455,-10,4,2,0,10,0,0
105462,-10000,4,2,0,10,0,0
105526,-10,4,2,0,10,0,0
105533,-10000,4,2,0,10,0,0
105597,-100,4,2,0,10,0,0
105669,-10,4,2,0,10,0,0
105676,-10000,4,2,0,10,0,0
105740,-10,4,2,0,10,0,0
105747,-10000,4,2,0,10,0,0
105811,-100,4,2,0,10,0,0
106170,-50,4,2,0,10,0,0
106241,-66.6666666666667,4,2,0,10,0,0
106312,-200,4,2,0,10,0,0
106527,-100,4,2,0,10,0,0
110455,-66.6666666666667,4,2,0,10,0,0
110598,-200,4,2,0,10,0,0
110741,-50,4,2,0,10,0,0
110812,-66.6666666666667,4,2,0,10,0,0
110884,-200,4,2,0,10,0,0
111098,-100,4,2,0,10,0,0
112741,-66.6666666666667,4,2,0,10,0,0
112812,-50,4,2,0,10,0,0
112884,-400,4,2,0,10,0,0
113027,-50,4,2,0,10,0,0
113098,-66.6666666666667,4,2,0,10,0,0
113170,-200,4,2,0,10,0,0
113384,-100,4,2,0,10,0,0
115027,-50.251256281407,4,2,0,10,0,0
115098,-10000,4,2,0,10,0,0
115170,-10,4,2,0,10,0,0
115177,-10000,4,2,0,10,0,0
115241,-100,4,2,0,10,0,0
115312,-50,4,2,0,10,0,0
115384,-66.6666666666667,4,2,0,10,0,0
115455,-200,4,2,0,10,0,0
115670,-100,4,2,0,10,0,0
115741,-66.6666666666667,4,2,0,10,0,0
115812,-200,4,2,0,10,0,0
115884,-50,4,2,0,10,0,0
115920,-10000,4,2,0,10,0,0
115955,-100,4,2,0,10,0,0
116312,-50,4,2,0,10,0,0
116384,-200,4,2,0,10,0,0
116527,-100,4,2,0,10,0,0
116741,-50,4,2,0,10,0,0
116759,-10000,4,2,0,10,0,0
116795,-50,4,2,0,10,0,0
116830,-10000,4,2,0,10,0,0
116866,-50,4,2,0,10,0,0
116902,-10000,4,2,0,10,0,0
116937,-50,4,2,0,10,0,0
116973,-10000,4,2,0,10,0,0
117009,-50,4,2,0,10,0,0
117045,-10000,4,2,0,10,0,0
117080,-50,4,2,0,10,0,0
117116,-10000,4,2,0,10,0,0
117152,-50,4,2,0,10,0,0
117187,-10000,4,2,0,10,0,0
117223,-50,4,2,0,10,0,0
117259,-10000,4,2,0,10,0,0
117295,-50,4,2,0,10,0,0
117348,-10000,4,2,0,10,0,0
117384,-100,4,2,0,10,0,0
117455,-66.6666666666667,4,2,0,10,0,0
117527,-200,4,2,0,10,0,0
117598,-50,4,2,0,10,0,0
117670,-66.6666666666667,4,2,0,10,0,0
117741,-200,4,2,0,10,0,0
117955,-100,4,2,0,10,0,0
118027,-66.6666666666667,4,2,0,10,0,0
118098,-200,4,2,0,10,0,0
118170,-50,4,2,0,10,0,0
118205,-10000,4,2,0,10,0,0
118241,-100,4,2,0,10,0,0
118741,-50,4,2,0,10,0,0
118758.857,-10000,4,2,0,10,0,0
118776.714,-50,4,2,0,10,0,0
118794.571,-10000,4,2,0,10,0,0
118812.429,-50,4,2,0,10,0,0
118830.286,-10000,4,2,0,10,0,0
118848.143,-50,4,2,0,10,0,0
118866,-10000,4,2,0,10,0,0
118883.857,-50,4,2,0,10,0,0
118901.714,-10000,4,2,0,10,0,0
118919.571,-50,4,2,0,10,0,0
118937.429,-10000,4,2,0,10,0,0
118955.286,-50,4,2,0,10,0,0
118973.143,-10000,4,2,0,10,0,0
118991,-50,4,2,0,10,0,0
119008.857,-10000,4,2,0,10,0,0
119026.714,-50,4,2,0,10,0,0
119044.571,-10000,4,2,0,10,0,0
119062.429,-50,4,2,0,10,0,0
119080.286,-10000,4,2,0,10,0,0
119098.143,-50,4,2,0,10,0,0
119116,-10000,4,2,0,10,0,0
119133.857,-50,4,2,0,10,0,0
119151.714,-10000,4,2,0,10,0,0
119169.571,-50,4,2,0,10,0,0
119187.429,-10000,4,2,0,10,0,0
119205.286,-50,4,2,0,10,0,0
119223.143,-10000,4,2,0,10,0,0
119241,-100,4,2,0,10,0,0
120741,-50,4,2,0,10,0,0
120777,-10000,4,2,0,10,0,0
120812,-100,4,2,0,10,0,0
121884,-66.6666666666667,4,2,0,10,0,0
121955,-50,4,2,0,10,0,0
122027,-400,4,2,0,10,0,0
122170,-50,4,2,0,10,0,0
122241,-66.6666666666667,4,2,0,10,0,0
122312,-200,4,2,0,10,0,0
122527,-100,4,2,0,10,0,0
124170,-66.6666666666667,4,2,0,10,0,0
124241,-200,4,2,0,10,0,0
124312,-50,4,2,0,10,0,0
124384,-10000,4,2,0,10,0,0
124455,-50,4,2,0,10,0,0
124527,-200,4,2,0,10,0,0
124670,-100,4,2,0,10,0,0
124741,-50,4,2,0,10,0,0
124777,-10000,4,2,0,10,0,0
124812,-100,4,2,0,10,0,0
125027,-50,4,2,0,10,0,0
125063,-10000,4,2,0,10,0,0
125098,-100,4,2,0,10,0,0
125312,-50,4,2,0,10,0,0
125348,-10000,4,2,0,10,0,0
125383,-100,4,2,0,10,0,0
125598,-50,4,2,0,10,0,0
125670,-200,4,2,0,10,0,0
125812,-100,4,2,0,10,0,0
125884,-50,4,2,0,10,0,0
125920,-10000,4,2,0,10,0,0
125955,-100,4,2,0,10,0,0
126170,-50,4,2,0,10,0,0
126206,-10000,4,2,0,10,0,0
126241,-100,4,2,0,10,0,0
126455,-50,4,2,0,10,0,0
126491,-10000,4,2,0,10,0,0
126526,-100,4,2,0,10,0,0
126741,-50,4,2,0,10,0,0
126777,-10000,4,2,0,10,0,0
126812,-100,4,2,0,10,0,0
127027,-50,4,2,0,10,0,0
127063,-10000,4,2,0,10,0,0
127098,-100,4,2,0,10,0,0
127312,-50,4,2,0,10,0,0
127348,-10000,4,2,0,10,0,0
127383,-100,4,2,0,10,0,0
127598,-50,4,2,0,10,0,0
127634,-10000,4,2,0,10,0,0
127669,-100,4,2,0,10,0,0
127884,-50,4,2,0,10,0,0
127920,-10000,4,2,0,10,0,0
127955,-100,4,2,0,10,0,0
128170,-50,4,2,0,10,0,0
128206,-10000,4,2,0,10,0,0
128241,-100,4,2,0,10,0,0
128455,-50,4,2,0,10,0,0
128491,-10000,4,2,0,10,0,0
128526,-100,4,2,0,10,0,0
129027,-50,4,2,0,10,0,0
129098,-200,4,2,0,10,0,0
129241,-100,4,2,0,10,0,0
129312,-10,4,2,0,10,0,0
129319,-10000,4,2,0,10,0,0
129384,-100,4,2,0,10,0,0
131027,-66.6666666666667,4,2,0,10,0,0
131170,-200,4,2,0,10,0,0
131312,-50,4,2,0,10,0,0
131384,-200,4,2,0,10,0,0
131527,-100,4,2,0,10,0,0
133312,-66.6666666666667,4,2,0,10,0,0
133384,-200,4,2,0,10,0,0
133455,-66.6666666666667,4,2,0,10,0,0
133527,-200,4,2,0,10,0,0
133598,-50,4,2,0,10,0,0
133634,-10000,4,2,0,10,0,0
133670,-100,4,2,0,10,0,0
135027,-50,4,2,0,10,0,0
135045,-10000,4,2,0,10,0,0
135080,-50,4,2,0,10,0,0
135116,-10000,4,2,0,10,0,0
135152,-50,4,2,0,10,0,0
135187,-10000,4,2,0,10,0,0
135223,-50,4,2,0,10,0,0
135259,-10000,4,2,0,10,0,0
135295,-50,4,2,0,10,0,0
135330,-10000,4,2,0,10,0,0
135366,-50,4,2,0,10,0,0
135402,-10000,4,2,0,10,0,0
135437,-50,4,2,0,10,0,0
135473,-10000,4,2,0,10,0,0
135509,-50,4,2,0,10,0,0
135545,-10000,4,2,0,10,0,0
135580,-50,4,2,0,10,0,0
135598,-10,4,2,0,10,0,0
135605,-10000,4,2,0,10,0,0
135670,-100,4,2,0,10,0,0
135741,-66.6666666666667,4,2,0,10,0,0
135812,-200,4,2,0,10,0,0
135884,-50,4,2,0,10,0,0
135955,-200,4,2,0,10,0,0
136098,-100,4,2,0,10,0,0
137027,-50,4,2,0,10,0,0
137044.857,-10000,4,2,0,10,0,0
137062.714,-50,4,2,0,10,0,0
137080.571,-10000,4,2,0,10,0,0
137098.429,-50,4,2,0,10,0,0
137116.286,-10000,4,2,0,10,0,0
137134.143,-50,4,2,0,10,0,0
137152,-10000,4,2,0,10,0,0
137169.857,-50,4,2,0,10,0,0
137187.714,-10000,4,2,0,10,0,0
137205.571,-50,4,2,0,10,0,0
137223.429,-10000,4,2,0,10,0,0
137241.286,-50,4,2,0,10,0,0
137259.143,-10000,4,2,0,10,0,0
137277,-50,4,2,0,10,0,0
137294.857,-10000,4,2,0,10,0,0
137312.714,-50,4,2,0,10,0,0
137348,-10000,4,2,0,10,0,0
137384,-100,4,2,0,10,0,0
137455,-50,4,2,0,10,0,0
137491,-10000,4,2,0,10,0,0
137527,-50,4,2,0,10,0,0
137562,-10000,4,2,0,10,0,0
137598,-10000,4,2,0,10,0,0
138098,-25,4,2,0,10,0,0
138170,-66.6666666666667,4,2,0,10,0,0
138241,-200,4,2,0,10,0,0
138312,-66.6666666666667,4,2,0,10,0,0
138384,-200,4,2,0,10,0,0
138455,-66.6666666666667,4,2,0,10,0,0
138527,-200,4,2,0,10,0,0
138598,-66.6666666666667,4,2,0,10,0,0
138670,-200,4,2,0,10,0,0
138741,-50,4,2,0,10,0,0
138777,-10000,4,2,0,10,0,0
138812,-100,4,2,0,10,0,0
139027,-50,4,2,0,10,0,0
139063,-10000,4,2,0,10,0,0
139098,-100,4,2,0,10,0,0
139312,-50,4,2,0,10,0,0
139348,-10000,4,2,0,10,0,0
139383,-100,4,2,0,10,0,0
139598,-50,4,2,0,10,0,0
139634,-10000,4,2,0,10,0,0
139669,-100,4,2,0,10,0,0
139884,-50,4,2,0,10,0,0
139920,-10000,4,2,0,10,0,0
139955,-100,4,2,0,10,0,0
140170,-50,4,2,0,10,0,0
140241,-200,4,2,0,10,0,0
140384,-100,4,2,0,10,0,0
140455,-40,4,2,0,10,0,0
140527,-400,4,2,0,10,0,0
140670,-100,4,2,0,10,0,0
140741,-50,4,2,0,10,0,0
140777,-10000,4,2,0,10,0,0
140812,-100,4,2,0,10,0,0
141027,-50,4,2,0,10,0,0
141063,-10000,4,2,0,10,0,0
141098,-100,4,2,0,10,0,0
141312,-50,4,2,0,10,0,0
141348,-10000,4,2,0,10,0,0
141383,-100,4,2,0,10,0,0
141598,-50,4,2,0,10,0,0
141634,-10000,4,2,0,10,0,0
141669,-100,4,2,0,10,0,0
141812,-50,4,2,0,10,0,0
141848,-10000,4,2,0,10,0,0
141884,-50,4,2,0,10,0,0
141920,-10000,4,2,0,10,0,0
141955,-100,4,2,0,10,0,0
142027,-50,4,2,0,10,0,0
142063,-10000,4,2,0,10,0,0
142098,-100,4,2,0,10,0,0
142170,-50,4,2,0,10,0,0
142206,-10000,4,2,0,10,0,0
142241,-100,4,2,0,10,0,0
142384,-50,4,2,0,10,0,0
142420,-10000,4,2,0,10,0,0
142455,-66.6666666666667,4,2,0,10,0,0
142527,-200,4,2,0,10,0,0
142598,-66.6666666666667,4,2,0,10,0,0
142670,-200,4,2,0,10,0,0
142741,-50,4,2,0,10,0,0
142777,-10000,4,2,0,10,0,0
142812,-100,4,2,0,10,0,0
143027,-50,4,2,0,10,0,0
143063,-10000,4,2,0,10,0,0
143098,-100,4,2,0,10,0,0
143312,-50,4,2,0,10,0,0
143348,-10000,4,2,0,10,0,0
143383,-100,4,2,0,10,0,0
143598,-50,4,2,0,10,0,0
143634,-10000,4,2,0,10,0,0
143669,-100,4,2,0,10,0,0
143884,-50,4,2,0,10,0,0
143920,-10000,4,2,0,10,0,0
143955,-100,4,2,0,10,0,0
144170,-50,4,2,0,10,0,0
144206,-10000,4,2,0,10,0,0
144241,-100,4,2,0,10,0,0
144455,-50,4,2,0,10,0,0
144491,-10000,4,2,0,10,0,0
144526,-100,4,2,0,10,0,0
144741,-50,4,2,0,10,0,0
144777,-10000,4,2,0,10,0,0
144812,-100,4,2,0,10,0,0
145027,-50,4,2,0,10,0,0
145063,-10000,4,2,0,10,0,0
145098,-100,4,2,0,10,0,0
146170,-200,4,2,0,10,0,0
146384,-40,4,2,0,10,0,0
146456,-200,4,2,0,10,0,0
146670,-40,4,2,0,10,0,0
146741,-200,4,2,0,10,0,0
146956,-40,4,2,0,10,0,0
147027,-200,4,2,0,10,0,0
147241,-40,4,2,0,10,0,0
147313,-100,4,2,0,10,0,0
174455,-200,4,2,0,10,0,0
174670,-40,4,2,0,10,0,0
174741,-10,4,2,0,10,0,0
174748,-10000,4,2,0,10,0,0
174812,-100,4,2,0,10,0,0
179312,-10,4,2,0,10,0,0
179319,-10000,4,2,0,10,0,0
179383,-100,4,2,0,10,0,0
179741,-10,4,2,0,10,0,0
179748,-10000,4,2,0,10,0,0
179812,-100,4,2,0,10,0,0
183884,-33.333,4,2,0,10,0,0
183956,-200,4,2,0,10,0,0
184099,-100,4,2,0,10,0,0
184313,-33.333,4,2,0,10,0,0
184384,-200,4,2,0,10,0,0
184527,-100,4,2,0,10,0,0
185027,-50,4,2,0,10,0,0
185099,-10000,4,2,0,10,0,0
185170,-100,4,2,0,10,0,0
185242,-50,4,2,0,10,0,0
185313,-10000,4,2,0,10,0,0
185384,-100,4,2,0,10,0,0
185456,-33.333,4,2,0,10,0,0
185527,-200,4,2,0,10,0,0
185670,-100,4,2,0,10,0,0
186170,-33.333,4,2,0,10,0,0
186242,-200,4,2,0,10,0,0
186384,-100,4,2,0,10,0,0
186599,-33.333,4,2,0,10,0,0
186670,-200,4,2,0,10,0,0
186813,-100,4,2,0,10,0,0
187313,-50,4,2,0,10,0,0
187385,-10000,4,2,0,10,0,0
187456,-100,4,2,0,10,0,0
187527,-50,4,2,0,10,0,0
187599,-10000,4,2,0,10,0,0
187670,-100,4,2,0,10,0,0
187742,-50,4,2,0,10,0,0
187814,-10000,4,2,0,10,0,0
187885,-100,4,2,0,10,0,0
187956,-50,4,2,0,10,0,0
188028,-10000,4,2,0,10,0,0
188099,-100,4,2,0,10,0,0
188170,-50,4,2,0,10,0,0
188242,-10000,4,2,0,10,0,0
188442,-10,4,2,0,10,0,0
188456,-33.333,4,2,0,10,0,0
188528,-200,4,2,0,10,0,0
188671,-100,4,2,0,10,0,0
188885,-33.333,4,2,0,10,0,0
188956,-200,4,2,0,10,0,0
189099,-100,4,2,0,10,0,0
189599,-50,4,2,0,10,0,0
189671,-10000,4,2,0,10,0,0
189742,-100,4,2,0,10,0,0
189814,-50,4,2,0,10,0,0
189885,-10000,4,2,0,10,0,0
189956,-100,4,2,0,10,0,0
190028,-33.333,4,2,0,10,0,0
190099,-200,4,2,0,10,0,0
190242,-100,4,2,0,10,0,0
190742,-33.333,4,2,0,10,0,0
190814,-200,4,2,0,10,0,0
190956,-100,4,2,0,10,0,0
191171,-33.333,4,2,0,10,0,0
191242,-200,4,2,0,10,0,0
191385,-100,4,2,0,10,0,0
191884,-200,4,2,0,10,0,0
192027,-50,4,2,0,10,0,0
192099,-200,4,2,0,10,0,0
192242,-50,4,2,0,10,0,0
192313,-200,4,2,0,10,0,0
192456,-50,4,2,0,10,0,0
192527,-200,4,2,0,10,0,0
192670,-50,4,2,0,10,0,0
192742,-200,4,2,0,10,0,0
192956,-40,4,2,0,10,0,0
193027,-100,4,2,0,10,0,0
197598,-66.6666666666667,4,2,0,10,0,0
197634,-200,4,2,0,10,0,0
197669,-100,4,2,0,10,0,0
197741,-66.6666666666667,4,2,0,10,0,0
197777,-200,4,2,0,10,0,0
197812,-100,4,2,0,10,0,0
197883,-66.6666666666667,4,2,0,10,0,0
197919,-200,4,2,0,10,0,0
197954,-100,4,2,0,10,0,0
198026,-66.6666666666667,4,2,0,10,0,0
198062,-200,4,2,0,10,0,0
198097,-100,4,2,0,10,0,0
198169,-66.6666666666667,4,2,0,10,0,0
198205,-200,4,2,0,10,0,0
198240,-100,4,2,0,10,0,0
198312,-66.6666666666667,4,2,0,10,0,0
198348,-200,4,2,0,10,0,0
198383,-100,4,2,0,10,0,0
198455,-66.6666666666667,4,2,0,10,0,0
198491,-200,4,2,0,10,0,0
198526,-100,4,2,0,10,0,0
198598,-66.6666666666667,4,2,0,10,0,0
198634,-200,4,2,0,10,0,0
198669,-100,4,2,0,10,0,0
198741,-57.1428571428571,4,2,0,10,0,0
198776,-400,4,2,0,10,0,0
198812,-57.1428571428571,4,2,0,10,0,0
198847,-400,4,2,0,10,0,0
198883,-57.1428571428571,4,2,0,10,0,0
198918,-400,4,2,0,10,0,0
198955,-57.1428571428571,4,2,0,10,0,0
198990,-400,4,2,0,10,0,0
199026,-57.1428571428571,4,2,0,10,0,0
199061,-400,4,2,0,10,0,0
199098,-57.1428571428571,4,2,0,10,0,0
199133,-400,4,2,0,10,0,0
199169,-57.1428571428571,4,2,0,10,0,0
199204,-400,4,2,0,10,0,0
199241,-57.1428571428571,4,2,0,10,0,0
199276,-400,4,2,0,10,0,0
199312,-57.1428571428571,4,2,0,10,0,0
199347,-400,4,2,0,10,0,0
199383,-57.1428571428571,4,2,0,10,0,0
199418,-400,4,2,0,10,0,0
199455,-57.1428571428571,4,2,0,10,0,0
199490,-400,4,2,0,10,0,0
199526,-57.1428571428571,4,2,0,10,0,0
199561,-400,4,2,0,10,0,0
199598,-50,4,2,0,10,0,0
199616,-10000,4,2,0,10,0,0
199633,-50,4,2,0,10,0,0
199651,-10000,4,2,0,10,0,0
199669,-50,4,2,0,10,0,0
199687,-10000,4,2,0,10,0,0
199705,-50,4,2,0,10,0,0
199723,-10000,4,2,0,10,0,0
199741,-50,4,2,0,10,0,0
199759,-10000,4,2,0,10,0,0
199776,-50,4,2,0,10,0,0
199794,-10000,4,2,0,10,0,0
199812,-50,4,2,0,10,0,0
199830,-10000,4,2,0,10,0,0
199848,-50,4,2,0,10,0,0
199866,-10000,4,2,0,10,0,0
199883,-10,4,2,0,10,0,0
199890,-10000,4,2,0,10,0,0
199955,-100,4,2,0,10,0,0
201027,-66.6666666666667,4,2,0,10,0,0
201062,-200,4,2,0,10,0,0
201098,-66.6666666666667,4,2,0,10,0,0
201134,-200,4,2,0,10,0,0
201170,-66.6666666666667,4,2,0,10,0,0
201205,-200,4,2,0,10,0,0
201241,-66.6666666666667,4,2,0,10,0,0
201277,-200,4,2,0,10,0,0
201312,-100,4,2,0,10,0,0
201455,-66.6666666666667,4,2,0,10,0,0
201491,-200,4,2,0,10,0,0
201527,-66.6666666666667,4,2,0,10,0,0
201562,-200,4,2,0,10,0,0
201598,-100,4,2,0,10,0,0
201741,-66.6666666666667,4,2,0,10,0,0
201777,-200,4,2,0,10,0,0
201812,-66.6666666666667,4,2,0,10,0,0
201848,-200,4,2,0,10,0,0
201884,-100,4,2,0,10,0,0
202170,-10,4,2,0,10,0,0
202177,-10000,4,2,0,10,0,0
202241,-100,4,2,0,10,0,0
211312,-50,4,2,0,10,0,0
211348,-10000,4,2,0,10,0,0
211420,-50,4,2,0,10,0,0
211491,-10000,4,2,0,10,0,0
211562,-50,4,2,0,10,0,0
211598,-100,4,2,0,10,0,0
214455,-66.6666666666667,4,2,0,10,0,0
214527,-200,4,2,0,10,0,0
214598,-66.667,4,2,0,10,0,0
214670,-200,4,2,0,10,0,0
214741,-66.667,4,2,0,10,0,0
214813,-200,4,2,0,10,0,0
214884,-66.667,4,2,0,10,0,0
214956,-200,4,2,0,10,0,0
215027,-66.667,4,2,0,10,0,0
215099,-200,4,2,0,10,0,0
215170,-66.667,4,2,0,10,0,0
215242,-200,4,2,0,10,0,0
215312,-66.667,4,2,0,10,0,0
215384,-200,4,2,0,10,0,0
215455,-66.667,4,2,0,10,0,0
215527,-200,4,2,0,10,0,0
215598,-66.6666666666667,4,2,0,10,0,0
215670,-200,4,2,0,10,0,0
215741,-100,4,2,0,10,0,0
215884,-10,4,2,0,10,0,0
215891,-10000,4,2,0,10,0,0
215955,-100,4,2,0,10,0,0
216312,-10,4,2,0,10,0,0
216319,-10000,4,2,0,10,0,0
216383,-100,4,2,0,10,0,0
216741,-10,4,2,0,10,0,0
216748,-10000,4,2,0,10,0,0
216812,-100,4,2,0,10,0,0
217027,-10,4,2,0,10,0,0
217034,-10000,4,2,0,10,0,0
217098,-100,4,2,0,10,0,0
217455,-10,4,2,0,10,0,0
217462,-10000,4,2,0,10,0,0
217526,-100,4,2,0,10,0,0
217884,-50,4,2,0,10,0,0
217920,-10000,4,2,0,10,0,0
217991,-50,4,2,0,10,0,0
218062,-10000,4,2,0,10,0,0
218134,-50,4,2,0,10,0,0
218170,-100,4,2,0,10,0,0
220455,-50,4,2,0,10,0,0
220491,-10000,4,2,0,10,0,0
220562,-50,4,2,0,10,0,0
220634,-10000,4,2,0,10,0,0
220705,-50,4,2,0,10,0,0
220741,-100,4,2,0,10,0,0
227312,-10,4,2,0,10,0,0
227326,-10000,4,2,0,10,0,0
227455,-10,4,2,0,10,0,0
227469,-10000,4,2,0,10,0,0
227741,-10,4,2,0,10,0,0
227755,-10000,4,2,0,10,0,0
227884,-10,4,2,0,10,0,0
227898,-10000,4,2,0,10,0,0
228170,-10,4,2,0,10,0,0
228184,-10000,4,2,0,10,0,0
228312,-10,4,2,0,10,0,0
228319,-10000,4,2,0,10,0,0
228384,-10,4,2,0,10,0,0
228391,-10000,4,2,0,10,0,0
228455,-10,4,2,0,10,0,0
228462,-10000,4,2,0,10,0,0
228598,-10,4,2,0,10,0,0
228605,-10000,4,2,0,10,0,0
228670,-10,4,2,0,10,0,0
228677,-10000,4,2,0,10,0,0
228741,-10,4,2,0,10,0,0
228750,-10000,4,2,0,10,0,0
228884,-10,4,2,0,10,0,0
228891,-10000,4,2,0,10,0,0
228955,-10,4,2,0,10,0,0
228962,-10000,4,2,0,10,0,0
229027,-10,4,2,0,10,0,0
229041,-10000,4,2,0,10,0,0
229170,-10,4,2,0,10,0,0
229184,-10000,4,2,0,10,0,0
229527,-25,4,2,0,10,0,0
229598,-50,4,2,0,10,0,0
229616,-10000,4,2,0,10,0,0
229634,-50,4,2,0,10,0,0
229652,-10000,4,2,0,10,0,0
229670,-50,4,2,0,10,0,0
229687,-10000,4,2,0,10,0,0
229705,-50,4,2,0,10,0,0
229723,-10000,4,2,0,10,0,0
229741,-50,4,2,0,10,0,0
229759,-10000,4,2,0,10,0,0
229777,-50,4,2,0,10,0,0
229795,-10000,4,2,0,10,0,0
229812,-100,4,2,0,10,0,0
229884,-10,4,2,0,10,0,0
229891,-10000,4,2,0,10,0,0
229955,-100,4,2,0,10,0,0
231598,-66.6666666666667,4,2,0,10,0,0
231670,-200,4,2,0,10,0,0
231741,-50,4,2,0,10,0,0
231777,-10000,4,2,0,10,0,0
231812,-100,4,2,0,10,0,0
231884,-25,4,2,0,10,0,0
231902,-10000,4,2,0,10,0,0
231920,-25,4,2,0,10,0,0
231937,-10000,4,2,0,10,0,0
231955,-100,4,2,0,10,0,0
231973,-10000,4,2,0,10,0,0
231991,-100,4,2,0,10,0,0
232009,-10000,4,2,0,10,0,0
232027,-100,4,2,0,10,0,0
232045,-10000,4,2,0,10,0,0
232062,-100,4,2,0,10,0,0
232080,-10000,4,2,0,10,0,0
232098,-100,4,2,0,10,0,0
232170,-10,4,2,0,10,0,0
232177,-10000,4,2,0,10,0,0
232241,-100,4,2,0,10,0,0
233027,-10,4,2,0,10,0,0
233041,-10000,4,2,0,10,0,0
233234,-10,4,2,0,10,0,0
233255,-10000,4,2,0,10,0,0
233448,-10,4,2,0,10,0,0
233469,-10000,4,2,0,10,0,0
233663,-10,4,2,0,10,0,0
233684,-10000,4,2,0,10,0,0
234097,-33.3333333333333,4,2,0,10,0,0
234170,-100,4,2,0,10,0,0
236455,-10,4,2,0,10,0,0
236461,-10000,4,2,0,10,0,0
236526,-100,4,2,0,10,0,0
237312,-50,4,2,0,10,0,0
237330,-10000,4,2,0,10,0,0
237347,-50,4,2,0,10,0,0
237365,-10000,4,2,0,10,0,0
237383,-50,4,2,0,10,0,0
237401,-10000,4,2,0,10,0,0
237419,-50,4,2,0,10,0,0
237437,-10000,4,2,0,10,0,0
237455,-50,4,2,0,10,0,0
237473,-10000,4,2,0,10,0,0
237490,-50,4,2,0,10,0,0
237508,-10000,4,2,0,10,0,0
237526,-50,4,2,0,10,0,0
237544,-10000,4,2,0,10,0,0
237562,-50,4,2,0,10,0,0
237580,-10000,4,2,0,10,0,0
237598,-10,4,2,0,10,0,0
237605,-10000,4,2,0,10,0,0
237670,-100,4,2,0,10,0,0
238741,-50,4,2,0,10,0,0
238813,-66.667,4,2,0,10,0,0
238884,-200,4,2,0,10,0,0
239098,-100,4,2,0,10,0,0
239170,-10,4,2,0,10,0,0
239177,-10000,4,2,0,10,0,0
239241,-100,4,2,0,10,0,0
239313,-10,4,2,0,10,0,0
239320,-10000,4,2,0,10,0,0
239384,-100,4,2,0,10,0,0
239456,-10,4,2,0,10,0,0
239463,-10000,4,2,0,10,0,0
239527,-10,4,2,0,10,0,0
239534,-10000,4,2,0,10,0,0
239598,-100,4,2,0,10,0,0
239670,-10,4,2,0,10,0,0
239677,-10000,4,2,0,10,0,0
239741,-10,4,2,0,10,0,0
239748,-10000,4,2,0,10,0,0
239812,-100,4,2,0,10,0,0
239884,-10,4,2,0,10,0,0
239891,-10000,4,2,0,10,0,0
239955,-10,4,2,0,10,0,0
239962,-10000,4,2,0,10,0,0
240026,-100,4,2,0,10,0,0
240098,-10,4,2,0,10,0,0
240105,-10000,4,2,0,10,0,0
240169,-10,4,2,0,10,0,0
240176,-10000,4,2,0,10,0,0
240240,-100,4,2,0,10,0,0
240313,-10,4,2,0,10,0,0
240320,-10000,4,2,0,10,0,0
240384,-10,4,2,0,10,0,0
240391,-10000,4,2,0,10,0,0
240455,-100,4,2,0,10,0,0
240527,-10,4,2,0,10,0,0
240534,-10000,4,2,0,10,0,0
240598,-10,4,2,0,10,0,0
240605,-10000,4,2,0,10,0,0
240669,-100,4,2,0,10,0,0
240741,-66.667,4,2,0,10,0,0
240813,-50,4,2,0,10,0,0
240884,-400,4,2,0,10,0,0
241027,-50,4,2,0,10,0,0
241098,-66.667,4,2,0,10,0,0
241170,-200,4,2,0,10,0,0
241384,-100,4,2,0,10,0,0
241456,-10,4,2,0,10,0,0
241463,-10000,4,2,0,10,0,0
241527,-10,4,2,0,10,0,0
241534,-10000,4,2,0,10,0,0
241598,-10,4,2,0,10,0,0
241605,-10000,4,2,0,10,0,0
241669,-100,4,2,0,10,0,0
241741,-10,4,2,0,10,0,0
241748,-10000,4,2,0,10,0,0
241812,-10,4,2,0,10,0,0
241819,-10000,4,2,0,10,0,0
241883,-100,4,2,0,10,0,0
241955,-10,4,2,0,10,0,0
241962,-10000,4,2,0,10,0,0
242026,-10,4,2,0,10,0,0
242033,-10000,4,2,0,10,0,0
242097,-100,4,2,0,10,0,0
242169,-10,4,2,0,10,0,0
242176,-10000,4,2,0,10,0,0
242240,-10,4,2,0,10,0,0
242247,-10000,4,2,0,10,0,0
242311,-100,4,2,0,10,0,0
242383,-10,4,2,0,10,0,0
242390,-10000,4,2,0,10,0,0
242454,-10,4,2,0,10,0,0
242461,-10000,4,2,0,10,0,0
242525,-100,4,2,0,10,0,0
242598,-10,4,2,0,10,0,0
242605,-10000,4,2,0,10,0,0
242669,-10,4,2,0,10,0,0
242676,-10000,4,2,0,10,0,0
242740,-100,4,2,0,10,0,0
242812,-10,4,2,0,10,0,0
242819,-10000,4,2,0,10,0,0
242883,-10,4,2,0,10,0,0
242890,-10000,4,2,0,10,0,0
242954,-100,4,2,0,10,0,0
243027,-50.251,4,2,0,10,0,0
243098,-10000,4,2,0,10,0,0
243170,-10,4,2,0,10,0,0
243177,-10000,4,2,0,10,0,0
243241,-100,4,2,0,10,0,0
243313,-50,4,2,0,10,0,0
243385,-66.667,4,2,0,10,0,0
243456,-200,4,2,0,10,0,0
243670,-100,4,2,0,10,0,0
243742,-10,4,2,0,10,0,0
243749,-10000,4,2,0,10,0,0
243813,-100,4,2,0,10,0,0
243885,-10,4,2,0,10,0,0
243892,-10000,4,2,0,10,0,0
243956,-100,4,2,0,10,0,0
244028,-10,4,2,0,10,0,0
244035,-10000,4,2,0,10,0,0
244099,-10,4,2,0,10,0,0
244106,-10000,4,2,0,10,0,0
244170,-100,4,2,0,10,0,0
244242,-10,4,2,0,10,0,0
244249,-10000,4,2,0,10,0,0
244313,-10,4,2,0,10,0,0
244320,-10000,4,2,0,10,0,0
244384,-100,4,2,0,10,0,0
244456,-10,4,2,0,10,0,0
244463,-10000,4,2,0,10,0,0
244527,-10,4,2,0,10,0,0
244534,-10000,4,2,0,10,0,0
244598,-100,4,2,0,10,0,0
244670,-10,4,2,0,10,0,0
244677,-10000,4,2,0,10,0,0
244741,-10,4,2,0,10,0,0
244748,-10000,4,2,0,10,0,0
244812,-100,4,2,0,10,0,0
244885,-10,4,2,0,10,0,0
244892,-10000,4,2,0,10,0,0
244956,-10,4,2,0,10,0,0
244963,-10000,4,2,0,10,0,0
245027,-100,4,2,0,10,0,0
245099,-10,4,2,0,10,0,0
245106,-10000,4,2,0,10,0,0
245170,-10,4,2,0,10,0,0
245177,-10000,4,2,0,10,0,0
245241,-100,4,2,0,10,0,0
245313,-66.667,4,2,0,10,0,0
245385,-50,4,2,0,10,0,0
245456,-400,4,2,0,10,0,0
245599,-50,4,2,0,10,0,0
245670,-66.667,4,2,0,10,0,0
245742,-200,4,2,0,10,0,0
245956,-100,4,2,0,10,0,0
246028,-10,4,2,0,10,0,0
246035,-10000,4,2,0,10,0,0
246099,-10,4,2,0,10,0,0
246106,-10000,4,2,0,10,0,0
246170,-10,4,2,0,10,0,0
246177,-10000,4,2,0,10,0,0
246241,-100,4,2,0,10,0,0
246313,-10,4,2,0,10,0,0
246320,-10000,4,2,0,10,0,0
246384,-10,4,2,0,10,0,0
246391,-10000,4,2,0,10,0,0
246455,-100,4,2,0,10,0,0
246527,-10,4,2,0,10,0,0
246534,-10000,4,2,0,10,0,0
246598,-10,4,2,0,10,0,0
246605,-10000,4,2,0,10,0,0
246669,-100,4,2,0,10,0,0
246741,-10,4,2,0,10,0,0
246748,-10000,4,2,0,10,0,0
246812,-10,4,2,0,10,0,0
246819,-10000,4,2,0,10,0,0
246883,-100,4,2,0,10,0,0
246955,-10,4,2,0,10,0,0
246962,-10000,4,2,0,10,0,0
247026,-10,4,2,0,10,0,0
247033,-10000,4,2,0,10,0,0
247097,-100,4,2,0,10,0,0
247170,-10,4,2,0,10,0,0
247177,-10000,4,2,0,10,0,0
247241,-10,4,2,0,10,0,0
247248,-10000,4,2,0,10,0,0
247312,-10000,4,2,0,10,0,0
247813,-12.61,4,2,0,10,0,0
247884,-50,4,2,0,10,0,0
247956,-66.667,4,2,0,10,0,0
248027,-200,4,2,0,10,0,0
248241,-100,4,2,0,10,0,0
248313,-10,4,2,0,10,0,0
248320,-10000,4,2,0,10,0,0
248384,-100,4,2,0,10,0,0
248456,-10,4,2,0,10,0,0
248463,-10000,4,2,0,10,0,0
248527,-100,4,2,0,10,0,0
248599,-10,4,2,0,10,0,0
248606,-10000,4,2,0,10,0,0
248670,-10,4,2,0,10,0,0
248677,-10000,4,2,0,10,0,0
248741,-100,4,2,0,10,0,0
248813,-10,4,2,0,10,0,0
248820,-10000,4,2,0,10,0,0
248884,-10,4,2,0,10,0,0
248891,-10000,4,2,0,10,0,0
248955,-100,4,2,0,10,0,0
249027,-10,4,2,0,10,0,0
249034,-10000,4,2,0,10,0,0
249098,-10,4,2,0,10,0,0
249105,-10000,4,2,0,10,0,0
249169,-100,4,2,0,10,0,0
249241,-10,4,2,0,10,0,0
249248,-10000,4,2,0,10,0,0
249312,-10,4,2,0,10,0,0
249319,-10000,4,2,0,10,0,0
249383,-100,4,2,0,10,0,0
249456,-10,4,2,0,10,0,0
249463,-10000,4,2,0,10,0,0
249527,-10,4,2,0,10,0,0
249534,-10000,4,2,0,10,0,0
249598,-100,4,2,0,10,0,0
249670,-10,4,2,0,10,0,0
249677,-10000,4,2,0,10,0,0
249741,-10,4,2,0,10,0,0
249748,-10000,4,2,0,10,0,0
249812,-100,4,2,0,10,0,0
249884,-66.667,4,2,0,10,0,0
249956,-50,4,2,0,10,0,0
250027,-400,4,2,0,10,0,0
250170,-50,4,2,0,10,0,0
250241,-66.667,4,2,0,10,0,0
250313,-200,4,2,0,10,0,0
250527,-100,4,2,0,10,0,0
250599,-10,4,2,0,10,0,0
250606,-10000,4,2,0,10,0,0
250670,-10,4,2,0,10,0,0
250677,-10000,4,2,0,10,0,0
250741,-10,4,2,0,10,0,0
250748,-10000,4,2,0,10,0,0
250812,-100,4,2,0,10,0,0
250884,-10,4,2,0,10,0,0
250891,-10000,4,2,0,10,0,0
250955,-10,4,2,0,10,0,0
250962,-10000,4,2,0,10,0,0
251026,-100,4,2,0,10,0,0
251098,-10,4,2,0,10,0,0
251105,-10000,4,2,0,10,0,0
251169,-10,4,2,0,10,0,0
251176,-10000,4,2,0,10,0,0
251240,-100,4,2,0,10,0,0
251312,-10,4,2,0,10,0,0
251319,-10000,4,2,0,10,0,0
251383,-10,4,2,0,10,0,0
251390,-10000,4,2,0,10,0,0
251454,-100,4,2,0,10,0,0
251526,-10,4,2,0,10,0,0
251533,-10000,4,2,0,10,0,0
251597,-10,4,2,0,10,0,0
251604,-10000,4,2,0,10,0,0
251668,-100,4,2,0,10,0,0
251741,-10,4,2,0,10,0,0
251748,-10000,4,2,0,10,0,0
251812,-10,4,2,0,10,0,0
251819,-10000,4,2,0,10,0,0
251883,-100,4,2,0,10,0,0
251955,-10,4,2,0,10,0,0
251962,-10000,4,2,0,10,0,0
252026,-10,4,2,0,10,0,0
252033,-10000,4,2,0,10,0,0
252097,-100,4,2,0,10,0,0
252170,-50.251256281407,4,2,0,10,0,0
252241,-10000,4,2,0,10,0,0
252312,-10,4,2,0,10,0,0
252319,-10000,4,2,0,10,0,0
252384,-100,4,2,0,10,0,0
252456,-50,4,2,0,10,0,0
252527,-66.667,4,2,0,10,0,0
252598,-200,4,2,0,10,0,0
252813,-100,4,2,0,10,0,0
252884,-10,4,2,0,10,0,0
252891,-10000,4,2,0,10,0,0
252955,-100,4,2,0,10,0,0
253027,-10,4,2,0,10,0,0
253034,-10000,4,2,0,10,0,0
253098,-100,4,2,0,10,0,0
253170,-10,4,2,0,10,0,0
253177,-10000,4,2,0,10,0,0
253241,-10,4,2,0,10,0,0
253248,-10000,4,2,0,10,0,0
253312,-100,4,2,0,10,0,0
253384,-10,4,2,0,10,0,0
253391,-10000,4,2,0,10,0,0
253455,-10,4,2,0,10,0,0
253462,-10000,4,2,0,10,0,0
253526,-100,4,2,0,10,0,0
253598,-10,4,2,0,10,0,0
253605,-10000,4,2,0,10,0,0
253669,-100,4,2,0,10,0,0
253741,-10,4,2,0,10,0,0
253748,-10000,4,2,0,10,0,0
253812,-10,4,2,0,10,0,0
253819,-10000,4,2,0,10,0,0
253883,-100,4,2,0,10,0,0
253955,-10,4,2,0,10,0,0
253962,-10000,4,2,0,10,0,0
254026,-10,4,2,0,10,0,0
254033,-10000,4,2,0,10,0,0
254097,-100,4,2,0,10,0,0
254170,-10,4,2,0,10,0,0
254177,-10000,4,2,0,10,0,0
254241,-100,4,2,0,10,0,0
254313,-10,4,2,0,10,0,0
254320,-10000,4,2,0,10,0,0
254384,-10,4,2,0,10,0,0
254391,-10000,4,2,0,10,0,0
254455,-10,4,2,0,10,0,0
254462,-10000,4,2,0,10,0,0
254527,-10,4,2,0,10,0,0
254534,-10000,4,2,0,10,0,0
254598,-10,4,2,0,10,0,0
254605,-10000,4,2,0,10,0,0
254669,-100,4,2,0,10,0,0
254741,-10,4,2,0,10,0,0
254748,-10000,4,2,0,10,0,0
254877,-10,4,2,0,10,0,0
254884,-10000,4,2,0,10,0,0
254948,-10,4,2,0,10,0,0
254955,-10000,4,2,0,10,0,0
255084,-10,4,2,0,10,0,0
255098,-10000,4,2,0,10,0,0
255163,-10,4,2,0,10,0,0
255170,-10000,4,2,0,10,0,0
255298,-10,4,2,0,10,0,0
255312,-10000,4,2,0,10,0,0
255441,-10,4,2,0,10,0,0
255455,-10000,4,2,0,10,0,0
255520,-10,4,2,0,10,0,0
255527,-10000,4,2,0,10,0,0
255656,-10,4,2,0,10,0,0
255670,-10000,4,2,0,10,0,0
255734,-10,4,2,0,10,0,0
255741,-10000,4,2,0,10,0,0
255870,-10,4,2,0,10,0,0
255884,-200,4,2,0,10,0,0
256098,-40,4,2,0,10,0,0
256170,-200,4,2,0,10,0,0
256384,-40,4,2,0,10,0,0
256455,-200,4,2,0,10,0,0
256670,-40,4,2,0,10,0,0
256741,-200,4,2,0,10,0,0
256955,-40,4,2,0,10,0,0
257027,-100,4,2,0,10,0,0

[HitObjects]
64,192,9027,5,0,0:0:0:0:
448,192,9027,1,0,0:0:0:0:
64,192,9884,128,0,10146:0:0:0:0:
448,192,9884,128,0,10146:0:0:0:0:
64,192,10170,1,0,0:0:0:0:
320,192,10170,1,0,0:0:0:0:
448,192,10170,1,0,0:0:0:0:
192,192,10170,1,0,0:0:0:0:
320,192,11312,128,0,12384:0:0:0:0:
320,192,12455,1,0,0:0:0:0:
64,192,12455,128,0,13527:0:0:0:0:
320,192,12884,1,0,0:0:0:0:
320,192,13312,1,0,0:0:0:0:
320,192,13455,1,0,0:0:0:0:
64,192,13598,1,0,0:0:0:0:
448,192,13598,128,0,14670:0:0:0:0:
64,192,13741,1,0,0:0:0:0:
192,192,14027,1,0,0:0:0:0:
192,192,14170,1,0,0:0:0:0:
192,192,14741,1,0,0:0:0:0:
64,192,14741,1,0,0:0:0:0:
448,192,14741,1,0,0:0:0:0:
192,192,15170,1,0,0:0:0:0:
64,192,15170,1,0,0:0:0:0:
448,192,15170,1,0,0:0:0:0:
192,192,15884,128,0,16955:0:0:0:0:
448,192,17027,128,0,18098:0:0:0:0:
192,192,17027,1,0,0:0:0:0:
192,192,17455,1,0,0:0:0:0:
192,192,17884,1,0,0:0:0:0:
192,192,18027,1,0,0:0:0:0:
64,192,18170,128,0,19241:0:0:0:0:
448,192,18170,1,0,0:0:0:0:
448,192,18312,1,0,0:0:0:0:
320,192,18598,1,0,0:0:0:0:
320,192,18741,1,0,0:0:0:0:
192,192,19312,128,0,19527:0:0:0:0:
320,192,19312,128,0,19527:0:0:0:0:
64,192,19312,128,0,19527:0:0:0:0:
448,192,19598,1,0,0:0:0:0:
64,192,19741,128,0,19955:0:0:0:0:
320,192,19741,128,0,19955:0:0:0:0:
192,192,19741,128,0,19955:0:0:0:0:
448,192,20027,1,0,0:0:0:0:
448,192,20170,1,0,0:0:0:0:
192,192,20312,128,0,20455:0:0:0:0:
320,192,20455,128,0,20598:0:0:0:0:
64,192,20455,128,0,20598:0:0:0:0:
448,192,20455,128,0,20598:0:0:0:0:
320,192,20670,128,0,20812:0:0:0:0:
64,192,20670,128,0,20812:0:0:0:0:
448,192,20670,128,0,20812:0:0:0:0:
64,192,20884,128,0,21098:0:0:0:0:
320,192,20884,128,0,21098:0:0:0:0:
448,192,20884,128,0,21098:0:0:0:0:
192,192,21170,1,0,0:0:0:0:
192,192,21312,1,0,0:0:0:0:
64,192,21455,128,0,21598:0:0:0:0:
320,192,21598,128,0,21812:0:0:0:0:
192,192,21598,128,0,21812:0:0:0:0:
448,192,21598,128,0,21812:0:0:0:0:
64,192,21884,1,0,0:0:0:0:
192,192,22027,128,0,22241:0:0:0:0:
320,192,22027,128,0,22241:0:0:0:0:
448,192,22027,128,0,22241:0:0:0:0:
64,192,22312,1,0,0:0:0:0:
64,192,22455,1,0,0:0:0:0:
320,192,22598,128,0,22741:0:0:0:0:
192,192,22741,128,0,22884:0:0:0:0:
64,192,22741,128,0,22884:0:0:0:0:
448,192,22741,128,0,22884:0:0:0:0:
64,192,22955,128,0,23098:0:0:0:0:
192,192,22955,128,0,23098:0:0:0:0:
448,192,22955,128,0,23098:0:0:0:0:
64,192,23170,128,0,23312:0:0:0:0:
192,192,23170,128,0,23312:0:0:0:0:
448,192,23170,128,0,23312:0:0:0:0:
64,192,23384,128,0,23527:0:0:0:0:
192,192,23384,128,0,23527:0:0:0:0:
448,192,23384,128,0,23527:0:0:0:0:
448,192,23598,128,0,23741:0:0:0:0:
192,192,23598,128,0,23741:0:0:0:0:
64,192,23598,128,0,23741:0:0:0:0:
320,192,23884,128,0,24098:0:0:0:0:
192,192,23884,128,0,24098:0:0:0:0:
64,192,23884,128,0,24098:0:0:0:0:
448,192,24170,1,0,0:0:0:0:
64,192,24312,128,0,24527:0:0:0:0:
192,192,24312,128,0,24527:0:0:0:0:
320,192,24312,128,0,24527:0:0:0:0:
448,192,24598,1,0,0:0:0:0:
448,192,24741,1,0,0:0:0:0:
192,192,24884,128,0,25027:0:0:0:0:
320,192,25027,128,0,25170:0:0:0:0:
448,192,25027,128,0,25170:0:0:0:0:
64,192,25027,128,0,25170:0:0:0:0:
64,192,25241,128,0,25384:0:0:0:0:
320,192,25241,128,0,25384:0:0:0:0:
448,192,25241,128,0,25384:0:0:0:0:
320,192,25455,128,0,25670:0:0:0:0:
448,192,25455,128,0,25670:0:0:0:0:
64,192,25455,128,0,25670:0:0:0:0:
192,192,25741,1,0,0:0:0:0:
192,192,25884,1,0,0:0:0:0:
64,192,26027,128,0,26170:0:0:0:0:
192,192,26170,128,0,26384:0:0:0:0:
320,192,26170,128,0,26384:0:0:0:0:
448,192,26170,128,0,26384:0:0:0:0:
64,192,26455,1,0,0:0:0:0:
192,192,26598,128,0,26812:0:0:0:0:
320,192,26598,128,0,26812:0:0:0:0:
448,192,26598,128,0,26812:0:0:0:0:
64,192,26884,1,0,0:0:0:0:
64,192,27027,1,0,0:0:0:0:
320,192,27170,128,0,27312:0:0:0:0:
64,192,27312,1,0,0:0:0:0:
448,192,27312,1,0,0:0:0:0:
64,192,27527,1,0,0:0:0:0:
448,192,27527,1,0,0:0:0:0:
64,192,27741,1,0,0:0:0:0:
448,192,27741,1,0,0:0:0:0:
64,192,27955,1,0,0:0:0:0:
448,192,27955,1,0,0:0:0:0:
64,192,28170,1,0,0:0:0:0:
448,192,28170,1,0,0:0:0:0:
448,192,28455,5,0,0:0:0:0:
192,192,28455,1,0,0:0:0:0:
320,192,28455,1,0,0:0:0:0:
64,192,28527,1,0,0:0:0:0:
320,192,28598,1,0,0:0:0:0:
192,192,28670,1,0,0:0:0:0:
64,192,28741,1,0,0:0:0:0:
448,192,28741,1,0,0:0:0:0:
320,192,28884,1,0,0:0:0:0:
192,192,28884,1,0,0:0:0:0:
448,192,29027,1,0,0:0:0:0:
64,192,29027,1,0,0:0:0:0:
320,192,29098,1,0,0:0:0:0:
192,192,29170,1,0,0:0:0:0:
448,192,29241,1,0,0:0:0:0:
192,192,29312,1,0,0:0:0:0:
64,192,29312,1,0,0:0:0:0:
320,192,29455,1,0,0:0:0:0:
448,192,29455,1,0,0:0:0:0:
192,192,29598,1,0,0:0:0:0:
64,192,29598,1,0,0:0:0:0:
448,192,29670,1,0,0:0:0:0:
192,192,29741,1,0,0:0:0:0:
320,192,29812,1,0,0:0:0:0:
448,192,29884,1,0,0:0:0:0:
64,192,29884,1,0,0:0:0:0:
192,192,30027,1,0,0:0:0:0:
320,192,30027,1,0,0:0:0:0:
64,192,30170,1,0,0:0:0:0:
448,192,30170,1,0,0:0:0:0:
192,192,30241,1,0,0:0:0:0:
320,192,30312,1,0,0:0:0:0:
64,192,30384,1,0,0:0:0:0:
320,192,30455,1,0,0:0:0:0:
448,192,30455,1,0,0:0:0:0:
64,192,30598,1,0,0:0:0:0:
192,192,30598,1,0,0:0:0:0:
320,192,30741,1,0,0:0:0:0:
448,192,30741,1,0,0:0:0:0:
64,192,30812,1,0,0:0:0:0:
320,192,30884,1,0,0:0:0:0:
192,192,30955,1,0,0:0:0:0:
64,192,31027,1,0,0:0:0:0:
448,192,31027,1,0,0:0:0:0:
192,192,31170,1,0,0:0:0:0:
320,192,31170,1,0,0:0:0:0:
448,192,31312,1,0,0:0:0:0:
64,192,31312,1,0,0:0:0:0:
320,192,31384,1,0,0:0:0:0:
192,192,31455,1,0,0:0:0:0:
448,192,31527,1,0,0:0:0:0:
64,192,31598,1,0,0:0:0:0:
192,192,31598,1,0,0:0:0:0:
320,192,31741,1,0,0:0:0:0:
448,192,31884,1,0,0:0:0:0:
64,192,31884,1,0,0:0:0:0:
64,192,32098,1,0,0:0:0:0:
448,192,32098,1,0,0:0:0:0:
448,192,32312,1,0,0:0:0:0:
64,192,32312,1,0,0:0:0:0:
64,192,32527,1,0,0:0:0:0:
448,192,32527,1,0,0:0:0:0:
64,192,32741,1,0,0:0:0:0:
448,192,32741,1,0,0:0:0:0:
448,192,33027,1,0,0:0:0:0:
64,192,33027,1,0,0:0:0:0:
320,192,33098,1,0,0:0:0:0:
192,192,33170,1,0,0:0:0:0:
64,192,33170,1,0,0:0:0:0:
320,192,33241,1,0,0:0:0:0:
64,192,33312,1,0,0:0:0:0:
448,192,33312,1,0,0:0:0:0:
192,192,33384,1,0,0:0:0:0:
448,192,33455,1,0,0:0:0:0:
320,192,33455,1,0,0:0:0:0:
192,192,33527,1,0,0:0:0:0:
64,192,33598,1,0,0:0:0:0:
448,192,33598,1,0,0:0:0:0:
320,192,33670,1,0,0:0:0:0:
64,192,33741,1,0,0:0:0:0:
192,192,33741,1,0,0:0:0:0:
320,192,33812,1,0,0:0:0:0:
448,192,33884,1,0,0:0:0:0:
64,192,33884,1,0,0:0:0:0:
192,192,33955,1,0,0:0:0:0:
448,192,34027,1,0,0:0:0:0:
320,192,34027,1,0,0:0:0:0:
192,192,34098,1,0,0:0:0:0:
448,192,34170,1,0,0:0:0:0:
64,192,34170,1,0,0:0:0:0:
192,192,34241,1,0,0:0:0:0:
320,192,34241,1,0,0:0:0:0:
448,192,34312,1,0,0:0:0:0:
64,192,34312,1,0,0:0:0:0:
192,192,34384,1,0,0:0:0:0:
320,192,34384,1,0,0:0:0:0:
64,192,34455,1,0,0:0:0:0:
448,192,34455,1,0,0:0:0:0:
320,192,34527,1,0,0:0:0:0:
192,192,34527,1,0,0:0:0:0:
64,192,34598,1,0,0:0:0:0:
448,192,34598,1,0,0:0:0:0:
320,192,34670,1,0,0:0:0:0:
192,192,34670,1,0,0:0:0:0:
448,192,34741,1,0,0:0:0:0:
64,192,34741,1,0,0:0:0:0:
192,192,34812,1,0,0:0:0:0:
320,192,34812,1,0,0:0:0:0:
448,192,34884,1,0,0:0:0:0:
64,192,34884,1,0,0:0:0:0:
192,192,34955,1,0,0:0:0:0:
320,192,34955,1,0,0:0:0:0:
64,192,35027,1,0,0:0:0:0:
448,192,35027,1,0,0:0:0:0:
192,192,35062,1,0,0:0:0:0:
320,192,35098,1,0,0:0:0:0:
448,192,35134,1,0,0:0:0:0:
64,192,35170,1,0,0:0:0:0:
192,192,35205,1,0,0:0:0:0:
320,192,35241,1,0,0:0:0:0:
448,192,35277,1,0,0:0:0:0:
192,192,35312,1,0,0:0:0:0:
64,192,35312,1,0,0:0:0:0:
320,192,35455,1,0,0:0:0:0:
448,192,35598,1,0,0:0:0:0:
64,192,35741,128,0,35884:0:0:0:0:
448,192,35884,128,0,36170:0:0:0:0:
192,192,36170,1,0,0:0:0:0:
192,192,36312,1,0,0:0:0:0:
448,192,36455,1,0,0:0:0:0:
64,192,36527,1,0,0:0:0:0:
320,192,36598,1,0,0:0:0:0:
64,192,36670,1,0,0:0:0:0:
192,192,36741,1,0,0:0:0:0:
64,192,36884,1,0,0:0:0:0:
448,192,36955,1,0,0:0:0:0:
192,192,37027,1,0,0:0:0:0:
320,192,37170,1,0,0:0:0:0:
64,192,37241,1,0,0:0:0:0:
448,192,37312,1,0,0:0:0:0:
192,192,37312,128,0,37598:0:0:0:0:
64,192,37598,128,0,37812:0:0:0:0:
448,192,37598,128,0,37812:0:0:0:0:
320,192,37598,128,0,37812:0:0:0:0:
448,192,37884,1,0,0:0:0:0:
64,192,37884,1,0,0:0:0:0:
320,192,37884,1,0,0:0:0:0:
320,192,38027,128,0,38170:0:0:0:0:
64,192,38170,1,0,0:0:0:0:
448,192,38170,1,0,0:0:0:0:
192,192,38241,1,0,0:0:0:0:
64,192,38312,1,0,0:0:0:0:
192,192,38384,1,0,0:0:0:0:
320,192,38455,128,0,38598:0:0:0:0:
448,192,38455,128,0,38598:0:0:0:0:
64,192,38455,128,0,38527:0:0:0:0:
64,192,38598,128,0,38741:0:0:0:0:
320,192,38741,1,0,0:0:0:0:
448,192,38741,1,0,0:0:0:0:
320,192,38884,128,0,39170:0:0:0:0:
192,192,39027,1,0,0:0:0:0:
448,192,39027,1,0,0:0:0:0:
64,192,39027,1,0,0:0:0:0:
64,192,39170,1,0,0:0:0:0:
64,192,39241,1,0,0:0:0:0:
320,192,39312,1,0,0:0:0:0:
448,192,39312,1,0,0:0:0:0:
64,192,39384,1,0,0:0:0:0:
448,192,39455,1,0,0:0:0:0:
320,192,39598,128,0,39670:0:0:0:0:
448,192,39598,128,0,39812:0:0:0:0:
64,192,39598,128,0,39670:0:0:0:0:
192,192,39741,128,0,39884:0:0:0:0:
320,192,39884,128,0,40098:0:0:0:0:
448,192,39884,128,0,40098:0:0:0:0:
64,192,39884,128,0,40098:0:0:0:0:
320,192,40170,1,0,0:0:0:0:
448,192,40170,1,0,0:0:0:0:
64,192,40170,1,0,0:0:0:0:
192,192,40312,128,0,40455:0:0:0:0:
64,192,40455,1,0,0:0:0:0:
448,192,40455,1,0,0:0:0:0:
320,192,40527,1,0,0:0:0:0:
448,192,40598,1,0,0:0:0:0:
320,192,40670,1,0,0:0:0:0:
448,192,40741,128,0,40812:0:0:0:0:
192,192,40741,128,0,40884:0:0:0:0:
64,192,40741,128,0,40884:0:0:0:0:
448,192,40884,128,0,41027:0:0:0:0:
192,192,41027,1,0,0:0:0:0:
64,192,41027,1,0,0:0:0:0:
320,192,41170,128,0,41241:0:0:0:0:
448,192,41312,128,0,41384:0:0:0:0:
192,192,41312,128,0,41384:0:0:0:0:
64,192,41312,1,0,0:0:0:0:
320,192,41455,128,0,41527:0:0:0:0:
64,192,41455,1,0,0:0:0:0:
192,192,41598,128,0,41670:0:0:0:0:
64,192,41598,1,0,0:0:0:0:
448,192,41598,128,0,41670:0:0:0:0:
320,192,41741,128,0,41812:0:0:0:0:
448,192,41884,1,0,0:0:0:0:
192,192,41884,1,0,0:0:0:0:
64,192,41884,1,0,0:0:0:0:
64,192,42170,128,0,42384:0:0:0:0:
448,192,42170,128,0,42384:0:0:0:0:
320,192,42312,1,0,0:0:0:0:
192,192,42312,1,0,0:0:0:0:
192,192,42455,1,0,0:0:0:0:
64,192,42455,1,0,0:0:0:0:
448,192,42455,1,0,0:0:0:0:
320,192,42598,128,0,42741:0:0:0:0:
448,192,42741,1,0,0:0:0:0:
64,192,42741,1,0,0:0:0:0:
192,192,42812,1,0,0:0:0:0:
64,192,42884,1,0,0:0:0:0:
192,192,42955,1,0,0:0:0:0:
64,192,43027,128,0,43098:0:0:0:0:
448,192,43027,128,0,43170:0:0:0:0:
320,192,43027,128,0,43170:0:0:0:0:
64,192,43170,128,0,43312:0:0:0:0:
448,192,43312,1,0,0:0:0:0:
320,192,43312,1,0,0:0:0:0:
448,192,43455,128,0,43741:0:0:0:0:
64,192,43598,1,0,0:0:0:0:
320,192,43598,1,0,0:0:0:0:
192,192,43598,1,0,0:0:0:0:
64,192,43741,1,0,0:0:0:0:
64,192,43812,1,0,0:0:0:0:
320,192,43884,1,0,0:0:0:0:
448,192,43884,1,0,0:0:0:0:
64,192,43955,1,0,0:0:0:0:
448,192,44027,1,0,0:0:0:0:
448,192,44170,128,0,44384:0:0:0:0:
64,192,44170,128,0,44241:0:0:0:0:
320,192,44170,128,0,44241:0:0:0:0:
192,192,44312,128,0,44384:0:0:0:0:
64,192,44312,128,0,44384:0:0:0:0:
64,192,44455,128,0,44670:0:0:0:0:
448,192,44455,128,0,44670:0:0:0:0:
320,192,44455,128,0,44670:0:0:0:0:
64,192,44741,1,0,0:0:0:0:
448,192,44741,1,0,0:0:0:0:
448,192,44884,1,0,0:0:0:0:
192,192,44884,1,0,0:0:0:0:
320,192,45027,1,0,0:0:0:0:
64,192,45098,1,0,0:0:0:0:
448,192,45170,1,0,0:0:0:0:
64,192,45241,1,0,0:0:0:0:
320,192,45312,1,0,0:0:0:0:
448,192,45312,1,0,0:0:0:0:
192,192,45455,1,0,0:0:0:0:
64,192,45598,1,0,0:0:0:0:
448,192,45598,1,0,0:0:0:0:
320,192,45646,1,0,0:0:0:0:
192,192,45693,1,0,0:0:0:0:
64,192,45741,1,0,0:0:0:0:
448,192,45741,1,0,0:0:0:0:
320,192,45789,1,0,0:0:0:0:
192,192,45836,1,0,0:0:0:0:
64,192,45884,1,0,0:0:0:0:
448,192,45884,1,0,0:0:0:0:
448,192,45979,1,0,0:0:0:0:
64,192,46027,1,0,0:0:0:0:
448,192,46074,1,0,0:0:0:0:
192,192,46170,1,0,0:0:0:0:
320,192,46170,1,0,0:0:0:0:
64,192,46312,1,0,0:0:0:0:
320,192,46348,1,0,0:0:0:0:
192,192,46384,1,0,0:0:0:0:
448,192,46420,1,0,0:0:0:0:
64,192,46455,128,0,46955:0:0:0:0:
192,192,46491,128,0,46670:0:0:0:0:
320,192,46527,128,0,46670:0:0:0:0:
448,192,46562,128,0,46670:0:0:0:0:
448,192,46741,128,0,46955:0:0:0:0:
320,192,46741,128,0,46955:0:0:0:0:
192,192,46741,128,0,46955:0:0:0:0:
64,192,47027,1,0,0:0:0:0:
448,192,47027,1,0,0:0:0:0:
320,192,47027,1,0,0:0:0:0:
192,192,47027,1,0,0:0:0:0:
320,192,47170,128,0,47312:0:0:0:0:
64,192,47312,1,0,0:0:0:0:
448,192,47312,1,0,0:0:0:0:
192,192,47384,1,0,0:0:0:0:
64,192,47455,1,0,0:0:0:0:
192,192,47527,1,0,0:0:0:0:
64,192,47598,128,0,47670:0:0:0:0:
320,192,47598,128,0,47741:0:0:0:0:
448,192,47598,128,0,47741:0:0:0:0:
64,192,47741,128,0,47884:0:0:0:0:
320,192,47884,1,0,0:0:0:0:
448,192,47884,1,0,0:0:0:0:
320,192,48027,128,0,48312:0:0:0:0:
448,192,48170,1,0,0:0:0:0:
64,192,48170,1,0,0:0:0:0:
192,192,48170,1,0,0:0:0:0:
64,192,48312,1,0,0:0:0:0:
64,192,48384,1,0,0:0:0:0:
320,192,48455,1,0,0:0:0:0:
448,192,48455,1,0,0:0:0:0:
64,192,48527,1,0,0:0:0:0:
448,192,48598,1,0,0:0:0:0:
192,192,48670,1,0,0:0:0:0:
64,192,48670,1,0,0:0:0:0:
320,192,48741,1,0,0:0:0:0:
448,192,48741,1,0,0:0:0:0:
192,192,48884,1,0,0:0:0:0:
64,192,48884,1,0,0:0:0:0:
192,192,49027,128,0,49312:0:0:0:0:
448,192,49170,1,0,0:0:0:0:
64,192,49170,1,0,0:0:0:0:
448,192,49312,1,0,0:0:0:0:
64,192,49312,1,0,0:0:0:0:
320,192,49312,1,0,0:0:0:0:
192,192,49455,1,0,0:0:0:0:
320,192,49455,1,0,0:0:0:0:
448,192,49598,1,0,0:0:0:0:
64,192,49598,1,0,0:0:0:0:
320,192,49670,1,0,0:0:0:0:
448,192,49741,1,0,0:0:0:0:
320,192,49812,1,0,0:0:0:0:
448,192,49884,128,0,49955:0:0:0:0:
64,192,49884,128,0,50027:0:0:0:0:
192,192,49884,128,0,50027:0:0:0:0:
448,192,50027,128,0,50170:0:0:0:0:
192,192,50170,1,0,0:0:0:0:
64,192,50170,1,0,0:0:0:0:
192,192,50312,128,0,50598:0:0:0:0:
64,192,50312,128,0,50598:0:0:0:0:
448,192,50455,1,0,0:0:0:0:
320,192,50455,1,0,0:0:0:0:
448,192,50598,128,0,50884:0:0:0:0:
320,192,50598,128,0,50884:0:0:0:0:
192,192,50741,1,0,0:0:0:0:
64,192,50741,1,0,0:0:0:0:
192,192,50884,128,0,51098:0:0:0:0:
64,192,50884,128,0,51098:0:0:0:0:
320,192,51027,128,0,51098:0:0:0:0:
448,192,51027,128,0,51098:0:0:0:0:
320,192,51312,1,0,0:0:0:0:
192,192,51312,1,0,0:0:0:0:
64,192,51312,128,0,51598:0:0:0:0:
448,192,51312,128,0,51598:0:0:0:0:
192,192,51598,1,0,0:0:0:0:
320,192,51598,1,0,0:0:0:0:
192,192,51884,1,0,0:0:0:0:
320,192,51884,1,0,0:0:0:0:
64,192,52170,1,0,0:0:0:0:
448,192,52170,1,0,0:0:0:0:
192,192,52241,1,0,0:0:0:0:
320,192,52241,1,0,0:0:0:0:
192,192,52384,1,0,0:0:0:0:
320,192,52384,1,0,0:0:0:0:
64,192,52455,1,0,0:0:0:0:
448,192,52455,1,0,0:0:0:0:
64,192,52741,1,0,0:0:0:0:
448,192,52741,1,0,0:0:0:0:
64,192,53027,1,0,0:0:0:0:
448,192,53027,1,0,0:0:0:0:
320,192,53170,1,0,0:0:0:0:
192,192,53170,1,0,0:0:0:0:
448,192,53312,1,0,0:0:0:0:
64,192,53312,1,0,0:0:0:0:
192,192,53384,1,0,0:0:0:0:
320,192,53384,1,0,0:0:0:0:
192,192,53527,1,0,0:0:0:0:
320,192,53527,1,0,0:0:0:0:
64,192,53598,128,0,53812:0:0:0:0:
448,192,53598,128,0,53812:0:0:0:0:
320,192,53598,128,0,53812:0:0:0:0:
64,192,53884,1,0,0:0:0:0:
448,192,53884,1,0,0:0:0:0:
64,192,54027,1,0,0:0:0:0:
448,192,54027,1,0,0:0:0:0:
64,192,54170,1,0,0:0:0:0:
448,192,54170,1,0,0:0:0:0:
64,192,54455,1,0,0:0:0:0:
448,192,54455,1,0,0:0:0:0:
64,192,54598,1,0,0:0:0:0:
448,192,54598,1,0,0:0:0:0:
448,192,54741,128,0,55527:0:0:0:0:
64,192,54741,128,0,55527:0:0:0:0:
448,192,55598,1,0,0:0:0:0:
64,192,55598,1,0,0:0:0:0:
192,192,55670,1,0,0:0:0:0:
320,192,55670,1,0,0:0:0:0:
64,192,55741,1,0,0:0:0:0:
448,192,55741,1,0,0:0:0:0:
320,192,55812,1,0,0:0:0:0:
192,192,55812,1,0,0:0:0:0:
64,192,55884,128,0,56241:0:0:0:0:
448,192,55884,128,0,56241:0:0:0:0:
192,192,56027,128,0,56098:0:0:0:0:
320,192,56027,128,0,56098:0:0:0:0:
320,192,56170,1,0,0:0:0:0:
192,192,56170,1,0,0:0:0:0:
64,192,56312,128,0,56384:0:0:0:0:
448,192,56312,128,0,56384:0:0:0:0:
64,192,56455,1,0,0:0:0:0:
448,192,56455,1,0,0:0:0:0:
320,192,56527,1,0,0:0:0:0:
192,192,56598,1,0,0:0:0:0:
448,192,56670,1,0,0:0:0:0:
64,192,56741,1,0,0:0:0:0:
192,192,56741,1,0,0:0:0:0:
320,192,56884,1,0,0:0:0:0:
64,192,57027,1,0,0:0:0:0:
448,192,57027,1,0,0:0:0:0:
64,192,57170,128,0,57455:0:0:0:0:
320,192,57312,1,0,0:0:0:0:
448,192,57312,1,0,0:0:0:0:
192,192,57312,1,0,0:0:0:0:
320,192,57455,1,0,0:0:0:0:
320,192,57527,1,0,0:0:0:0:
64,192,57598,1,0,0:0:0:0:
448,192,57598,1,0,0:0:0:0:
192,192,57670,1,0,0:0:0:0:
320,192,57741,1,0,0:0:0:0:
64,192,57812,1,0,0:0:0:0:
448,192,57884,1,0,0:0:0:0:
320,192,57884,1,0,0:0:0:0:
192,192,58027,1,0,0:0:0:0:
448,192,58170,128,0,58384:0:0:0:0:
64,192,58170,1,0,0:0:0:0:
320,192,58241,128,0,58384:0:0:0:0:
64,192,58312,128,0,58384:0:0:0:0:
448,192,58455,1,0,0:0:0:0:
320,192,58455,1,0,0:0:0:0:
64,192,58455,1,0,0:0:0:0:
192,192,58598,1,0,0:0:0:0:
64,192,58741,1,0,0:0:0:0:
448,192,58741,1,0,0:0:0:0:
320,192,58812,1,0,0:0:0:0:
192,192,58884,1,0,0:0:0:0:
448,192,58955,1,0,0:0:0:0:
192,192,59027,1,0,0:0:0:0:
64,192,59027,1,0,0:0:0:0:
320,192,59170,1,0,0:0:0:0:
64,192,59312,1,0,0:0:0:0:
448,192,59312,1,0,0:0:0:0:
192,192,59455,1,0,0:0:0:0:
320,192,59598,128,0,59741:0:0:0:0:
448,192,59598,128,0,59741:0:0:0:0:
64,192,59741,1,0,0:0:0:0:
448,192,59884,1,0,0:0:0:0:
320,192,59884,1,0,0:0:0:0:
64,192,59955,1,0,0:0:0:0:
192,192,60027,1,0,0:0:0:0:
320,192,60098,1,0,0:0:0:0:
64,192,60170,128,0,60241:0:0:0:0:
448,192,60170,128,0,60241:0:0:0:0:
64,192,60455,1,0,0:0:0:0:
448,192,60455,1,0,0:0:0:0:
448,192,60527,128,0,60670:0:0:0:0:
64,192,60527,128,0,60670:0:0:0:0:
192,192,60670,1,0,0:0:0:0:
320,192,60670,1,0,0:0:0:0:
64,192,60741,1,0,0:0:0:0:
448,192,60741,1,0,0:0:0:0:
192,192,60884,1,0,0:0:0:0:
448,192,61027,1,0,0:0:0:0:
320,192,61027,1,0,0:0:0:0:
64,192,61098,1,0,0:0:0:0:
320,192,61170,1,0,0:0:0:0:
192,192,61241,1,0,0:0:0:0:
64,192,61312,1,0,0:0:0:0:
448,192,61312,1,0,0:0:0:0:
320,192,61455,1,0,0:0:0:0:
192,192,61598,1,0,0:0:0:0:
64,192,61598,1,0,0:0:0:0:
192,192,61741,128,0,62027:0:0:0:0:
448,192,61884,1,0,0:0:0:0:
64,192,61884,1,0,0:0:0:0:
320,192,61884,1,0,0:0:0:0:
448,192,62027,1,0,0:0:0:0:
448,192,62098,1,0,0:0:0:0:
192,192,62170,1,0,0:0:0:0:
64,192,62170,1,0,0:0:0:0:
448,192,62241,1,0,0:0:0:0:
192,192,62312,1,0,0:0:0:0:
320,192,62384,1,0,0:0:0:0:
64,192,62455,1,0,0:0:0:0:
448,192,62455,1,0,0:0:0:0:
192,192,62598,1,0,0:0:0:0:
64,192,62741,128,0,62955:0:0:0:0:
320,192,62741,128,0,62955:0:0:0:0:
448,192,62741,128,0,62955:0:0:0:0:
320,192,63027,1,0,0:0:0:0:
448,192,63027,1,0,0:0:0:0:
192,192,63122,1,0,0:0:0:0:
64,192,63122,1,0,0:0:0:0:
448,192,63217,1,0,0:0:0:0:
320,192,63217,1,0,0:0:0:0:
64,192,63312,1,0,0:0:0:0:
192,192,63312,1,0,0:0:0:0:
448,192,63384,1,0,0:0:0:0:
64,192,63455,1,0,0:0:0:0:
448,192,63527,1,0,0:0:0:0:
192,192,63598,1,0,0:0:0:0:
320,192,63598,1,0,0:0:0:0:
320,192,63741,1,0,0:0:0:0:
192,192,63741,1,0,0:0:0:0:
64,192,63884,1,0,0:0:0:0:
448,192,63884,1,0,0:0:0:0:
320,192,63931,1,0,0:0:0:0:
192,192,63979,1,0,0:0:0:0:
64,192,64027,1,0,0:0:0:0:
448,192,64027,1,0,0:0:0:0:
320,192,64074,1,0,0:0:0:0:
192,192,64122,1,0,0:0:0:0:
448,192,64170,1,0,0:0:0:0:
64,192,64170,1,0,0:0:0:0:
448,192,64265,1,0,0:0:0:0:
64,192,64312,1,0,0:0:0:0:
448,192,64360,1,0,0:0:0:0:
192,192,64455,1,0,0:0:0:0:
320,192,64455,1,0,0:0:0:0:
64,192,64598,1,0,0:0:0:0:
320,192,64634,1,0,0:0:0:0:
192,192,64670,1,0,0:0:0:0:
448,192,64705,1,0,0:0:0:0:
64,192,64741,128,0,65241:0:0:0:0:
192,192,64777,128,0,64955:0:0:0:0:
320,192,64812,128,0,64955:0:0:0:0:
448,192,64848,128,0,64955:0:0:0:0:
448,192,65027,128,0,65241:0:0:0:0:
320,192,65027,128,0,65241:0:0:0:0:
64,192,65312,1,0,0:0:0:0:
192,192,65312,1,0,0:0:0:0:
320,192,65312,1,0,0:0:0:0:
448,192,65312,1,0,0:0:0:0:
192,192,65455,1,0,0:0:0:0:
64,192,65598,1,0,0:0:0:0:
448,192,65598,1,0,0:0:0:0:
320,192,65670,1,0,0:0:0:0:
192,192,65741,1,0,0:0:0:0:
448,192,65812,1,0,0:0:0:0:
192,192,65884,1,0,0:0:0:0:
64,192,65884,1,0,0:0:0:0:
320,192,66027,1,0,0:0:0:0:
64,192,66170,1,0,0:0:0:0:
448,192,66170,1,0,0:0:0:0:
320,192,66312,128,0,66598:0:0:0:0:
64,192,66455,1,0,0:0:0:0:
192,192,66455,1,0,0:0:0:0:
448,192,66455,1,0,0:0:0:0:
64,192,66598,1,0,0:0:0:0:
64,192,66670,1,0,0:0:0:0:
320,192,66741,1,0,0:0:0:0:
448,192,66741,1,0,0:0:0:0:
64,192,66812,1,0,0:0:0:0:
320,192,66884,1,0,0:0:0:0:
192,192,66955,1,0,0:0:0:0:
64,192,67027,1,0,0:0:0:0:
448,192,67027,1,0,0:0:0:0:
320,192,67170,1,0,0:0:0:0:
448,192,67312,128,0,67527:0:0:0:0:
192,192,67312,1,0,0:0:0:0:
320,192,67384,128,0,67527:0:0:0:0:
192,192,67455,128,0,67527:0:0:0:0:
448,192,67598,1,0,0:0:0:0:
192,192,67598,1,0,0:0:0:0:
320,192,67598,1,0,0:0:0:0:
64,192,67741,1,0,0:0:0:0:
192,192,67884,1,0,0:0:0:0:
320,192,67884,1,0,0:0:0:0:
448,192,67955,1,0,0:0:0:0:
192,192,68027,1,0,0:0:0:0:
320,192,68098,1,0,0:0:0:0:
448,192,68170,1,0,0:0:0:0:
64,192,68170,1,0,0:0:0:0:
192,192,68312,1,0,0:0:0:0:
320,192,68455,1,0,0:0:0:0:
448,192,68455,1,0,0:0:0:0:
192,192,68598,1,0,0:0:0:0:
448,192,68741,1,0,0:0:0:0:
64,192,68741,1,0,0:0:0:0:
192,192,68812,1,0,0:0:0:0:
320,192,68884,1,0,0:0:0:0:
320,192,69027,1,0,0:0:0:0:
64,192,69027,128,0,69312:0:0:0:0:
320,192,69170,1,0,0:0:0:0:
192,192,69312,1,0,0:0:0:0:
448,192,69312,1,0,0:0:0:0:
448,192,69598,128,0,69884:0:0:0:0:
192,192,69598,1,0,0:0:0:0:
64,192,69598,1,0,0:0:0:0:
192,192,69812,1,0,0:0:0:0:
64,192,69812,1,0,0:0:0:0:
192,192,70027,1,0,0:0:0:0:
320,192,70027,1,0,0:0:0:0:
64,192,70170,128,0,70455:0:0:0:0:
320,192,70241,1,0,0:0:0:0:
448,192,70241,1,0,0:0:0:0:
320,192,70455,1,0,0:0:0:0:
448,192,70455,1,0,0:0:0:0:
320,192,70741,128,0,71027:0:0:0:0:
64,192,70741,1,0,0:0:0:0:
448,192,70741,1,0,0:0:0:0:
448,192,70955,1,0,0:0:0:0:
64,192,70955,1,0,0:0:0:0:
320,192,71170,1,0,0:0:0:0:
192,192,71170,1,0,0:0:0:0:
192,192,71312,128,0,71598:0:0:0:0:
64,192,71384,1,0,0:0:0:0:
448,192,71384,1,0,0:0:0:0:
64,192,71598,1,0,0:0:0:0:
448,192,71598,1,0,0:0:0:0:
448,192,71884,128,0,72170:0:0:0:0:
192,192,71884,1,0,0:0:0:0:
64,192,71884,1,0,0:0:0:0:
192,192,72098,1,0,0:0:0:0:
64,192,72098,1,0,0:0:0:0:
192,192,72312,1,0,0:0:0:0:
64,192,72312,1,0,0:0:0:0:
64,192,72455,128,0,72741:0:0:0:0:
320,192,72455,1,0,0:0:0:0:
448,192,72455,1,0,0:0:0:0:
320,192,72670,1,0,0:0:0:0:
448,192,72670,1,0,0:0:0:0:
320,192,72884,1,0,0:0:0:0:
448,192,72884,1,0,0:0:0:0:
448,192,73027,128,0,73384:0:0:0:0:
320,192,73027,128,0,73384:0:0:0:0:
64,192,73312,128,0,73384:0:0:0:0:
192,192,73312,128,0,73384:0:0:0:0:
448,192,73455,1,0,0:0:0:0:
448,192,73527,1,0,0:0:0:0:
192,192,73598,128,0,73670:0:0:0:0:
64,192,73598,128,0,73670:0:0:0:0:
448,192,73741,1,0,0:0:0:0:
448,192,73812,1,0,0:0:0:0:
448,192,73955,128,0,74098:0:0:0:0:
64,192,74027,1,0,0:0:0:0:
192,192,74027,1,0,0:0:0:0:
64,192,74170,128,0,74455:0:0:0:0:
192,192,74170,128,0,74455:0:0:0:0:
320,192,74170,128,0,74455:0:0:0:0:
448,192,74170,128,0,74455:0:0:0:0:
64,192,78741,128,0,79027:0:0:0:0:
192,192,78741,128,0,79027:0:0:0:0:
320,192,78741,128,0,79027:0:0:0:0:
448,192,78741,128,0,79027:0:0:0:0:
320,192,83312,128,0,83527:0:0:0:0:
448,192,83312,128,0,83527:0:0:0:0:
64,192,83312,128,0,83527:0:0:0:0:
64,192,83598,1,0,0:0:0:0:
64,192,83884,1,0,0:0:0:0:
64,192,84170,1,0,0:0:0:0:
320,192,84455,1,0,0:0:0:0:
320,192,84741,1,0,0:0:0:0:
320,192,85027,1,0,0:0:0:0:
320,192,85312,1,0,0:0:0:0:
192,192,85598,1,0,0:0:0:0:
192,192,85884,1,0,0:0:0:0:
192,192,86170,1,0,0:0:0:0:
192,192,86455,1,0,0:0:0:0:
448,192,86741,1,0,0:0:0:0:
448,192,87027,1,0,0:0:0:0:
448,192,87312,1,0,0:0:0:0:
448,192,87598,1,0,0:0:0:0:
64,192,87884,1,0,0:0:0:0:
448,192,87884,128,0,88098:0:0:0:0:
320,192,87884,128,0,88098:0:0:0:0:
192,192,87955,1,0,0:0:0:0:
64,192,88027,1,0,0:0:0:0:
192,192,88098,1,0,0:0:0:0:
448,192,88170,1,0,0:0:0:0:
64,192,88170,1,0,0:0:0:0:
320,192,88241,1,0,0:0:0:0:
192,192,88312,1,0,0:0:0:0:
320,192,88384,1,0,0:0:0:0:
64,192,88455,1,0,0:0:0:0:
448,192,88455,1,0,0:0:0:0:
192,192,88527,1,0,0:0:0:0:
320,192,88598,1,0,0:0:0:0:
448,192,88670,1,0,0:0:0:0:
192,192,88741,1,0,0:0:0:0:
64,192,88741,1,0,0:0:0:0:
448,192,88812,1,0,0:0:0:0:
320,192,88884,1,0,0:0:0:0:
192,192,88955,1,0,0:0:0:0:
64,192,89027,1,0,0:0:0:0:
320,192,89027,1,0,0:0:0:0:
448,192,89098,1,0,0:0:0:0:
192,192,89170,1,0,0:0:0:0:
64,192,89241,1,0,0:0:0:0:
320,192,89312,1,0,0:0:0:0:
448,192,89312,1,0,0:0:0:0:
64,192,89384,1,0,0:0:0:0:
192,192,89455,1,0,0:0:0:0:
320,192,89527,1,0,0:0:0:0:
448,192,89598,1,0,0:0:0:0:
192,192,89598,1,0,0:0:0:0:
64,192,89670,1,0,0:0:0:0:
320,192,89741,1,0,0:0:0:0:
192,192,89812,1,0,0:0:0:0:
64,192,89884,1,0,0:0:0:0:
448,192,89884,1,0,0:0:0:0:
320,192,89955,1,0,0:0:0:0:
192,192,90027,1,0,0:0:0:0:
320,192,90098,1,0,0:0:0:0:
448,192,90170,1,0,0:0:0:0:
64,192,90170,1,0,0:0:0:0:
192,192,90241,1,0,0:0:0:0:
320,192,90312,1,0,0:0:0:0:
448,192,90312,1,0,0:0:0:0:
192,192,90384,1,0,0:0:0:0:
64,192,90455,1,0,0:0:0:0:
448,192,90455,1,0,0:0:0:0:
320,192,90527,1,0,0:0:0:0:
192,192,90598,1,0,0:0:0:0:
64,192,90598,1,0,0:0:0:0:
320,192,90670,1,0,0:0:0:0:
448,192,90741,1,0,0:0:0:0:
64,192,90741,1,0,0:0:0:0:
192,192,90812,1,0,0:0:0:0:
320,192,90884,1,0,0:0:0:0:
448,192,90884,1,0,0:0:0:0:
192,192,90955,1,0,0:0:0:0:
64,192,91027,1,0,0:0:0:0:
448,192,91027,1,0,0:0:0:0:
192,192,91098,1,0,0:0:0:0:
320,192,91098,1,0,0:0:0:0:
64,192,91170,1,0,0:0:0:0:
448,192,91170,1,0,0:0:0:0:
192,192,91241,1,0,0:0:0:0:
320,192,91241,1,0,0:0:0:0:
64,192,91312,1,0,0:0:0:0:
448,192,91312,1,0,0:0:0:0:
320,192,91455,128,0,91812:0:0:0:0:
448,192,91527,128,0,91812:0:0:0:0:
64,192,91598,128,0,91670:0:0:0:0:
64,192,91741,1,0,0:0:0:0:
64,192,91812,1,0,0:0:0:0:
448,192,91884,1,0,0:0:0:0:
192,192,91884,1,0,0:0:0:0:
448,192,91955,1,0,0:0:0:0:
192,192,91955,1,0,0:0:0:0:
192,192,92098,1,0,0:0:0:0:
448,192,92098,1,0,0:0:0:0:
192,192,92170,1,0,0:0:0:0:
448,192,92170,1,0,0:0:0:0:
192,192,92312,1,0,0:0:0:0:
192,192,92384,1,0,0:0:0:0:
64,192,92455,128,0,92812:0:0:0:0:
448,192,92455,128,0,92812:0:0:0:0:
320,192,92455,128,0,92812:0:0:0:0:
64,192,92884,1,0,0:0:0:0:
320,192,92884,1,0,0:0:0:0:
448,192,92884,1,0,0:0:0:0:
64,192,93027,1,0,0:0:0:0:
320,192,93027,1,0,0:0:0:0:
448,192,93027,1,0,0:0:0:0:
192,192,93170,1,0,0:0:0:0:
64,192,93170,1,0,0:0:0:0:
320,192,93241,1,0,0:0:0:0:
448,192,93241,1,0,0:0:0:0:
192,192,93384,1,0,0:0:0:0:
64,192,93384,1,0,0:0:0:0:
448,192,93455,1,0,0:0:0:0:
320,192,93455,1,0,0:0:0:0:
448,192,93598,1,0,0:0:0:0:
64,192,93598,1,0,0:0:0:0:
192,192,93670,1,0,0:0:0:0:
320,192,93670,1,0,0:0:0:0:
448,192,93812,1,0,0:0:0:0:
64,192,93812,1,0,0:0:0:0:
192,192,93884,1,0,0:0:0:0:
320,192,93884,1,0,0:0:0:0:
320,192,94027,1,0,0:0:0:0:
192,192,94027,1,0,0:0:0:0:
64,192,94098,1,0,0:0:0:0:
448,192,94098,1,0,0:0:0:0:
320,192,94241,1,0,0:0:0:0:
192,192,94241,1,0,0:0:0:0:
64,192,94312,1,0,0:0:0:0:
448,192,94312,1,0,0:0:0:0:
320,192,94455,128,0,94741:0:0:0:0:
448,192,94741,128,0,95098:0:0:0:0:
64,192,94741,128,0,95098:0:0:0:0:
192,192,94741,128,0,95098:0:0:0:0:
192,192,95170,1,0,0:0:0:0:
64,192,95170,1,0,0:0:0:0:
448,192,95170,1,0,0:0:0:0:
320,192,95241,1,0,0:0:0:0:
192,192,95312,1,0,0:0:0:0:
64,192,95312,1,0,0:0:0:0:
448,192,95312,1,0,0:0:0:0:
320,192,95455,1,0,0:0:0:0:
192,192,95455,1,0,0:0:0:0:
64,192,95527,1,0,0:0:0:0:
448,192,95527,1,0,0:0:0:0:
192,192,95670,1,0,0:0:0:0:
320,192,95670,1,0,0:0:0:0:
64,192,95741,1,0,0:0:0:0:
448,192,95741,1,0,0:0:0:0:
320,192,95884,1,0,0:0:0:0:
448,192,95884,1,0,0:0:0:0:
192,192,95955,1,0,0:0:0:0:
64,192,95955,1,0,0:0:0:0:
320,192,96098,1,0,0:0:0:0:
448,192,96098,1,0,0:0:0:0:
192,192,96170,1,0,0:0:0:0:
64,192,96170,1,0,0:0:0:0:
192,192,96312,1,0,0:0:0:0:
64,192,96312,1,0,0:0:0:0:
320,192,96384,1,0,0:0:0:0:
448,192,96384,1,0,0:0:0:0:
192,192,96527,1,0,0:0:0:0:
64,192,96527,1,0,0:0:0:0:
320,192,96598,1,0,0:0:0:0:
448,192,96598,1,0,0:0:0:0:
192,192,96741,128,0,97027:0:0:0:0:
448,192,96884,1,0,0:0:0:0:
64,192,96884,1,0,0:0:0:0:
320,192,97027,128,0,97384:0:0:0:0:
448,192,97027,128,0,97384:0:0:0:0:
64,192,97027,128,0,97384:0:0:0:0:
64,192,97455,1,0,0:0:0:0:
320,192,97455,1,0,0:0:0:0:
448,192,97455,1,0,0:0:0:0:
64,192,97598,1,0,0:0:0:0:
448,192,97598,1,0,0:0:0:0:
320,192,97598,1,0,0:0:0:0:
192,192,97741,1,0,0:0:0:0:
448,192,97741,1,0,0:0:0:0:
320,192,97812,1,0,0:0:0:0:
64,192,97812,1,0,0:0:0:0:
192,192,97955,1,0,0:0:0:0:
448,192,97955,1,0,0:0:0:0:
320,192,98027,1,0,0:0:0:0:
64,192,98027,1,0,0:0:0:0:
192,192,98170,1,0,0:0:0:0:
320,192,98170,1,0,0:0:0:0:
64,192,98241,1,0,0:0:0:0:
448,192,98241,1,0,0:0:0:0:
192,192,98384,1,0,0:0:0:0:
320,192,98384,1,0,0:0:0:0:
64,192,98455,1,0,0:0:0:0:
448,192,98455,1,0,0:0:0:0:
448,192,98598,1,0,0:0:0:0:
64,192,98598,1,0,0:0:0:0:
192,192,98670,1,0,0:0:0:0:
320,192,98670,1,0,0:0:0:0:
64,192,98812,1,0,0:0:0:0:
448,192,98812,1,0,0:0:0:0:
320,192,98884,1,0,0:0:0:0:
192,192,98884,1,0,0:0:0:0:
192,192,99027,128,0,99312:0:0:0:0:
448,192,99312,128,0,99670:0:0:0:0:
320,192,99312,128,0,99670:0:0:0:0:
64,192,99312,128,0,99670:0:0:0:0:
64,192,99741,1,0,0:0:0:0:
448,192,99741,1,0,0:0:0:0:
320,192,99741,1,0,0:0:0:0:
192,192,99812,1,0,0:0:0:0:
320,192,99884,1,0,0:0:0:0:
448,192,99884,1,0,0:0:0:0:
64,192,99884,1,0,0:0:0:0:
192,192,100027,1,0,0:0:0:0:
64,192,100027,1,0,0:0:0:0:
320,192,100098,1,0,0:0:0:0:
448,192,100098,1,0,0:0:0:0:
192,192,100241,1,0,0:0:0:0:
64,192,100241,1,0,0:0:0:0:
320,192,100312,1,0,0:0:0:0:
448,192,100312,1,0,0:0:0:0:
192,192,100455,1,0,0:0:0:0:
64,192,100455,1,0,0:0:0:0:
64,192,100527,128,0,100812:0:0:0:0:
192,192,100527,128,0,100812:0:0:0:0:
320,192,100670,1,0,0:0:0:0:
448,192,100670,1,0,0:0:0:0:
448,192,100741,128,0,100884:0:0:0:0:
320,192,100741,128,0,100884:0:0:0:0:
64,192,100884,1,0,0:0:0:0:
192,192,100884,1,0,0:0:0:0:
320,192,100955,1,0,0:0:0:0:
448,192,100955,1,0,0:0:0:0:
64,192,101027,1,0,0:0:0:0:
320,192,101027,1,0,0:0:0:0:
448,192,101027,1,0,0:0:0:0:
192,192,101027,1,0,0:0:0:0:
64,192,101598,128,0,101955:0:0:0:0:
192,192,101598,128,0,101955:0:0:0:0:
320,192,101598,128,0,101955:0:0:0:0:
448,192,101598,128,0,101955:0:0:0:0:
64,192,102027,1,0,0:0:0:0:
192,192,102027,1,0,0:0:0:0:
320,192,102027,1,0,0:0:0:0:
448,192,102027,1,0,0:0:0:0:
64,192,102170,1,0,0:0:0:0:
192,192,102170,1,0,0:0:0:0:
320,192,102170,1,0,0:0:0:0:
448,192,102170,1,0,0:0:0:0:
192,192,102312,1,0,0:0:0:0:
64,192,102384,1,0,0:0:0:0:
320,192,102384,1,0,0:0:0:0:
448,192,102384,1,0,0:0:0:0:
320,192,102527,1,0,0:0:0:0:
448,192,102598,1,0,0:0:0:0:
192,192,102598,1,0,0:0:0:0:
64,192,102598,1,0,0:0:0:0:
192,192,102741,1,0,0:0:0:0:
320,192,102812,1,0,0:0:0:0:
448,192,102812,1,0,0:0:0:0:
64,192,102812,1,0,0:0:0:0:
320,192,102955,1,0,0:0:0:0:
192,192,103027,1,0,0:0:0:0:
64,192,103027,1,0,0:0:0:0:
448,192,103027,1,0,0:0:0:0:
192,192,103170,1,0,0:0:0:0:
64,192,103241,1,0,0:0:0:0:
448,192,103241,1,0,0:0:0:0:
320,192,103241,1,0,0:0:0:0:
320,192,103384,1,0,0:0:0:0:
64,192,103455,1,0,0:0:0:0:
448,192,103455,1,0,0:0:0:0:
192,192,103455,1,0,0:0:0:0:
320,192,103598,128,0,104241:0:0:0:0:
192,192,103884,128,0,104241:0:0:0:0:
64,192,103884,128,0,104241:0:0:0:0:
448,192,103884,128,0,104241:0:0:0:0:
64,192,104312,1,0,0:0:0:0:
192,192,104312,1,0,0:0:0:0:
448,192,104312,1,0,0:0:0:0:
320,192,104384,1,0,0:0:0:0:
192,192,104455,1,0,0:0:0:0:
64,192,104455,1,0,0:0:0:0:
448,192,104455,1,0,0:0:0:0:
64,192,104598,1,0,0:0:0:0:
192,192,104670,1,0,0:0:0:0:
320,192,104670,1,0,0:0:0:0:
448,192,104670,1,0,0:0:0:0:
448,192,104812,1,0,0:0:0:0:
64,192,104884,1,0,0:0:0:0:
320,192,104884,1,0,0:0:0:0:
192,192,104884,1,0,0:0:0:0:
64,192,105027,1,0,0:0:0:0:
320,192,105098,1,0,0:0:0:0:
192,192,105098,1,0,0:0:0:0:
448,192,105098,1,0,0:0:0:0:
448,192,105241,1,0,0:0:0:0:
192,192,105312,1,0,0:0:0:0:
64,192,105312,1,0,0:0:0:0:
320,192,105312,1,0,0:0:0:0:
64,192,105455,1,0,0:0:0:0:
192,192,105527,1,0,0:0:0:0:
320,192,105527,1,0,0:0:0:0:
448,192,105527,1,0,0:0:0:0:
448,192,105670,1,0,0:0:0:0:
64,192,105741,1,0,0:0:0:0:
320,192,105741,1,0,0:0:0:0:
192,192,105741,1,0,0:0:0:0:
192,192,105884,1,0,0:0:0:0:
448,192,105955,1,0,0:0:0:0:
64,192,106027,1,0,0:0:0:0:
320,192,106098,1,0,0:0:0:0:
64,192,106170,128,0,106527:0:0:0:0:
192,192,106170,128,0,106527:0:0:0:0:
448,192,106170,128,0,106527:0:0:0:0:
320,192,106170,128,0,106527:0:0:0:0:
448,192,106598,1,0,0:0:0:0:
64,192,106598,1,0,0:0:0:0:
192,192,106741,1,0,0:0:0:0:
448,192,106741,1,0,0:0:0:0:
320,192,106884,1,0,0:0:0:0:
64,192,106955,1,0,0:0:0:0:
192,192,107098,1,0,0:0:0:0:
448,192,107170,1,0,0:0:0:0:
320,192,107312,1,0,0:0:0:0:
64,192,107384,1,0,0:0:0:0:
192,192,107527,1,0,0:0:0:0:
448,192,107598,1,0,0:0:0:0:
320,192,107741,1,0,0:0:0:0:
64,192,107812,1,0,0:0:0:0:
192,192,107955,1,0,0:0:0:0:
448,192,108027,1,0,0:0:0:0:
320,192,108170,1,0,0:0:0:0:
64,192,108241,1,0,0:0:0:0:
320,192,108312,1,0,0:0:0:0:
192,192,108384,1,0,0:0:0:0:
448,192,108455,1,0,0:0:0:0:
192,192,108598,1,0,0:0:0:0:
64,192,108741,1,0,0:0:0:0:
64,192,108884,1,0,0:0:0:0:
320,192,108955,1,0,0:0:0:0:
448,192,109027,1,0,0:0:0:0:
192,192,109170,1,0,0:0:0:0:
448,192,109241,1,0,0:0:0:0:
64,192,109384,1,0,0:0:0:0:
448,192,109455,1,0,0:0:0:0:
64,192,109598,1,0,0:0:0:0:
192,192,109598,1,0,0:0:0:0:
448,192,109598,128,0,109670:0:0:0:0:
320,192,109741,128,0,109812:0:0:0:0:
192,192,109884,128,0,110098:0:0:0:0:
448,192,110027,128,0,110170:0:0:0:0:
64,192,110170,128,0,110312:0:0:0:0:
320,192,110312,1,0,0:0:0:0:
320,192,110455,128,0,111098:0:0:0:0:
64,192,110741,128,0,111098:0:0:0:0:
192,192,110741,128,0,111098:0:0:0:0:
448,192,110741,128,0,111098:0:0:0:0:
320,192,111170,128,0,111312:0:0:0:0:
64,192,111312,128,0,111384:0:0:0:0:
192,192,111312,128,0,111384:0:0:0:0:
448,192,111312,128,0,111384:0:0:0:0:
320,192,111455,128,0,111598:0:0:0:0:
64,192,111527,128,0,111670:0:0:0:0:
448,192,111598,1,0,0:0:0:0:
192,192,111598,1,0,0:0:0:0:
448,192,111670,128,0,111812:0:0:0:0:
192,192,111741,128,0,111884:0:0:0:0:
320,192,111884,128,0,112027:0:0:0:0:
64,192,111955,128,0,112098:0:0:0:0:
320,192,112098,128,0,112241:0:0:0:0:
64,192,112170,1,0,0:0:0:0:
192,192,112170,128,0,112312:0:0:0:0:
448,192,112170,1,0,0:0:0:0:
448,192,112312,128,0,112455:0:0:0:0:
192,192,112384,128,0,112527:0:0:0:0:
64,192,112455,1,0,0:0:0:0:
320,192,112455,1,0,0:0:0:0:
320,192,112527,128,0,112670:0:0:0:0:
64,192,112598,128,0,112741:0:0:0:0:
320,192,112741,128,0,113027:0:0:0:0:
192,192,113027,128,0,113384:0:0:0:0:
64,192,113027,128,0,113384:0:0:0:0:
448,192,113027,128,0,113384:0:0:0:0:
320,192,113455,1,0,0:0:0:0:
320,192,113527,1,0,0:0:0:0:
192,192,113598,128,0,113670:0:0:0:0:
64,192,113598,128,0,113670:0:0:0:0:
448,192,113598,128,0,113670:0:0:0:0:
192,192,113741,128,0,113884:0:0:0:0:
448,192,113812,128,0,113955:0:0:0:0:
320,192,113884,1,0,0:0:0:0:
64,192,113884,1,0,0:0:0:0:
192,192,113955,128,0,114098:0:0:0:0:
320,192,114027,128,0,114170:0:0:0:0:
64,192,114170,128,0,114312:0:0:0:0:
320,192,114241,128,0,114384:0:0:0:0:
192,192,114384,128,0,114527:0:0:0:0:
448,192,114455,128,0,114598:0:0:0:0:
320,192,114455,1,0,0:0:0:0:
64,192,114455,1,0,0:0:0:0:
64,192,114598,128,0,114741:0:0:0:0:
320,192,114670,128,0,114812:0:0:0:0:
192,192,114741,1,0,0:0:0:0:
448,192,114741,1,0,0:0:0:0:
192,192,114812,128,0,114955:0:0:0:0:
448,192,114884,128,0,115027:0:0:0:0:
192,192,115027,128,0,115312:0:0:0:0:
448,192,115170,128,0,115241:0:0:0:0:
64,192,115170,128,0,115241:0:0:0:0:
64,192,115312,128,0,115670:0:0:0:0:
320,192,115312,128,0,115670:0:0:0:0:
448,192,115312,128,0,115670:0:0:0:0:
192,192,115741,128,0,115884:0:0:0:0:
64,192,115884,128,0,116098:0:0:0:0:
320,192,115884,1,0,0:0:0:0:
448,192,115884,128,0,115955:0:0:0:0:
320,192,116027,128,0,116098:0:0:0:0:
192,192,116170,128,0,116241:0:0:0:0:
64,192,116170,128,0,116241:0:0:0:0:
448,192,116170,128,0,116670:0:0:0:0:
320,192,116312,128,0,116527:0:0:0:0:
192,192,116312,128,0,116527:0:0:0:0:
64,192,116598,128,0,116670:0:0:0:0:
192,192,116598,128,0,116670:0:0:0:0:
320,192,116741,1,0,0:0:0:0:
448,192,116741,1,0,0:0:0:0:
64,192,116812,1,0,0:0:0:0:
192,192,116884,1,0,0:0:0:0:
448,192,116955,1,0,0:0:0:0:
320,192,117027,1,0,0:0:0:0:
192,192,117027,1,0,0:0:0:0:
64,192,117027,1,0,0:0:0:0:
448,192,117098,1,0,0:0:0:0:
192,192,117170,1,0,0:0:0:0:
320,192,117241,1,0,0:0:0:0:
64,192,117312,128,0,117384:0:0:0:0:
448,192,117312,128,0,117384:0:0:0:0:
64,192,117455,128,0,117955:0:0:0:0:
448,192,117455,128,0,117955:0:0:0:0:
192,192,117598,128,0,117955:0:0:0:0:
320,192,117598,128,0,117955:0:0:0:0:
320,192,118027,128,0,118170:0:0:0:0:
448,192,118170,128,0,118384:0:0:0:0:
192,192,118170,1,0,0:0:0:0:
64,192,118170,128,0,118241:0:0:0:0:
192,192,118312,128,0,118384:0:0:0:0:
64,192,118455,128,0,118670:0:0:0:0:
320,192,118455,128,0,118527:0:0:0:0:
448,192,118598,128,0,118670:0:0:0:0:
192,192,118741,128,0,118955:0:0:0:0:
448,192,118812,128,0,118955:0:0:0:0:
64,192,118884,128,0,119098:0:0:0:0:
320,192,118955,128,0,119098:0:0:0:0:
192,192,119027,128,0,119241:0:0:0:0:
448,192,119027,128,0,119241:0:0:0:0:
64,192,119170,128,0,119241:0:0:0:0:
320,192,119170,128,0,119241:0:0:0:0:
192,192,119312,1,0,0:0:0:0:
320,192,119312,1,0,0:0:0:0:
448,192,119312,1,0,0:0:0:0:
64,192,119312,1,0,0:0:0:0:
192,192,119884,1,0,0:0:0:0:
320,192,119884,1,0,0:0:0:0:
192,192,120455,1,0,0:0:0:0:
64,192,120455,1,0,0:0:0:0:
448,192,120455,1,0,0:0:0:0:
320,192,120598,128,0,120955:0:0:0:0:
64,192,120670,128,0,121027:0:0:0:0:
448,192,120741,1,0,0:0:0:0:
192,192,120741,128,0,120812:0:0:0:0:
448,192,120812,128,0,121027:0:0:0:0:
192,192,120884,128,0,121027:0:0:0:0:
320,192,121027,128,0,121170:0:0:0:0:
64,192,121098,128,0,121241:0:0:0:0:
320,192,121241,128,0,121384:0:0:0:0:
192,192,121312,128,0,121455:0:0:0:0:
64,192,121312,1,0,0:0:0:0:
448,192,121312,1,0,0:0:0:0:
448,192,121455,128,0,121598:0:0:0:0:
192,192,121527,128,0,121670:0:0:0:0:
320,192,121598,1,0,0:0:0:0:
64,192,121598,1,0,0:0:0:0:
320,192,121670,128,0,121812:0:0:0:0:
64,192,121741,128,0,121884:0:0:0:0:
320,192,121884,128,0,122170:0:0:0:0:
192,192,122170,128,0,122527:0:0:0:0:
64,192,122170,128,0,122527:0:0:0:0:
448,192,122170,128,0,122527:0:0:0:0:
320,192,122598,1,0,0:0:0:0:
320,192,122670,1,0,0:0:0:0:
192,192,122741,128,0,122812:0:0:0:0:
64,192,122741,128,0,122812:0:0:0:0:
448,192,122741,128,0,122812:0:0:0:0:
192,192,122884,128,0,123027:0:0:0:0:
448,192,122955,128,0,123098:0:0:0:0:
320,192,123027,1,0,0:0:0:0:
64,192,123027,1,0,0:0:0:0:
64,192,123098,128,0,123241:0:0:0:0:
320,192,123170,128,0,123312:0:0:0:0:
192,192,123312,128,0,123455:0:0:0:0:
448,192,123384,128,0,123527:0:0:0:0:
64,192,123527,128,0,123670:0:0:0:0:
320,192,123598,128,0,123741:0:0:0:0:
192,192,123598,1,0,0:0:0:0:
448,192,123598,1,0,0:0:0:0:
192,192,123741,128,0,123884:0:0:0:0:
448,192,123812,128,0,123955:0:0:0:0:
320,192,123884,1,0,0:0:0:0:
64,192,123884,1,0,0:0:0:0:
192,192,123955,128,0,124098:0:0:0:0:
320,192,124027,128,0,124170:0:0:0:0:
64,192,124170,128,0,124312:0:0:0:0:
320,192,124312,128,0,124455:0:0:0:0:
64,192,124455,128,0,124670:0:0:0:0:
192,192,124455,128,0,124670:0:0:0:0:
448,192,124455,128,0,124670:0:0:0:0:
192,192,124741,1,0,0:0:0:0:
64,192,124741,1,0,0:0:0:0:
448,192,124741,1,0,0:0:0:0:
64,192,124884,128,0,125098:0:0:0:0:
448,192,124884,128,0,125098:0:0:0:0:
320,192,125027,1,0,0:0:0:0:
192,192,125027,1,0,0:0:0:0:
192,192,125170,128,0,125241:0:0:0:0:
320,192,125312,128,0,125384:0:0:0:0:
64,192,125312,1,0,0:0:0:0:
448,192,125312,1,0,0:0:0:0:
448,192,125455,128,0,125527:0:0:0:0:
64,192,125455,128,0,125527:0:0:0:0:
64,192,125598,128,0,125812:0:0:0:0:
448,192,125598,128,0,125812:0:0:0:0:
320,192,125884,1,0,0:0:0:0:
64,192,125884,1,0,0:0:0:0:
192,192,125884,1,0,0:0:0:0:
448,192,125884,1,0,0:0:0:0:
448,192,126027,128,0,126241:0:0:0:0:
64,192,126027,128,0,126241:0:0:0:0:
192,192,126170,1,0,0:0:0:0:
320,192,126170,1,0,0:0:0:0:
320,192,126312,128,0,126384:0:0:0:0:
64,192,126455,1,0,0:0:0:0:
448,192,126455,1,0,0:0:0:0:
192,192,126455,128,0,126527:0:0:0:0:
64,192,126598,128,0,126670:0:0:0:0:
448,192,126598,128,0,126670:0:0:0:0:
64,192,126741,1,0,0:0:0:0:
448,192,126741,1,0,0:0:0:0:
320,192,126884,1,0,0:0:0:0:
320,192,126955,1,0,0:0:0:0:
192,192,127027,1,0,0:0:0:0:
448,192,127027,1,0,0:0:0:0:
64,192,127027,1,0,0:0:0:0:
64,192,127170,1,0,0:0:0:0:
64,192,127241,1,0,0:0:0:0:
448,192,127312,1,0,0:0:0:0:
320,192,127312,1,0,0:0:0:0:
320,192,127455,1,0,0:0:0:0:
320,192,127527,1,0,0:0:0:0:
448,192,127598,1,0,0:0:0:0:
192,192,127598,1,0,0:0:0:0:
64,192,127598,1,0,0:0:0:0:
64,192,127741,1,0,0:0:0:0:
64,192,127812,1,0,0:0:0:0:
192,192,127884,1,0,0:0:0:0:
448,192,127884,1,0,0:0:0:0:
320,192,127884,1,0,0:0:0:0:
448,192,127955,1,0,0:0:0:0:
320,192,128027,1,0,0:0:0:0:
64,192,128098,1,0,0:0:0:0:
192,192,128170,1,0,0:0:0:0:
448,192,128170,1,0,0:0:0:0:
320,192,128170,1,0,0:0:0:0:
64,192,128241,1,0,0:0:0:0:
320,192,128312,1,0,0:0:0:0:
192,192,128384,1,0,0:0:0:0:
448,192,128455,1,0,0:0:0:0:
320,192,128455,1,0,0:0:0:0:
64,192,128455,1,0,0:0:0:0:
320,192,128670,1,0,0:0:0:0:
192,192,128741,1,0,0:0:0:0:
192,192,128884,1,0,0:0:0:0:
64,192,129027,128,0,129241:0:0:0:0:
320,192,129027,128,0,129241:0:0:0:0:
448,192,129027,128,0,129241:0:0:0:0:
320,192,129312,1,0,0:0:0:0:
448,192,129312,1,0,0:0:0:0:
192,192,129312,1,0,0:0:0:0:
64,192,129312,1,0,0:0:0:0:
320,192,129455,1,0,0:0:0:0:
192,192,129455,1,0,0:0:0:0:
448,192,129598,1,0,0:0:0:0:
64,192,129598,1,0,0:0:0:0:
320,192,129741,1,0,0:0:0:0:
320,192,129812,1,0,0:0:0:0:
448,192,129884,1,0,0:0:0:0:
192,192,129884,1,0,0:0:0:0:
64,192,129884,1,0,0:0:0:0:
192,192,130027,1,0,0:0:0:0:
320,192,130027,1,0,0:0:0:0:
64,192,130170,1,0,0:0:0:0:
448,192,130170,1,0,0:0:0:0:
192,192,130241,128,0,130312:0:0:0:0:
192,192,130384,128,0,130455:0:0:0:0:
448,192,130455,1,0,0:0:0:0:
64,192,130455,1,0,0:0:0:0:
320,192,130455,1,0,0:0:0:0:
192,192,130598,1,0,0:0:0:0:
448,192,130670,1,0,0:0:0:0:
192,192,130741,1,0,0:0:0:0:
64,192,130741,1,0,0:0:0:0:
448,192,130812,1,0,0:0:0:0:
192,192,130884,1,0,0:0:0:0:
64,192,131027,128,0,131527:0:0:0:0:
320,192,131027,128,0,131527:0:0:0:0:
192,192,131312,128,0,131527:0:0:0:0:
448,192,131312,128,0,131527:0:0:0:0:
320,192,131598,1,0,0:0:0:0:
448,192,131598,1,0,0:0:0:0:
64,192,131598,1,0,0:0:0:0:
448,192,131741,1,0,0:0:0:0:
448,192,131812,1,0,0:0:0:0:
64,192,131884,1,0,0:0:0:0:
192,192,131884,1,0,0:0:0:0:
192,192,132027,1,0,0:0:0:0:
192,192,132098,1,0,0:0:0:0:
320,192,132170,1,0,0:0:0:0:
448,192,132170,1,0,0:0:0:0:
64,192,132170,1,0,0:0:0:0:
320,192,132312,1,0,0:0:0:0:
192,192,132312,1,0,0:0:0:0:
448,192,132455,1,0,0:0:0:0:
64,192,132455,1,0,0:0:0:0:
320,192,132527,128,0,132598:0:0:0:0:
320,192,132670,128,0,132741:0:0:0:0:
192,192,132741,1,0,0:0:0:0:
448,192,132741,1,0,0:0:0:0:
64,192,132741,1,0,0:0:0:0:
320,192,132884,1,0,0:0:0:0:
64,192,132955,1,0,0:0:0:0:
448,192,133027,1,0,0:0:0:0:
320,192,133027,1,0,0:0:0:0:
64,192,133098,1,0,0:0:0:0:
320,192,133170,1,0,0:0:0:0:
64,192,133312,1,0,0:0:0:0:
448,192,133312,1,0,0:0:0:0:
192,192,133455,1,0,0:0:0:0:
320,192,133455,1,0,0:0:0:0:
192,192,133598,128,0,133812:0:0:0:0:
320,192,133598,128,0,133812:0:0:0:0:
64,192,133741,1,0,0:0:0:0:
448,192,133741,1,0,0:0:0:0:
192,192,133884,1,0,0:0:0:0:
320,192,133884,1,0,0:0:0:0:
64,192,134027,128,0,134098:0:0:0:0:
448,192,134027,128,0,134098:0:0:0:0:
448,192,134170,1,0,0:0:0:0:
64,192,134170,1,0,0:0:0:0:
192,192,134312,128,0,134384:0:0:0:0:
320,192,134312,128,0,134384:0:0:0:0:
192,192,134455,1,0,0:0:0:0:
320,192,134455,1,0,0:0:0:0:
448,192,134598,128,0,134848:0:0:0:0:
64,192,134598,128,0,134848:0:0:0:0:
320,192,134741,1,0,0:0:0:0:
192,192,134741,1,0,0:0:0:0:
192,192,134884,128,0,134955:0:0:0:0:
320,192,134884,128,0,134955:0:0:0:0:
64,192,135027,1,0,0:0:0:0:
448,192,135027,1,0,0:0:0:0:
320,192,135098,1,0,0:0:0:0:
192,192,135170,1,0,0:0:0:0:
448,192,135241,1,0,0:0:0:0:
192,192,135312,1,0,0:0:0:0:
320,192,135312,1,0,0:0:0:0:
64,192,135384,1,0,0:0:0:0:
320,192,135455,1,0,0:0:0:0:
192,192,135527,1,0,0:0:0:0:
64,192,135598,1,0,0:0:0:0:
448,192,135598,1,0,0:0:0:0:
448,192,135741,128,0,136098:0:0:0:0:
192,192,135884,128,0,136098:0:0:0:0:
64,192,135884,128,0,136098:0:0:0:0:
192,192,136170,1,0,0:0:0:0:
64,192,136170,1,0,0:0:0:0:
448,192,136170,1,0,0:0:0:0:
320,192,136312,128,0,136598:0:0:0:0:
192,192,136312,128,0,136598:0:0:0:0:
448,192,136455,1,0,0:0:0:0:
64,192,136455,1,0,0:0:0:0:
448,192,136598,128,0,136884:0:0:0:0:
64,192,136598,128,0,136884:0:0:0:0:
192,192,136741,1,0,0:0:0:0:
320,192,136741,1,0,0:0:0:0:
320,192,136884,128,0,137241:0:0:0:0:
192,192,136884,128,0,137241:0:0:0:0:
64,192,137027,128,0,137384:0:0:0:0:
448,192,137027,128,0,137384:0:0:0:0:
192,192,137312,1,0,0:0:0:0:
320,192,137312,1,0,0:0:0:0:
64,192,137455,1,0,0:0:0:0:
448,192,137455,1,0,0:0:0:0:
320,192,137527,1,0,0:0:0:0:
192,192,137527,1,0,0:0:0:0:
64,192,137598,1,0,0:0:0:0:
192,192,137598,1,0,0:0:0:0:
320,192,137598,1,0,0:0:0:0:
448,192,137598,1,0,0:0:0:0:
64,192,138170,1,0,0:0:0:0:
192,192,138170,1,0,0:0:0:0:
320,192,138170,1,0,0:0:0:0:
448,192,138170,1,0,0:0:0:0:
192,192,138312,1,0,0:0:0:0:
320,192,138312,1,0,0:0:0:0:
448,192,138455,1,0,0:0:0:0:
64,192,138455,1,0,0:0:0:0:
320,192,138598,1,0,0:0:0:0:
192,192,138598,1,0,0:0:0:0:
448,192,138741,1,0,0:0:0:0:
64,192,138741,1,0,0:0:0:0:
320,192,138884,1,0,0:0:0:0:
320,192,138955,1,0,0:0:0:0:
448,192,139027,1,0,0:0:0:0:
64,192,139027,1,0,0:0:0:0:
192,192,139027,1,0,0:0:0:0:
64,192,139170,128,0,139312:0:0:0:0:
192,192,139312,1,0,0:0:0:0:
448,192,139312,1,0,0:0:0:0:
320,192,139312,1,0,0:0:0:0:
64,192,139384,128,0,139527:0:0:0:0:
448,192,139527,128,0,139741:0:0:0:0:
320,192,139598,1,0,0:0:0:0:
192,192,139598,1,0,0:0:0:0:
64,192,139598,1,0,0:0:0:0:
192,192,139741,128,0,139812:0:0:0:0:
448,192,139812,128,0,139884:0:0:0:0:
192,192,139884,128,0,139955:0:0:0:0:
64,192,139884,1,0,0:0:0:0:
320,192,139884,1,0,0:0:0:0:
448,192,139955,128,0,140027:0:0:0:0:
192,192,140027,128,0,140170:0:0:0:0:
448,192,140170,128,0,140384:0:0:0:0:
64,192,140170,128,0,140384:0:0:0:0:
320,192,140170,128,0,140384:0:0:0:0:
64,192,140455,128,0,140670:0:0:0:0:
192,192,140455,128,0,140670:0:0:0:0:
448,192,140455,128,0,140670:0:0:0:0:
448,192,140741,1,0,0:0:0:0:
192,192,140741,1,0,0:0:0:0:
64,192,140741,1,0,0:0:0:0:
320,192,140884,1,0,0:0:0:0:
320,192,140955,1,0,0:0:0:0:
448,192,141027,1,0,0:0:0:0:
192,192,141027,1,0,0:0:0:0:
64,192,141027,1,0,0:0:0:0:
192,192,141170,1,0,0:0:0:0:
192,192,141241,1,0,0:0:0:0:
320,192,141312,1,0,0:0:0:0:
64,192,141312,1,0,0:0:0:0:
448,192,141312,1,0,0:0:0:0:
448,192,141455,128,0,141598:0:0:0:0:
320,192,141598,1,0,0:0:0:0:
64,192,141598,1,0,0:0:0:0:
192,192,141598,1,0,0:0:0:0:
448,192,141670,128,0,141812:0:0:0:0:
192,192,141812,1,0,0:0:0:0:
64,192,141812,1,0,0:0:0:0:
192,192,141884,1,0,0:0:0:0:
320,192,141884,1,0,0:0:0:0:
448,192,141884,1,0,0:0:0:0:
64,192,141955,1,0,0:0:0:0:
448,192,142027,1,0,0:0:0:0:
320,192,142027,1,0,0:0:0:0:
192,192,142098,1,0,0:0:0:0:
64,192,142170,1,0,0:0:0:0:
448,192,142170,1,0,0:0:0:0:
320,192,142241,1,0,0:0:0:0:
192,192,142312,1,0,0:0:0:0:
448,192,142384,1,0,0:0:0:0:
64,192,142384,1,0,0:0:0:0:
192,192,142455,1,0,0:0:0:0:
320,192,142455,1,0,0:0:0:0:
448,192,142598,1,0,0:0:0:0:
64,192,142598,1,0,0:0:0:0:
320,192,142741,128,0,142955:0:0:0:0:
448,192,142741,128,0,142955:0:0:0:0:
64,192,142741,128,0,142955:0:0:0:0:
192,192,142884,1,0,0:0:0:0:
64,192,143027,1,0,0:0:0:0:
320,192,143027,1,0,0:0:0:0:
448,192,143027,1,0,0:0:0:0:
448,192,143170,128,0,143241:0:0:0:0:
192,192,143170,128,0,143312:0:0:0:0:
64,192,143312,1,0,0:0:0:0:
448,192,143312,1,0,0:0:0:0:
320,192,143312,1,0,0:0:0:0:
448,192,143455,128,0,143598:0:0:0:0:
64,192,143455,128,0,143527:0:0:0:0:
192,192,143598,1,0,0:0:0:0:
320,192,143598,1,0,0:0:0:0:
64,192,143598,1,0,0:0:0:0:
64,192,143741,128,0,143884:0:0:0:0:
320,192,143741,128,0,143812:0:0:0:0:
192,192,143884,5,0,0:0:0:0:
448,192,143884,1,0,0:0:0:0:
320,192,143884,1,0,0:0:0:0:
192,192,144027,1,0,0:0:0:0:
64,192,144170,1,0,0:0:0:0:
448,192,144170,1,0,0:0:0:0:
320,192,144170,1,0,0:0:0:0:
320,192,144312,128,0,144455:0:0:0:0:
64,192,144312,128,0,144384:0:0:0:0:
192,192,144455,1,0,0:0:0:0:
64,192,144455,1,0,0:0:0:0:
448,192,144455,1,0,0:0:0:0:
64,192,144598,128,0,144741:0:0:0:0:
448,192,144598,128,0,144670:0:0:0:0:
192,192,144741,1,0,0:0:0:0:
320,192,144741,1,0,0:0:0:0:
448,192,144741,1,0,0:0:0:0:
448,192,144884,128,0,145027:0:0:0:0:
192,192,144884,128,0,144955:0:0:0:0:
320,192,145027,5,0,0:0:0:0:
192,192,145027,1,0,0:0:0:0:
64,192,145027,1,0,0:0:0:0:
448,192,145098,1,0,0:0:0:0:
320,192,145170,1,0,0:0:0:0:
192,192,145241,1,0,0:0:0:0:
320,192,145312,1,0,0:0:0:0:
64,192,145312,1,0,0:0:0:0:
448,192,145384,1,0,0:0:0:0:
192,192,145455,1,0,0:0:0:0:
320,192,145527,1,0,0:0:0:0:
448,192,145598,1,0,0:0:0:0:
64,192,145598,1,0,0:0:0:0:
192,192,145670,1,0,0:0:0:0:
320,192,145741,1,0,0:0:0:0:
192,192,145812,1,0,0:0:0:0:
448,192,145884,1,0,0:0:0:0:
64,192,145884,1,0,0:0:0:0:
320,192,145955,1,0,0:0:0:0:
192,192,146027,1,0,0:0:0:0:
320,192,146098,1,0,0:0:0:0:
64,192,146170,1,0,0:0:0:0:
448,192,146170,1,0,0:0:0:0:
64,192,146455,1,0,0:0:0:0:
448,192,146455,1,0,0:0:0:0:
64,192,146741,1,0,0:0:0:0:
448,192,146741,1,0,0:0:0:0:
448,192,147027,128,0,147289:0:0:0:0:
64,192,147027,128,0,147289:0:0:0:0:
64,192,147312,1,0,0:0:0:0:
192,192,147312,1,0,0:0:0:0:
320,192,147312,1,0,0:0:0:0:
448,192,147312,1,0,0:0:0:0:
320,192,156455,5,0,0:0:0:0:
192,192,156598,1,0,0:0:0:0:
448,192,156741,1,0,0:0:0:0:
64,192,156812,1,0,0:0:0:0:
320,192,156884,1,0,0:0:0:0:
192,192,156955,1,0,0:0:0:0:
448,192,157027,1,0,0:0:0:0:
64,192,157170,1,0,0:0:0:0:
320,192,157455,1,0,0:0:0:0:
320,192,157598,128,0,157741:0:0:0:0:
64,192,157741,1,0,0:0:0:0:
448,192,157884,1,0,0:0:0:0:
192,192,158027,1,0,0:0:0:0:
320,192,158170,1,0,0:0:0:0:
64,192,158312,1,0,0:0:0:0:
320,192,158455,1,0,0:0:0:0:
448,192,158598,1,0,0:0:0:0:
192,192,158741,128,0,158884:0:0:0:0:
448,192,158884,1,0,0:0:0:0:
192,192,159027,1,0,0:0:0:0:
320,192,159098,1,0,0:0:0:0:
64,192,159170,1,0,0:0:0:0:
192,192,159241,1,0,0:0:0:0:
448,192,159312,1,0,0:0:0:0:
320,192,159455,1,0,0:0:0:0:
192,192,159741,1,0,0:0:0:0:
320,192,159884,128,0,160027:0:0:0:0:
64,192,160027,1,0,0:0:0:0:
320,192,160170,1,0,0:0:0:0:
192,192,160312,1,0,0:0:0:0:
448,192,160455,1,0,0:0:0:0:
192,192,160598,1,0,0:0:0:0:
64,192,160741,128,0,161027:0:0:0:0:
320,192,161027,1,0,0:0:0:0:
192,192,161170,1,0,0:0:0:0:
448,192,161312,1,0,0:0:0:0:
64,192,161384,1,0,0:0:0:0:
320,192,161455,1,0,0:0:0:0:
192,192,161527,1,0,0:0:0:0:
448,192,161598,1,0,0:0:0:0:
64,192,161741,1,0,0:0:0:0:
320,192,162027,1,0,0:0:0:0:
320,192,162170,128,0,162312:0:0:0:0:
64,192,162312,1,0,0:0:0:0:
448,192,162455,1,0,0:0:0:0:
192,192,162598,1,0,0:0:0:0:
320,192,162741,1,0,0:0:0:0:
64,192,162884,1,0,0:0:0:0:
320,192,163027,1,0,0:0:0:0:
448,192,163170,1,0,0:0:0:0:
192,192,163312,128,0,163455:0:0:0:0:
448,192,163455,1,0,0:0:0:0:
192,192,163598,1,0,0:0:0:0:
448,192,163670,1,0,0:0:0:0:
64,192,163741,1,0,0:0:0:0:
320,192,163812,1,0,0:0:0:0:
64,192,163884,1,0,0:0:0:0:
448,192,164027,1,0,0:0:0:0:
64,192,164170,128,0,164312:0:0:0:0:
320,192,164312,1,0,0:0:0:0:
448,192,164455,128,0,164598:0:0:0:0:
192,192,164598,1,0,0:0:0:0:
448,192,164741,1,0,0:0:0:0:
320,192,164884,1,0,0:0:0:0:
64,192,165027,128,0,165170:0:0:0:0:
192,192,165170,1,0,0:0:0:0:
320,192,165241,1,0,0:0:0:0:
448,192,165312,1,0,0:0:0:0:
320,192,165384,1,0,0:0:0:0:
192,192,165455,1,0,0:0:0:0:
64,192,165527,1,0,0:0:0:0:
320,192,165598,1,0,0:0:0:0:
192,192,165741,1,0,0:0:0:0:
448,192,165884,1,0,0:0:0:0:
64,192,165955,1,0,0:0:0:0:
320,192,166027,1,0,0:0:0:0:
192,192,166098,1,0,0:0:0:0:
448,192,166170,1,0,0:0:0:0:
64,192,166312,1,0,0:0:0:0:
320,192,166598,1,0,0:0:0:0:
64,192,166884,1,0,0:0:0:0:
448,192,167027,1,0,0:0:0:0:
192,192,167170,1,0,0:0:0:0:
320,192,167312,1,0,0:0:0:0:
64,192,167455,1,0,0:0:0:0:
320,192,167598,1,0,0:0:0:0:
448,192,167741,1,0,0:0:0:0:
448,192,168027,1,0,0:0:0:0:
192,192,168170,1,0,0:0:0:0:
320,192,168241,1,0,0:0:0:0:
64,192,168312,1,0,0:0:0:0:
192,192,168384,1,0,0:0:0:0:
448,192,168455,1,0,0:0:0:0:
320,192,168598,1,0,0:0:0:0:
192,192,168884,1,0,0:0:0:0:
64,192,169170,1,0,0:0:0:0:
320,192,169312,1,0,0:0:0:0:
192,192,169455,1,0,0:0:0:0:
448,192,169598,1,0,0:0:0:0:
192,192,169741,1,0,0:0:0:0:
64,192,169884,128,0,170170:0:0:0:0:
320,192,170170,1,0,0:0:0:0:
192,192,170312,1,0,0:0:0:0:
448,192,170455,1,0,0:0:0:0:
64,192,170527,1,0,0:0:0:0:
320,192,170598,1,0,0:0:0:0:
192,192,170670,1,0,0:0:0:0:
448,192,170741,1,0,0:0:0:0:
192,192,170884,1,0,0:0:0:0:
448,192,171027,128,0,171527:0:0:0:0:
192,192,171170,128,0,171670:0:0:0:0:
64,192,171455,128,0,171955:0:0:0:0:
448,192,171598,128,0,172098:0:0:0:0:
192,192,171741,128,0,172241:0:0:0:0:
64,192,172027,128,0,172527:0:0:0:0:
448,192,172170,128,0,172670:0:0:0:0:
192,192,172312,128,0,172812:0:0:0:0:
64,192,172598,128,0,173527:0:0:0:0:
448,192,172741,128,0,173527:0:0:0:0:
192,192,172884,128,0,173527:0:0:0:0:
192,192,173598,1,0,0:0:0:0:
64,192,173598,1,0,0:0:0:0:
448,192,173598,1,0,0:0:0:0:
320,192,174455,128,0,174741:0:0:0:0:
192,192,174741,1,0,0:0:0:0:
64,192,174741,1,0,0:0:0:0:
448,192,174741,128,0,174884:0:0:0:0:
192,192,174884,128,0,175027:0:0:0:0:
448,192,175027,128,0,175098:0:0:0:0:
192,192,175098,128,0,175170:0:0:0:0:
320,192,175170,128,0,175241:0:0:0:0:
64,192,175241,128,0,175312:0:0:0:0:
320,192,175312,128,0,175455:0:0:0:0:
320,192,175741,128,0,176384:0:0:0:0:
64,192,175884,128,0,176527:0:0:0:0:
192,192,176027,128,0,176241:0:0:0:0:
448,192,176170,128,0,176812:0:0:0:0:
192,192,176312,128,0,177312:0:0:0:0:
320,192,176455,128,0,176670:0:0:0:0:
64,192,176598,128,0,176955:0:0:0:0:
320,192,176741,128,0,177098:0:0:0:0:
448,192,176884,128,0,177241:0:0:0:0:
64,192,177027,128,0,177455:0:0:0:0:
320,192,177170,128,0,177384:0:0:0:0:
448,192,177312,128,0,177812:0:0:0:0:
192,192,177384,128,0,177670:0:0:0:0:
320,192,177455,128,0,177527:0:0:0:0:
64,192,177527,128,0,178241:0:0:0:0:
320,192,177598,128,0,178098:0:0:0:0:
192,192,177741,128,0,177955:0:0:0:0:
448,192,177884,128,0,178670:0:0:0:0:
192,192,178027,128,0,178384:0:0:0:0:
320,192,178170,128,0,178812:0:0:0:0:
64,192,178312,128,0,178527:0:0:0:0:
192,192,178455,128,0,179241:0:0:0:0:
64,192,178598,128,0,178955:0:0:0:0:
448,192,178741,128,0,179241:0:0:0:0:
320,192,178884,128,0,179098:0:0:0:0:
64,192,179027,128,0,179241:0:0:0:0:
320,192,179170,128,0,179241:0:0:0:0:
192,192,179312,1,0,0:0:0:0:
64,192,179312,1,0,0:0:0:0:
448,192,179312,128,0,179455:0:0:0:0:
320,192,179312,1,0,0:0:0:0:
192,192,179455,128,0,179598:0:0:0:0:
448,192,179598,128,0,179670:0:0:0:0:
192,192,179670,128,0,179741:0:0:0:0:
320,192,179741,128,0,179812:0:0:0:0:
64,192,179741,1,0,0:0:0:0:
448,192,179741,1,0,0:0:0:0:
64,192,179812,128,0,179884:0:0:0:0:
320,192,179884,128,0,180027:0:0:0:0:
320,192,180312,128,0,180955:0:0:0:0:
64,192,180455,128,0,181098:0:0:0:0:
192,192,180598,128,0,180812:0:0:0:0:
448,192,180741,128,0,181384:0:0:0:0:
192,192,180884,128,0,181527:0:0:0:0:
320,192,181027,128,0,181241:0:0:0:0:
64,192,181170,128,0,181955:0:0:0:0:
320,192,181312,128,0,182027:0:0:0:0:
448,192,181455,128,0,181670:0:0:0:0:
192,192,181598,128,0,181812:0:0:0:0:
448,192,181741,128,0,181884:0:0:0:0:
192,192,181884,128,0,182384:0:0:0:0:
448,192,181955,128,0,182241:0:0:0:0:
64,192,182027,128,0,182098:0:0:0:0:
320,192,182098,128,0,182527:0:0:0:0:
64,192,182170,128,0,182670:0:0:0:0:
448,192,182312,128,0,182955:0:0:0:0:
192,192,182455,128,0,183098:0:0:0:0:
320,192,182598,128,0,182812:0:0:0:0:
64,192,182741,128,0,183241:0:0:0:0:
320,192,182884,128,0,183384:0:0:0:0:
448,192,183027,128,0,183527:0:0:0:0:
192,192,183170,128,0,183455:0:0:0:0:
64,192,183312,128,0,183598:0:0:0:0:
320,192,183455,128,0,183670:0:0:0:0:
192,192,183527,128,0,183741:0:0:0:0:
448,192,183598,128,0,183812:0:0:0:0:
64,192,183670,128,0,183812:0:0:0:0:
320,192,183741,128,0,183812:0:0:0:0:
192,192,183812,128,0,183884:0:0:0:0:
64,192,183884,128,0,184098:0:0:0:0:
320,192,183884,128,0,184098:0:0:0:0:
448,192,183884,128,0,184098:0:0:0:0:
192,192,184170,1,0,0:0:0:0:
64,192,184312,128,0,184527:0:0:0:0:
320,192,184312,128,0,184527:0:0:0:0:
448,192,184312,128,0,184527:0:0:0:0:
192,192,184598,1,0,0:0:0:0:
192,192,184741,1,0,0:0:0:0:
320,192,184884,128,0,185027:0:0:0:0:
64,192,185027,128,0,185170:0:0:0:0:
192,192,185027,128,0,185170:0:0:0:0:
448,192,185027,128,0,185170:0:0:0:0:
192,192,185241,128,0,185384:0:0:0:0:
64,192,185241,128,0,185384:0:0:0:0:
448,192,185241,128,0,185384:0:0:0:0:
192,192,185455,128,0,185670:0:0:0:0:
64,192,185455,128,0,185670:0:0:0:0:
448,192,185455,128,0,185670:0:0:0:0:
320,192,185741,1,0,0:0:0:0:
320,192,185884,1,0,0:0:0:0:
64,192,186027,128,0,186170:0:0:0:0:
192,192,186170,128,0,186384:0:0:0:0:
320,192,186170,128,0,186384:0:0:0:0:
448,192,186170,128,0,186384:0:0:0:0:
64,192,186455,1,0,0:0:0:0:
192,192,186598,128,0,186812:0:0:0:0:
320,192,186598,128,0,186812:0:0:0:0:
448,192,186598,128,0,186812:0:0:0:0:
64,192,186884,1,0,0:0:0:0:
64,192,187027,1,0,0:0:0:0:
448,192,187170,128,0,187312:0:0:0:0:
320,192,187312,128,0,187455:0:0:0:0:
192,192,187312,128,0,187455:0:0:0:0:
64,192,187312,128,0,187455:0:0:0:0:
64,192,187527,128,0,187670:0:0:0:0:
192,192,187527,128,0,187670:0:0:0:0:
320,192,187527,128,0,187670:0:0:0:0:
64,192,187741,128,0,187884:0:0:0:0:
192,192,187741,128,0,187884:0:0:0:0:
320,192,187741,128,0,187884:0:0:0:0:
64,192,187955,128,0,188098:0:0:0:0:
192,192,187955,128,0,188098:0:0:0:0:
320,192,187955,128,0,188098:0:0:0:0:
64,192,188170,128,0,188312:0:0:0:0:
192,192,188170,128,0,188312:0:0:0:0:
320,192,188170,128,0,188312:0:0:0:0:
320,192,188455,128,0,188670:0:0:0:0:
448,192,188455,128,0,188670:0:0:0:0:
64,192,188455,128,0,188670:0:0:0:0:
192,192,188741,1,0,0:0:0:0:
64,192,188884,128,0,189098:0:0:0:0:
320,192,188884,128,0,189098:0:0:0:0:
448,192,188884,128,0,189098:0:0:0:0:
192,192,189170,1,0,0:0:0:0:
192,192,189312,1,0,0:0:0:0:
448,192,189455,128,0,189598:0:0:0:0:
320,192,189598,128,0,189741:0:0:0:0:
192,192,189598,128,0,189741:0:0:0:0:
64,192,189598,128,0,189741:0:0:0:0:
64,192,189812,128,0,189955:0:0:0:0:
192,192,189812,128,0,189955:0:0:0:0:
320,192,189812,128,0,189955:0:0:0:0:
320,192,190027,128,0,190241:0:0:0:0:
192,192,190027,128,0,190241:0:0:0:0:
64,192,190027,128,0,190241:0:0:0:0:
448,192,190312,1,0,0:0:0:0:
448,192,190455,1,0,0:0:0:0:
192,192,190598,128,0,190741:0:0:0:0:
64,192,190741,128,0,190955:0:0:0:0:
448,192,190741,128,0,190955:0:0:0:0:
320,192,190741,128,0,190955:0:0:0:0:
192,192,191027,1,0,0:0:0:0:
64,192,191170,128,0,191384:0:0:0:0:
320,192,191170,128,0,191384:0:0:0:0:
448,192,191170,128,0,191384:0:0:0:0:
192,192,191455,1,0,0:0:0:0:
192,192,191598,1,0,0:0:0:0:
320,192,191741,128,0,191884:0:0:0:0:
64,192,191884,1,0,0:0:0:0:
448,192,191884,1,0,0:0:0:0:
64,192,192098,1,0,0:0:0:0:
448,192,192098,1,0,0:0:0:0:
64,192,192312,1,0,0:0:0:0:
448,192,192312,1,0,0:0:0:0:
64,192,192527,1,0,0:0:0:0:
448,192,192527,1,0,0:0:0:0:
64,192,192741,1,0,0:0:0:0:
448,192,192741,1,0,0:0:0:0:
448,192,193027,1,0,0:0:0:0:
320,192,193027,1,0,0:0:0:0:
64,192,193027,1,0,0:0:0:0:
192,192,193027,1,0,0:0:0:0:
192,192,193170,1,0,0:0:0:0:
320,192,193170,1,0,0:0:0:0:
448,192,193312,1,0,0:0:0:0:
64,192,193312,1,0,0:0:0:0:
320,192,193384,1,0,0:0:0:0:
192,192,193455,1,0,0:0:0:0:
448,192,193527,1,0,0:0:0:0:
64,192,193598,1,0,0:0:0:0:
192,192,193598,1,0,0:0:0:0:
320,192,193741,1,0,0:0:0:0:
448,192,193741,1,0,0:0:0:0:
64,192,193884,1,0,0:0:0:0:
192,192,193884,1,0,0:0:0:0:
448,192,193955,1,0,0:0:0:0:
192,192,194027,1,0,0:0:0:0:
320,192,194098,1,0,0:0:0:0:
64,192,194170,1,0,0:0:0:0:
448,192,194170,1,0,0:0:0:0:
192,192,194312,1,0,0:0:0:0:
320,192,194312,1,0,0:0:0:0:
64,192,194455,1,0,0:0:0:0:
448,192,194455,1,0,0:0:0:0:
192,192,194527,1,0,0:0:0:0:
320,192,194598,1,0,0:0:0:0:
64,192,194670,1,0,0:0:0:0:
448,192,194741,1,0,0:0:0:0:
320,192,194741,1,0,0:0:0:0:
192,192,194884,1,0,0:0:0:0:
64,192,194884,1,0,0:0:0:0:
320,192,195027,1,0,0:0:0:0:
448,192,195027,1,0,0:0:0:0:
64,192,195098,1,0,0:0:0:0:
320,192,195170,1,0,0:0:0:0:
192,192,195241,1,0,0:0:0:0:
448,192,195312,1,0,0:0:0:0:
64,192,195312,1,0,0:0:0:0:
320,192,195455,1,0,0:0:0:0:
192,192,195455,1,0,0:0:0:0:
448,192,195598,1,0,0:0:0:0:
64,192,195598,1,0,0:0:0:0:
320,192,195670,1,0,0:0:0:0:
448,192,195741,1,0,0:0:0:0:
192,192,195741,1,0,0:0:0:0:
64,192,195812,1,0,0:0:0:0:
320,192,195884,1,0,0:0:0:0:
448,192,195884,1,0,0:0:0:0:
192,192,196027,1,0,0:0:0:0:
64,192,196027,1,0,0:0:0:0:
320,192,196170,1,0,0:0:0:0:
448,192,196170,1,0,0:0:0:0:
64,192,196241,1,0,0:0:0:0:
320,192,196312,1,0,0:0:0:0:
192,192,196384,1,0,0:0:0:0:
64,192,196455,1,0,0:0:0:0:
448,192,196455,1,0,0:0:0:0:
64,192,196598,1,0,0:0:0:0:
192,192,196670,1,0,0:0:0:0:
448,192,196670,1,0,0:0:0:0:
320,192,196741,1,0,0:0:0:0:
192,192,196812,1,0,0:0:0:0:
64,192,196884,1,0,0:0:0:0:
320,192,196884,1,0,0:0:0:0:
448,192,196955,1,0,0:0:0:0:
192,192,197027,128,0,197312:0:0:0:0:
448,192,197098,1,0,0:0:0:0:
64,192,197098,1,0,0:0:0:0:
320,192,197170,128,0,197312:0:0:0:0:
64,192,197312,1,0,0:0:0:0:
448,192,197312,1,0,0:0:0:0:
192,192,197384,1,0,0:0:0:0:
320,192,197455,1,0,0:0:0:0:
192,192,197527,1,0,0:0:0:0:
64,192,197598,1,0,0:0:0:0:
448,192,197598,1,0,0:0:0:0:
320,192,197670,1,0,0:0:0:0:
192,192,197741,1,0,0:0:0:0:
64,192,197741,1,0,0:0:0:0:
320,192,197812,1,0,0:0:0:0:
448,192,197884,1,0,0:0:0:0:
64,192,197884,1,0,0:0:0:0:
192,192,197955,1,0,0:0:0:0:
448,192,198027,1,0,0:0:0:0:
320,192,198027,1,0,0:0:0:0:
192,192,198098,1,0,0:0:0:0:
448,192,198170,1,0,0:0:0:0:
64,192,198170,1,0,0:0:0:0:
320,192,198241,1,0,0:0:0:0:
192,192,198312,1,0,0:0:0:0:
64,192,198312,1,0,0:0:0:0:
320,192,198384,1,0,0:0:0:0:
64,192,198455,1,0,0:0:0:0:
448,192,198455,1,0,0:0:0:0:
192,192,198527,1,0,0:0:0:0:
448,192,198598,1,0,0:0:0:0:
320,192,198598,1,0,0:0:0:0:
192,192,198670,1,0,0:0:0:0:
64,192,198741,1,0,0:0:0:0:
448,192,198741,1,0,0:0:0:0:
192,192,198812,1,0,0:0:0:0:
320,192,198812,1,0,0:0:0:0:
64,192,198884,1,0,0:0:0:0:
448,192,198884,1,0,0:0:0:0:
320,192,198955,1,0,0:0:0:0:
192,192,198955,1,0,0:0:0:0:
64,192,199027,1,0,0:0:0:0:
448,192,199027,1,0,0:0:0:0:
192,192,199098,1,0,0:0:0:0:
320,192,199098,1,0,0:0:0:0:
64,192,199170,1,0,0:0:0:0:
448,192,199170,1,0,0:0:0:0:
320,192,199241,1,0,0:0:0:0:
192,192,199241,1,0,0:0:0:0:
64,192,199312,1,0,0:0:0:0:
448,192,199312,1,0,0:0:0:0:
320,192,199384,1,0,0:0:0:0:
192,192,199384,1,0,0:0:0:0:
64,192,199455,1,0,0:0:0:0:
448,192,199455,1,0,0:0:0:0:
320,192,199527,1,0,0:0:0:0:
192,192,199527,1,0,0:0:0:0:
64,192,199598,1,0,0:0:0:0:
448,192,199598,1,0,0:0:0:0:
192,192,199634,1,0,0:0:0:0:
320,192,199670,1,0,0:0:0:0:
448,192,199705,1,0,0:0:0:0:
64,192,199741,1,0,0:0:0:0:
192,192,199777,1,0,0:0:0:0:
320,192,199812,1,0,0:0:0:0:
448,192,199848,1,0,0:0:0:0:
192,192,199884,1,0,0:0:0:0:
64,192,199884,1,0,0:0:0:0:
448,192,200027,128,0,200170:0:0:0:0:
64,192,200170,128,0,200241:0:0:0:0:
448,192,200241,128,0,200312:0:0:0:0:
192,192,200312,128,0,200384:0:0:0:0:
320,192,200384,128,0,200455:0:0:0:0:
64,192,200455,128,0,200598:0:0:0:0:
320,192,200598,128,0,200741:0:0:0:0:
192,192,200741,128,0,200884:0:0:0:0:
448,192,200884,128,0,201027:0:0:0:0:
64,192,201027,128,0,201170:0:0:0:0:
448,192,201098,1,0,0:0:0:0:
320,192,201170,128,0,201312:0:0:0:0:
64,192,201241,1,0,0:0:0:0:
192,192,201312,128,0,201455:0:0:0:0:
448,192,201455,128,0,201598:0:0:0:0:
192,192,201527,1,0,0:0:0:0:
64,192,201598,128,0,201741:0:0:0:0:
320,192,201741,1,0,0:0:0:0:
192,192,201812,1,0,0:0:0:0:
64,192,201884,1,0,0:0:0:0:
448,192,201884,1,0,0:0:0:0:
320,192,201955,1,0,0:0:0:0:
192,192,202027,1,0,0:0:0:0:
320,192,202098,1,0,0:0:0:0:
192,192,202170,5,0,0:0:0:0:
64,192,202170,1,0,0:0:0:0:
448,192,202170,1,0,0:0:0:0:
192,192,202312,1,0,0:0:0:0:
320,192,202312,1,0,0:0:0:0:
64,192,202455,1,0,0:0:0:0:
448,192,202455,1,0,0:0:0:0:
192,192,202527,1,0,0:0:0:0:
320,192,202598,1,0,0:0:0:0:
64,192,202670,1,0,0:0:0:0:
320,192,202741,128,0,203027:0:0:0:0:
448,192,202741,1,0,0:0:0:0:
64,192,202884,128,0,203027:0:0:0:0:
192,192,203027,1,0,0:0:0:0:
448,192,203027,1,0,0:0:0:0:
192,192,203170,128,0,203312:0:0:0:0:
320,192,203312,128,0,203527:0:0:0:0:
64,192,203312,1,0,0:0:0:0:
448,192,203312,1,0,0:0:0:0:
64,192,203455,128,0,203741:0:0:0:0:
192,192,203598,1,0,0:0:0:0:
320,192,203598,1,0,0:0:0:0:
448,192,203598,128,0,203812:0:0:0:0:
192,192,203741,128,0,203884:0:0:0:0:
64,192,203884,1,0,0:0:0:0:
448,192,203884,1,0,0:0:0:0:
320,192,203884,128,0,204170:0:0:0:0:
64,192,204027,128,0,204170:0:0:0:0:
448,192,204170,1,0,0:0:0:0:
192,192,204170,128,0,204455:0:0:0:0:
448,192,204312,128,0,204455:0:0:0:0:
320,192,204455,1,0,0:0:0:0:
64,192,204455,128,0,204670:0:0:0:0:
320,192,204598,128,0,204741:0:0:0:0:
448,192,204598,128,0,204741:0:0:0:0:
192,192,204741,1,0,0:0:0:0:
64,192,204741,1,0,0:0:0:0:
448,192,204812,1,0,0:0:0:0:
192,192,204884,1,0,0:0:0:0:
320,192,204955,1,0,0:0:0:0:
64,192,205027,1,0,0:0:0:0:
448,192,205027,128,0,205241:0:0:0:0:
192,192,205170,128,0,205312:0:0:0:0:
448,192,205312,1,0,0:0:0:0:
320,192,205312,1,0,0:0:0:0:
64,192,205312,128,0,205527:0:0:0:0:
320,192,205455,128,0,205598:0:0:0:0:
192,192,205598,128,0,205812:0:0:0:0:
448,192,205598,1,0,0:0:0:0:
64,192,205598,1,0,0:0:0:0:
448,192,205741,128,0,205884:0:0:0:0:
192,192,205884,1,0,0:0:0:0:
64,192,205884,1,0,0:0:0:0:
320,192,205884,128,0,206098:0:0:0:0:
64,192,206027,128,0,206312:0:0:0:0:
448,192,206170,128,0,206455:0:0:0:0:
192,192,206170,1,0,0:0:0:0:
320,192,206170,1,0,0:0:0:0:
192,192,206312,128,0,206455:0:0:0:0:
64,192,206455,128,0,206741:0:0:0:0:
320,192,206455,128,0,206598:0:0:0:0:
448,192,206598,128,0,206741:0:0:0:0:
320,192,206741,1,0,0:0:0:0:
192,192,206741,1,0,0:0:0:0:
448,192,206884,1,0,0:0:0:0:
320,192,206884,1,0,0:0:0:0:
192,192,207027,1,0,0:0:0:0:
64,192,207027,1,0,0:0:0:0:
448,192,207098,1,0,0:0:0:0:
192,192,207170,1,0,0:0:0:0:
320,192,207241,1,0,0:0:0:0:
448,192,207312,128,0,207598:0:0:0:0:
64,192,207312,1,0,0:0:0:0:
192,192,207455,128,0,207598:0:0:0:0:
64,192,207598,1,0,0:0:0:0:
320,192,207598,1,0,0:0:0:0:
320,192,207741,128,0,207884:0:0:0:0:
448,192,207884,1,0,0:0:0:0:
64,192,207884,1,0,0:0:0:0:
192,192,207884,128,0,208098:0:0:0:0:
448,192,208027,128,0,208170:0:0:0:0:
192,192,208170,1,0,0:0:0:0:
320,192,208170,1,0,0:0:0:0:
64,192,208170,128,0,208384:0:0:0:0:
320,192,208312,128,0,208455:0:0:0:0:
192,192,208455,1,0,0:0:0:0:
64,192,208455,1,0,0:0:0:0:
448,192,208455,128,0,208670:0:0:0:0:
192,192,208598,128,0,208741:0:0:0:0:
64,192,208741,128,0,208955:0:0:0:0:
320,192,208741,1,0,0:0:0:0:
448,192,208741,1,0,0:0:0:0:
320,192,208884,128,0,209027:0:0:0:0:
448,192,209027,1,0,0:0:0:0:
192,192,209027,1,0,0:0:0:0:
64,192,209027,1,0,0:0:0:0:
320,192,209170,1,0,0:0:0:0:
192,192,209170,1,0,0:0:0:0:
64,192,209312,1,0,0:0:0:0:
448,192,209312,1,0,0:0:0:0:
320,192,209384,1,0,0:0:0:0:
192,192,209455,1,0,0:0:0:0:
448,192,209527,1,0,0:0:0:0:
192,192,209598,1,0,0:0:0:0:
64,192,209598,1,0,0:0:0:0:
320,192,209741,1,0,0:0:0:0:
64,192,209741,1,0,0:0:0:0:
320,192,209884,1,0,0:0:0:0:
192,192,209884,1,0,0:0:0:0:
192,192,210027,1,0,0:0:0:0:
448,192,210027,1,0,0:0:0:0:
320,192,210170,1,0,0:0:0:0:
448,192,210170,1,0,0:0:0:0:
64,192,210170,128,0,210384:0:0:0:0:
320,192,210312,128,0,210455:0:0:0:0:
192,192,210455,1,0,0:0:0:0:
64,192,210455,1,0,0:0:0:0:
448,192,210455,128,0,210670:0:0:0:0:
192,192,210598,128,0,210741:0:0:0:0:
320,192,210741,1,0,0:0:0:0:
64,192,210741,128,0,210884:0:0:0:0:
448,192,210741,128,0,210884:0:0:0:0:
192,192,210884,1,0,0:0:0:0:
320,192,210955,1,0,0:0:0:0:
448,192,211027,1,0,0:0:0:0:
64,192,211027,1,0,0:0:0:0:
192,192,211098,1,0,0:0:0:0:
320,192,211170,1,0,0:0:0:0:
448,192,211241,1,0,0:0:0:0:
192,192,211312,1,0,0:0:0:0:
64,192,211312,1,0,0:0:0:0:
320,192,211312,1,0,0:0:0:0:
192,192,211455,1,0,0:0:0:0:
64,192,211455,1,0,0:0:0:0:
320,192,211455,1,0,0:0:0:0:
320,192,211598,1,0,0:0:0:0:
448,192,211598,1,0,0:0:0:0:
64,192,211670,1,0,0:0:0:0:
320,192,211741,1,0,0:0:0:0:
192,192,211812,1,0,0:0:0:0:
448,192,211884,1,0,0:0:0:0:
64,192,211884,128,0,212170:0:0:0:0:
448,192,212027,128,0,212170:0:0:0:0:
192,192,212170,1,0,0:0:0:0:
320,192,212170,1,0,0:0:0:0:
192,192,212312,128,0,212598:0:0:0:0:
448,192,212455,128,0,212670:0:0:0:0:
320,192,212455,1,0,0:0:0:0:
64,192,212455,1,0,0:0:0:0:
64,192,212598,128,0,212884:0:0:0:0:
320,192,212741,128,0,212884:0:0:0:0:
192,192,212741,1,0,0:0:0:0:
448,192,212741,1,0,0:0:0:0:
448,192,212884,128,0,213170:0:0:0:0:
192,192,213027,128,0,213170:0:0:0:0:
320,192,213027,1,0,0:0:0:0:
64,192,213027,1,0,0:0:0:0:
320,192,213170,128,0,213455:0:0:0:0:
192,192,213312,1,0,0:0:0:0:
448,192,213312,1,0,0:0:0:0:
64,192,213312,128,0,213527:0:0:0:0:
448,192,213455,128,0,213741:0:0:0:0:
320,192,213598,1,0,0:0:0:0:
192,192,213598,128,0,213741:0:0:0:0:
64,192,213598,1,0,0:0:0:0:
64,192,213741,128,0,213884:0:0:0:0:
320,192,213741,128,0,213884:0:0:0:0:
192,192,213884,1,0,0:0:0:0:
448,192,213884,1,0,0:0:0:0:
320,192,213955,1,0,0:0:0:0:
64,192,214027,1,0,0:0:0:0:
192,192,214098,1,0,0:0:0:0:
448,192,214170,1,0,0:0:0:0:
320,192,214170,128,0,214455:0:0:0:0:
192,192,214312,128,0,214455:0:0:0:0:
448,192,214455,1,0,0:0:0:0:
64,192,214455,1,0,0:0:0:0:
192,192,214598,1,0,0:0:0:0:
320,192,214598,1,0,0:0:0:0:
64,192,214741,128,0,214884:0:0:0:0:
448,192,214741,128,0,214884:0:0:0:0:
320,192,214884,1,0,0:0:0:0:
192,192,214884,1,0,0:0:0:0:
448,192,215027,1,0,0:0:0:0:
64,192,215027,1,0,0:0:0:0:
320,192,215170,1,0,0:0:0:0:
192,192,215170,1,0,0:0:0:0:
64,192,215312,1,0,0:0:0:0:
448,192,215312,1,0,0:0:0:0:
64,192,215455,1,0,0:0:0:0:
448,192,215455,1,0,0:0:0:0:
192,192,215598,128,0,215812:0:0:0:0:
448,192,215741,128,0,215884:0:0:0:0:
192,192,215884,1,0,0:0:0:0:
320,192,215884,1,0,0:0:0:0:
64,192,215884,128,0,216098:0:0:0:0:
320,192,216027,128,0,216170:0:0:0:0:
64,192,216170,128,0,216241:0:0:0:0:
320,192,216241,128,0,216312:0:0:0:0:
448,192,216312,1,0,0:0:0:0:
64,192,216312,1,0,0:0:0:0:
192,192,216312,128,0,216384:0:0:0:0:
448,192,216384,128,0,216527:0:0:0:0:
192,192,216455,128,0,216598:0:0:0:0:
448,192,216598,128,0,216741:0:0:0:0:
320,192,216741,1,0,0:0:0:0:
192,192,216741,1,0,0:0:0:0:
64,192,216741,128,0,216884:0:0:0:0:
320,192,216884,128,0,217027:0:0:0:0:
192,192,217027,128,0,217241:0:0:0:0:
64,192,217027,1,0,0:0:0:0:
448,192,217027,1,0,0:0:0:0:
448,192,217170,128,0,217312:0:0:0:0:
192,192,217312,128,0,217384:0:0:0:0:
448,192,217384,128,0,217455:0:0:0:0:
64,192,217455,128,0,217527:0:0:0:0:
192,192,217455,1,0,0:0:0:0:
320,192,217455,1,0,0:0:0:0:
320,192,217527,128,0,217670:0:0:0:0:
64,192,217598,128,0,217741:0:0:0:0:
320,192,217741,128,0,217884:0:0:0:0:
192,192,217884,1,0,0:0:0:0:
448,192,217884,1,0,0:0:0:0:
64,192,217884,1,0,0:0:0:0:
64,192,218027,1,0,0:0:0:0:
448,192,218027,1,0,0:0:0:0:
192,192,218027,1,0,0:0:0:0:
192,192,218170,1,0,0:0:0:0:
448,192,218170,1,0,0:0:0:0:
64,192,218170,1,0,0:0:0:0:
320,192,218312,1,0,0:0:0:0:
192,192,218455,1,0,0:0:0:0:
320,192,218598,1,0,0:0:0:0:
192,192,218741,1,0,0:0:0:0:
320,192,218884,1,0,0:0:0:0:
192,192,218955,1,0,0:0:0:0:
320,192,219027,1,0,0:0:0:0:
192,192,219098,1,0,0:0:0:0:
320,192,219170,1,0,0:0:0:0:
192,192,219241,1,0,0:0:0:0:
448,192,219312,128,0,219527:0:0:0:0:
320,192,219312,128,0,219670:0:0:0:0:
64,192,219312,128,0,219741:0:0:0:0:
192,192,219455,128,0,219598:0:0:0:0:
448,192,219598,128,0,219812:0:0:0:0:
192,192,219670,128,0,219955:0:0:0:0:
320,192,219741,128,0,220170:0:0:0:0:
64,192,219812,128,0,220384:0:0:0:0:
448,192,219884,128,0,220098:0:0:0:0:
192,192,220027,128,0,220384:0:0:0:0:
448,192,220170,128,0,220241:0:0:0:0:
320,192,220241,128,0,220312:0:0:0:0:
448,192,220312,128,0,220384:0:0:0:0:
320,192,220384,128,0,220455:0:0:0:0:
192,192,220455,1,0,0:0:0:0:
64,192,220455,1,0,0:0:0:0:
448,192,220455,1,0,0:0:0:0:
192,192,220598,1,0,0:0:0:0:
448,192,220598,1,0,0:0:0:0:
64,192,220598,1,0,0:0:0:0:
320,192,220741,1,0,0:0:0:0:
448,192,220741,1,0,0:0:0:0:
64,192,220812,1,0,0:0:0:0:
320,192,220884,1,0,0:0:0:0:
192,192,220955,1,0,0:0:0:0:
448,192,221027,1,0,0:0:0:0:
64,192,221027,128,0,221312:0:0:0:0:
320,192,221170,128,0,221312:0:0:0:0:
192,192,221312,1,0,0:0:0:0:
448,192,221312,1,0,0:0:0:0:
448,192,221455,128,0,221598:0:0:0:0:
320,192,221598,1,0,0:0:0:0:
64,192,221598,1,0,0:0:0:0:
192,192,221598,1,0,0:0:0:0:
448,192,221741,1,0,0:0:0:0:
192,192,221741,1,0,0:0:0:0:
448,192,221884,1,0,0:0:0:0:
320,192,221884,1,0,0:0:0:0:
64,192,221884,1,0,0:0:0:0:
320,192,222027,1,0,0:0:0:0:
192,192,222027,1,0,0:0:0:0:
64,192,222170,1,0,0:0:0:0:
192,192,222170,1,0,0:0:0:0:
448,192,222170,1,0,0:0:0:0:
64,192,222312,1,0,0:0:0:0:
320,192,222312,1,0,0:0:0:0:
192,192,222455,1,0,0:0:0:0:
448,192,222455,1,0,0:0:0:0:
320,192,222455,1,0,0:0:0:0:
64,192,222598,1,0,0:0:0:0:
192,192,222598,1,0,0:0:0:0:
320,192,222741,1,0,0:0:0:0:
448,192,222741,1,0,0:0:0:0:
64,192,222741,128,0,223027:0:0:0:0:
448,192,222884,128,0,223027:0:0:0:0:
192,192,223027,1,0,0:0:0:0:
320,192,223027,1,0,0:0:0:0:
448,192,223098,1,0,0:0:0:0:
192,192,223170,1,0,0:0:0:0:
320,192,223241,1,0,0:0:0:0:
64,192,223312,1,0,0:0:0:0:
448,192,223312,128,0,223741:0:0:0:0:
192,192,223455,128,0,223741:0:0:0:0:
320,192,223598,1,0,0:0:0:0:
64,192,223598,128,0,223884:0:0:0:0:
320,192,223741,128,0,223884:0:0:0:0:
448,192,223884,1,0,0:0:0:0:
192,192,223884,1,0,0:0:0:0:
448,192,224027,1,0,0:0:0:0:
192,192,224027,1,0,0:0:0:0:
64,192,224170,1,0,0:0:0:0:
320,192,224170,1,0,0:0:0:0:
448,192,224170,1,0,0:0:0:0:
192,192,224312,1,0,0:0:0:0:
320,192,224312,1,0,0:0:0:0:
448,192,224455,1,0,0:0:0:0:
192,192,224455,1,0,0:0:0:0:
64,192,224455,1,0,0:0:0:0:
320,192,224598,1,0,0:0:0:0:
64,192,224598,1,0,0:0:0:0:
192,192,224741,128,0,225027:0:0:0:0:
448,192,224741,1,0,0:0:0:0:
448,192,224884,128,0,225027:0:0:0:0:
64,192,225027,1,0,0:0:0:0:
320,192,225027,128,0,225312:0:0:0:0:
64,192,225170,128,0,225312:0:0:0:0:
192,192,225312,1,0,0:0:0:0:
448,192,225312,1,0,0:0:0:0:
64,192,225384,1,0,0:0:0:0:
320,192,225455,1,0,0:0:0:0:
192,192,225527,1,0,0:0:0:0:
448,192,225598,1,0,0:0:0:0:
64,192,225598,128,0,225884:0:0:0:0:
448,192,225741,128,0,225884:0:0:0:0:
192,192,225884,1,0,0:0:0:0:
320,192,225884,1,0,0:0:0:0:
192,192,226027,128,0,226170:0:0:0:0:
320,192,226170,1,0,0:0:0:0:
448,192,226170,1,0,0:0:0:0:
64,192,226170,1,0,0:0:0:0:
192,192,226312,1,0,0:0:0:0:
320,192,226312,1,0,0:0:0:0:
192,192,226455,1,0,0:0:0:0:
64,192,226455,1,0,0:0:0:0:
448,192,226455,1,0,0:0:0:0:
320,192,226598,1,0,0:0:0:0:
64,192,226598,1,0,0:0:0:0:
192,192,226741,1,0,0:0:0:0:
448,192,226741,1,0,0:0:0:0:
320,192,226741,1,0,0:0:0:0:
64,192,226884,1,0,0:0:0:0:
192,192,226884,1,0,0:0:0:0:
64,192,227027,1,0,0:0:0:0:
320,192,227027,1,0,0:0:0:0:
448,192,227027,1,0,0:0:0:0:
192,192,227170,1,0,0:0:0:0:
320,192,227170,1,0,0:0:0:0:
192,192,227312,1,0,0:0:0:0:
64,192,227312,1,0,0:0:0:0:
448,192,227312,1,0,0:0:0:0:
320,192,227312,1,0,0:0:0:0:
64,192,227455,1,0,0:0:0:0:
192,192,227455,1,0,0:0:0:0:
320,192,227455,1,0,0:0:0:0:
448,192,227455,1,0,0:0:0:0:
64,192,227741,1,0,0:0:0:0:
192,192,227741,1,0,0:0:0:0:
448,192,227741,1,0,0:0:0:0:
320,192,227741,1,0,0:0:0:0:
64,192,227884,1,0,0:0:0:0:
192,192,227884,1,0,0:0:0:0:
320,192,227884,1,0,0:0:0:0:
448,192,227884,1,0,0:0:0:0:
64,192,228170,1,0,0:0:0:0:
192,192,228170,1,0,0:0:0:0:
320,192,228170,1,0,0:0:0:0:
448,192,228170,1,0,0:0:0:0:
192,192,228312,1,0,0:0:0:0:
64,192,228312,1,0,0:0:0:0:
320,192,228384,1,0,0:0:0:0:
448,192,228384,1,0,0:0:0:0:
192,192,228455,1,0,0:0:0:0:
64,192,228455,1,0,0:0:0:0:
320,192,228598,1,0,0:0:0:0:
448,192,228598,1,0,0:0:0:0:
192,192,228670,1,0,0:0:0:0:
64,192,228670,1,0,0:0:0:0:
320,192,228741,1,0,0:0:0:0:
448,192,228741,1,0,0:0:0:0:
192,192,228884,1,0,0:0:0:0:
64,192,228884,1,0,0:0:0:0:
448,192,228955,1,0,0:0:0:0:
320,192,228955,1,0,0:0:0:0:
192,192,229027,1,0,0:0:0:0:
64,192,229027,1,0,0:0:0:0:
64,192,229170,1,0,0:0:0:0:
192,192,229170,1,0,0:0:0:0:
320,192,229170,1,0,0:0:0:0:
448,192,229170,1,0,0:0:0:0:
320,192,229598,128,0,229812:0:0:0:0:
448,192,229598,128,0,229812:0:0:0:0:
64,192,229598,128,0,229812:0:0:0:0:
64,192,229884,1,0,0:0:0:0:
320,192,229884,1,0,0:0:0:0:
448,192,229884,1,0,0:0:0:0:
192,192,229955,1,0,0:0:0:0:
448,192,230027,1,0,0:0:0:0:
320,192,230098,1,0,0:0:0:0:
192,192,230170,1,0,0:0:0:0:
64,192,230170,1,0,0:0:0:0:
320,192,230312,1,0,0:0:0:0:
448,192,230455,1,0,0:0:0:0:
64,192,230455,1,0,0:0:0:0:
192,192,230598,128,0,230884:0:0:0:0:
448,192,230741,128,0,230955:0:0:0:0:
320,192,230741,1,0,0:0:0:0:
64,192,230741,1,0,0:0:0:0:
64,192,230884,128,0,231170:0:0:0:0:
320,192,231027,128,0,231170:0:0:0:0:
192,192,231027,1,0,0:0:0:0:
448,192,231027,1,0,0:0:0:0:
448,192,231170,128,0,231455:0:0:0:0:
192,192,231312,128,0,231455:0:0:0:0:
320,192,231312,1,0,0:0:0:0:
64,192,231312,1,0,0:0:0:0:
320,192,231455,128,0,231884:0:0:0:0:
64,192,231598,128,0,231812:0:0:0:0:
192,192,231598,1,0,0:0:0:0:
448,192,231598,1,0,0:0:0:0:
192,192,231741,1,0,0:0:0:0:
448,192,231741,1,0,0:0:0:0:
192,192,231884,128,0,232098:0:0:0:0:
64,192,231884,128,0,232098:0:0:0:0:
448,192,231884,128,0,232098:0:0:0:0:
448,192,232170,1,0,0:0:0:0:
192,192,232170,1,0,0:0:0:0:
64,192,232170,1,0,0:0:0:0:
320,192,232241,1,0,0:0:0:0:
64,192,232312,1,0,0:0:0:0:
192,192,232384,1,0,0:0:0:0:
448,192,232455,1,0,0:0:0:0:
320,192,232455,128,0,232598:0:0:0:0:
64,192,232598,128,0,232741:0:0:0:0:
192,192,232741,1,0,0:0:0:0:
320,192,232741,1,0,0:0:0:0:
448,192,232741,128,0,232884:0:0:0:0:
192,192,232884,128,0,233027:0:0:0:0:
448,192,233027,1,0,0:0:0:0:
64,192,233027,1,0,0:0:0:0:
320,192,233027,1,0,0:0:0:0:
64,192,233241,1,0,0:0:0:0:
320,192,233241,1,0,0:0:0:0:
192,192,233241,1,0,0:0:0:0:
448,192,233241,1,0,0:0:0:0:
64,192,233455,1,0,0:0:0:0:
192,192,233455,1,0,0:0:0:0:
320,192,233455,1,0,0:0:0:0:
448,192,233455,1,0,0:0:0:0:
64,192,233670,1,0,0:0:0:0:
192,192,233670,1,0,0:0:0:0:
320,192,233670,1,0,0:0:0:0:
448,192,233670,1,0,0:0:0:0:
320,192,234170,1,0,0:0:0:0:
448,192,234170,1,0,0:0:0:0:
192,192,234170,1,0,0:0:0:0:
64,192,234241,1,0,0:0:0:0:
192,192,234312,1,0,0:0:0:0:
320,192,234384,1,0,0:0:0:0:
64,192,234455,1,0,0:0:0:0:
448,192,234455,1,0,0:0:0:0:
192,192,234527,1,0,0:0:0:0:
320,192,234598,1,0,0:0:0:0:
192,192,234670,1,0,0:0:0:0:
64,192,234741,1,0,0:0:0:0:
448,192,234741,1,0,0:0:0:0:
320,192,234812,1,0,0:0:0:0:
192,192,234884,1,0,0:0:0:0:
320,192,234955,1,0,0:0:0:0:
64,192,235027,1,0,0:0:0:0:
448,192,235027,1,0,0:0:0:0:
192,192,235098,1,0,0:0:0:0:
320,192,235170,1,0,0:0:0:0:
448,192,235241,1,0,0:0:0:0:
192,192,235312,1,0,0:0:0:0:
320,192,235312,1,0,0:0:0:0:
64,192,235384,1,0,0:0:0:0:
320,192,235455,1,0,0:0:0:0:
192,192,235527,1,0,0:0:0:0:
64,192,235598,1,0,0:0:0:0:
448,192,235598,1,0,0:0:0:0:
320,192,235670,1,0,0:0:0:0:
192,192,235741,1,0,0:0:0:0:
320,192,235812,1,0,0:0:0:0:
64,192,235884,1,0,0:0:0:0:
448,192,235884,1,0,0:0:0:0:
192,192,235955,1,0,0:0:0:0:
320,192,236027,1,0,0:0:0:0:
192,192,236098,1,0,0:0:0:0:
64,192,236170,1,0,0:0:0:0:
448,192,236170,1,0,0:0:0:0:
320,192,236241,1,0,0:0:0:0:
192,192,236312,1,0,0:0:0:0:
64,192,236384,1,0,0:0:0:0:
320,192,236455,1,0,0:0:0:0:
192,192,236455,1,0,0:0:0:0:
448,192,236455,1,0,0:0:0:0:
64,192,236527,1,0,0:0:0:0:
448,192,236598,1,0,0:0:0:0:
192,192,236670,1,0,0:0:0:0:
448,192,236741,1,0,0:0:0:0:
320,192,236812,1,0,0:0:0:0:
192,192,236884,1,0,0:0:0:0:
64,192,236955,1,0,0:0:0:0:
320,192,237027,1,0,0:0:0:0:
64,192,237098,1,0,0:0:0:0:
448,192,237170,1,0,0:0:0:0:
64,192,237241,1,0,0:0:0:0:
448,192,237312,1,0,0:0:0:0:
320,192,237348,1,0,0:0:0:0:
64,192,237384,1,0,0:0:0:0:
192,192,237420,1,0,0:0:0:0:
320,192,237455,1,0,0:0:0:0:
448,192,237491,1,0,0:0:0:0:
192,192,237527,1,0,0:0:0:0:
64,192,237562,1,0,0:0:0:0:
320,192,237598,1,0,0:0:0:0:
448,192,237598,1,0,0:0:0:0:
192,192,237741,128,0,238241:0:0:0:0:
448,192,237884,128,0,238098:0:0:0:0:
64,192,237955,128,0,238027:0:0:0:0:
320,192,238027,128,0,238384:0:0:0:0:
64,192,238098,128,0,238312:0:0:0:0:
448,192,238170,128,0,238527:0:0:0:0:
192,192,238312,128,0,238455:0:0:0:0:
64,192,238384,128,0,238670:0:0:0:0:
320,192,238455,128,0,238598:0:0:0:0:
192,192,238527,128,0,238670:0:0:0:0:
448,192,238598,128,0,238670:0:0:0:0:
320,192,238670,128,0,238741:0:0:0:0:
192,192,238741,128,0,239098:0:0:0:0:
64,192,238741,128,0,239098:0:0:0:0:
448,192,238741,128,0,239098:0:0:0:0:
448,192,239170,1,0,0:0:0:0:
192,192,239170,1,0,0:0:0:0:
64,192,239170,1,0,0:0:0:0:
448,192,239312,1,0,0:0:0:0:
192,192,239312,1,0,0:0:0:0:
64,192,239312,1,0,0:0:0:0:
320,192,239455,1,0,0:0:0:0:
448,192,239455,1,0,0:0:0:0:
192,192,239527,1,0,0:0:0:0:
64,192,239527,1,0,0:0:0:0:
320,192,239670,1,0,0:0:0:0:
448,192,239670,1,0,0:0:0:0:
64,192,239741,1,0,0:0:0:0:
192,192,239741,1,0,0:0:0:0:
64,192,239884,1,0,0:0:0:0:
448,192,239884,1,0,0:0:0:0:
320,192,239955,1,0,0:0:0:0:
192,192,239955,1,0,0:0:0:0:
64,192,240098,1,0,0:0:0:0:
448,192,240098,1,0,0:0:0:0:
320,192,240170,1,0,0:0:0:0:
192,192,240170,1,0,0:0:0:0:
192,192,240312,1,0,0:0:0:0:
320,192,240312,1,0,0:0:0:0:
448,192,240384,1,0,0:0:0:0:
64,192,240384,1,0,0:0:0:0:
192,192,240527,1,0,0:0:0:0:
320,192,240527,1,0,0:0:0:0:
448,192,240598,1,0,0:0:0:0:
64,192,240598,1,0,0:0:0:0:
192,192,240741,128,0,241027:0:0:0:0:
64,192,241027,128,0,241384:0:0:0:0:
448,192,241027,128,0,241384:0:0:0:0:
320,192,241027,128,0,241384:0:0:0:0:
320,192,241455,1,0,0:0:0:0:
448,192,241455,1,0,0:0:0:0:
64,192,241455,1,0,0:0:0:0:
192,192,241527,1,0,0:0:0:0:
320,192,241598,1,0,0:0:0:0:
448,192,241598,1,0,0:0:0:0:
64,192,241598,1,0,0:0:0:0:
192,192,241741,1,0,0:0:0:0:
320,192,241741,1,0,0:0:0:0:
448,192,241812,1,0,0:0:0:0:
64,192,241812,1,0,0:0:0:0:
320,192,241955,1,0,0:0:0:0:
192,192,241955,1,0,0:0:0:0:
448,192,242027,1,0,0:0:0:0:
64,192,242027,1,0,0:0:0:0:
192,192,242170,1,0,0:0:0:0:
64,192,242170,1,0,0:0:0:0:
320,192,242241,1,0,0:0:0:0:
448,192,242241,1,0,0:0:0:0:
192,192,242384,1,0,0:0:0:0:
64,192,242384,1,0,0:0:0:0:
320,192,242455,1,0,0:0:0:0:
448,192,242455,1,0,0:0:0:0:
320,192,242598,1,0,0:0:0:0:
448,192,242598,1,0,0:0:0:0:
192,192,242670,1,0,0:0:0:0:
64,192,242670,1,0,0:0:0:0:
320,192,242812,1,0,0:0:0:0:
448,192,242812,1,0,0:0:0:0:
192,192,242884,1,0,0:0:0:0:
64,192,242884,1,0,0:0:0:0:
320,192,243027,128,0,243312:0:0:0:0:
64,192,243170,1,0,0:0:0:0:
448,192,243170,1,0,0:0:0:0:
192,192,243312,128,0,243670:0:0:0:0:
64,192,243312,128,0,243670:0:0:0:0:
448,192,243312,128,0,243670:0:0:0:0:
448,192,243741,1,0,0:0:0:0:
192,192,243741,1,0,0:0:0:0:
64,192,243741,1,0,0:0:0:0:
448,192,243884,1,0,0:0:0:0:
64,192,243884,1,0,0:0:0:0:
192,192,243884,1,0,0:0:0:0:
320,192,244027,1,0,0:0:0:0:
64,192,244027,1,0,0:0:0:0:
192,192,244098,1,0,0:0:0:0:
448,192,244098,1,0,0:0:0:0:
320,192,244241,1,0,0:0:0:0:
64,192,244241,1,0,0:0:0:0:
192,192,244312,1,0,0:0:0:0:
448,192,244312,1,0,0:0:0:0:
320,192,244455,1,0,0:0:0:0:
192,192,244455,1,0,0:0:0:0:
448,192,244527,1,0,0:0:0:0:
64,192,244527,1,0,0:0:0:0:
320,192,244670,1,0,0:0:0:0:
192,192,244670,1,0,0:0:0:0:
448,192,244741,1,0,0:0:0:0:
64,192,244741,1,0,0:0:0:0:
64,192,244884,1,0,0:0:0:0:
448,192,244884,1,0,0:0:0:0:
320,192,244955,1,0,0:0:0:0:
192,192,244955,1,0,0:0:0:0:
448,192,245098,1,0,0:0:0:0:
64,192,245098,1,0,0:0:0:0:
192,192,245170,1,0,0:0:0:0:
320,192,245170,1,0,0:0:0:0:
320,192,245312,128,0,245598:0:0:0:0:
64,192,245598,128,0,245955:0:0:0:0:
192,192,245598,128,0,245955:0:0:0:0:
448,192,245598,128,0,245955:0:0:0:0:
448,192,246027,1,0,0:0:0:0:
64,192,246027,1,0,0:0:0:0:
192,192,246027,1,0,0:0:0:0:
320,192,246098,1,0,0:0:0:0:
192,192,246170,1,0,0:0:0:0:
64,192,246170,1,0,0:0:0:0:
448,192,246170,1,0,0:0:0:0:
320,192,246312,1,0,0:0:0:0:
448,192,246312,1,0,0:0:0:0:
192,192,246384,1,0,0:0:0:0:
64,192,246384,1,0,0:0:0:0:
320,192,246527,1,0,0:0:0:0:
448,192,246527,1,0,0:0:0:0:
192,192,246598,1,0,0:0:0:0:
64,192,246598,1,0,0:0:0:0:
448,192,246741,1,0,0:0:0:0:
64,192,246741,1,0,0:0:0:0:
64,192,246812,128,0,247098:0:0:0:0:
448,192,246812,128,0,247170:0:0:0:0:
192,192,246955,1,0,0:0:0:0:
320,192,246955,1,0,0:0:0:0:
192,192,247027,128,0,247098:0:0:0:0:
320,192,247027,128,0,247170:0:0:0:0:
64,192,247170,1,0,0:0:0:0:
192,192,247170,1,0,0:0:0:0:
320,192,247241,1,0,0:0:0:0:
448,192,247241,1,0,0:0:0:0:
448,192,247312,1,0,0:0:0:0:
192,192,247312,1,0,0:0:0:0:
64,192,247312,1,0,0:0:0:0:
320,192,247312,1,0,0:0:0:0:
448,192,247884,128,0,248241:0:0:0:0:
320,192,247884,128,0,248241:0:0:0:0:
192,192,247884,128,0,248241:0:0:0:0:
64,192,247884,128,0,248241:0:0:0:0:
448,192,248312,1,0,0:0:0:0:
320,192,248312,1,0,0:0:0:0:
192,192,248312,1,0,0:0:0:0:
64,192,248312,1,0,0:0:0:0:
448,192,248455,1,0,0:0:0:0:
320,192,248455,1,0,0:0:0:0:
192,192,248455,1,0,0:0:0:0:
64,192,248455,1,0,0:0:0:0:
64,192,248598,1,0,0:0:0:0:
448,192,248670,1,0,0:0:0:0:
320,192,248670,1,0,0:0:0:0:
192,192,248670,1,0,0:0:0:0:
320,192,248812,1,0,0:0:0:0:
192,192,248884,1,0,0:0:0:0:
64,192,248884,1,0,0:0:0:0:
448,192,248884,1,0,0:0:0:0:
192,192,249027,1,0,0:0:0:0:
320,192,249098,1,0,0:0:0:0:
64,192,249098,1,0,0:0:0:0:
448,192,249098,1,0,0:0:0:0:
448,192,249241,1,0,0:0:0:0:
320,192,249312,1,0,0:0:0:0:
192,192,249312,1,0,0:0:0:0:
64,192,249312,1,0,0:0:0:0:
192,192,249455,1,0,0:0:0:0:
320,192,249527,1,0,0:0:0:0:
448,192,249527,1,0,0:0:0:0:
64,192,249527,1,0,0:0:0:0:
320,192,249670,1,0,0:0:0:0:
448,192,249741,1,0,0:0:0:0:
192,192,249741,1,0,0:0:0:0:
64,192,249741,1,0,0:0:0:0:
192,192,249884,128,0,250527:0:0:0:0:
320,192,250170,128,0,250527:0:0:0:0:
448,192,250170,128,0,250527:0:0:0:0:
64,192,250170,128,0,250527:0:0:0:0:
448,192,250598,1,0,0:0:0:0:
320,192,250598,1,0,0:0:0:0:
64,192,250598,1,0,0:0:0:0:
192,192,250670,1,0,0:0:0:0:
320,192,250741,1,0,0:0:0:0:
448,192,250741,1,0,0:0:0:0:
64,192,250741,1,0,0:0:0:0:
448,192,250884,1,0,0:0:0:0:
320,192,250955,1,0,0:0:0:0:
192,192,250955,1,0,0:0:0:0:
64,192,250955,1,0,0:0:0:0:
320,192,251098,1,0,0:0:0:0:
448,192,251170,1,0,0:0:0:0:
192,192,251170,1,0,0:0:0:0:
64,192,251170,1,0,0:0:0:0:
64,192,251312,1,0,0:0:0:0:
192,192,251384,1,0,0:0:0:0:
320,192,251384,1,0,0:0:0:0:
448,192,251384,1,0,0:0:0:0:
192,192,251527,1,0,0:0:0:0:
320,192,251598,1,0,0:0:0:0:
448,192,251598,1,0,0:0:0:0:
64,192,251598,1,0,0:0:0:0:
448,192,251741,1,0,0:0:0:0:
320,192,251812,1,0,0:0:0:0:
192,192,251812,1,0,0:0:0:0:
64,192,251812,1,0,0:0:0:0:
64,192,251955,1,0,0:0:0:0:
448,192,252027,1,0,0:0:0:0:
192,192,252027,1,0,0:0:0:0:
320,192,252027,1,0,0:0:0:0:
192,192,252170,128,0,252812:0:0:0:0:
64,192,252312,1,0,0:0:0:0:
448,192,252312,1,0,0:0:0:0:
320,192,252312,1,0,0:0:0:0:
320,192,252455,128,0,252812:0:0:0:0:
448,192,252455,128,0,252812:0:0:0:0:
64,192,252455,128,0,252812:0:0:0:0:
64,192,252884,1,0,0:0:0:0:
192,192,252884,1,0,0:0:0:0:
320,192,252884,1,0,0:0:0:0:
448,192,252884,1,0,0:0:0:0:
64,192,253027,1,0,0:0:0:0:
192,192,253027,1,0,0:0:0:0:
320,192,253027,1,0,0:0:0:0:
448,192,253027,1,0,0:0:0:0:
320,192,253170,1,0,0:0:0:0:
192,192,253241,1,0,0:0:0:0:
64,192,253241,1,0,0:0:0:0:
448,192,253241,1,0,0:0:0:0:
64,192,253384,1,0,0:0:0:0:
320,192,253455,1,0,0:0:0:0:
448,192,253455,1,0,0:0:0:0:
192,192,253455,1,0,0:0:0:0:
192,192,253598,1,0,0:0:0:0:
64,192,253598,1,0,0:0:0:0:
448,192,253598,1,0,0:0:0:0:
320,192,253741,1,0,0:0:0:0:
448,192,253812,1,0,0:0:0:0:
64,192,253812,1,0,0:0:0:0:
192,192,253812,1,0,0:0:0:0:
64,192,253955,1,0,0:0:0:0:
448,192,254027,1,0,0:0:0:0:
320,192,254027,1,0,0:0:0:0:
192,192,254027,1,0,0:0:0:0:
64,192,254170,1,0,0:0:0:0:
448,192,254170,1,0,0:0:0:0:
192,192,254170,1,0,0:0:0:0:
320,192,254312,1,0,0:0:0:0:
192,192,254384,1,0,0:0:0:0:
64,192,254384,1,0,0:0:0:0:
448,192,254384,1,0,0:0:0:0:
320,192,254455,128,0,254527:0:0:0:0:
64,192,254527,1,0,0:0:0:0:
448,192,254598,1,0,0:0:0:0:
192,192,254598,1,0,0:0:0:0:
320,192,254598,1,0,0:0:0:0:
320,192,254741,1,0,0:0:0:0:
192,192,254741,1,0,0:0:0:0:
64,192,254741,1,0,0:0:0:0:
448,192,254741,1,0,0:0:0:0:
192,192,254884,1,0,0:0:0:0:
64,192,254884,1,0,0:0:0:0:
448,192,254884,1,0,0:0:0:0:
192,192,254955,1,0,0:0:0:0:
448,192,254955,1,0,0:0:0:0:
64,192,254955,1,0,0:0:0:0:
320,192,255098,1,0,0:0:0:0:
448,192,255098,1,0,0:0:0:0:
64,192,255098,1,0,0:0:0:0:
64,192,255170,1,0,0:0:0:0:
320,192,255170,1,0,0:0:0:0:
448,192,255170,1,0,0:0:0:0:
192,192,255312,1,0,0:0:0:0:
64,192,255312,1,0,0:0:0:0:
320,192,255312,1,0,0:0:0:0:
448,192,255312,1,0,0:0:0:0:
320,192,255455,1,0,0:0:0:0:
192,192,255455,1,0,0:0:0:0:
64,192,255455,1,0,0:0:0:0:
64,192,255527,1,0,0:0:0:0:
192,192,255527,1,0,0:0:0:0:
320,192,255527,1,0,0:0:0:0:
192,192,255670,1,0,0:0:0:0:
320,192,255670,1,0,0:0:0:0:
448,192,255670,1,0,0:0:0:0:
192,192,255741,1,0,0:0:0:0:
320,192,255741,1,0,0:0:0:0:
448,192,255741,1,0,0:0:0:0:
448,192,255884,1,0,0:0:0:0:
64,192,255884,1,0,0:0:0:0:
64,192,256170,1,0,0:0:0:0:
448,192,256170,1,0,0:0:0:0:
64,192,256455,1,0,0:0:0:0:
448,192,256455,1,0,0:0:0:0:
448,192,256741,128,0,257003:0:0:0:0:
64,192,256741,128,0,257003:0:0:0:0:
64,192,257027,1,0,0:0:0:0:
192,192,257027,1,0,0:0:0:0:
320,192,257027,1,0,0:0:0:0:
448,192,257027,1,0,0:0:0:0:
