osu file format v14

[General]
AudioFilename: audio.mp3
AudioLeadIn: 0
PreviewTime: 202032
Countdown: 0
SampleSet: Soft
StackLeniency: 0.7
Mode: 2
LetterboxInBreaks: 0
WidescreenStoryboard: 1

[Editor]
Bookmarks: 2175,9032,28460,37603,55889,74175,92460,110746,129032,147317,156460,174746,193032,202175,220460,238746,257032,266460
DistanceSpacing: 1.6
BeatDivisor: 4
GridSize: 16
TimelineZoom: 2.8

[Metadata]
Title:The King Of Lions
TitleUnicode:The King Of Lions
Artist:Camellia
ArtistUnicode:かめりあ
Creator:Zyzyx
Version:IMMORTAL BEAST
Source:
Tags:mappers' guild mpg mg invaidas from da jungle c92 ctcd-0016 pct2k23 pct polish catch tournament 2k23 grand finals no mod 1 gf nm1 cametek かめるかめりあ masaya oya featured artist fa pumpcore dubcore electronic instrumental regou kipine
BeatmapID:4422807
BeatmapSetID:2107464

[Difficulty]
HPDrainRate:3
CircleSize:4.2
OverallDifficulty:9.9
ApproachRate:9.9
SliderMultiplier:1.6
SliderTickRate:2

[Events]
//Background and Video events
0,0,"bg.png",0,0
//Break Periods
2,147517,155995
//Storyboard Layer 0 (Background)
//Storyboard Layer 1 (Fail)
//Storyboard Layer 2 (Pass)
//Storyboard Layer 3 (Foreground)
//Storyboard Layer 4 (Overlay)
//Storyboard Sound Samples

[TimingPoints]
2175,285.714285714286,4,2,1,30,1,0
5603,-100,4,2,1,40,0,0
6746,-83.3333333333333,4,2,1,50,0,0
7889,-83.3333333333333,4,2,1,60,0,0
9032,-83.3333333333333,4,2,1,60,0,0
10175,-83.3333333333333,4,2,1,60,0,0
15175,-35.7142857142857,4,2,1,60,0,0
15460,-83.3333333333333,4,2,1,60,0,0
19317,-27.7777777777778,4,2,1,70,0,0
27746,-31.25,4,2,1,70,0,0
28175,-35.7142857142857,4,2,1,70,0,0
28460,-83.3333333333333,4,2,1,40,0,0
30746,-83.3333333333333,4,2,1,55,0,0
31889,-83.3333333333333,4,2,1,70,0,0
32746,-50,4,2,1,70,0,0
33032,-62.5,4,2,1,70,0,0
36317,-62.5,4,2,1,50,0,0
37317,-62.5,4,2,1,70,0,0
37389,-35.7142857142857,4,2,1,70,0,0
37603,-50,4,2,1,70,0,1
37675,-50,4,2,1,70,0,0
37889,-35.7142857142857,4,2,1,70,0,0
38175,-62.5,4,2,1,70,0,0
39889,-50,4,2,1,70,0,0
40175,-62.5,4,2,1,70,0,0
41889,-50,4,2,1,70,0,0
42175,-20.8333333333333,4,2,1,70,0,0
42460,-35.7142857142857,4,2,1,70,0,0
42746,-62.5,4,2,1,70,0,0
44460,-50,4,2,1,70,0,0
44746,-62.5,4,2,1,70,0,0
45317,-35.7142857142857,4,2,1,70,0,0
45603,-62.5,4,2,1,70,0,0
45889,-35.7142857142857,4,2,1,70,0,0
46175,-62.5,4,2,1,70,0,0
46460,-62.5,4,2,1,70,0,0
46746,-62.5,4,2,1,70,0,0
47032,-35.7142857142857,4,2,1,70,0,0
47317,-62.5,4,2,1,70,0,0
51032,-50,4,2,1,70,0,0
51317,-62.5,4,2,1,70,0,0
51603,-35.7142857142857,4,2,1,70,0,0
51889,-62.5,4,2,1,70,0,0
52746,-35.7142857142857,4,2,1,70,0,0
53032,-62.5,4,2,1,70,0,0
54746,-27.7777777777778,4,2,1,70,0,0
55317,-62.5,4,2,1,70,0,0
55889,-62.5,4,2,1,70,0,0
56175,-35.7142857142857,4,2,1,70,0,0
56460,-62.5,4,2,1,70,0,0
58460,-35.7142857142857,4,2,1,70,0,0
58746,-62.5,4,2,1,70,0,0
60746,-35.7142857142857,4,2,1,70,0,0
61032,-62.5,4,2,1,70,0,0
65032,-62.5,4,2,1,70,0,0
65317,-35.7142857142857,4,2,1,70,0,0
65603,-62.5,4,2,1,70,0,0
76460,-71.4285714285714,4,2,1,70,0,0
78460,-50,4,2,1,70,0,0
78746,-31.25,4,2,1,70,0,0
79032,-50,4,2,1,70,0,0
79889,-71.4285714285714,4,2,1,70,0,0
80746,-50,4,2,1,70,0,0
81032,-71.4285714285714,4,2,1,70,0,0
83317,-31.25,4,2,1,70,0,0
83889,-50,4,2,1,70,0,0
84460,-62.5,4,2,1,70,0,0
84746,-71.4285714285714,4,2,1,70,0,0
85032,-50,4,2,1,70,0,0
85603,-62.5,4,2,1,70,0,0
87603,-50,4,2,1,70,0,0
87889,-62.5,4,2,1,70,0,0
92460,-27.7777777777778,4,2,1,70,0,0
92889,-62.5,4,2,1,70,0,0
94460,-21.7391304347826,4,2,1,70,0,0
94746,-27.7777777777778,4,2,1,70,0,0
95032,-62.5,4,2,1,70,0,0
96746,-35.7142857142857,4,2,1,70,0,0
97032,-27.7777777777778,4,2,1,70,0,0
97460,-62.5,4,2,1,70,0,0
99032,-27.7777777777778,4,2,1,70,0,0
99889,-62.5,4,2,1,70,0,0
101032,-27.7777777777778,4,2,1,70,0,0
101603,-27.7777777777778,4,2,1,70,0,0
102032,-62.5,4,2,1,70,0,0
103603,-21.7391304347826,4,2,1,70,0,0
103889,-27.7777777777778,4,2,1,70,0,0
104460,-62.5,4,2,1,70,0,0
106175,-31.25,4,2,1,70,0,0
106746,-62.5,4,2,1,70,0,0
109603,-31.25,4,2,1,70,0,0
110746,-27.7777777777778,4,2,1,70,0,1
111175,-62.5,4,2,1,70,0,1
112746,-21.7391304347826,4,2,1,70,0,1
113032,-27.7777777777778,4,2,1,70,0,1
113603,-62.5,4,2,1,70,0,1
115032,-35.7142857142857,4,2,1,70,0,1
115317,-27.7777777777778,4,2,1,70,0,1
115746,-62.5,4,2,1,70,0,1
116317,-31.25,4,2,1,70,0,1
116603,-62.5,4,2,1,70,0,1
117317,-31.25,4,2,1,70,0,1
117603,-27.7777777777778,4,2,1,70,0,1
118032,-28.5714285714286,4,2,1,70,0,1
118175,-62.5,4,2,1,70,0,1
119317,-27.7777777777778,4,2,1,70,0,1
119889,-50,4,2,1,70,0,0
120460,-31.25,4,2,1,70,0,0
120746,-62.5,4,2,1,70,0,1
121889,-21.7391304347826,4,2,1,70,0,1
122175,-27.7777777777778,4,2,1,70,0,1
122603,-62.5,4,2,1,70,0,1
124175,-35.7142857142857,4,2,1,70,0,1
124460,-50,4,2,1,70,0,1
124746,-62.5,4,2,1,70,0,1
129032,-62.5,4,2,1,70,0,0
131032,-35.7142857142857,4,2,1,70,0,0
131317,-50,4,2,1,70,0,0
131603,-62.5,4,2,1,70,0,0
133317,-35.7142857142857,4,2,1,70,0,0
133603,-62.5,4,2,1,70,0,0
134460,-35.7142857142857,4,2,1,70,0,0
134746,-62.5,4,2,1,70,0,0
135889,-31.25,4,2,1,70,0,0
136175,-62.5,4,2,1,70,0,0
137603,-27.7777777777778,4,2,1,70,0,0
138175,-62.5,4,2,1,70,0,0
140175,-31.25,4,2,1,70,0,0
140460,-50,4,2,1,70,0,0
140746,-62.5,4,2,1,70,0,0
142746,-50,4,2,1,70,0,0
143032,-62.5,4,2,1,70,0,0
147032,-27.7777777777778,4,2,1,70,0,0
147317,-83.3333333333333,4,2,1,40,0,0
147389,-83.3333333333333,4,2,1,10,0,0
156460,-83.3333333333333,4,2,1,20,0,0
157603,-83.3333333333333,4,2,1,20,0,0
168032,-83.3333333333333,4,2,1,25,0,0
170175,-83.3333333333333,4,2,1,30,0,0
173603,-83.3333333333333,4,2,1,70,0,0
174746,-83.3333333333333,4,2,1,70,0,1
174817,-83.3333333333333,4,2,1,70,0,0
175317,-62.5,4,2,1,70,0,0
175603,-83.3333333333333,4,2,1,70,0,0
179317,-31.25,4,2,1,70,0,0
179889,-83.3333333333333,4,2,1,70,0,0
183889,-27.7777777777778,4,2,1,70,0,0
184460,-83.3333333333333,4,2,1,70,0,0
185032,-31.25,4,2,1,70,0,0
186175,-27.7777777777778,4,2,1,70,0,0
186460,-62.5,4,2,1,70,0,0
187317,-31.25,4,2,1,70,0,0
188460,-27.7777777777778,4,2,1,70,0,0
189032,-62.5,4,2,1,70,0,0
189603,-31.25,4,2,1,70,0,0
190746,-27.7777777777778,4,2,1,70,0,0
191032,-62.5,4,2,1,70,0,0
191317,-62.5,4,2,1,70,0,0
191889,-31.25,4,2,1,70,0,0
192746,-27.7777777777778,4,2,1,70,0,0
193032,-62.5,4,2,1,70,0,0
199889,-62.5,4,2,1,70,0,0
200889,-62.5,4,2,1,50,0,0
201889,-62.5,4,2,1,70,0,0
202175,-62.5,4,2,1,80,0,1
211317,-20.8333333333333,4,2,1,80,0,1
211603,-62.5,4,2,1,80,0,1
213032,-50,4,2,1,80,0,1
213317,-62.5,4,2,1,80,0,1
219317,-62.5,4,2,1,80,0,0
220175,-50,4,2,1,80,0,0
220460,-20.8333333333333,4,2,1,80,0,1
220746,-62.5,4,2,1,80,0,1
227460,-35.7142857142857,4,2,1,80,0,1
227746,-62.5,4,2,1,80,0,1
227889,-35.7142857142857,4,2,1,80,0,1
228175,-62.5,4,2,1,80,0,1
229603,-62.5,4,2,1,80,0,0
229889,-62.5,4,2,1,80,0,1
231889,-27.7777777777778,4,2,1,80,0,1
232175,-62.5,4,2,1,80,0,1
233675,-35.7142857142857,4,2,1,80,0,1
233889,-62.5,4,2,1,80,0,1
237889,-83.3333333333333,4,2,1,80,0,1
238460,-62.5,4,2,1,80,0,1
238746,-27.7777777777778,4,2,1,75,0,0
239317,-62.5,4,2,1,75,0,0
240746,-21.7391304347826,4,2,1,75,0,0
241032,-27.7777777777778,4,2,1,75,0,0
241603,-62.5,4,2,1,75,0,0
243032,-35.7142857142857,4,2,1,75,0,0
243317,-27.7777777777778,4,2,1,75,0,0
243889,-62.5,4,2,1,75,0,0
245317,-27.7777777777778,4,2,1,75,0,0
246175,-62.5,4,2,1,75,0,0
247317,-27.7777777777778,4,2,1,75,0,0
247889,-27.7777777777778,4,2,1,80,0,1
248460,-62.5,4,2,1,80,0,1
249889,-21.7391304347826,4,2,1,80,0,1
250175,-27.7777777777778,4,2,1,80,0,1
250746,-62.5,4,2,1,80,0,1
252175,-35.7142857142857,4,2,1,80,0,1
252460,-27.7777777777778,4,2,1,80,0,1
253032,-62.5,4,2,1,80,0,1
255889,-50,4,2,1,80,0,1
256746,-31.25,4,2,1,80,0,1
257032,-62.5,4,2,1,70,0,0
258175,-62.5,4,2,1,65,0,0
259317,-62.5,4,2,1,60,0,0
260460,-62.5,4,2,1,55,0,0
261603,-62.5,4,2,1,50,0,0
262746,-62.5,4,2,1,45,0,0
263889,-62.5,4,2,1,40,0,0
265032,-62.5,4,2,1,20,0,0
266460,-62.5,4,2,1,5,0,0

[Colours]
Combo1 : 255,85,55
Combo2 : 178,178,178
Combo3 : 139,139,139
Combo4 : 245,132,63

[HitObjects]
256,192,5603,12,0,9032,3:0:0:0:
256,192,9175,5,2,0:0:0:0:
328,96,9317,1,2,0:0:0:0:
184,96,9460,1,2,0:0:0:0:
400,192,9603,2,0,P|448:240|400:272,1,143.999995605469,0|0,0:0|0:0,0:0:0:0:
184,272,9889,2,0,L|328:272,1,143.999995605469,8|0,0:1|0:0,0:0:0:0:
96,192,10175,6,0,P|32:144|96:80,1,191.999994140625,4|0,1:0|0:0,0:0:0:0:
240,80,10603,2,0,L|48:80,2,191.999994140625,2|0|2,0:1|0:0|0:1,0:0:0:0:
352,16,11317,6,0,B|48:16|48:368|400:368,1,671.999979492188
272,304,12460,6,0,P|208:256|272:192,1,191.999994140625,2|0,0:0|0:0,0:0:0:0:
400,192,12889,2,0,P|464:144|400:80,1,191.999994140625,2|0,1:2|0:0,0:0:0:0:
272,80,13317,2,0,L|368:80,1,95.9999970703126,2|0,1:2|0:0,0:0:0:0:
240,80,13603,6,0,L|144:80,2,95.9999970703126,2|2|0,0:2|0:0|0:0,0:0:0:0:
112,80,14032,1,2,0:0:0:0:
240,112,14175,2,0,L|432:112,1,191.999994140625,0|0,0:0|0:0,0:0:0:0:
48,224,14746,6,0,B|144:224|144:224|48:224,1,191.999994140625,4|0,1:0|0:0,0:0:0:0:
256,192,15175,2,0,B|32:192|32:192|96:64|96:64|126:139,1,447.999986328125,4|0,1:0|0:0,0:0:0:0:
256,192,15603,2,0,L|160:192,1,95.9999970703126,0|2,0:0|0:1,0:0:0:0:
287,195,15889,6,0,B|383:195|383:195|433:111|433:111|404:23|404:23|207:23|207:23|177:110|177:110|230:198,1,671.999979492188,0|0,0:0|0:0,0:0:0:0:
352,224,17032,6,0,L|160:224,1,191.999994140625,2|0,1:2|0:0,0:0:0:0:
288,224,17460,2,0,P|350:166|286:111,1,191.999994140625,2|0,1:2|0:0,0:0:0:0:
160,112,17889,2,0,L|256:112,1,95.9999970703126,2|0,1:2|0:0,0:0:0:0:
128,192,18175,6,0,L|80:192,1,47.9999985351563,0|0,0:0|0:0,0:0:0:0:
32,272,18317,2,0,L|80:272,1,47.9999985351563,0|0,0:0|0:0,0:0:0:0:
160,272,18460,2,0,L|208:272,1,47.9999985351563,0|0,0:0|0:0,0:0:0:0:
256,352,18602,2,0,L|208:352,1,47.9999985351563,0|0,0:0|0:0,0:0:0:0:
128,272,18746,6,0,L|80:272,1,47.9999985351563,0|0,0:0|0:0,0:0:0:0:
128,192,18889,2,0,L|176:192,1,47.9999985351563,0|0,0:0|0:0,0:0:0:0:
256,192,19032,2,0,L|304:192,1,47.9999985351563,0|0,0:0|0:0,0:0:0:0:
256,112,19175,2,0,L|208:112,1,47.9999985351563,0|0,0:0|0:0,0:0:0:0:
381,129,19317,6,0,B|431:-9|431:-9|486:122|486:122|205:189,1,575.999982421876,4|8,1:0|0:1,0:0:0:0:
307,228,19746,2,0,B|27:161|27:161|82:30|82:30|132:168,1,575.999982421876,4|2,1:0|0:0,0:0:0:0:
352,160,20175,1,8,1:0:0:0:
483,61,20460,6,0,L|196:49,1,287.999991210938,4|0,1:0|0:0,0:0:0:0:
182,122,20675,2,0,L|469:110,1,287.999991210938,4|0,1:0|0:0,0:0:0:0:
461,178,20889,2,0,L|169:155,1,287.999991210938,4|0,1:0|0:0,0:0:0:0:
290,115,21175,1,2,0:0:0:0:
173,155,21317,1,8,1:0:0:0:
62,121,21460,1,2,0:0:0:0:
394,237,21603,6,0,B|114:170|114:170|169:39|169:39|219:177,1,575.999982421876,4|8,1:0|0:1,0:0:0:0:
81,244,22032,2,0,B|361:177|361:177|306:46|306:46|256:184,1,575.999982421876,4|2,1:0|0:0,0:0:0:0:
480,192,22460,1,8,1:0:0:0:
368,176,22603,1,0,0:0:0:0:
96,80,22746,6,0,L|384:63,1,287.999991210938,4|0,1:0|0:0,0:0:0:0:
368,112,22960,2,0,L|80:95,1,287.999991210938,4|0,1:0|0:0,0:0:0:0:
64,128,23175,2,0,L|352:111,1,287.999991210938,4|0,1:0|0:0,0:0:0:0:
336,160,23389,2,0,L|48:143,1,287.999991210938,4|0,1:0|0:0,0:0:0:0:
32,176,23603,2,0,B|320:192|320:192|331:298|331:298|342:257,1,431.999986816407,8|0,1:0|0:0,0:0:0:0:
128,144,23889,6,0,B|78:6|78:6|23:137|23:137|303:204,1,575.999982421876,4|8,1:0|0:1,0:0:0:0:
96,192,24317,2,0,B|376:125|376:125|321:-6|321:-6|271:132,1,575.999982421876,4|2,1:0|0:0,0:0:0:0:
48,80,24746,1,8,1:0:0:0:
128,160,24889,1,0,0:0:0:0:
352,256,25032,6,0,L|64:272,1,287.999991210938,4|0,1:0|0:0,0:0:0:0:
96,224,25246,2,0,L|384:240,1,287.999991210938,4|0,1:0|0:0,0:0:0:0:
352,256,25460,2,0,L|64:272,1,287.999991210938,4|0,1:0|0:0,0:0:0:0:
144,304,25746,1,2,0:0:0:0:
272,304,25889,1,8,1:0:0:0:
144,304,26032,1,2,0:0:0:0:
384,144,26175,6,0,B|434:6|434:6|489:137|489:137|209:204,1,575.999982421876,4|8,1:0|0:1,0:0:0:0:
416,192,26603,2,0,B|136:125|136:125|191:-6|191:-6|241:132,1,575.999982421876,4|2,1:0|0:2,0:0:0:0:
464,80,27032,1,8,1:0:0:0:
384,160,27175,1,0,0:0:0:0:
128,192,27317,6,0,L|416:208,1,287.999991210938,0|0,1:0|0:0,0:0:0:0:
448,240,27532,2,0,L|160:256,1,287.999991210938,0|0,1:0|0:0,0:0:0:0:
128,192,27746,2,0,L|384:176,1,256,0|0,1:0|0:0,0:0:0:0:
400,160,27960,2,0,L|144:144,1,256,0|0,1:0|0:0,0:0:0:0:
224,112,28175,2,0,B|448:96|448:96|464:160|464:160|432:128,1,335.999989746094,0|0,1:0|0:0,0:0:0:0:
176,192,28460,6,0,L|128:192,1,47.9999985351563,6|2,1:0|0:0,0:0:0:0:
208,272,28603,2,0,L|256:272,1,47.9999985351563,2|2,0:0|0:0,0:0:0:0:
176,192,28746,2,0,L|128:192,1,47.9999985351563,2|2,0:0|0:0,0:0:0:0:
48,272,28889,2,0,L|96:272,1,47.9999985351563,2|2,0:0|0:0,0:0:0:0:
256,192,29032,6,0,L|304:192,1,47.9999985351563,6|2,1:0|0:0,0:0:0:0:
224,112,29175,2,0,L|176:112,1,47.9999985351563,2|2,0:0|0:0,0:0:0:0:
256,192,29318,2,0,L|304:192,1,47.9999985351563,2|0,0:0|0:0,0:0:0:0:
384,112,29461,2,0,L|336:112,1,47.9999985351563,2|2,0:0|0:0,0:0:0:0:
176,192,29603,6,0,L|160:240,1,47.9999985351563,6|2,1:0|0:0,0:0:0:0:
240,272,29746,2,0,L|288:272,1,47.9999985351563,2|2,0:0|0:0,0:0:0:0:
368,272,29889,2,0,L|384:224,1,47.9999985351563,2|2,0:0|0:0,0:0:0:0:
304,192,30032,2,0,L|256:192,1,47.9999985351563,2|2,0:0|0:0,0:0:0:0:
432,192,30175,6,0,L|448:144,1,47.9999985351563,6|2,1:0|0:0,0:0:0:0:
368,112,30318,2,0,L|320:112,1,47.9999985351563,2|2,0:0|0:0,0:0:0:0:
240,112,30461,2,0,L|224:160,1,47.9999985351563,2|0,0:0|0:0,0:0:0:0:
304,192,30604,2,0,L|352:192,1,47.9999985351563,2|2,0:0|0:0,0:0:0:0:
176,240,30746,6,0,L|160:288,1,47.9999985351563,12|0,1:0|0:0,0:0:0:0:
80,288,30889,2,0,L|32:288,1,47.9999985351563,0|0,0:0|0:0,0:0:0:0:
192,288,31032,2,0,L|240:288,1,47.9999985351563,8|0,1:0|0:0,0:0:0:0:
80,192,31175,2,0,L|96:144,1,47.9999985351563,0|0,0:0|0:0,0:0:0:0:
272,96,31317,6,0,L|288:48,1,47.9999985351563,8|0,1:0|0:0,0:0:0:0:
384,48,31460,2,0,L|432:48,1,47.9999985351563,0|0,0:0|0:0,0:0:0:0:
239,98,31603,2,0,L|223:146,1,47.9999985351563,8|0,1:0|0:0,0:0:0:0:
128,144,31746,2,0,L|80:144,1,47.9999985351563,0|0,0:0|0:0,0:0:0:0:
256,224,31889,6,0,L|304:224,1,47.9999985351563,8|0,1:0|0:0,0:0:0:0:
224,304,32032,1,0,0:0:0:0:
384,304,32103,2,0,L|432:304,1,47.9999985351563,8|0,1:0|0:0,0:0:0:0:
464,304,32246,1,0,0:0:0:0:
256,224,32317,6,0,L|208:224,1,47.9999985351563,8|0,1:0|0:0,0:0:0:0:
288,304,32460,1,0,0:0:0:0:
128,304,32531,2,0,L|80:304,1,47.9999985351563,8|0,1:0|0:0,0:0:0:0:
48,304,32674,1,0,0:0:0:0:
256,224,32746,2,0,P|336:144|256:80,1,240,8|0,1:0|0:0,0:0:0:0:
96,192,33032,6,0,L|80:128,1,64,10|0,1:2|1:2,0:0:0:0:
160,112,33175,2,0,L|176:48,1,64,0|0,1:2|1:2,0:0:0:0:
96,192,33317,2,0,L|32:192,1,64,10|0,1:2|1:2,0:0:0:0:
192,192,33460,2,0,L|256:192,1,64,0|0,1:2|1:2,0:0:0:0:
80,224,33603,6,0,L|96:288,1,64,10|0,1:2|1:2,0:0:0:0:
176,288,33746,2,0,L|240:288,1,64,0|0,1:2|1:2,0:0:0:0:
416,336,33889,2,0,L|400:272,1,64,10|0,1:2|1:2,0:0:0:0:
240,256,34032,2,0,L|176:256,1,64,2|0,1:2|1:2,0:0:0:0:
336,256,34175,6,0,L|352:192,1,64,10|0,1:2|1:2,0:0:0:0:
192,144,34317,2,0,L|256:144,1,64,0|0,1:2|1:2,0:0:0:0:
416,80,34460,2,0,L|480:80,1,64,10|0,1:2|1:2,0:0:0:0:
320,80,34603,1,0,1:2:0:0:
160,80,34675,1,0,1:2:0:0:
320,80,34746,5,8,1:2:0:0:
480,80,34817,1,0,1:2:0:0:
320,112,34889,2,0,L|240:112,1,64,0|0,1:2|0:2,0:0:0:0:
416,224,35032,6,0,L|448:224,1,32,0|0,0:0|0:0,0:0:0:0:
320,224,35103,1,0,0:0:0:0:
192,224,35139,1,0,0:0:0:0:
64,256,35175,2,0,L|32:256,1,32,0|0,0:0|0:0,0:0:0:0:
160,256,35246,1,0,0:0:0:0:
288,256,35282,1,0,0:0:0:0:
416,224,35317,6,0,L|432:96,1,128,0|0,1:0|0:0,0:0:0:0:
408,96,35496,1,0,0:0:0:0:
368,96,35532,1,0,0:0:0:0:
288,96,35603,2,0,L|224:96,1,64,0|0,0:0|0:0,0:0:0:0:
288,192,35746,1,0,0:0:0:0:
320,192,35781,1,0,0:0:0:0:
352,192,35817,1,0,0:0:0:0:
192,320,35889,5,0,0:0:0:0:
160,314,35924,1,0,0:0:0:0:
131,301,35960,1,0,0:0:0:0:
105,282,35996,1,0,0:0:0:0:
85,257,36031,1,0,0:0:0:0:
64,197,36103,1,0,0:0:0:0:
85,139,36175,2,0,P|117:59|213:43,1,192
400,64,36460,6,0,L|416:192,1,128,10|0,0:0|0:0,0:0:0:0:
336,192,36675,1,2,0:0:0:0:
256,192,36746,2,0,L|240:320,1,128,10|0,0:0|0:0,0:0:0:0:
384,320,36960,1,2,0:0:0:0:
240,352,37032,5,10,0:0:0:0:
208,352,37067,1,0,0:0:0:0:
176,352,37103,1,0,0:0:0:0:
272,352,37175,2,0,L|256:288,1,64,0|0,0:0|0:0,0:0:0:0:
80,272,37317,2,0,L|48:272,1,32,8|0,0:1|0:0,0:0:0:0:
176,272,37389,2,0,L|400:272,1,223.999993164063,0|0,0:0|0:0,0:0:0:0:
176,48,37603,6,0,P|96:112|176:192,1,240,4|0,1:0|0:0,0:0:0:0:
320,192,37889,2,0,L|96:192,1,223.999993164063,8|2,1:0|0:0,0:0:0:0:
80,192,38067,1,0,0:0:0:0:
96,192,38103,1,0,0:0:0:0:
240,192,38175,6,0,L|176:192,3,64,0|0|0|0,1:0|0:0|0:0|0:0,0:0:0:0:
32,192,38460,2,0,L|96:192,1,64,8|0,1:0|0:0,0:0:0:0:
240,224,38603,2,0,L|112:224,1,128,0|0,0:0|1:0,0:0:0:0:
336,224,38889,6,0,L|400:224,1,64,0|0,0:0|0:0,0:0:0:0:
240,256,39032,2,0,B|144:256|144:256|176:256,1,128,8|0,1:0|0:0,0:0:0:0:
336,256,39246,1,0,0:0:0:0:
176,224,39317,6,0,L|240:224,2,64,0|0|0,1:0|0:0|0:0,0:0:0:0:
400,224,39603,2,0,L|336:224,1,64,8|0,1:0|0:0,0:0:0:0:
176,224,39746,2,0,L|240:224,1,64,2|0,0:0|0:0,0:0:0:0:
400,224,39889,6,0,P|480:160|400:80,1,240,4|0,1:0|0:0,0:0:0:0:
256,112,40175,2,0,L|128:112,1,128,8|0,1:0|0:0,0:0:0:0:
112,112,40353,1,0,0:0:0:0:
128,112,40389,1,0,0:0:0:0:
272,192,40460,6,0,L|336:192,3,64,0|0|0|0,1:0|0:0|0:0|0:0,0:0:0:0:
192,192,40746,2,0,L|128:192,1,64,8|0,1:0|0:0,0:0:0:0:
272,192,40889,6,0,L|400:192,1,128,0|0,0:0|1:0,0:0:0:0:
176,224,41175,2,0,L|112:224,1,64,2|0,0:1|0:0,0:0:0:0:
272,224,41317,2,0,L|288:320,1,96,8|0,1:1|0:0,0:0:0:0:
480,256,41460,2,0,L|384:256,1,96,2|0,1:1|0:0,0:0:0:0:
224,320,41603,6,0,L|288:320,1,64,2|0,1:1|0:0,0:0:0:0:
448,288,41746,2,0,L|384:288,1,64,0|0,1:1|0:0,0:0:0:0:
224,288,41889,2,0,P|144:224|224:144,1,240,8|0,1:0|0:0,0:0:0:0:
400,176,42175,6,0,L|304:176,1,95.9999970703126,6|0,1:0|0:0,0:0:0:0:
128,96,42317,2,0,L|224:96,1,95.9999970703126,2|0,0:0|0:0,0:0:0:0:
400,144,42460,2,0,L|160:144,1,223.999993164063,8|2,1:0|0:0,0:0:0:0:
160,144,42639,1,0,0:0:0:0:
176,144,42675,1,0,0:0:0:0:
320,176,42746,6,0,L|256:176,3,64,0|0|0|0,1:0|0:0|0:0|0:0,0:0:0:0:
112,176,43032,2,0,L|176:176,1,64,8|0,1:0|0:0,0:0:0:0:
384,208,43175,6,0,L|256:208,1,128,0|0,0:0|1:0,0:0:0:0:
32,208,43460,2,0,L|96:208,1,64,0|0,0:0|0:0,0:0:0:0:
256,240,43603,2,0,L|128:240,1,128,8|0,1:0|0:0,0:0:0:0:
288,272,43817,1,0,0:0:0:0:
448,304,43889,6,0,L|384:304,2,64,0|0|2,1:3|0:3|0:0,0:0:0:0:
224,304,44175,2,0,L|160:304,1,64,8|0,1:0|0:0,0:0:0:0:
320,272,44317,2,0,L|384:272,1,64,0|0,1:0|0:0,0:0:0:0:
224,272,44460,6,0,P|144:208|224:128,1,240,0|0,1:0|0:0,0:0:0:0:
384,160,44746,2,0,L|256:160,1,128,8|2,1:0|0:0,0:0:0:0:
96,160,44960,1,0,0:0:0:0:
256,128,45032,6,0,L|384:128,1,128,0|0,1:0|0:0,0:0:0:0:
320,128,45246,1,0,0:0:0:0:
384,128,45317,2,0,L|160:128,1,223.999993164063,8|0,1:1|0:3,0:0:0:0:
144,128,45496,1,0,0:0:0:0:
160,128,45532,1,0,0:3:0:0:
320,128,45603,5,2,1:0:0:0:
351,132,45638,1,0,0:0:0:0:
375,153,45674,1,0,0:0:0:0:
384,183,45710,1,0,0:0:0:0:
376,213,45745,1,0,0:0:0:0:
321,240,45817,1,0,0:0:0:0:
160,240,45889,2,0,L|384:240,1,223.999993164063,8|0,1:0|0:0,0:0:0:0:
352,240,46103,1,0,0:0:0:0:
192,272,46175,6,0,L|128:272,1,64,0|0,1:0|0:0,0:0:0:0:
288,272,46317,1,0,1:0:0:0:
320,272,46352,1,0,0:0:0:0:
352,272,46388,1,0,0:0:0:0:
208,192,46460,5,8,1:0:0:0:
64,192,46496,2,0,L|48:160,2,32,0|0|0,0:0|0:0|0:0,0:0:0:0:
208,192,46603,1,2,0:0:0:0:
352,192,46639,2,0,L|368:160,2,32,0|0|0,0:0|0:0|0:0,0:0:0:0:
176,80,46746,6,0,P|89:117|36:195,1,192,4|0,1:0|0:0,0:0:0:0:
192,192,47032,2,0,L|416:192,1,223.999993164063,8|0,1:0|0:0,0:0:0:0:
432,176,47210,1,0,0:0:0:0:
320,176,47246,1,0,0:0:0:0:
160,176,47317,6,0,L|224:176,3,64,0|0|0|0,1:0|0:0|0:0|0:0,0:0:0:0:
384,176,47603,2,0,L|320:176,1,64,8|0,1:0|0:0,0:0:0:0:
160,256,47746,6,0,L|288:256,1,128,0|0,0:0|1:0,0:0:0:0:
64,224,48032,1,0,0:0:0:0:
208,224,48103,1,0,0:0:0:0:
352,192,48175,2,0,B|448:192|448:192|400:192,1,128,8|0,1:0|0:0,0:0:0:0:
256,192,48389,1,0,0:0:0:0:
416,160,48460,6,0,L|352:160,2,64,0|0|0,1:0|0:0|0:0,0:0:0:0:
192,160,48746,2,0,L|256:160,1,64,8|0,1:0|0:0,0:0:0:0:
416,160,48889,2,0,L|352:160,1,64,0|0,3:0|0:0,0:0:0:0:
192,128,49032,6,0,L|64:128,1,128,0|0,1:0|0:0,0:0:0:0:
224,128,49246,1,0,0:0:0:0:
304,128,49317,2,0,L|432:128,1,128,8|0,1:0|0:0,0:0:0:0:
448,128,49496,1,0,0:0:0:0:
432,128,49532,1,0,0:0:0:0:
272,48,49603,6,0,L|208:48,3,64,0|0|0|0,1:0|0:0|0:0|0:0,0:0:0:0:
368,48,49889,2,0,L|432:48,1,64,8|0,1:0|0:0,0:0:0:0:
272,80,50032,6,0,L|144:80,1,128,2|0,0:0|1:0,0:0:0:0:
368,80,50317,2,0,L|432:80,1,64,2|0,0:0|0:0,0:0:0:0:
272,112,50460,2,0,L|256:112,1,16,10|0,1:0|0:0,0:0:0:0:
112,112,50532,2,0,L|128:112,1,16,2|0,0:0|0:0,0:0:0:0:
272,192,50603,2,0,L|336:192,1,64,2|2,0:0|0:0,0:0:0:0:
176,192,50746,6,0,L|160:256,1,64,0|0,1:0|0:0,0:0:0:0:
240,272,50889,1,0,2:0:0:0:
247,303,50924,1,0,0:0:0:0:
255,334,50960,1,0,0:0:0:0:
96,192,51032,2,0,P|16:128|96:48,1,240,8|0,1:0|0:0,0:0:0:0:
320,160,51317,6,0,L|448:160,1,128,4|0,1:0|0:0,0:0:0:0:
224,192,51603,2,0,L|448:192,1,223.999993164063,0|2,1:0|0:0,0:0:0:0:
464,192,51782,1,0,0:0:0:0:
288,224,51889,2,0,B|160:224|160:224|240:224,1,192,0|0,1:0|0:0,0:0:0:0:
384,224,52175,2,0,L|320:224,3,64,0|0|0|0,1:0|1:0|1:0|1:0,0:0:0:0:
160,256,52460,6,0,L|32:256,1,128,2|0,1:0|0:0,0:0:0:0:
256,288,52746,2,0,L|32:288,1,223.999993164063,2|0,1:0|0:0,0:0:0:0:
48,288,52925,1,0,0:0:0:0:
272,320,53032,1,2,1:0:0:0:
144,320,53174,1,0,0:0:0:0:
368,192,53317,2,0,L|304:192,1,64,0|0,1:0|1:0,0:0:0:0:
144,192,53460,2,0,L|80:192,1,64,0|0,1:0|1:0,0:0:0:0:
304,160,53603,6,0,B|432:160|432:160|368:160,1,192,6|0,1:0|0:0,0:0:0:0:
192,80,53889,2,0,L|176:80,1,16,0|0,1:0|0:0,0:0:0:0:
400,48,54032,2,0,L|416:48,1,16,0|0,1:0|0:0,0:0:0:0:
208,160,54175,6,0,B|80:160|80:160|144:160,1,192,0|0,1:0|0:0,0:0:0:0:
336,96,54461,2,0,L|320:96,1,16,0|0,1:0|0:0,0:0:0:0:
96,48,54604,2,0,L|112:48,1,16,0|0,1:0|0:0,0:0:0:0:
301,57,54746,6,0,B|186:322|186:322|303:53|303:53|410:318|410:318|88:325,1,1151.99996484375,0|0,0:0|0:0,0:0:0:0:
241,268,55460,1,0,0:0:0:0:
111,199,55603,2,0,L|191:193,1,64,0|0,1:0|1:0,0:0:0:0:
358,117,55746,2,0,L|288:115,1,64,0|0,1:0|1:0,0:0:0:0:
64,144,55889,6,0,L|48:80,1,64,4|0,1:0|0:0,0:0:0:0:
128,80,56032,2,0,L|144:16,1,64,0|0,0:0|0:0,0:0:0:0:
304,16,56175,2,0,L|80:16,1,223.999993164063,8|0,1:0|0:0,0:0:0:0:
64,16,56353,1,0,0:0:0:0:
240,48,56460,1,0,1:0:0:0:
384,48,56532,1,2,0:0:0:0:
240,48,56603,2,0,L|176:48,1,64,2|2,0:0|0:0,0:0:0:0:
336,48,56746,2,0,P|423:85|477:163,1,192,8|0,1:0|0:0,0:0:0:0:
320,192,57032,5,0,1:0:0:0:
448,192,57175,2,0,L|432:256,1,64,0|0,0:0|0:0,0:0:0:0:
272,352,57317,2,0,L|144:352,1,128,8|0,1:0|0:0,0:0:0:0:
208,352,57532,1,0,0:0:0:0:
352,352,57603,1,0,1:0:0:0:
208,352,57675,1,2,0:0:0:0:
64,272,57746,2,0,L|128:272,1,64,2|2,0:0|0:0,0:0:0:0:
288,240,57889,2,0,L|96:240,1,192,8|0,1:0|0:0,0:0:0:0:
288,208,58175,6,0,P|352:144|288:96,1,192,2|0,1:0|0:0,0:0:0:0:
128,96,58460,2,0,L|352:96,1,223.999993164063,8|2,1:0|0:0,0:0:0:0:
368,96,58639,1,0,0:0:0:0:
192,128,58746,1,0,1:0:0:0:
48,128,58817,1,2,0:0:0:0:
192,128,58889,2,0,L|256:128,1,64,2|2,0:0|0:0,0:0:0:0:
96,128,59032,2,0,B|0:128|0:128|96:128,1,192,8|0,1:0|0:0,0:0:0:0:
256,128,59317,6,0,L|128:128,1,128,0|2,1:0|0:0,0:0:0:0:
352,128,59603,1,8,1:0:0:0:
128,160,59746,2,0,L|192:160,1,64,2|0,0:0|0:0,0:0:0:0:
336,192,59889,1,0,1:0:0:0:
192,160,59960,1,2,0:0:0:0:
48,192,60032,2,0,L|112:192,1,64,2|2,0:0|0:0,0:0:0:0:
272,192,60175,2,0,P|218:113|131:76,1,192,8|0,1:0|0:0,0:0:0:0:
304,64,60460,5,4,1:0:0:0:
224,64,60532,2,0,L|208:192,1,128,0|0,1:0|1:0,0:0:0:0:
352,192,60746,2,0,L|128:192,1,223.999993164063,8|0,1:0|0:0,0:0:0:0:
112,192,60925,1,0,0:0:0:0:
288,224,61032,1,0,1:0:0:0:
432,224,61103,1,2,0:0:0:0:
288,224,61175,2,0,L|304:160,1,64,2|2,0:0|0:0,0:0:0:0:
464,144,61317,2,0,P|410:65|323:28,1,192,8|0,1:0|0:0,0:0:0:0:
480,192,61603,6,0,L|352:192,1,128,0|0,1:0|0:0,0:0:0:0:
272,192,61817,1,0,2:0:0:0:
112,192,61889,2,0,L|240:192,1,128,8|0,1:0|0:0,0:0:0:0:
384,192,62103,1,0,0:0:0:0:
240,224,62175,1,0,1:0:0:0:
96,224,62246,1,2,0:0:0:0:
240,224,62317,2,0,L|304:224,1,64,2|2,0:0|0:0,0:0:0:0:
144,192,62460,1,8,1:0:0:0:
272,192,62603,1,0,0:0:0:0:
48,192,62746,6,0,P|80:128|192:96,1,192,4|0,1:0|0:0,0:0:0:0:
352,128,63032,2,0,L|284:188,1,85.3333333333333,0|0,1:0|1:0,0:0:0:0:
448,192,63222,1,0,1:0:0:0:
288,192,63317,1,0,1:0:0:0:
208,224,63389,2,0,L|336:224,1,128,0|0,0:0|0:0,0:0:0:0:
176,224,63603,2,0,L|112:224,1,64,8|0,1:0|0:0,0:0:0:0:
272,224,63746,2,0,L|336:224,1,64,0|0,3:0|0:0,0:0:0:0:
176,224,63889,5,0,1:0:0:0:
144,226,63924,1,0,0:0:0:0:
113,235,63960,1,0,0:0:0:0:
85,251,63996,1,0,0:0:0:0:
62,273,64031,1,0,0:0:0:0:
32,336,64103,1,0,0:0:0:0:
192,336,64175,2,0,L|320:336,1,128,8|0,1:0|0:0,0:0:0:0:
160,336,64389,1,0,0:0:0:0:
80,336,64460,6,0,L|64:208,1,128,0|0,1:0|0:0,0:0:0:0:
96,208,64639,1,0,0:0:0:0:
224,208,64675,1,0,0:0:0:0:
384,208,64746,2,0,L|400:176,2,32,8|0|0,1:0|0:0|0:0,0:0:0:0:
256,208,64853,2,0,L|224:208,1,32,0|2,0:0|0:0,0:0:0:0:
96,208,64925,2,0,L|64:208,1,32,0|0,0:0|0:0,0:0:0:0:
224,240,65032,6,0,B|352:240|352:240|288:240,1,192,0|0,1:0|0:0,0:0:0:0:
128,208,65317,2,0,L|352:208,1,223.999993164063,12|0,1:0|0:0,0:0:0:0:
368,208,65496,1,0,0:0:0:0:
192,176,65603,1,0,1:0:0:0:
336,176,65675,1,2,0:0:0:0:
480,176,65746,2,0,L|416:176,1,64,2|2,0:0|0:0,0:0:0:0:
256,144,65889,2,0,L|448:144,1,192,8|0,1:0|0:0,0:0:0:0:
288,112,66175,6,0,L|160:112,1,128,0|0,1:0|0:0,0:0:0:0:
144,112,66353,1,0,0:0:0:0:
160,112,66389,1,0,0:0:0:0:
320,112,66460,1,8,1:0:0:0:
192,112,66603,2,0,L|208:176,1,64,0|0,0:0|0:0,0:0:0:0:
352,192,66746,1,0,1:0:0:0:
208,192,66817,1,2,0:0:0:0:
64,192,66889,2,0,L|128:192,1,64,2|2,0:0|0:0,0:0:0:0:
288,160,67032,2,0,L|96:160,1,192,8|0,1:0|0:0,0:0:0:0:
256,192,67317,6,0,B|384:192|384:192|320:192,1,192,2|0,1:0|0:0,0:0:0:0:
96,192,67603,2,0,L|160:192,1,64,8|0,1:0|0:0,0:0:0:0:
320,192,67746,2,0,L|256:192,1,64,0|0,0:0|0:0,0:0:0:0:
96,192,67889,1,0,1:0:0:0:
256,192,67960,1,2,0:0:0:0:
416,192,68032,2,0,L|480:192,1,64,2|2,0:0|0:0,0:0:0:0:
320,192,68175,6,0,P|256:160|320:96,1,192,8|0,1:0|0:0,0:0:0:0:
480,192,68460,2,0,P|448:256|400:288,1,128,0|2,1:0|0:0,0:0:0:0:
368,288,68639,1,0,0:0:0:0:
240,288,68675,1,0,0:0:0:0:
80,288,68746,2,0,L|144:288,2,64,8|2|2,1:0|0:0|0:0,0:0:0:0:
304,288,69032,2,0,L|368:288,1,64,0|0,1:0|0:0,0:0:0:0:
208,288,69175,2,0,L|144:288,1,64,0|0,0:0|0:0,0:0:0:0:
304,288,69317,2,0,B|432:288|432:288|368:288,1,192,8|0,1:0|0:0,0:0:0:0:
160,192,69603,6,0,L|32:192,1,128,4|0,1:0|0:0,0:0:0:0:
192,112,69817,2,0,L|320:112,1,128,0|0,1:0|0:0,0:0:0:0:
160,192,70032,2,0,L|288:192,1,128,4|0,1:0|0:0,0:0:0:0:
448,192,70246,2,0,L|320:192,1,128,0|0,1:0|0:0,0:0:0:0:
160,288,70460,2,0,L|144:96,1,192,8|0,1:0|0:0,0:0:0:0:
384,96,70746,6,0,L|256:96,1,128,4|0,1:0|0:0,0:0:0:0:
416,128,70960,2,0,L|288:128,1,128,0|0,1:0|0:0,0:0:0:0:
128,128,71175,2,0,L|256:128,1,128,0|0,1:0|0:0,0:0:0:0:
416,128,71389,2,0,L|288:128,1,128,0|0,1:0|0:0,0:0:0:0:
128,160,71603,2,0,L|320:160,1,192,8|0,1:0|0:0,0:0:0:0:
96,352,71889,6,0,B|0:352|0:352|32:352,1,128,0|0,1:0|0:0,0:0:0:0:
224,352,72103,2,0,B|320:352|320:352|288:352,1,128,0|0,1:3|0:0,0:0:0:0:
96,352,72317,1,8,1:0:0:0:
320,320,72460,2,0,P|293:262|242:224,1,128,0|0,1:0|0:0,0:0:0:0:
64,224,72675,2,0,P|91:166|142:128,1,128,0|0,1:0|0:0,0:0:0:0:
320,96,72889,1,8,1:0:0:0:
96,192,73032,5,0,1:2:0:0:
176,192,73103,1,0,0:0:0:0:
205,181,73138,1,0,0:0:0:0:
217,152,73174,1,0,0:0:0:0:
205,123,73210,1,0,0:0:0:0:
177,112,73245,1,0,0:0:0:0:
32,112,73317,2,0,L|48:48,1,64,0|0,0:0|0:0,0:0:0:0:
96,48,73460,1,0,0:0:0:0:
176,48,73532,1,0,0:0:0:0:
80,64,73603,5,0,0:0:0:0:
87,95,73638,1,0,0:0:0:0:
95,126,73674,1,0,0:0:0:0:
144,128,73746,1,0,0:0:0:0:
240,112,73817,1,0,0:0:0:0:
232,143,73852,1,0,0:0:0:0:
224,174,73888,1,0,0:0:0:0:
128,192,73960,1,2,2:1:0:0:
137,222,73995,1,0,0:0:0:0:
154,249,74031,1,0,0:0:0:0:
177,271,74067,1,0,0:0:0:0:
205,287,74102,1,0,0:0:0:0:
464,288,74175,5,4,1:0:0:0:
336,288,74460,1,2,0:1:0:0:
208,288,74746,1,0,0:0:0:0:
432,192,75031,1,2,0:1:0:0:
48,288,75317,5,0,0:0:0:0:
176,288,75602,1,2,0:1:0:0:
304,288,75888,1,2,0:1:0:0:
80,192,76175,1,0,0:0:0:0:
464,192,76460,6,0,B|352:192|352:192|464:192,1,223.999993164063,8|2,0:2|0:1,0:0:0:0:
320,224,76889,2,0,B|432:224|432:224|320:224,1,223.999993164063,8|0,0:2|0:0,0:0:0:0:
176,224,77317,2,0,L|288:224,1,111.999996582031,10|0,0:2|0:0,0:0:0:0:
64,80,77603,6,0,L|48:192,1,111.999996582031,0|0,0:0|0:0,0:0:0:0:
176,192,77889,2,0,L|192:304,1,111.999996582031,2|0,0:1|0:0,0:0:0:0:
304,304,78175,1,2,0:1:0:0:
192,304,78317,1,0,0:0:0:0:
336,304,78460,2,0,P|416:240|336:160,1,240,0|0,0:0|0:0,0:0:0:0:
160,304,78746,6,0,B|416:304|416:304|320:64,1,512,4|2,1:0|0:1,0:0:0:0:
432,64,79175,1,0,0:0:0:0:
288,64,79317,2,0,P|208:128|288:208,1,240,0|0,0:0|0:0,0:0:0:0:
368,208,79603,1,2,0:1:0:0:
256,208,79746,1,0,0:0:0:0:
112,208,79889,6,0,L|128:96,1,111.999996582031,0|0,0:0|0:0,0:0:0:0:
256,208,80175,2,0,L|240:320,1,111.999996582031,2|0,0:1|0:0,0:0:0:0:
128,320,80460,1,2,0:1:0:0:
240,320,80603,1,0,0:0:0:0:
96,320,80746,2,0,P|16:256|96:176,1,240,0|0,0:0|0:0,0:0:0:0:
240,176,81032,5,8,0:2:0:0:
352,176,81174,1,0,0:0:0:0:
240,176,81317,1,2,0:1:0:0:
384,208,81460,1,8,0:2:0:0:
272,208,81603,1,0,0:0:0:0:
160,208,81746,1,0,0:0:0:0:
304,208,81889,1,10,0:2:0:0:
336,208,81960,1,0,0:0:0:0:
304,208,82031,1,0,0:0:0:0:
96,80,82175,5,0,0:0:0:0:
208,80,82317,1,0,0:0:0:0:
64,80,82460,2,0,L|48:192,1,111.999996582031,2|0,0:1|0:0,0:0:0:0:
192,192,82746,1,0,0:0:0:0:
80,192,82888,1,0,0:0:0:0:
224,192,83031,2,0,L|240:304,1,111.999996582031,2|0,0:1|0:0,0:0:0:0:
480,304,83317,6,0,B|224:304|224:304|320:64,1,512,4|8,1:0|1:0,0:0:0:0:
208,64,83746,1,0,0:0:0:0:
352,64,83889,2,0,P|432:128|352:208,1,240,8|0,1:0|0:0,0:0:0:0:
272,208,84175,2,0,P|192:144|272:64,1,240,8|0,1:0|0:0,0:0:0:0:
352,64,84460,6,0,L|160:64,1,192,8|0,1:1|0:0,0:0:0:0:
304,96,84746,2,0,L|416:96,1,111.999996582031,8|0,1:0|0:0,0:0:0:0:
272,96,85032,2,0,P|192:160|272:240,1,240,8|0,1:0|0:0,0:0:0:0:
352,240,85317,2,0,P|432:176|352:96,1,240,8|0,1:0|0:0,0:0:0:0:
192,64,85603,6,0,L|176:192,1,128,8|0,1:0|0:0,0:0:0:0:
320,192,85817,2,0,L|336:304,1,64,0|8,0:0|1:0,0:0:0:0:
224,256,86032,1,0,0:0:0:0:
368,256,86175,2,0,L|384:128,1,128,8|0,1:0|0:0,0:0:0:0:
240,128,86389,2,0,L|224:16,1,64,0|8,0:0|1:0,0:0:0:0:
336,64,86604,1,0,0:0:0:0:
112,64,86746,6,0,L|128:192,1,128,8|0,1:0|0:0,0:0:0:0:
272,192,86960,2,0,L|208:192,1,64,0|8,0:0|1:0,0:0:0:0:
96,192,87175,1,0,0:0:0:0:
240,192,87317,2,0,B|368:192|368:192|304:192,1,192,8|0,1:0|0:0,0:0:0:0:
224,192,87603,2,0,P|144:128|224:48,1,240,8|0,1:0|0:0,0:0:0:0:
464,192,87889,6,0,L|480:256,1,64,4|0,1:0|1:0,0:0:0:0:
400,256,88032,2,0,L|384:320,1,64,0|0,1:0|1:0,0:0:0:0:
224,352,88175,2,0,L|160:352,1,64,0|0,1:0|1:0,0:0:0:0:
320,352,88317,2,0,L|256:352,1,64,0|0,1:0|1:0,0:0:0:0:
96,272,88460,6,0,L|80:208,1,64,2|0,1:1|0:0,0:0:0:0:
160,192,88603,2,0,L|176:128,1,64,0|0,0:0|0:0,0:0:0:0:
336,96,88746,2,0,L|400:96,1,64,8|0,1:0|0:0,0:0:0:0:
240,96,88889,2,0,L|176:96,1,64,0|0,0:0|0:0,0:0:0:0:
336,96,89032,6,0,L|352:160,1,64,0|0,1:0|0:0,0:0:0:0:
432,176,89175,2,0,L|416:240,1,64,0|0,0:0|0:0,0:0:0:0:
256,352,89317,2,0,L|240:288,1,64,8|0,1:0|0:0,0:0:0:0:
160,272,89460,2,0,L|176:208,1,64,0|0,0:0|0:0,0:0:0:0:
336,32,89603,6,0,L|400:32,1,64,0|0,1:0|0:0,0:0:0:0:
224,32,89746,2,0,L|208:96,1,64,0|0,0:0|0:0,0:0:0:0:
288,112,89889,2,0,L|352:112,1,64,8|0,1:0|0:0,0:0:0:0:
176,112,90032,2,0,L|112:112,1,64,0|0,0:0|0:0,0:0:0:0:
320,128,90175,6,0,L|336:192,1,64,0|0,1:0|0:0,0:0:0:0:
256,208,90317,2,0,L|240:272,1,64,0|0,0:0|0:0,0:0:0:0:
80,272,90460,2,0,L|144:272,1,64,8|0,1:0|0:0,0:0:0:0:
304,272,90603,6,0,L|320:208,1,64,2|0,1:0|0:0,0:0:0:0:
240,192,90745,2,0,L|224:128,1,64,0|0,1:0|0:0,0:0:0:0:
384,128,90888,2,0,L|448:128,1,64,0|0,1:0|0:0,0:0:0:0:
272,96,91032,6,0,L|240:96,1,32,8|0,1:0|0:0,0:0:0:0:
128,96,91103,1,0,1:0:0:0:
240,96,91139,2,0,L|272:96,1,32,0|0,0:0|1:0,0:0:0:0:
384,96,91210,1,0,0:0:0:0:
272,96,91246,2,0,L|240:96,1,32,0|0,1:0|0:0,0:0:0:0:
64,192,91317,6,0,L|48:320,1,128,0|0,0:0|0:0,0:0:0:0:
96,320,91532,1,0,0:0:0:0:
176,288,91603,2,0,L|48:288,1,128,0|0,0:0|0:0,0:0:0:0:
80,288,91817,1,0,0:0:0:0:
240,288,91889,6,0,L|176:288,2,64,0|0|0,0:0|0:0|0:0,0:0:0:0:
400,288,92103,1,0,0:0:0:0:
240,288,92175,2,0,L|224:224,1,64,0|0,0:0|0:0,0:0:0:0:
384,208,92317,1,2,0:0:0:0:
224,225,92389,1,2,0:0:0:0:
32,352,92460,6,0,B|320:352|320:352|368:64|368:64|90:142,1,863.999973632813,4|0,1:0|1:0,0:0:0:0:
32,192,92960,1,0,0:0:0:0:
192,192,93032,6,0,L|208:256,1,64,4|0,1:2|0:0,0:0:0:0:
368,352,93175,2,0,L|432:352,2,64,0|4|0,1:0|0:2|0:0,0:0:0:0:
208,352,93389,6,0,L|192:288,1,64,0|4,1:0|1:2,0:0:0:0:
272,272,93532,1,0,0:0:0:0:
432,272,93603,2,0,L|448:208,1,64,0|4,0:0|1:2,0:0:0:0:
368,192,93746,1,0,0:0:0:0:
208,192,93817,6,0,L|144:192,2,64,0|4|0,1:0|1:2|0:0,0:0:0:0:
368,64,94032,1,0,1:0:0:0:
448,64,94103,2,0,L|464:128,1,64,4|0,1:2|0:0,0:0:0:0:
303,129,94246,1,0,1:0:0:0:
223,129,94317,6,0,L|207:193,1,64,4|0,1:2|0:0,0:0:0:0:
355,230,94460,2,0,B|411:62|411:62|465:251|465:251|143:285,1,690.000013160706,2|0,0:1|0:0,0:0:0:0:
128,304,94746,6,0,B|48:27|48:27|128:304|128:304|416:304,1,863.999973632813,0|0,1:0|1:0,0:0:0:0:
480,304,95246,1,0,1:0:0:0:
320,304,95317,6,0,L|304:240,1,64,4|0,1:2|0:0,0:0:0:0:
384,240,95460,1,0,1:0:0:0:
224,240,95532,1,4,1:2:0:0:
143,241,95603,2,0,L|127:305,1,64,0|0,0:0|1:0,0:0:0:0:
288,304,95746,5,4,1:2:0:0:
368,304,95817,2,0,L|384:240,1,64,0|0,0:0|1:3,0:0:0:0:
224,240,95960,2,0,L|240:176,1,64,4|0,1:2|0:3,0:0:0:0:
320,176,96103,1,0,1:0:0:0:
160,160,96175,6,0,L|96:160,1,64,4|0,1:2|0:0,0:0:0:0:
64,96,96318,1,0,1:0:0:0:
224,80,96389,1,4,1:2:0:0:
304,64,96460,2,0,L|320:128,1,64,0|0,0:0|0:0,0:0:0:0:
160,160,96603,6,0,L|176:224,1,64,4|0,1:2|0:0,0:0:0:0:
336,224,96746,2,0,L|112:224,1,223.999993164063,2|4,0:0|1:2,0:0:0:0:
128,224,96925,1,0,0:0:0:0:
384,256,97032,6,0,B|96:256|96:256|144:-32|144:-32|416:48,1,863.999973632813,4|0,1:0|1:0,0:0:0:0:
480,64,97532,1,0,0:0:0:0:
320,48,97603,6,0,L|304:112,1,64,4|0,1:2|2:0,0:0:0:0:
144,128,97746,2,0,L|160:192,1,64,0|4,1:0|1:2,0:0:0:0:
240,192,97889,1,0,0:0:0:0:
80,192,97960,6,0,L|96:256,1,64,0|4,1:0|1:2,0:0:0:0:
176,256,98103,1,0,0:0:0:0:
352,256,98175,2,0,L|336:192,1,64,0|4,1:0|1:2,0:0:0:0:
256,192,98318,1,0,0:0:0:0:
416,192,98389,6,0,L|400:128,1,64,0|4,1:0|1:2,0:0:0:0:
320,128,98532,1,0,0:0:0:0:
160,128,98603,2,0,L|176:64,1,64,0|4,1:0|1:2,0:0:0:0:
256,64,98746,5,0,0:0:0:0:
416,192,98817,2,0,L|400:256,1,64,0|4,1:0|1:2,0:0:0:0:
320,256,98960,1,0,0:0:0:0:
160,336,99032,2,0,B|448:336|448:336|320:112,1,539.999983520508,2|0,0:1|0:0,0:0:0:0:
304,80,99317,6,0,B|16:80|16:80|48:368|48:368|336:368,1,863.999973632813,0|0,1:1|1:0,0:0:0:0:
400,368,99817,1,0,1:0:0:0:
240,336,99889,6,0,L|224:272,1,64,4|0,1:2|0:0,0:0:0:0:
304,256,100032,1,0,1:0:0:0:
144,256,100103,2,0,L|128:192,1,64,4|0,1:2|0:0,0:0:0:0:
208,176,100246,1,0,1:0:0:0:
368,160,100317,6,0,L|352:96,1,64,4|0,1:2|0:0,0:0:0:0:
208,96,100460,1,0,1:0:0:0:
272,96,100532,1,4,1:0:0:0:
279,127,100567,1,0,0:0:0:0:
287,158,100603,1,0,0:0:0:0:
144,192,100675,1,0,1:0:0:0:
208,192,100747,1,4,1:0:0:0:
215,223,100782,1,0,0:0:0:0:
223,254,100818,1,0,0:0:0:0:
64,256,100889,1,0,0:0:0:0:
112,256,100960,1,0,0:0:0:0:
278,168,101032,6,0,B|243:233|243:233|150:40|150:40|438:40|438:40|409:329|409:329|302:233,1,1007.99996923828,8|0,1:0|0:0,0:0:0:0:
80,352,101603,6,0,B|368:336|368:336|400:48|400:48|112:32,1,863.999973632813,4|0,1:0|1:0,0:0:0:0:
96,112,102103,1,0,0:0:0:0:
256,144,102175,6,0,L|128:128,1,128,4|0,1:2|1:0,0:0:0:0:
288,176,102389,2,0,L|160:160,1,128,4|0,1:2|1:0,0:0:0:0:
320,192,102603,6,0,L|304:256,1,64,4|0,1:2|0:0,0:0:0:0:
144,240,102746,1,0,1:0:0:0:
304,288,102817,2,0,L|432:272,1,128,4|0,1:2|1:0,0:0:0:0:
272,224,103032,6,0,L|240:96,1,128,4|0,1:2|1:0,0:0:0:0:
80,112,103246,2,0,L|208:96,1,128,4|0,1:2|1:0,0:0:0:0:
48,112,103460,6,0,L|64:176,1,64,4|0,1:2|0:0,0:0:0:0:
224,192,103603,2,0,B|168:24|168:24|114:213|114:213|436:247,1,690.000013160706,2|0,0:1|0:0,0:0:0:0:
416,320,103889,6,0,B|128:304|128:304|160:16|160:16|448:32,1,863.999973632813,0|0,1:0|0:0,0:0:0:0:
464,112,104389,1,0,1:0:0:0:
304,128,104460,6,0,L|176:144,1,128,4|0,1:2|1:0,0:0:0:0:
336,208,104674,2,0,L|464:224,1,128,4|0,1:2|1:0,0:0:0:0:
304,208,104888,6,0,L|288:272,1,64,4|0,1:2|0:0,0:0:0:0:
448,304,105031,1,0,1:0:0:0:
288,320,105102,2,0,L|416:304,1,128,4|0,1:2|1:0,0:0:0:0:
256,288,105317,6,0,L|240:160,1,128,4|0,1:2|1:0,0:0:0:0:
80,160,105531,2,0,L|208:144,1,128,4|0,1:2|1:0,0:0:0:0:
368,160,105745,6,0,L|304:144,1,64,4|0,1:2|0:0,0:0:0:0:
384,256,105889,2,0,L|448:240,3,64,0|0|0|0,1:0|1:0|1:0|1:0,0:0:0:0:
288,64,106175,6,0,B|32:48|32:48|80:304|80:304|320:224,1,768,4|0,1:0|1:0,0:0:0:0:
192,176,106746,1,0,1:0:0:0:
320,144,106889,1,0,1:0:0:0:
160,96,106960,2,0,L|144:224,1,128,0|0,1:0|1:0,0:0:0:0:
240,224,107175,6,0,L|256:352,1,128,0|0,1:0|1:0,0:0:0:0:
96,352,107389,2,0,L|80:224,1,128,0|0,1:0|1:0,0:0:0:0:
240,224,107603,1,0,1:0:0:0:
368,176,107746,2,0,L|304:160,1,64,0|0,1:0|0:0,0:0:0:0:
144,144,107889,2,0,L|208:128,1,64,0|0,1:0|0:0,0:0:0:0:
368,176,108032,1,0,1:0:0:0:
240,176,108175,1,0,1:0:0:0:
248,113,108246,1,0,1:0:0:0:
289,65,108317,1,0,1:0:0:0:
350,48,108389,1,0,1:0:0:0:
160,48,108460,6,0,L|144:112,1,64,4|0,1:2|0:0,0:0:0:0:
224,128,108603,2,0,L|240:192,1,64,0|0,1:2|0:0,0:0:0:0:
160,192,108746,2,0,L|96:192,1,64,0|0,1:2|0:0,0:0:0:0:
256,272,108889,2,0,L|320:272,1,64,0|0,1:0|1:0,0:0:0:0:
176,272,109032,6,0,L|160:336,1,64,0|0,1:0|0:0,0:0:0:0:
304,352,109175,1,0,1:0:0:0:
160,352,109246,2,0,L|96:336,1,64,0|0,1:0|1:0,0:0:0:0:
256,288,109389,1,0,1:0:0:0:
96,304,109460,2,0,L|64:240,1,64,0|0,1:0|1:0,0:0:0:0:
238,329,109603,6,0,B|375:117|375:117|239:331|239:331|376:117|376:117|123:40|123:40|30:273|30:273|123:35|123:35|375:115|375:115|401:240,1,1920,2|0,1:0|0:0,0:0:0:0:
128,352,110746,6,0,B|32:80|32:80|128:352|128:352|416:320,1,863.999973632813,4|2,1:0|0:0,0:0:0:0:
480,304,111246,1,0,0:0:0:0:
336,288,111317,6,0,L|304:224,1,64,8|0,1:0|0:0,0:0:0:0:
160,224,111460,1,2,0:0:0:0:
304,224,111532,2,0,L|336:160,1,64,2|0,0:0|0:0,0:0:0:0:
480,160,111675,1,0,0:0:0:0:
336,160,111747,6,0,L|304:96,1,64
160,96,111889,1,2,0:0:0:0:
304,96,111960,2,0,L|336:32,1,64,2|0,0:0|0:0,0:0:0:0:
480,32,112103,1,0,0:0:0:0:
332,38,112175,6,0,L|304:96,1,64,0|0,1:0|0:0,0:0:0:0:
160,96,112317,1,2,0:0:0:0:
304,96,112389,1,2,0:0:0:0:
448,96,112460,1,8,1:0:0:0:
288,96,112532,2,0,L|273:160,1,64,2|2,0:0|0:0,0:0:0:0:
353,158,112675,1,2,0:0:0:0:
160,176,112746,2,0,B|104:8|104:8|50:197|50:197|372:231,1,690.000013160706,2|0,0:1|0:0,0:0:0:0:
384,352,113032,6,0,B|480:80|480:80|384:352|384:352|96:320,1,863.999973632813,0|0,1:0|2:0,0:0:0:0:
32,304,113532,1,0,0:0:0:0:
176,288,113603,6,0,L|208:224,1,64,8|0,1:0|0:0,0:0:0:0:
352,224,113746,1,2,0:0:0:0:
208,224,113818,2,0,L|176:160,1,64,0|0,0:0|2:0,0:0:0:0:
32,160,113961,5,0,2:0:0:0:
176,159,114033,2,0,L|208:96,1,64,0|0,2:0|0:0,0:0:0:0:
352,96,114175,1,2,0:0:0:0:
208,96,114246,2,0,L|176:32,1,64,0|0,0:0|2:0,0:0:0:0:
32,32,114389,1,0,2:0:0:0:
177,34,114461,2,0,L|208:96,1,64,0|0,1:0|0:0,0:0:0:0:
352,96,114603,5,2,0:0:0:0:
208,96,114675,1,0,0:0:0:0:
64,96,114746,1,8,1:0:0:0:
224,96,114817,2,0,L|208:160,1,64,0|2,0:0|0:0,0:0:0:0:
128,160,114960,1,0,0:0:0:0:
320,176,115032,2,0,L|96:192,1,223.999993164063
112,224,115210,1,0,0:0:0:0:
368,304,115317,6,0,B|80:288|80:288|176:16|176:16|416:176,1,863.999973632813,0|0,1:0|0:0,0:0:0:0:
304,208,115782,1,0,0:0:0:0:
96,192,115889,1,8,1:0:0:0:
208,208,115925,1,0,0:0:0:0:
414,175,116032,1,2,0:0:0:0:
304,208,116067,1,0,0:0:0:0:
96,192,116175,1,0,1:0:0:0:
64,176,116210,1,0,0:0:0:0:
240,256,116317,6,0,B|496:240|496:240|400:32|400:32|368:64,1,512,2|2,0:0|0:0,0:0:0:0:
263,66,116639,1,0,0:0:0:0:
72,80,116746,2,0,L|136:64,1,64,0|0,1:0|0:0,0:0:0:0:
48,96,116889,2,0,L|96:144,1,64
248,176,117032,2,0,L|184:160,1,64,8|0,1:0|0:0,0:0:0:0:
272,192,117175,2,0,L|224:240,1,64
80,272,117317,6,0,L|336:256,1,256,2|2,0:1|0:1,0:0:0:0:
320,224,117496,1,0,0:0:0:0:
144,304,117603,6,0,B|432:288|432:288|496:0|496:0|230:119,1,863.999973632813,0|2,1:0|0:0,0:0:0:0:
128,176,118067,2,0,B|267:237|267:237|318:208,1,210.000002002716,0|8,0:0|1:0,0:0:0:0:
432,144,118210,1,0,0:0:0:0:
239,114,118317,1,0,2:0:0:0:
128,128,118352,1,0,0:0:0:0:
320,128,118460,1,0,1:0:0:0:
352,144,118496,1,0,0:0:0:0:
176,224,118603,1,0,2:0:0:0:
208,240,118639,1,0,0:0:0:0:
464,272,118746,5,0,2:3:0:0:
384,272,118817,1,0,0:0:0:0:
353,262,118852,1,0,0:0:0:0:
326,245,118888,1,0,0:0:0:0:
304,222,118924,1,0,0:0:0:0:
289,194,118959,1,0,0:0:0:0:
208,96,119032,1,0,1:3:0:0:
288,96,119103,1,0,0:0:0:0:
318,106,119138,1,0,0:0:0:0:
345,123,119174,1,0,0:0:0:0:
367,146,119210,1,0,0:0:0:0:
382,174,119245,1,0,0:0:0:0:
192,193,119317,6,0,B|159:282|159:282|96:99|96:99|378:45|378:45|431:329|431:329|351:205,1,1007.99996923828,8|0,1:1|0:0,0:0:0:0:
160,304,119889,6,0,P|80:240|160:160,1,240,0|0,1:0|0:0,0:0:0:0:
240,160,120175,2,0,P|320:224|240:304,1,240
96,304,120460,2,0,L|352:304,1,256,8|2,1:1|0:0,0:0:0:0:
336,304,120675,1,2,0:0:0:0:
160,272,120746,6,0,L|96:256,1,64,4|0,1:0|0:0,0:0:0:0:
256,160,120889,1,0,0:0:0:0:
319,167,120960,1,0,0:0:0:0:
464,176,121031,1,0,2:0:0:0:
320,208,121103,1,0,2:0:0:0:
256,215,121174,1,0,0:0:0:0:
112,224,121245,1,0,2:0:0:0:
256,160,121317,6,0,L|384:176,1,128,0|2,1:0|2:0,0:0:0:0:
224,240,121532,1,0,2:0:0:0:
64,256,121603,1,8,1:0:0:0:
256,240,121675,2,0,L|272:176,1,64,0|0,2:0|2:0,0:0:0:0:
192,160,121817,1,0,2:0:0:0:
352,176,121889,2,0,B|408:8|408:8|462:197|462:197|140:231,1,690.000013160706,0|0,0:0|0:0,0:0:0:0:
160,320,122175,6,0,B|448:304|448:304|368:32|368:32|96:144,1,863.999973632813,0|2,1:0|0:0,0:0:0:0:
112,176,122675,1,0,0:0:0:0:
272,192,122746,1,8,1:0:0:0:
335,199,122817,1,0,0:0:0:0:
399,207,122888,1,2,0:0:0:0:
240,192,122960,2,0,L|256:256,1,64,0|0,0:0|1:0,0:0:0:0:
416,272,123103,1,0,2:0:0:0:
256,272,123175,5,0,2:0:0:0:
192,264,123246,1,0,0:0:0:0:
48,192,123317,1,2,0:0:0:0:
192,352,123389,1,0,0:0:0:0:
255,344,123460,1,0,0:0:0:0:
400,336,123531,1,0,0:0:0:0:
240,288,123603,2,0,L|112:272,1,128,0|2,1:0|0:0,0:0:0:0:
256,272,123817,1,0,0:0:0:0:
400,240,123889,5,8,1:0:0:0:
224,64,123960,2,0,L|208:128,1,64,0|0,2:0|2:0,0:0:0:0:
288,144,124103,1,0,2:0:0:0:
112,176,124175,2,0,L|336:160,1,223.999993164063,2|2,2:1|2:1,0:0:0:0:
320,176,124354,1,0,0:0:0:0:
115,31,124460,6,0,P|35:95|115:175,1,240,4|0,1:0|0:0,0:0:0:0:
272,176,124746,2,0,L|304:176,1,32,8|0,1:0|0:0,0:0:0:0:
112,256,124889,2,0,L|144:256,1,32,2|0,0:0|0:0,0:0:0:0:
336,352,125032,6,0,L|352:320,1,32,0|0,1:0|0:0,0:0:0:0:
464,288,125175,2,0,L|448:256,1,32,2|0,0:0|0:0,0:0:0:0:
256,192,125317,2,0,L|240:160,1,32,8|0,1:0|0:0,0:0:0:0:
448,96,125460,2,0,L|462:124,1,32,0|0,0:0|0:0,0:0:0:0:
272,48,125603,6,0,L|257:249,1,192,0|0,1:0|0:0,0:0:0:0:
64,272,125889,2,0,L|80:240,1,32,8|0,1:0|0:0,0:0:0:0:
257,239,126032,2,0,L|289:239,1,32,2|0,0:0|0:0,0:0:0:0:
112,144,126175,6,0,L|128:112,1,32,0|0,1:0|0:0,0:0:0:0:
224,112,126318,2,0,L|256:112,1,32,0|0,0:0|0:0,0:0:0:0:
449,79,126460,2,0,L|433:111,1,32,8|0,1:0|0:0,0:0:0:0:
256,112,126603,2,0,L|224:112,1,32,2|0,0:0|0:0,0:0:0:0:
448,192,126746,6,0,L|432:320,1,128,0|2,1:0|0:0,0:0:0:0:
272,320,126960,1,0,0:0:0:0:
352,320,127032,2,0,L|336:192,1,128,8|2,1:0|0:0,0:0:0:0:
176,192,127246,1,0,0:0:0:0:
256,192,127318,6,0,L|272:320,1,128,8|2,1:0|0:0,0:0:0:0:
112,320,127532,1,0,0:0:0:0:
271,319,127603,2,0,L|335:303,2,64,8|0|0,1:0|0:0|0:0,0:0:0:0:
112,320,127817,1,0,0:0:0:0:
271,319,127889,6,0,L|287:255,1,64,0|2,1:0|0:0,0:0:0:0:
432,224,128032,2,0,L|497:209,1,64,2|2,0:0|0:0,0:0:0:0:
336,192,128175,2,0,L|320:128,1,64,8|2,1:0|0:0,0:0:0:0:
175,97,128318,2,0,L|110:82,1,64,2|2,0:0|0:0,0:0:0:0:
304,48,128460,6,0,L|432:32,1,128,8|0,1:0|0:0,0:0:0:0:
400,64,128675,1,0,0:0:0:0:
240,96,128746,2,0,L|368:80,1,128,0|0,0:0|0:0,0:0:0:0:
144,32,129032,6,0,B|16:32|16:32|80:32,1,192,0|0,1:0|0:0,0:0:0:0:
240,32,129317,2,0,L|256:96,1,64,12|0,1:0|0:0,0:0:0:0:
416,96,129460,2,0,L|352:96,1,64,0|0,0:0|0:0,0:0:0:0:
192,96,129603,6,0,L|320:96,1,128,0|2,1:0|0:0,0:0:0:0:
160,96,129817,2,0,L|96:96,1,64,0|8,0:0|1:0,0:0:0:0:
240,160,130032,1,0,0:0:0:0:
112,128,130175,6,0,L|240:128,1,128,0|0,1:0|2:0,0:0:0:0:
80,128,130389,2,0,L|16:128,1,64,0|8,0:0|1:0,0:0:0:0:
144,160,130603,2,0,L|80:160,1,64,0|0,2:0|0:0,0:0:0:0:
240,160,130746,5,0,1:0:0:0:
400,160,130817,2,0,L|336:160,2,64,0|0|0,0:0|0:0|0:0,0:0:0:0:
256,192,131032,2,0,L|480:192,1,223.999993164063,8|0,1:0|0:0,0:0:0:0:
464,192,131210,1,0,0:0:0:0:
432,192,131246,1,0,0:0:0:0:
224,192,131317,6,0,P|144:128|224:48,1,240,2|0,1:1|0:0,0:0:0:0:
384,192,131603,2,0,L|256:192,1,128,8|0,1:0|0:0,0:0:0:0:
96,192,131817,1,0,0:0:0:0:
256,272,131889,6,0,L|128:272,1,128,0|0,1:0|0:0,0:0:0:0:
288,272,132103,2,0,L|352:272,1,64,0|8,0:0|1:0,0:0:0:0:
208,240,132317,1,0,2:0:0:0:
336,240,132460,6,0,L|208:240,1,128,0|0,1:0|0:0,0:0:0:0:
368,240,132674,2,0,L|432:240,1,64,0|8,0:0|1:0,0:0:0:0:
288,208,132889,2,0,L|352:208,1,64,0|0,0:0|0:0,0:0:0:0:
208,208,133032,5,0,1:0:0:0:
64,208,133103,2,0,L|128:208,2,64,2|2|2,0:0|0:0|0:0,0:0:0:0:
208,240,133317,2,0,L|432:240,1,223.999993164063,8|0,1:0|1:0,0:0:0:0:
464,240,133496,1,0,0:0:0:0:
240,208,133603,6,0,L|208:208,1,32,2|0,1:0|0:0,0:0:0:0:
336,208,133746,2,0,L|320:144,1,64,0|0,0:0|0:0,0:0:0:0:
128,144,133889,2,0,P|144:80|208:48,1,128,8|2,1:0|0:0,0:0:0:0:
304,48,134067,1,0,0:0:0:0:
480,192,134175,6,0,P|464:256|400:288,1,128,0|2,1:0|0:0,0:0:0:0:
304,288,134353,1,0,0:0:0:0:
128,144,134460,2,0,L|352:144,1,223.999993164063,8|0,1:0|0:0,0:0:0:0:
368,144,134639,1,0,0:0:0:0:
352,144,134675,1,0,0:0:0:0:
160,176,134746,6,0,L|128:176,1,32,0|0,1:0|0:0,0:0:0:0:
320,208,134889,2,0,L|352:208,1,32,0|0,0:0|0:0,0:0:0:0:
224,208,135032,2,0,L|160:208,1,64,8|2,1:0|0:0,0:0:0:0:
320,208,135175,1,2,0:0:0:0:
480,208,135246,1,2,0:0:0:0:
320,208,135317,6,0,L|384:192,1,64,0|2,1:0|0:0,0:0:0:0:
304,176,135460,2,0,L|368:160,1,64,2|2,0:0|0:0,0:0:0:0:
208,176,135603,2,0,L|144:160,1,64,8|0,1:0|0:0,0:0:0:0:
304,176,135746,1,0,0:0:0:0:
335,168,135781,1,0,0:0:0:0:
464,176,135817,1,0,0:0:0:0:
288,176,135889,6,0,B|256:224|256:224|176:48|176:48|432:96,1,512,4|8,1:0|1:0,0:0:0:0:
448,176,136246,1,0,0:0:0:0:
288,176,136317,2,0,L|272:240,1,64,0|0,0:0|0:0,0:0:0:0:
80,240,136460,6,0,B|32:240|32:240|48:240,1,64,0|0,1:0|0:0,0:0:0:0:
176,240,136603,1,0,0:0:0:0:
288,240,136639,1,0,0:0:0:0:
112,272,136746,2,0,B|64:272|64:272|80:272,1,64,8|0,1:0|0:0,0:0:0:0:
208,272,136889,1,0,0:0:0:0:
320,272,136925,1,0,0:0:0:0:
112,240,137032,5,0,1:0:0:0:
192,240,137103,1,0,0:0:0:0:
207,212,137138,1,0,0:0:0:0:
231,190,137174,1,0,0:0:0:0:
260,176,137210,1,0,0:0:0:0:
291,171,137245,1,0,0:0:0:0:
448,144,137317,1,8,1:0:0:0:
336,96,137459,1,0,0:0:0:0:
256,96,137532,1,0,0:0:0:0:
48,320,137603,6,0,B|176:64|176:64|48:320|48:320|338:321|338:321|48:320,1,1151.99996484375,8|4,1:0|1:0,0:0:0:0:
144,288,138317,2,0,L|80:288,1,64,4|0,2:0|0:0,0:0:0:0:
240,288,138460,2,0,B|336:288|336:288|304:288,1,128,8|4,1:0|2:0,0:0:0:0:
240,256,138675,1,0,0:0:0:0:
80,256,138746,6,0,L|208:256,1,128,4|2,1:2|0:0,0:0:0:0:
352,256,138960,2,0,L|288:256,2,64,2|8|0,0:0|1:0|0:0,0:0:0:0:
496,256,139175,2,0,L|432:256,1,64,4|0,2:2|2:0,0:0:0:0:
288,256,139317,6,0,B|160:256,1,128,0|2,1:0|0:0,0:0:0:0:
304,288,139532,2,0,L|240:288,2,64,2|8|0,0:0|1:0|0:0,0:0:0:0:
448,288,139746,1,2,0:0:0:0:
304,288,139817,1,2,0:0:0:0:
144,288,139889,6,0,L|208:288,1,64,0|0,1:0|2:0,0:0:0:0:
48,288,140032,2,0,L|64:224,1,64,6|2,0:2|0:0,0:0:0:0:
256,176,140175,2,0,B|0:192|0:192|32:272|32:272|64:240,1,384,8|0,1:0|0:0,0:0:0:0:
256,176,140460,6,0,P|336:96|256:48,1,240,2|0,1:0|0:0,0:0:0:0:
112,48,140746,2,0,L|240:48,1,128,8|2,1:0|0:0,0:0:0:0:
384,48,140960,2,0,L|320:48,2,64,2|0|0,0:0|1:0|0:0,0:0:0:0:
224,128,141175,2,0,L|288:128,1,64,2|2,0:0|0:0,0:0:0:0:
448,128,141317,1,8,1:0:0:0:
224,256,141460,2,0,L|160:256,1,64,0|0,1:0|0:0,0:0:0:0:
352,160,141603,6,0,B|448:160|448:160|416:160,1,128,0|0,1:0|0:0,0:0:0:0:
256,160,141817,2,0,L|192:160,1,64,0|8,0:0|1:0,0:0:0:0:
416,160,142032,2,0,L|400:96,1,64,2|0,0:0|0:0,0:0:0:0:
240,128,142175,6,0,L|176:128,1,64,0|0,1:0|0:0,0:0:0:0:
320,128,142317,1,0,0:0:0:0:
464,128,142389,1,0,0:0:0:0:
288,160,142460,2,0,L|224:160,1,64,8|0,1:0|0:0,0:0:0:0:
384,192,142603,2,0,L|368:256,1,64,0|0,1:0|0:0,0:0:0:0:
144,320,142746,6,0,P|64:240|144:192,1,240,4|0,1:0|0:0,0:0:0:0:
304,192,143032,2,0,L|320:128,1,64,8|0,1:0|0:0,0:0:0:0:
400,128,143175,2,0,L|384:64,1,64,0|0,0:0|0:0,0:0:0:0:
224,48,143317,6,0,L|208:112,1,64,0|0,1:0|0:0,0:0:0:0:
128,112,143460,2,0,L|144:176,1,64,0|0,0:0|0:0,0:0:0:0:
304,192,143603,2,0,L|320:128,1,64,8|0,1:0|0:0,0:0:0:0:
462,112,143746,2,0,L|398:128,1,64,0|0,0:0|0:0,0:0:0:0:
224,48,143889,6,0,L|208:112,1,64,0|0,1:0|0:0,0:0:0:0:
66,128,144032,2,0,L|130:112,1,64,0|0,0:0|0:0,0:0:0:0:
304,192,144175,2,0,L|320:128,1,64,8|0,1:0|0:0,0:0:0:0:
462,112,144317,2,0,L|478:48,1,64,0|0,0:0|0:0,0:0:0:0:
320,128,144460,6,0,L|304:192,1,64,0|0,1:0|0:0,0:0:0:0:
162,208,144602,2,0,L|146:272,1,64,0|0,0:0|0:0,0:0:0:0:
304,288,144746,2,0,L|368:288,1,64,8|0,1:0|0:0,0:0:0:0:
208,352,144889,2,0,L|224:290,1,64,0|0,0:0|0:0,0:0:0:0:
464,192,145032,6,0,L|480:128,1,64,4|0,1:0|1:0,0:0:0:0:
400,128,145175,2,0,L|384:64,1,64,0|0,1:0|1:0,0:0:0:0:
224,64,145317,6,0,L|208:128,1,64,8|0,1:2|1:0,0:0:0:0:
288,128,145460,2,0,L|304:192,1,64,0|0,1:0|1:0,0:0:0:0:
144,192,145603,6,0,L|80:192,1,64,8|0,0:2|0:0,0:0:0:0:
240,272,145746,2,0,L|304:272,1,64,0|0,0:0|0:0,0:0:0:0:
464,352,145889,6,0,L|496:352,1,32,8|0,0:2|0:0,0:0:0:0:
368,352,145960,2,0,L|336:352,1,32,0|0,0:0|0:0,0:0:0:0:
208,320,146032,2,0,L|176:320,1,32,0|0,0:0|0:0,0:0:0:0:
304,320,146103,2,0,L|336:320,1,32,0|0,0:0|0:0,0:0:0:0:
160,80,146175,6,0,P|64:112|32:192,1,192,4|0,1:0|0:0,0:0:0:0:
192,192,146460,2,0,P|288:224|320:304,1,192,0|0,0:0|0:0,0:0:0:0:
160,304,146746,5,0,0:0:0:0:
164,272,146781,1,0,0:0:0:0:
177,243,146817,1,0,0:0:0:0:
197,219,146853,1,0,0:0:0:0:
224,201,146888,1,0,0:0:0:0:
287,192,146960,1,0,0:0:0:0:
448,80,147032,2,0,B|160:96|160:96|192:176|192:176|224:112,1,431.999986816407,8|0,1:0|0:0,0:0:0:0:
448,80,147317,1,4,2:1:0:0:
384,32,156460,5,2,0:0:0:0:
256,32,156603,2,0,L|304:32,1,47.9999985351563,2|0,0:0|0:0,0:0:0:0:
224,112,156746,2,0,L|176:112,2,47.9999985351563,2|0|2,0:0|0:0|0:0,0:0:0:0:
352,112,157032,2,0,P|416:160|352:224,1,191.999994140625
256,224,157460,1,2,0:0:0:0:
384,224,157603,6,0,L|432:224,2,47.9999985351563,2|0|0,0:0|0:0|0:0,0:0:0:0:
288,304,157889,1,2,0:0:0:0:
384,304,158032,1,2,0:0:0:0:
256,224,158175,2,0,L|208:224,2,47.9999985351563,2|0|0,0:0|0:0|0:0,0:0:0:0:
384,304,158460,1,2,0:0:0:0:
288,304,158603,1,2,0:0:0:0:
192,304,158746,5,0,0:0:0:0:
320,224,158889,2,0,L|368:224,1,47.9999985351563,2|2,0:0|0:0,0:0:0:0:
288,224,159032,2,0,L|240:224,1,47.9999985351563,2|0,0:0|0:0,0:0:0:0:
320,224,159175,1,2,0:0:0:0:
192,160,159317,1,2,0:0:0:0:
288,160,159460,2,0,L|96:160,1,191.999994140625,0|2,0:0|0:0,0:0:0:0:
224,160,159889,6,0,P|288:208|224:272,1,191.999994140625,0|2,0:0|0:0,0:0:0:0:
128,272,160317,1,0,0:0:0:0:
256,272,160460,2,0,L|208:272,1,47.9999985351563,2|0,0:0|0:0,0:0:0:0:
128,272,160603,1,0,0:0:0:0:
208,272,160746,1,2,0:0:0:0:
336,272,160889,1,0,0:0:0:0:
176,192,161032,6,0,L|128:192,1,47.9999985351563,2|0,0:0|0:0,0:0:0:0:
208,192,161175,2,0,L|256:192,1,47.9999985351563,2|0,0:0|0:0,0:0:0:0:
336,160,161317,1,2,0:0:0:0:
240,160,161460,1,2,0:0:0:0:
368,160,161603,2,0,P|432:208|368:272,1,191.999994140625,0|0,0:0|0:0,0:0:0:0:
464,272,162032,1,2,0:0:0:0:
336,272,162175,5,2,0:0:0:0:
328,319,162246,1,0,0:0:0:0:
320,366,162317,1,0,0:0:0:0:
192,368,162460,1,2,0:0:0:0:
288,368,162603,1,2,0:0:0:0:
160,368,162746,1,2,0:0:0:0:
152,321,162817,1,0,0:0:0:0:
144,274,162888,1,0,0:0:0:0:
272,272,163032,1,2,0:0:0:0:
176,272,163175,1,2,0:0:0:0:
272,272,163317,5,0,0:0:0:0:
144,272,163460,2,2,L|128:224,1,47.9999985351563
208,208,163603,2,0,L|224:160,1,47.9999985351563,0|0,0:0|0:0,0:0:0:0:
304,160,163746,1,2,0:0:0:0:
176,144,163889,2,0,L|272:128,1,95.9999970703126,0|2,0:0|0:0,0:0:0:0:
144,272,164175,2,0,L|48:256,1,95.9999970703126,0|0,0:0|0:0,0:0:0:0:
176,144,164460,6,0,L|192:48,1,95.9999970703126,0|2,0:0|0:0,0:0:0:0:
144,32,164675,1,0,0:0:0:0:
96,16,164746,1,0,0:0:0:0:
224,64,164889,1,2,0:0:0:0:
96,64,165032,2,0,L|80:112,1,47.9999985351563,2|2,0:0|0:0,0:0:0:0:
160,144,165175,2,0,L|208:144,1,47.9999985351563
288,176,165317,2,0,L|272:224,1,47.9999985351563,2|2,0:0|0:0,0:0:0:0:
192,240,165460,1,2,0:0:0:0:
336,272,165603,5,2,0:0:0:0:
390,265,165674,1,2,0:0:0:0:
433,229,165745,1,2,0:0:0:0:
449,176,165817,1,2,0:0:0:0:
434,123,165888,1,2,0:0:0:0:
392,87,165960,1,0,0:0:0:0:
337,79,166031,1,2,0:0:0:0:
464,192,166175,2,0,P|432:288|352:320,1,191.999994140625,0|0,0:0|0:0,0:0:0:0:
256,320,166603,1,2,0:0:0:0:
384,320,166746,6,0,L|400:272,2,47.9999985351563
256,320,167032,1,2,0:0:0:0:
160,320,167175,1,2,0:0:0:0:
288,320,167317,2,0,L|304:272,2,47.9999985351563,0|0|0,0:0|0:0|0:0,0:0:0:0:
160,320,167603,1,2,0:0:0:0:
256,320,167746,1,0,0:0:0:0:
160,320,167889,5,0,0:0:0:0:
304,240,168032,2,0,L|320:192,1,47.9999985351563,2|0,0:0|0:0,0:0:0:0:
240,176,168175,2,0,L|256:128,1,47.9999985351563,0|0,0:0|0:0,0:0:0:0:
336,128,168317,1,0,0:0:0:0:
224,128,168460,1,2,0:0:0:0:
368,128,168603,2,0,L|176:128,1,191.999994140625,0|2,0:0|0:0,0:0:0:0:
272,128,169032,6,0,L|288:224,1,95.9999970703126,0|0,0:0|0:0,0:0:0:0:
384,224,169317,2,0,L|368:320,1,95.9999970703126,2|0,0:0|0:0,0:0:0:0:
256,320,169603,1,2,0:0:0:0:
368,320,169746,1,2,0:0:0:0:
224,320,169889,2,0,L|176:320,2,47.9999985351563,2|0|0,0:0|0:0|0:0,0:0:0:0:
368,320,170175,5,2,0:0:0:0:
272,320,170317,1,2,0:0:0:0:
400,320,170460,1,2,0:0:0:0:
444,306,170531,1,2,0:0:0:0:
464,264,170602,1,2,0:0:0:0:
445,222,170674,1,2,0:0:0:0:
401,207,170745,1,0,0:0:0:0:
288,208,170889,1,0,0:0:0:0:
368,208,171032,1,2,0:0:0:0:
480,208,171175,1,0,0:0:0:0:
352,64,171317,6,0,L|256:80,1,95.9999970703126,2|0,0:0|0:0,0:0:0:0:
400,48,171603,2,0,L|416:144,1,95.9999970703126,2|0,0:0|0:0,0:0:0:0:
272,192,171889,2,0,L|368:176,1,95.9999970703126,2|0,0:0|0:0,0:0:0:0:
224,272,172175,2,0,L|141:217,1,95.9999970703126,2|0,0:0|0:0,0:0:0:0:
304,208,172460,5,0,0:0:0:0:
289,162,172531,1,0,0:0:0:0:
264,121,172602,1,0,0:0:0:0:
229,88,172674,1,0,0:0:0:0:
187,65,172745,1,0,0:0:0:0:
141,52,172817,1,0,0:0:0:0:
93,52,172888,1,0,0:0:0:0:
47,64,172960,1,0,0:0:0:0:
112,128,173032,6,2,L|128:176,1,47.9999985351563
224,176,173175,2,2,L|272:176,1,47.9999985351563,2|2,0:0|0:0,0:0:0:0:
368,176,173317,2,2,L|384:224,1,47.9999985351563,2|2,0:0|0:0,0:0:0:0:
208,256,173460,2,2,L|144:256,1,47.9999985351563,2|2,0:0|0:0,0:0:0:0:
368,176,173603,5,4,1:0:0:0:
224,112,173746,1,0,0:0:0:0:
304,80,173889,1,0,0:0:0:0:
160,32,174032,1,0,0:0:0:0:
144,112,174103,1,0,0:0:0:0:
336,192,174175,2,0,P|400:224|432:288,1,143.999995605469,0|0,0:0|0:0,0:0:0:0:
192,288,174460,2,0,L|336:288,1,143.999995605469,8|0,0:1|0:0,0:0:0:0:
80,192,174746,5,4,1:0:0:0:
176,192,174889,2,0,L|128:192,1,47.9999985351563
208,192,175032,2,0,L|256:192,1,47.9999985351563,2|2,0:0|0:0,0:0:0:0:
336,192,175175,2,0,L|288:192,1,47.9999985351563,2|2,0:0|0:0,0:0:0:0:
160,192,175317,2,0,P|96:128|160:80,1,192,0|0,0:0|0:0,0:0:0:0:
240,80,175603,1,2,0:0:0:0:
128,80,175746,1,0,0:0:0:0:
272,80,175889,6,0,L|320:80,2,47.9999985351563,0|0|0,0:0|0:0|0:0,0:0:0:0:
128,192,176175,1,2,0:0:0:0:
208,192,176317,1,0,0:0:0:0:
352,192,176460,1,0,0:0:0:0:
359,239,176531,1,0,0:0:0:0:
367,286,176602,1,0,0:0:0:0:
256,288,176746,1,2,0:0:0:0:
368,288,176889,1,0,0:0:0:0:
144,288,177032,5,0,0:0:0:0:
288,288,177175,2,0,L|304:240,1,47.9999985351563,2|0,0:0|0:0,0:0:0:0:
224,224,177317,2,0,L|208:176,1,47.9999985351563,0|0,0:0|0:0,0:0:0:0:
128,176,177460,1,0,0:0:0:0:
256,192,177603,2,0,P|208:112|112:96,1,191.999994140625,0|2,0:0|0:0,0:0:0:0:
208,64,178032,1,0,0:0:0:0:
352,64,178175,6,0,L|400:64,2,47.9999985351563,0|0|0,0:0|0:0|0:0,0:0:0:0:
240,64,178460,2,0,L|192:64,2,47.9999985351563,0|0|2,0:0|0:0|0:0,0:0:0:0:
464,64,178746,1,0,0:0:0:0:
352,64,178889,1,2,0:0:0:0:
496,64,179032,2,0,L|512:112,1,47.9999985351563,0|0,0:0|0:0,0:0:0:0:
432,144,179175,2,0,L|416:192,1,47.9999985351563,0|0,0:0|0:0,0:0:0:0:
208,256,179317,6,0,B|464:240|464:240|368:144|368:144|352:16,1,512,4|0,1:0|0:0,0:0:0:0:
464,16,179746,1,4,1:0:0:0:
256,32,179889,2,0,B|160:32|160:32|256:32,1,191.999994140625,0|0,0:0|0:0,0:0:0:0:
144,64,180317,1,2,0:0:0:0:
288,64,180460,6,0,L|336:64,2,47.9999985351563,0|0|0,0:0|0:0|0:0,0:0:0:0:
144,96,180746,1,2,0:0:0:0:
224,96,180889,1,0,0:0:0:0:
368,96,181032,2,0,L|416:96,2,47.9999985351563,0|0|0,0:0|0:0|0:0,0:0:0:0:
256,96,181317,1,2,0:0:0:0:
368,96,181460,1,0,0:0:0:0:
144,192,181603,5,0,0:0:0:0:
272,192,181746,2,0,L|224:192,1,47.9999985351563,2|0,0:0|0:0,0:0:0:0:
304,272,181889,2,0,L|352:272,1,47.9999985351563,0|0,0:0|0:0,0:0:0:0:
272,192,182032,2,0,L|224:192,1,47.9999985351563,0|0,0:0|0:0,0:0:0:0:
144,192,182175,2,0,L|128:96,1,95.9999970703126,0|2,0:0|0:0,0:0:0:0:
256,32,182460,2,0,L|272:128,1,95.9999970703126,0|0,0:3|0:1,0:0:0:0:
64,192,182746,5,0,0:0:0:0:
144,192,182889,1,2,0:0:0:0:
352,192,183032,1,0,0:0:0:0:
144,192,183175,1,2,0:0:0:0:
352,192,183317,2,0,L|304:192,1,47.9999985351563,0|0,0:0|0:0,0:0:0:0:
384,192,183460,2,0,L|432:192,1,47.9999985351563,0|0,0:0|0:0,0:0:0:0:
272,192,183603,2,0,L|224:192,1,47.9999985351563,0|0,0:0|0:0,0:0:0:0:
144,192,183746,2,0,L|192:192,1,47.9999985351563,0|0,0:0|0:0,0:0:0:0:
416,272,183889,6,0,B|128:256|128:256|208:80|208:80|240:176,1,575.999982421876,4|8,1:0|1:0,0:0:0:0:
128,176,184317,1,2,1:0:0:0:
336,176,184460,2,0,B|432:176|432:176|336:176,1,191.999994140625,0|8,0:0|1:0,0:0:0:0:
464,176,184889,1,0,0:0:0:0:
224,96,185032,6,0,L|480:96,1,256,4|0,1:0|0:0,0:0:0:0:
448,128,185246,2,0,L|192:128,1,256,4|0,1:0|0:3,0:0:0:0:
224,96,185460,1,4,1:0:0:0:
448,128,185603,2,0,L|192:128,1,256,0|0,0:0|0:0,0:0:0:0:
288,128,185889,1,8,1:0:0:0:
80,128,186032,1,2,0:0:0:0:
288,128,186175,6,0,B|317:38|317:38|397:214|397:214|109:230,1,575.999982421876,4|10,1:0|1:1,0:0:0:0:
256,240,186532,2,0,L|320:256,2,64,2|4|0,0:0|1:0|0:0,0:0:0:0:
112,256,186746,2,0,P|32:208|128:112,1,256,0|8,0:0|1:0,0:0:0:0:
224,192,187175,1,2,0:0:0:0:
464,128,187317,6,0,L|208:112,1,256,4|0,1:0|0:0,0:0:0:0:
288,128,187532,2,0,L|32:144,1,256,4|0,1:0|0:0,0:0:0:0:
112,160,187746,2,0,L|368:176,1,256,4|0,1:0|0:0,0:0:0:0:
288,128,187960,2,0,L|32:144,1,256,4|0,1:0|0:0,0:0:0:0:
112,160,188175,2,0,B|368:144|368:144|352:224|352:224|320:192,1,384,8|0,1:0|0:0,0:0:0:0:
128,160,188460,6,0,B|99:70|99:70|19:246|19:246|307:262,1,575.999982421876,4|10,1:0|1:1,0:0:0:0:
192,288,188889,1,4,1:0:0:0:
400,304,189032,2,0,L|144:288,1,256,0|8,0:0|1:0,0:0:0:0:
256,272,189460,1,0,0:0:0:0:
32,192,189603,6,0,L|288:176,1,256,4|0,1:0|0:0,0:0:0:0:
320,160,189817,2,0,L|64:144,1,256,4|0,1:0|0:0,0:0:0:0:
96,96,190032,1,4,1:0:0:0:
320,160,190175,2,0,L|64:144,1,256,0|0,0:0|0:0,0:0:0:0:
160,128,190460,1,8,1:0:0:0:
400,96,190603,1,0,0:0:0:0:
192,224,190746,6,0,B|480:208|480:208|400:32|400:32|371:122,1,575.999982421876,4|10,1:0|1:0,0:0:0:0:
224,128,191103,2,0,L|160:112,2,64,2|4|0,0:0|1:0|0:0,0:0:0:0:
368,128,191317,2,0,L|496:112,1,128,2|0,0:0|0:0,0:0:0:0:
256,128,191603,2,0,L|240:256,1,128,8|0,1:0|0:0,0:0:0:0:
32,208,191889,6,0,L|288:192,1,256,0|0,1:0|0:0,0:0:0:0:
208,176,192103,2,0,L|464:192,1,256,0|0,1:0|0:0,0:0:0:0:
384,208,192317,2,0,L|128:224,1,256,0|0,1:0|0:0,0:0:0:0:
208,240,192532,2,0,L|464:256,1,256,0|0,1:0|0:0,0:0:0:0:
384,160,192746,2,0,B|96:176|96:176|128:256|128:256|160:208,1,431.999986816407,0|0,1:0|0:0,0:0:0:0:
384,288,193032,6,0,L|400:224,1,64,4|0,1:0|0:0,0:0:0:0:
240,192,193175,2,0,L|256:128,1,64,0|0,0:0|0:0,0:0:0:0:
336,112,193317,2,0,L|400:112,1,64,2|2,0:0|0:0,0:0:0:0:
480,112,193460,2,0,L|464:48,1,64,2|2,0:0|0:0,0:0:0:0:
271,67,193603,6,0,L|255:131,1,64,4|0,1:0|0:0,0:0:0:0:
416,160,193746,2,0,L|400:224,1,64,0|0,0:0|0:0,0:0:0:0:
320,240,193888,2,0,L|256:240,1,64,2|2,0:0|0:0,0:0:0:0:
176,240,194031,2,0,L|192:304,1,64,2|2,0:0|0:0,0:0:0:0:
384,336,194175,6,0,L|320:336,1,64,4|0,1:0|0:0,0:0:0:0:
160,240,194317,2,0,L|144:176,1,64,0|0,0:0|0:0,0:0:0:0:
224,176,194460,2,0,L|320:176,1,64,2|2,0:0|0:0,0:0:0:0:
368,176,194603,2,0,L|384:112,1,64,2|2,0:0|0:0,0:0:0:0:
192,96,194746,6,0,L|256:96,1,64,4|0,1:0|0:0,0:0:0:0:
416,192,194888,2,0,L|432:256,1,64,0|0,0:0|0:0,0:0:0:0:
352,256,195031,2,0,L|256:256,1,64,2|2,0:0|0:0,0:0:0:0:
208,256,195174,2,0,L|192:320,1,64,2|2,0:0|0:0,0:0:0:0:
384,352,195317,6,0,L|448:352,1,64,0|0,1:0|0:0,0:0:0:0:
288,256,195460,2,0,L|304:192,1,64,0|0,0:0|0:0,0:0:0:0:
464,192,195603,2,0,L|448:128,1,64,2|2,0:0|0:0,0:0:0:0:
368,112,195746,2,0,L|304:112,1,64,2|2,0:0|0:0,0:0:0:0:
128,32,195889,6,0,L|64:32,1,64,0|0,1:0|0:0,0:0:0:0:
224,128,196032,2,0,L|208:192,1,64,0|0,0:0|0:0,0:0:0:0:
48,192,196175,2,0,L|64:256,1,64,2|2,0:0|0:0,0:0:0:0:
144,272,196318,2,0,L|208:272,1,64,2|2,0:0|0:0,0:0:0:0:
416,192,196460,6,0,L|480:192,2,64,8|0|0,1:0|0:0|0:0,0:0:0:0:
256,192,196675,2,0,L|320:192,2,64,8|0|0,1:0|0:0|0:0,0:0:0:0:
96,112,196889,6,0,L|32:112,2,64,8|0|0,1:0|0:0|0:3,0:0:0:0:
256,112,197104,2,0,L|192:112,2,64,8|0|0,1:0|0:0|0:0,0:0:0:0:
416,192,197317,6,0,P|384:272|272:304,1,192,8|0,1:0|0:0,0:0:0:0:
48,272,197603,6,0,L|32:208,1,64,0|0,1:0|1:0,0:0:0:0:
112,192,197746,2,0,L|128:128,1,64,0|0,1:0|1:0,0:0:0:0:
288,128,197889,2,0,L|224:128,1,64,0|0,1:0|1:0,0:0:0:0:
64,48,198032,2,0,L|80:112,1,64,0|0,1:0|1:0,0:0:0:0:
272,128,198175,6,0,L|288:192,1,64,0|0,1:0|1:0,0:0:0:0:
368,192,198317,2,0,L|432:192,1,64,0|0,1:0|1:0,0:0:0:0:
240,160,198460,2,0,L|224:224,1,64,0|0,1:0|1:0,0:0:0:0:
144,224,198602,2,0,L|80:224,1,64,0|0,1:0|1:0,0:0:0:0:
256,320,198746,6,0,L|320:320,1,64,0|0,1:0|1:0,0:0:0:0:
480,192,198889,2,0,L|464:128,1,64,0|0,1:0|1:0,0:0:0:0:
256,64,199032,2,0,L|192:64,1,64,0|0,1:0|1:0,0:0:0:0:
32,192,199175,2,0,L|48:256,1,64,0|0,1:0|1:0,0:0:0:0:
208,256,199317,5,0,1:0:0:0:
368,256,199389,1,0,1:0:0:0:
208,256,199460,1,0,1:0:0:0:
47,254,199532,1,0,0:0:0:0:
208,256,199603,6,0,L|240:256,1,32,0|0,0:0|0:0,0:0:0:0:
368,256,199675,2,0,L|400:256,1,32,0|0,0:0|0:0,0:0:0:0:
240,256,199746,2,0,L|208:256,1,32,0|0,0:0|0:0,0:0:0:0:
80,256,199818,2,0,L|48:256,1,32,0|0,0:0|0:0,0:0:0:0:
240,256,199889,6,0,L|368:256,1,128,0|0,3:0|0:0,0:0:0:0:
304,256,200103,1,0,0:0:0:0:
208,256,200175,2,0,L|192:128,1,128,0|0,0:0|0:0,0:0:0:0:
224,128,200353,1,0,0:0:0:0:
352,128,200389,1,0,0:0:0:0:
432,128,200460,5,0,0:0:0:0:
427,159,200495,1,0,0:0:0:0:
415,188,200531,1,0,0:0:0:0:
394,213,200567,1,0,0:0:0:0:
367,230,200602,1,0,0:0:0:0:
305,240,200674,1,0,0:0:0:0:
224,240,200746,2,0,L|352:224,1,128,0|0,0:0|0:0,0:0:0:0:
320,256,200960,1,0,0:0:0:0:
144,320,201032,6,0,L|128:192,1,128,8|0,0:0|0:0,0:0:0:0:
208,192,201246,1,0,0:0:0:0:
128,192,201317,2,0,L|144:64,1,128,8|0,0:0|0:0,0:0:0:0:
288,48,201531,1,0,0:0:0:0:
144,48,201603,5,8,0:0:0:0:
113,57,201638,1,0,0:0:0:0:
86,74,201674,1,0,0:0:0:0:
64,97,201710,1,0,0:0:0:0:
49,125,201745,1,0,0:0:0:0:
32,192,201817,1,0,0:0:0:0:
192,192,201889,5,8,1:0:0:0:
304,192,201925,1,0,0:0:0:0:
416,192,201960,2,0,L|448:192,1,32,2|0,0:0|0:0,0:0:0:0:
448,192,202032,2,0,L|416:192,1,32,2|0,0:0|0:0,0:0:0:0:
304,192,202103,1,2,0:0:0:0:
96,32,202175,6,0,L|32:32,1,64,4|0,1:0|0:0,0:0:0:0:
192,112,202317,2,0,L|128:112,1,64,2|0,0:1|0:0,0:0:0:0:
288,112,202460,2,0,L|352:112,1,64,8|0,1:0|0:0,0:0:0:0:
192,112,202603,1,0,0:0:0:0:
32,112,202675,1,0,0:0:0:0:
192,192,202746,6,0,B|288:192|288:192|192:192,1,192,0|0,1:0|0:0,0:0:0:0:
112,224,203032,2,0,L|240:224,1,128,8|2,1:0|0:1,0:0:0:0:
400,224,203246,1,0,0:0:0:0:
240,224,203317,6,0,L|224:288,1,64,2|0,1:2|0:0,0:0:0:0:
304,288,203460,2,0,L|320:352,1,64,2|0,0:1|0:0,0:0:0:0:
160,352,203603,2,0,L|96:352,1,64,8|0,1:0|0:0,0:0:0:0:
256,352,203746,1,2,0:2:0:0:
416,352,203817,1,0,0:0:0:0:
224,320,203889,6,0,B|96:320|96:320|160:320,1,192,2|0,1:2|0:0,0:0:0:0:
320,320,204175,2,0,L|336:256,1,64,8|0,1:0|0:0,0:0:0:0:
176,176,204317,2,0,L|192:112,1,64,2|0,0:1|0:0,0:0:0:0:
352,192,204460,6,0,L|416:192,1,64,0|0,1:0|0:0,0:0:0:0:
256,272,204603,2,0,L|320:272,1,64,2|0,0:0|0:0,0:0:0:0:
160,272,204746,1,8,1:0:0:0:
320,272,204817,1,0,0:0:0:0:
480,272,204889,2,0,L|416:272,1,64
256,272,205032,6,0,P|288:192|384:160,1,192,0|0,1:0|0:0,0:0:0:0:
224,32,205317,2,0,L|96:32,1,128,8|2,1:0|0:0,0:0:0:0:
160,32,205532,1,0,0:0:0:0:
336,32,205603,6,0,L|352:160,1,128,0|0,1:0|0:0,0:0:0:0:
432,192,205817,1,0,0:0:0:0:
272,160,205889,2,0,L|256:288,1,128,8|2,1:0|0:0,0:0:0:0:
176,320,206103,1,0,0:0:0:0:
336,320,206175,5,0,1:0:0:0:
288,320,206246,1,0,0:0:0:0:
368,320,206317,2,0,L|432:320,1,64,2|0,0:1|0:0,0:0:0:0:
272,320,206460,1,8,1:0:0:0:
128,320,206496,1,0,0:0:0:0:
99,306,206531,1,0,0:0:0:0:
81,280,206567,1,0,0:0:0:0:
224,256,206603,1,2,0:0:0:0:
252,242,206638,1,0,0:0:0:0:
270,216,206674,1,0,0:0:0:0:
48,192,206746,6,0,L|112:192,1,64,4|0,1:0|0:0,0:0:0:0:
272,192,206889,2,0,L|208:192,1,64,2|0,0:1|0:0,0:0:0:0:
368,112,207032,2,0,L|304:112,1,64,8|0,1:0|0:0,0:0:0:0:
144,112,207175,1,0,0:0:0:0:
304,112,207246,1,0,0:0:0:0:
464,192,207317,6,0,L|272:192,1,192,0|0,1:0|0:0,0:0:0:0:
192,224,207603,2,0,L|320:224,1,128,8|2,1:0|0:0,0:0:0:0:
480,224,207817,1,0,0:0:0:0:
320,192,207889,6,0,L|336:128,1,64,2|0,1:2|0:0,0:0:0:0:
416,128,208032,2,0,L|400:64,1,64,2|0,0:1|0:0,0:0:0:0:
240,48,208175,2,0,L|304:48,1,64,8|0,1:0|0:0,0:0:0:0:
464,48,208317,1,2,0:0:0:0:
304,48,208389,1,0,0:0:0:0:
112,48,208460,6,0,P|144:128|240:160,1,192,2|0,1:2|0:0,0:0:0:0:
400,160,208746,2,0,L|336:160,1,64,8|0,1:0|0:0,0:0:0:0:
176,256,208889,2,0,L|240:256,1,64,2|0,0:0|0:0,0:0:0:0:
400,288,209032,6,0,L|416:352,1,64,0|0,1:0|0:0,0:0:0:0:
256,352,209175,2,0,L|320:352,1,64,2|0,0:1|0:0,0:0:0:0:
160,352,209317,1,8,1:0:0:0:
320,352,209389,1,0,0:0:0:0:
480,272,209460,2,0,L|464:208,1,64,0|0,2:0|2:0,0:0:0:0:
304,208,209603,6,0,L|432:208,1,128,0|0,1:0|0:0,0:0:0:0:
400,208,209817,1,0,0:0:0:0:
240,240,209889,2,0,L|368:240,1,128,8|2,1:1|0:1,0:0:0:0:
208,240,210103,1,0,0:0:0:0:
48,240,210175,6,0,L|32:176,1,64,2|0,1:2|0:0,0:0:0:0:
192,160,210317,2,0,L|128:160,1,64,2|0,0:2|0:0,0:0:0:0:
288,160,210460,1,8,1:0:0:0:
448,160,210532,1,0,0:0:0:0:
288,192,210603,2,0,L|352:192,1,64,0|0,0:0|0:0,0:0:0:0:
192,192,210746,6,0,L|128:192,1,64,2|0,1:2|0:0,0:0:0:0:
288,192,210889,1,2,0:2:0:0:
448,192,210960,1,0,0:0:0:0:
288,272,211032,2,0,L|224:272,1,64,8|2,1:0|0:2,0:0:0:0:
384,352,211175,2,2,L|320:352,1,64,2|2,0:2|0:2,0:2:0:0:
112,320,211317,6,0,L|208:320,1,95.9999970703126,4|0,1:0|0:0,0:0:0:0:
384,320,211460,2,0,L|288:320,1,95.9999970703126,4|0,1:0|0:0,0:0:0:0:
112,288,211603,2,0,L|48:288,1,64,8|0,1:0|0:0,0:0:0:0:
208,288,211746,1,0,0:0:0:0:
368,288,211817,1,0,0:0:0:0:
208,288,211889,6,0,P|240:208|336:176,1,192,0|0,1:0|0:0,0:0:0:0:
416,176,212175,2,0,L|288:176,1,128,8|0,1:0|0:2,0:0:0:0:
128,176,212389,1,0,0:0:0:0:
288,176,212460,6,0,L|304:112,1,64,2|0,1:2|0:0,0:0:0:0:
224,112,212603,2,0,L|208:48,1,64,2|0,0:1|0:0,0:0:0:0:
368,48,212746,2,0,L|432:48,1,64,8|0,1:0|0:0,0:0:0:0:
272,48,212889,1,2,0:0:0:0:
112,48,212960,1,0,0:0:0:0:
304,48,213032,6,0,P|384:112|304:192,1,240,2|0,1:2|0:0,0:0:0:0:
144,160,213317,2,0,L|208:160,1,64,8|0,1:0|0:0,0:0:0:0:
368,240,213460,2,0,L|304:240,1,64,0|0,0:0|0:0,0:0:0:0:
144,240,213603,6,0,L|128:304,1,64,0|0,1:0|0:0,0:0:0:0:
288,336,213746,2,0,L|224:336,1,64,0|0,0:0|0:0,0:0:0:0:
384,336,213889,1,8,1:0:0:0:
224,336,213960,1,0,0:0:0:0:
64,336,214032,2,0,L|128:336,1,64,0|0,0:0|0:0,0:0:0:0:
288,304,214175,6,0,L|96:304,1,192,0|0,1:0|0:0,0:0:0:0:
256,272,214460,1,8,1:0:0:0:
400,272,214603,2,0,L|336:272,2,64,0|0|0,1:0|0:0|0:0,0:0:0:0:
256,256,214889,2,0,L|272:192,1,64,0|0,1:0|0:0,0:0:0:0:
352,192,215032,1,8,1:0:0:0:
128,192,215175,2,0,L|192:192,1,64,2|0,0:1|0:0,0:0:0:0:
352,192,215317,6,0,L|384:192,1,32,0|0,1:0|0:0,0:0:0:0:
208,160,215460,2,0,L|176:160,1,32,0|0,1:0|0:0,0:0:0:0:
288,160,215603,1,8,0:1:0:0:
448,160,215675,1,0,0:0:0:0:
288,128,215746,2,0,L|224:128,1,64,0|0,0:0|0:0,0:0:0:0:
384,192,215889,6,0,L|448:192,1,64,8|0,1:1|0:0,0:0:0:0:
352,192,216032,2,0,L|336:256,1,64,2|0,0:1|0:0,0:0:0:0:
432,288,216175,2,0,L|448:352,1,64,0|0,0:0|0:0,0:0:0:0:
288,352,216317,6,0,L|224:352,1,64,12|0,1:0|0:0,0:0:0:0:
320,336,216460,2,0,L|336:272,1,64,0|0,0:0|0:0,0:0:0:0:
432,256,216603,2,0,L|368:256,1,64,2|0,0:0|0:0,0:0:0:0:
208,256,216746,6,0,L|144:256,1,64,8|0,1:0|0:0,0:0:0:0:
304,256,216889,2,0,L|368:256,1,64,0|0,0:0|0:0,0:0:0:0:
208,256,217032,6,0,L|192:192,1,64,12|0,1:0|0:0,0:0:0:0:
288,160,217175,2,0,L|272:96,1,64,0|0,0:0|0:0,0:0:0:0:
176,96,217317,2,0,L|112:96,1,64,2|0,0:0|0:0,0:0:0:0:
272,97,217460,5,12,1:0:0:0:
432,96,217532,1,0,0:0:0:0:
272,128,217603,2,0,L|208:128,1,64,2|0,0:1|0:0,0:0:0:0:
304,128,217746,2,0,L|288:192,1,64,0|0,2:0|0:0,0:0:0:0:
128,192,217889,6,0,L|64:192,1,64,8|0,1:0|0:0,0:0:0:0:
224,272,218032,2,0,L|288:272,1,64,8|0,1:0|0:0,0:0:0:0:
64,192,218175,6,0,L|48:128,1,64,0|0,1:0|0:0,0:0:0:0:
128,112,218317,2,0,L|144:48,1,64,0|0,1:0|0:0,0:0:0:0:
304,48,218460,2,0,L|320:112,1,64,0|0,1:0|0:0,0:0:0:0:
240,128,218602,2,0,L|224:192,1,64,0|0,1:0|0:0,0:0:0:0:
384,272,218746,6,0,L|448:272,1,64,0|0,1:0|0:0,0:0:0:0:
288,272,218889,2,0,L|224:272,1,64,0|0,1:0|1:0,0:0:0:0:
64,272,219032,1,0,1:0:0:0:
224,272,219103,1,0,1:0:0:0:
384,272,219175,2,0,L|448:272,1,64,0|0,1:0|1:0,0:0:0:0:
256,192,219317,6,0,L|384:192,1,128,4|0,1:0|0:0,0:0:0:0:
336,160,219532,1,0,0:0:0:0:
240,160,219603,2,0,B|144:160|144:160|240:160,1,192,0|0,0:0|0:0,0:0:0:0:
336,160,219889,2,0,L|272:160,1,64,0|0,0:0|0:0,0:0:0:0:
176,160,220032,2,0,L|240:160,1,64,0|0,0:0|0:0,0:0:0:0:
416,160,220175,2,0,P|496:224|416:304,1,240,0|0,0:0|0:0,0:0:0:0:
240,352,220460,6,0,L|144:352,1,95.9999970703126,4|0,1:0|0:0,0:0:0:0:
320,352,220603,2,0,L|416:352,1,95.9999970703126,4|0,1:0|0:0,0:0:0:0:
240,320,220746,2,0,L|176:320,1,64,8|0,1:0|0:0,0:0:0:0:
336,320,220889,1,0,0:0:0:0:
176,320,220960,1,0,0:0:0:0:
16,320,221032,6,0,P|48:240|144:208,1,192,0|0,1:0|0:0,0:0:0:0:
224,320,221317,2,0,L|96:320,1,128,8|2,1:0|0:1,0:0:0:0:
256,320,221532,1,0,0:0:0:0:
416,320,221603,6,0,L|432:256,1,64,2|0,1:2|0:0,0:0:0:0:
352,240,221746,2,0,L|336:176,1,64,2|0,0:0|0:0,0:0:0:0:
176,176,221889,2,0,L|240:176,1,64,8|0,1:0|0:0,0:0:0:0:
400,176,222032,1,2,0:2:0:0:
240,176,222103,1,2,0:0:0:0:
48,176,222175,6,0,P|80:96|176:64,1,192,2|0,1:2|0:0,0:0:0:0:
336,64,222460,2,0,L|400:64,1,64,8|0,1:0|0:0,0:0:0:0:
240,144,222603,2,0,L|176:144,1,64,2|0,2:0|0:0,0:0:0:0:
336,144,222746,6,0,L|352:208,1,64,0|0,1:0|0:0,0:0:0:0:
192,240,222889,2,0,L|256:240,1,64,0|0,0:0|0:0,0:0:0:0:
96,240,223032,1,8,1:0:0:0:
256,240,223103,1,0,0:0:0:0:
416,240,223175,2,0,L|400:304,1,64,0|0,0:0|0:0,0:0:0:0:
240,336,223317,6,0,L|432:336,1,192,0|0,1:0|0:0,0:0:0:0:
272,304,223603,2,0,L|400:304,1,128,8|2,1:0|0:0,0:0:0:0:
336,304,223817,1,0,0:0:0:0:
176,304,223889,6,0,L|160:176,1,128,0|0,1:0|0:0,0:0:0:0:
80,176,224103,1,0,0:0:0:0:
240,192,224175,2,0,L|256:64,1,128,8|2,1:0|0:0,0:0:0:0:
336,64,224389,1,0,0:0:0:0:
176,48,224460,6,0,L|160:112,1,64,0|0,1:0|0:0,0:0:0:0:
240,128,224603,2,0,L|224:192,1,64,2|0,0:1|0:0,0:0:0:0:
64,208,224746,1,8,1:0:0:0:
96,208,224782,1,0,0:0:0:0:
224,208,224817,1,0,0:0:0:0:
352,208,224853,2,0,L|384:208,1,32,0|2,0:0|0:0,0:0:0:0:
384,208,224925,2,0,L|352:208,1,32,0|0,0:0|0:0,0:0:0:0:
192,288,225032,6,0,L|256:288,1,64,4|0,1:0|0:0,0:0:0:0:
96,288,225175,2,0,L|32:288,1,64,2|0,0:0|0:0,0:0:0:0:
192,288,225317,2,0,L|256:288,1,64,8|0,1:0|0:0,0:0:0:0:
96,288,225460,1,2,0:1:0:0:
256,288,225532,1,0,0:0:0:0:
416,288,225603,6,0,P|384:208|288:176,1,192,0|0,1:0|0:0,0:0:0:0:
208,144,225888,2,0,L|336:144,1,128,8|2,1:0|0:0,0:0:0:0:
496,144,226103,1,0,0:0:0:0:
336,144,226175,6,0,L|320:208,1,64,2|0,1:2|0:0,0:0:0:0:
400,224,226317,2,0,L|384:288,1,64,2|0,0:1|0:0,0:0:0:0:
224,336,226460,2,0,L|160:336,1,64,8|0,1:0|0:0,0:0:0:0:
320,336,226603,1,2,0:2:0:0:
480,336,226675,1,0,0:0:0:0:
288,336,226746,6,0,B|160:336|160:336|224:336,1,192,2|0,1:2|0:0,0:0:0:0:
384,336,227032,2,0,L|320:336,1,64,8|0,1:0|0:0,0:0:0:0:
160,336,227175,2,0,L|96:336,1,64,0|0,0:0|0:0,0:0:0:0:
288,336,227317,6,0,L|304:272,1,64,4|0,1:0|0:0,0:0:0:0:
144,256,227460,2,0,B|384:256|384:256|288:256,1,335.999989746094,4|0,1:0|0:0,0:0:0:0:
128,224,227746,2,0,L|112:160,1,64,4|0,1:0|0:0,0:0:0:0:
272,144,227889,6,0,B|32:144|32:144|128:144,1,335.999989746094,4|0,1:0|0:0,0:0:0:0:
288,112,228175,2,0,L|272:48,1,64,4|0,1:0|0:0,0:0:0:0:
113,48,228317,1,0,1:0:0:0:
272,49,228389,1,0,1:0:0:0:
433,64,228460,6,0,L|416:129,1,64,0|0,1:0|0:0,0:0:0:0:
257,128,228603,1,0,1:0:0:0:
97,128,228675,1,0,1:0:0:0:
256,160,228746,2,0,L|271:224,1,64,0|0,1:0|0:0,0:0:0:0:
112,224,228889,1,0,1:0:0:0:
270,222,228960,1,0,1:0:0:0:
432,224,229032,6,0,L|496:224,1,64,0|0,1:0|0:0,0:0:0:0:
336,320,229175,2,0,L|400:320,1,64,0|0,1:0|0:0,0:0:0:0:
240,320,229317,1,2,1:0:0:0:
80,320,229389,1,0,0:0:0:0:
240,320,229460,2,0,L|224:256,1,64,0|0,0:0|0:0,0:0:0:0:
32,192,229603,5,0,1:0:0:0:
36,160,229638,1,0,0:0:0:0:
48,131,229674,1,0,0:0:0:0:
69,106,229710,1,0,0:0:0:0:
96,89,229745,1,0,0:0:0:0:
158,79,229817,1,0,0:0:0:0:
320,80,229889,6,0,L|256:80,1,64,4|0,1:0|0:0,0:0:0:0:
96,80,230032,1,2,0:1:0:0:
256,80,230103,1,0,0:0:0:0:
432,112,230175,6,0,L|240:112,1,192,0|0,1:0|0:0,0:0:0:0:
320,144,230460,2,0,L|448:144,1,128,8|0,1:0|0:0,0:0:0:0:
288,144,230675,1,0,0:0:0:0:
128,144,230746,6,0,L|112:208,1,64,0|0,1:0|0:0,0:0:0:0:
192,224,230889,2,0,L|208:288,1,64,2|0,0:1|0:0,0:0:0:0:
368,288,231032,2,0,L|304:288,1,64,8|0,1:0|0:0,0:0:0:0:
144,288,231175,1,0,0:0:0:0:
304,288,231246,1,0,0:0:0:0:
496,288,231317,6,0,P|464:208|368:176,1,192,0|0,1:0|0:0,0:0:0:0:
208,176,231602,2,0,L|144:176,1,64,8|0,1:0|0:0,0:0:0:0:
304,256,231745,2,0,L|368:256,1,64,8|0,1:0|0:0,0:0:0:0:
208,256,231889,6,0,B|238:331|238:331|319:139|319:139|30:159,1,575.999982421876,0|4,1:0|1:0,0:0:0:0:
192,176,232246,1,0,0:0:0:0:
32,176,232317,2,0,L|96:192,1,64,2|0,0:1|0:0,0:0:0:0:
256,192,232460,6,0,P|320:240|256:304,1,192,0|0,1:0|0:0,0:0:0:0:
176,304,232746,2,0,L|304:304,1,128,8|0,1:0|0:0,0:0:0:0:
464,304,232960,1,0,0:0:0:0:
304,304,233032,6,0,L|288:176,1,128,4|0,1:0|0:0,0:0:0:0:
80,176,233246,2,0,L|208:176,1,128,4|0,1:0|0:0,0:0:0:0:
416,96,233460,6,0,L|288:96,1,128,4|0,1:0|0:0,0:0:0:0:
128,64,233675,2,0,L|352:64,1,223.999993164063,4|0,1:0|0:0,0:0:0:0:
160,96,233889,6,0,L|96:96,2,64,2|0|2,2:0|2:0|2:0,0:0:0:0:
336,96,234103,1,0,2:0:0:0:
48,192,234175,6,0,L|32:256,1,64,0|0,1:0|1:0,0:0:0:0:
112,256,234317,2,0,L|128:320,1,64,0|0,1:0|1:0,0:0:0:0:
320,320,234460,2,0,L|336:256,1,64,8|0,1:0|1:0,0:0:0:0:
256,256,234602,2,0,L|240:192,1,64,0|0,1:0|1:0,0:0:0:0:
464,192,234746,6,0,L|480:128,1,64,0|0,1:2|0:0,0:0:0:0:
400,128,234889,2,0,L|384:64,1,64,2|0,1:2|0:0,0:0:0:0:
192,64,235032,2,0,L|176:128,1,64,8|0,1:0|0:0,0:0:0:0:
256,128,235175,2,0,L|272:192,1,64,0|0,0:0|0:0,0:0:0:0:
96,192,235317,6,0,L|32:192,1,64,0|0,1:0|1:0,0:0:0:0:
192,192,235460,2,0,L|208:256,1,64,0|0,1:0|1:0,0:0:0:0:
368,272,235603,1,8,1:0:0:0:
208,272,235675,1,0,1:0:0:0:
48,272,235746,1,0,1:0:0:0:
208,272,235817,1,0,1:0:0:0:
368,272,235889,6,0,L|432:272,1,64,2|0,1:0|0:0,0:0:0:0:
272,272,236032,2,0,L|256:208,1,64,2|0,0:0|0:0,0:0:0:0:
96,192,236175,2,0,L|32:192,1,64,8|0,1:0|0:0,0:0:0:0:
192,192,236317,1,2,0:0:0:0:
352,192,236389,1,0,0:0:0:0:
128,96,236460,6,0,L|64:96,1,64,4|0,0:0|0:0,0:0:0:0:
256,96,236603,2,0,L|320:96,1,64,0|0,0:0|0:0,0:0:0:0:
256,192,236746,2,0,L|192:192,1,64,0|0,0:0|0:0,0:0:0:0:
384,288,236889,2,0,L|448:288,1,64,0|0,0:0|0:0,0:0:0:0:
256,288,237032,5,0,0:0:0:0:
64,288,237103,1,0,0:0:0:0:
256,288,237175,1,0,0:0:0:0:
448,288,237246,1,0,0:0:0:0:
256,288,237317,5,0,0:0:0:0:
96,288,237353,2,0,L|64:288,2,32,0|0|0,0:0|0:0|0:0,0:0:0:0:
256,288,237460,1,0,0:0:0:0:
416,288,237496,2,0,L|448:288,2,32,0|0|0,0:0|0:0|0:0,0:0:0:0:
256,256,237603,6,0,B|160:256|160:256|192:256,1,128,0|0,1:0|0:0,0:0:0:0:
352,256,237817,1,0,0:0:0:0:
176,224,237889,2,0,L|224:224,1,47.9999985351563,0|0,0:0|0:0,0:0:0:0:
144,224,238032,2,0,L|96:224,1,47.9999985351563,0|0,0:0|0:0,0:0:0:0:
240,224,238175,5,0,0:0:0:0:
384,224,238246,1,0,0:0:0:0:
240,256,238317,1,0,0:0:0:0:
160,256,238388,1,0,0:0:0:0:
240,256,238460,1,0,0:0:0:0:
304,256,238532,1,0,0:0:0:0:
240,256,238603,1,0,0:0:0:0:
208,256,238675,1,0,0:0:0:0:
464,64,238746,6,0,B|176:48|176:48|135:339|135:339|416:352,1,863.999973632813,4|0,1:1|1:0,0:0:0:0:
480,352,239246,1,0,0:0:0:0:
336,352,239317,5,4,1:2:0:0:
384,352,239388,1,0,1:0:0:0:
463,336,239459,1,0,1:0:0:0:
304,352,239532,1,4,1:2:0:0:
224,352,239603,1,0,0:0:0:0:
176,336,239674,1,0,1:0:0:0:
336,352,239746,5,4,1:2:0:0:
320,289,239817,1,0,0:0:0:0:
293,232,239888,1,0,1:0:0:0:
128,272,239960,1,4,1:2:0:0:
70,245,240031,1,0,0:0:0:0:
33,194,240102,1,0,1:0:0:0:
192,224,240175,5,4,1:2:0:0:
199,160,240246,1,0,0:0:0:0:
207,96,240317,1,0,1:0:0:0:
368,96,240389,1,4,1:2:0:0:
320,96,240460,1,0,0:0:0:0:
240,96,240531,1,0,1:0:0:0:
400,96,240603,6,0,L|384:160,1,64,4|0,1:2|0:0,0:0:0:0:
208,224,240746,2,0,B|152:56|152:56|98:245|98:245|420:279,1,690.000013160706,2|0,0:1|0:0,0:0:0:0:
432,80,241032,6,0,B|512:357|512:357|432:80|432:80|144:80,1,863.999973632813,0|0,1:0|1:0,0:0:0:0:
80,96,241532,1,0,1:0:0:0:
224,96,241603,6,0,L|240:160,1,64,4|0,1:2|0:0,0:0:0:0:
320,160,241746,1,0,1:0:0:0:
160,192,241817,2,0,L|144:256,1,64,4|0,1:2|0:0,0:0:0:0:
64,256,241960,1,0,1:0:0:0:
224,272,242032,5,4,1:2:0:0:
304,272,242103,2,0,L|320:336,1,64,0|0,0:0|1:0,0:0:0:0:
160,352,242246,2,0,L|224:352,2,64,4|0|0,1:2|0:0|1:0,0:0:0:0:
0,256,242460,6,0,L|16:192,1,64,4|0,1:2|0:0,0:0:0:0:
96,192,242603,1,0,1:0:0:0:
256,192,242675,2,0,L|240:128,1,64,4|0,1:2|0:0,0:0:0:0:
160,128,242818,1,0,1:0:0:0:
320,128,242889,6,0,L|336:192,1,64,4|0,1:2|0:0,0:0:0:0:
176,208,243032,2,0,L|400:208,1,223.999993164063,0|4,0:0|1:2,0:0:0:0:
384,240,243210,1,0,0:0:0:0:
160,320,243317,6,0,B|448:304|448:304|400:16|400:16|128:96,1,863.999973632813,0|0,1:0|1:0,0:0:0:0:
64,112,243817,1,0,0:0:0:0:
224,176,243889,5,4,1:2:0:0:
176,192,243960,1,0,1:0:0:0:
96,191,244031,1,0,1:0:0:0:
256,112,244103,1,4,1:2:0:0:
208,96,244174,1,0,0:0:0:0:
128,97,244245,1,0,1:0:0:0:
304,32,244317,5,4,1:2:0:0:
361,58,244388,1,0,0:0:0:0:
398,109,244459,1,0,1:0:0:0:
240,192,244532,1,4,1:2:0:0:
277,243,244603,1,0,0:0:0:0:
334,269,244674,1,0,1:0:0:0:
176,352,244746,6,0,L|112:352,2,64,4|0|0,1:2|0:0|1:0,0:0:0:0:
336,352,244960,2,0,L|400:352,2,64,4|0|0,1:2|0:0|1:0,0:0:0:0:
176,352,245175,6,0,L|192:288,1,64,4|0,1:2|0:0,0:0:0:0:
352,304,245317,2,0,B|64:288|64:288|128:32,1,539.999983520508,2|0,0:1|0:0,0:0:0:0:
144,48,245603,6,0,B|431:61|431:61|480:352|480:352|202:278,1,863.999973632813,0|0,1:0|1:0,0:0:0:0:
272,256,246103,1,0,1:0:0:0:
432,192,246175,6,0,L|416:128,1,64,4|0,1:2|0:0,0:0:0:0:
336,128,246317,1,0,1:0:0:0:
176,128,246389,2,0,L|192:192,1,64,4|0,1:2|0:0,0:0:0:0:
272,192,246531,1,0,1:0:0:0:
112,192,246603,6,0,L|128:256,1,64,4|0,1:2|0:0,0:0:0:0:
208,256,246745,1,0,1:0:0:0:
376,192,246817,1,4,1:0:0:0:
320,192,246889,1,0,0:0:0:0:
312,160,246924,1,0,0:0:0:0:
304,129,246960,1,0,1:0:0:0:
136,112,247032,1,4,1:0:0:0:
192,112,247104,1,0,0:0:0:0:
200,80,247139,1,0,0:0:0:0:
208,49,247175,1,0,1:0:0:0:
368,48,247246,1,0,1:0:0:0:
208,49,247317,6,0,B|80:305|80:305|208:49|208:49|480:144|480:144|448:224|448:224|416:160,1,1007.99996923828,8|0,1:0|0:0,0:0:0:0:
192,304,247889,6,0,B|112:27|112:27|192:304|192:304|480:304,1,863.999973632813,4|0,1:0|1:0,0:0:0:0:
464,224,248389,1,0,0:0:0:0:
304,176,248460,6,0,L|432:160,1,128,4|0,1:2|1:0,0:0:0:0:
272,256,248675,2,0,L|144:240,1,128,4|0,1:2|1:0,0:0:0:0:
304,176,248889,6,0,L|288:48,1,128,4|0,1:2|1:0,0:0:0:0:
128,64,249103,2,0,L|256:48,1,128,4|0,1:2|1:0,0:0:0:0:
96,96,249317,6,0,L|224:80,1,128,4|0,1:2|1:0,0:0:0:0:
384,96,249532,2,0,L|256:80,1,128,4|0,1:2|1:0,0:0:0:0:
416,96,249746,6,0,L|432:160,1,64,4|0,1:2|0:0,0:0:0:0:
256,192,249889,2,0,B|312:360|312:360|366:171|366:171|44:137,1,690.000013160706,2|0,0:0|0:0,0:0:0:0:
64,32,250175,6,0,B|349:16|349:16|381:304|381:304|93:320,1,863.999973632813,0|0,1:0|1:0,0:0:0:0:
96,240,250675,1,0,1:0:0:0:
256,224,250746,6,0,L|128:240,1,128,4|0,1:2|1:0,0:0:0:0:
288,224,250960,2,0,L|304:96,1,128,4|0,1:2|1:0,0:0:0:0:
464,112,251175,6,0,L|336:96,1,128,4|0,1:2|1:0,0:0:0:0:
176,112,251389,2,0,L|304:96,1,128,4|0,1:2|1:0,0:0:0:0:
160,192,251603,6,0,L|32:176,1,128,4|0,1:2|1:0,0:0:0:0:
192,192,251817,2,0,L|208:320,1,128,4|0,1:2|1:0,0:0:0:0:
48,320,252032,6,0,L|112:336,1,64,4|0,1:2|0:0,0:0:0:0:
288,304,252175,2,0,L|64:288,1,223.999993164063,4|4,1:2|1:2,0:0:0:0:
32,288,252353,1,0,0:0:0:0:
224,304,252460,6,0,B|512:288|512:288|480:0|480:0|208:96,1,863.999973632813,4|0,1:0|1:0,0:0:0:0:
144,112,252960,1,0,0:0:0:0:
304,96,253032,6,0,L|432:112,1,128,4|0,1:2|1:0,0:0:0:0:
272,96,253246,2,0,L|256:224,1,128,4|0,1:2|1:0,0:0:0:0:
96,224,253460,2,0,L|166:233,1,64,4|0,1:2|0:0,0:0:0:0:
320,320,253603,6,0,L|192:304,1,128,4|0,1:2|1:0,0:0:0:0:
352,208,253817,2,0,L|480:192,1,128,4|0,1:2|1:0,0:0:0:0:
320,112,254032,2,0,L|256:96,1,64,4|0,1:2|0:0,0:0:0:0:
96,112,254175,6,0,L|224:96,1,128,4|0,1:2|1:0,0:0:0:0:
384,112,254389,2,0,L|256:96,1,128,4|0,1:2|1:0,0:0:0:0:
96,192,254603,2,0,L|160:208,1,64,4|0,1:2|1:0,0:0:0:0:
336,288,254746,6,0,L|400:272,1,64,4|0,1:2|0:0,0:0:0:0:
240,272,254889,1,0,1:0:0:0:
398,272,254960,2,0,L|414:208,1,64,4|4,1:2|1:2,0:0:0:0:
256,192,255103,1,0,2:0:0:0:
416,128,255175,2,0,L|352:112,1,64,4|0,1:2|0:0,0:0:0:0:
176,288,255317,6,0,L|112:272,1,64,4|0,1:2|1:0,0:0:0:0:
272,272,255460,1,0,1:0:0:0:
114,272,255531,2,0,L|98:208,1,64,4|0,1:2|1:0,0:0:0:0:
256,192,255674,1,0,1:0:0:0:
96,128,255746,2,0,L|160:112,1,64,4|0,1:2|1:0,0:0:0:0:
384,192,255889,6,0,P|352:96|224:48,1,240,0|0,1:0|0:0,0:0:0:0:
32,192,256175,2,0,P|64:288|192:336,1,240,0|0,2:0|0:0,0:0:0:0:
384,192,256460,5,0,0:0:0:0:
380,231,256495,1,0,0:0:0:0:
365,268,256531,1,0,0:0:0:0:
340,299,256567,1,0,0:0:0:0:
308,322,256602,1,0,0:0:0:0:
230,336,256674,1,0,0:0:0:0:
80,112,256746,2,0,B|336:96|336:96|290:196|290:196|256:160,1,384,8|0,1:0|0:0,0:0:0:0:
32,192,257032,5,4,1:0:0:0:
256,192,257175,12,0,266460,0:0:0:0:
