osu file format v14

[General]
AudioFilename: audio.mp3
AudioLeadIn: 0
PreviewTime: 202058
Countdown: 0
SampleSet: Normal
StackLeniency: 0.7
Mode: 1
LetterboxInBreaks: 0
WidescreenStoryboard: 0

[Editor]
Bookmarks: 250130
DistanceSpacing: 0.8
BeatDivisor: 4
GridSize: 32
TimelineZoom: 4.199999

[Metadata]
Title:The King Of Lions
TitleUnicode:The King Of Lions
Artist:Camellia
ArtistUnicode:かめりあ
Creator:Chiswell
Version:Ancient Brutality
Source:osu!
Tags:electronic instrumental invaidas from da jungle c92 ctcd-0016 cametek かめるかめりあ pumpcore dubcore featured artist fa [zeth] tasuke912 wzxxzw
BeatmapID:2159656
BeatmapSetID:1032956

[Difficulty]
HPDrainRate:4
CircleSize:5
OverallDifficulty:8.5
ApproachRate:5
SliderMultiplier:1.4
SliderTickRate:1

[Events]
//Background and Video events
0,0,"BG56549849856.v1.jpg",0,75
//Break Periods
2,147472,155215
//Storyboard Layer 0 (Background)
//Storyboard Layer 1 (Fail)
//Storyboard Layer 2 (Pass)
//Storyboard Layer 3 (Foreground)
//Storyboard Layer 4 (Overlay)
//Storyboard Sound Samples

[TimingPoints]
2130,285.714285714286,4,1,0,50,1,0
8987,-100,4,1,0,70,0,0
9844,-100,4,1,0,80,0,0
10130,-100,4,1,0,90,0,0
27272,-100,4,1,0,80,0,0
27487,-100,4,1,0,70,0,0
27701,-100,4,1,0,60,0,0
27915,-100,4,1,0,50,0,0
28130,-100,4,1,0,40,0,0
28415,-100,4,1,0,70,0,0
34130,-95.2380952380952,4,1,0,75,0,0
34177,-94.3396226415094,4,1,0,75,0,0
34225,-93.4579439252336,4,1,0,75,0,0
34272,-92.5925925925926,4,1,0,75,0,0
34344,-91.743119266055,4,1,0,75,0,0
34415,-90.9090909090909,4,1,0,80,0,0
34463,-90.0900900900901,4,1,0,80,0,0
34510,-89.2857142857143,4,1,0,80,0,0
34558,-88.4955752212389,4,1,0,80,0,0
34630,-87.719298245614,4,1,0,80,0,0
34701,-86.9565217391304,4,1,0,85,0,0
35058,-86.2068965517241,4,1,0,85,0,0
35130,-85.4700854700855,4,1,0,85,0,0
35201,-84.7457627118644,4,1,0,85,0,0
35272,-83.3333333333333,4,1,0,90,0,0
36272,-100,4,1,0,70,0,0
37415,-100,4,1,0,80,0,0
37558,-100,4,1,0,90,0,0
55558,-100,4,1,0,80,0,0
55987,-100,4,1,0,90,0,0
64987,-100,4,1,0,80,0,0
65272,-100,4,1,0,90,0,0
74130,-100,4,1,0,70,0,0
87844,-100,4,1,0,75,0,0
88987,-95.2380952380952,4,1,0,80,0,0
90130,-90.9090909090909,4,1,0,85,0,0
90701,-83.3333333333333,4,1,0,90,0,0
90987,-76.9230769230769,4,1,0,90,0,0
91415,-100,4,1,0,70,0,0
92415,-66.6666666666667,4,1,0,100,0,1
92844,-83.3333333333333,4,1,0,100,0,1
94701,-66.6666666666667,4,1,0,100,0,1
95130,-83.3333333333333,4,1,0,100,0,1
96987,-66.6666666666667,4,1,0,100,0,1
97415,-83.3333333333333,4,1,0,100,0,1
99272,-66.6666666666667,4,1,0,100,0,1
99701,-83.3333333333333,4,1,0,100,0,1
101558,-66.6666666666667,4,1,0,100,0,1
101987,-86.9565217391304,4,1,0,100,0,1
103844,-71.4285714285714,4,1,0,100,0,1
104272,-90.9090909090909,4,1,0,100,0,1
106130,-76.9230769230769,4,1,0,100,0,1
106558,-100,4,1,0,70,0,1
108701,-95.2380952380952,4,1,0,80,0,1
108749,-94.3396226415094,4,1,0,80,0,1
108796,-93.4579439252336,4,1,0,80,0,1
108844,-92.5925925925926,4,1,0,80,0,1
108915,-91.743119266055,4,1,0,80,0,1
108987,-90.9090909090909,4,1,0,90,0,1
109034,-90.0900900900901,4,1,0,90,0,1
109082,-89.2857142857143,4,1,0,90,0,1
109130,-88.4955752212389,4,1,0,90,0,1
109201,-87.719298245614,4,1,0,90,0,1
109272,-86.9565217391304,4,1,0,100,0,1
109320,-86.2068965517241,4,1,0,100,0,1
109368,-85.4700854700855,4,1,0,100,0,1
109415,-84.7457627118644,4,1,0,100,0,1
109487,-84.0336134453781,4,1,0,100,0,1
109558,-83.3333333333333,4,1,0,80,0,0
109844,-100,4,1,0,80,0,0
110701,-100,4,1,0,90,0,0
119844,-100,4,1,0,80,0,0
120272,-100,4,1,0,85,0,0
120701,-100,4,1,0,90,0,0
156415,-133.333333333333,4,1,0,70,0,0
167844,-133.333333333333,4,1,0,75,0,0
168987,-133.333333333333,4,1,0,80,0,0
170130,-133.333333333333,4,1,0,75,0,0
171272,-133.333333333333,4,1,0,70,0,0
173558,-100,4,1,0,85,0,0
174701,-100,4,1,0,90,0,0
191844,-100,4,1,0,80,0,0
192058,-100,4,1,0,70,0,0
192272,-100,4,1,0,60,0,0
192487,-100,4,1,0,50,0,0
192701,-100,4,1,0,40,0,0
192987,-100,4,1,0,70,0,0
198701,-95.2380952380952,4,1,0,75,0,0
198749,-94.3396226415094,4,1,0,75,0,0
198796,-93.4579439252336,4,1,0,75,0,0
198844,-92.5925925925926,4,1,0,75,0,0
198915,-91.743119266055,4,1,0,75,0,0
198987,-90.9090909090909,4,1,0,80,0,0
199034,-90.0900900900901,4,1,0,80,0,0
199082,-89.2857142857143,4,1,0,80,0,0
199130,-88.4955752212389,4,1,0,80,0,0
199201,-87.719298245614,4,1,0,80,0,0
199272,-86.9565217391304,4,1,0,85,0,0
199630,-86.2068965517241,4,1,0,85,0,0
199701,-85.4700854700855,4,1,0,85,0,0
199772,-84.7457627118644,4,1,0,85,0,0
199844,-83.3333333333333,4,1,0,90,0,0
200844,-100,4,1,0,80,0,0
202130,-100,4,1,0,100,0,1
219272,-100,4,1,0,80,0,0
220415,-100,4,1,0,100,0,1
229558,-100,4,1,0,80,0,0
229844,-100,4,1,0,100,0,1
235272,-95.2380952380952,4,1,0,100,0,1
235320,-94.3396226415094,4,1,0,100,0,1
235368,-93.4579439252336,4,1,0,100,0,1
235415,-92.5925925925926,4,1,0,100,0,1
235487,-91.743119266055,4,1,0,100,0,1
235558,-90.9090909090909,4,1,0,100,0,1
235606,-90.0900900900901,4,1,0,100,0,1
235653,-89.2857142857143,4,1,0,100,0,1
235701,-88.4955752212389,4,1,0,100,0,1
235772,-87.719298245614,4,1,0,100,0,1
235844,-86.9565217391304,4,1,0,100,0,1
235891,-86.2068965517241,4,1,0,100,0,1
235939,-85.4700854700855,4,1,0,100,0,1
235987,-84.7457627118644,4,1,0,100,0,1
236058,-84.0336134453781,4,1,0,100,0,1
236130,-83.3333333333333,4,1,0,100,0,1
236177,-82.6446280991736,4,1,0,100,0,1
236225,-81.9672131147541,4,1,0,100,0,1
236272,-81.3008130081301,4,1,0,100,0,1
236344,-80.6451612903226,4,1,0,100,0,1
236415,-80,4,1,0,100,0,1
237272,-76.9230769230769,4,1,0,100,0,1
237558,-76.9230769230769,4,1,0,80,0,0
237701,-100,4,1,0,80,0,0
238701,-66.6666666666667,4,1,0,100,0,1
239130,-83.3333333333333,4,1,0,100,0,1
240987,-66.6666666666667,4,1,0,100,0,1
241415,-83.3333333333333,4,1,0,100,0,1
243272,-66.6666666666667,4,1,0,100,0,1
243701,-83.3333333333333,4,1,0,100,0,1
245558,-66.6666666666667,4,1,0,100,0,1
245987,-83.3333333333333,4,1,0,100,0,1
247844,-66.6666666666667,4,1,0,100,0,1
248272,-83.3333333333333,4,1,0,100,0,1
250094,-71.4285714285714,4,1,0,100,0,1
250558,-90.9090909090909,4,1,0,100,0,1
252415,-76.9230769230769,4,1,0,100,0,1
252844,-100,4,1,0,90,0,0
255987,-100,4,1,0,80,0,0
257058,-100,4,1,0,50,0,0

[HitObjects]
256,192,2130,12,0,8701,0:0:0:0:
256,192,8987,5,4,0:0:0:0:
256,192,9844,1,2,0:0:0:0:
256,192,10130,1,4,0:0:0:0:
256,192,11272,1,0,0:0:0:0:
256,192,12415,1,2,0:0:0:0:
256,192,12844,1,2,0:0:0:0:
256,192,13272,1,2,0:0:0:0:
256,192,13415,1,2,0:0:0:0:
256,192,13558,1,2,0:0:0:0:
256,192,13701,1,2,0:0:0:0:
256,192,13987,1,2,0:0:0:0:
256,192,14701,1,4,0:0:0:0:
256,192,15130,1,4,0:0:0:0:
256,192,15844,1,0,0:0:0:0:
256,192,16987,1,2,0:0:0:0:
256,192,17415,1,2,0:0:0:0:
256,192,17844,1,2,0:0:0:0:
256,192,17987,1,2,0:0:0:0:
256,192,18130,1,0,0:0:0:0:
256,192,18272,1,2,0:0:0:0:
256,192,18558,1,2,0:0:0:0:
256,192,18844,1,0,0:0:0:0:
256,192,18987,1,0,0:0:0:0:
256,192,19130,1,2,0:0:0:0:
256,192,19272,1,4,0:0:0:0:
256,192,19558,1,2,0:0:0:0:
256,192,19701,1,4,0:0:0:0:
256,192,19987,1,0,0:0:0:0:
256,192,20130,1,2,0:0:0:0:
256,192,20415,1,4,0:0:0:0:
256,192,20630,1,4,0:0:0:0:
256,192,20844,1,4,0:0:0:0:
256,192,21130,1,0,0:0:0:0:
256,192,21272,1,2,0:0:0:0:
256,192,21558,1,4,0:0:0:0:
256,192,21844,1,2,0:0:0:0:
256,192,21987,1,4,0:0:0:0:
256,192,22272,1,0,0:0:0:0:
256,192,22415,1,2,0:0:0:0:
256,192,22701,1,4,0:0:0:0:
256,192,22915,1,4,0:0:0:0:
256,192,23130,1,4,0:0:0:0:
256,192,23344,1,4,0:0:0:0:
256,192,23558,1,6,0:0:0:0:
256,192,23844,1,4,0:0:0:0:
256,192,24130,1,2,0:0:0:0:
256,192,24272,1,4,0:0:0:0:
256,192,24558,1,0,0:0:0:0:
256,192,24701,1,2,0:0:0:0:
256,192,24987,1,4,0:0:0:0:
256,192,25201,1,4,0:0:0:0:
256,192,25415,1,4,0:0:0:0:
256,192,25558,1,0,0:0:0:0:
256,192,25701,1,0,0:0:0:0:
256,192,25844,1,2,0:0:0:0:
256,192,26130,1,4,0:0:0:0:
256,192,26415,1,2,0:0:0:0:
256,192,26558,1,4,0:0:0:0:
256,192,26844,1,0,0:0:0:0:
256,192,26987,1,2,0:0:0:0:
256,192,27272,1,4,0:0:0:0:
256,192,27487,1,4,0:0:0:0:
256,192,27701,1,4,0:0:0:0:
256,192,27915,1,4,0:0:0:0:
256,192,28130,1,4,0:0:0:0:
256,192,28415,1,2,0:0:0:0:
256,192,28558,1,0,0:0:0:0:
256,192,28630,1,0,0:0:0:0:
256,192,28701,1,2,0:0:0:0:
256,192,28844,1,0,0:0:0:0:
256,192,28915,1,0,0:0:0:0:
256,192,28987,1,2,0:0:0:0:
256,192,29130,1,0,0:0:0:0:
256,192,29273,1,2,0:0:0:0:
256,192,29344,1,0,0:0:0:0:
256,192,29415,1,0,0:0:0:0:
256,192,29558,1,2,0:0:0:0:
256,192,29701,1,0,0:0:0:0:
256,192,29844,1,2,0:0:0:0:
256,192,29987,1,0,0:0:0:0:
256,192,30058,1,0,0:0:0:0:
256,192,30130,1,2,0:0:0:0:
256,192,30272,1,0,0:0:0:0:
256,192,30415,1,2,0:0:0:0:
256,192,30487,1,0,0:0:0:0:
256,192,30558,1,0,0:0:0:0:
256,192,30701,1,2,0:0:0:0:
256,192,30844,1,0,0:0:0:0:
256,192,30915,1,0,0:0:0:0:
256,192,30987,1,2,0:0:0:0:
256,192,31130,1,0,0:0:0:0:
256,192,31272,1,2,0:0:0:0:
256,192,31344,1,0,0:0:0:0:
256,192,31415,1,0,0:0:0:0:
256,192,31487,1,0,0:0:0:0:
256,192,31558,1,2,0:0:0:0:
256,192,31701,1,0,0:0:0:0:
256,192,31844,1,2,0:0:0:0:
256,192,31915,1,0,0:0:0:0:
256,192,31987,1,0,0:0:0:0:
256,192,32058,1,2,0:0:0:0:
256,192,32129,1,0,0:0:0:0:
256,192,32201,1,0,0:0:0:0:
256,192,32272,1,2,0:0:0:0:
256,192,32343,1,0,0:0:0:0:
256,192,32415,1,0,0:0:0:0:
256,192,32487,1,2,0:0:0:0:
256,192,32558,1,0,0:0:0:0:
256,192,32630,1,0,0:0:0:0:
256,192,32701,1,2,0:0:0:0:
256,192,32772,1,2,0:0:0:0:
256,192,32844,1,0,0:0:0:0:
256,192,32987,1,2,0:0:0:0:
256,192,33058,1,0,0:0:0:0:
256,192,33130,1,2,0:0:0:0:
256,192,33201,1,2,0:0:0:0:
256,192,33272,1,0,0:0:0:0:
256,192,33344,1,2,0:0:0:0:
256,192,33415,1,2,0:0:0:0:
256,192,33487,1,0,0:0:0:0:
256,192,33558,1,2,0:0:0:0:
256,192,33630,1,2,0:0:0:0:
256,192,33701,1,2,0:0:0:0:
256,192,33772,1,0,0:0:0:0:
256,192,33844,1,2,0:0:0:0:
256,192,33915,1,2,0:0:0:0:
256,192,33987,1,2,0:0:0:0:
256,192,34058,1,0,0:0:0:0:
256,192,34130,1,2,0:0:0:0:
256,192,34177,1,2,0:0:0:0:
256,192,34225,1,2,0:0:0:0:
256,192,34272,1,0,0:0:0:0:
256,192,34344,1,0,0:0:0:0:
256,192,34415,1,2,0:0:0:0:
256,192,34463,1,0,0:0:0:0:
256,192,34510,1,0,0:0:0:0:
256,192,34558,1,2,0:0:0:0:
256,192,34630,1,0,0:0:0:0:
256,192,34701,1,2,0:0:0:0:
256,192,34749,1,0,0:0:0:0:
256,192,34796,1,0,0:0:0:0:
256,192,34844,1,2,0:0:0:0:
256,192,34891,1,0,0:0:0:0:
256,192,34939,1,0,0:0:0:0:
256,192,34987,1,2,0:0:0:0:
256,192,35058,1,0,0:0:0:0:
256,192,35130,1,2,0:0:0:0:
256,192,35201,1,2,0:0:0:0:
256,192,35272,1,0,0:0:0:0:
256,192,36272,1,2,0:0:0:0:
256,192,36415,1,2,0:0:0:0:
256,192,36558,1,0,0:0:0:0:
256,192,36629,1,0,0:0:0:0:
256,192,36701,1,2,0:0:0:0:
256,192,36844,1,0,0:0:0:0:
256,192,36915,1,0,0:0:0:0:
256,192,36987,1,2,0:0:0:0:
256,192,37130,1,0,0:0:0:0:
256,192,37201,1,0,0:0:0:0:
256,192,37273,1,2,0:0:0:0:
256,192,37415,1,2,0:0:0:0:
256,192,37558,1,4,0:0:0:0:
256,192,37701,1,2,0:0:0:0:
256,192,37844,1,0,0:0:0:0:
256,192,37987,1,2,0:0:0:0:
256,192,38058,1,2,0:0:0:0:
256,192,38130,1,0,0:0:0:0:
256,192,38201,1,2,0:0:0:0:
256,192,38272,1,2,0:0:0:0:
256,192,38344,1,2,0:0:0:0:
256,192,38415,1,0,0:0:0:0:
256,192,38558,1,2,0:0:0:0:
256,192,38701,1,0,0:0:0:0:
256,192,38844,1,2,0:0:0:0:
256,192,38915,1,2,0:0:0:0:
256,192,38987,1,0,0:0:0:0:
256,192,39130,1,2,0:0:0:0:
256,192,39201,1,2,0:0:0:0:
256,192,39272,1,0,0:0:0:0:
256,192,39344,1,2,0:0:0:0:
256,192,39415,1,2,0:0:0:0:
256,192,39558,1,0,0:0:0:0:
256,192,39630,1,0,0:0:0:0:
256,192,39701,1,2,0:0:0:0:
256,192,39844,1,0,0:0:0:0:
256,192,39915,1,2,0:0:0:0:
256,192,39987,1,2,0:0:0:0:
256,192,40130,1,0,0:0:0:0:
256,192,40272,1,2,0:0:0:0:
256,192,40344,1,2,0:0:0:0:
256,192,40415,1,0,0:0:0:0:
256,192,40487,1,2,0:0:0:0:
256,192,40558,1,2,0:0:0:0:
256,192,40630,1,2,0:0:0:0:
256,192,40701,1,0,0:0:0:0:
256,192,40844,1,2,0:0:0:0:
256,192,40987,1,0,0:0:0:0:
256,192,41130,1,2,0:0:0:0:
256,192,41165,1,2,0:0:0:0:
256,192,41272,1,2,0:0:0:0:
256,192,41308,1,2,0:0:0:0:
256,192,41415,1,2,0:0:0:0:
256,192,41463,1,0,0:0:0:0:
256,192,41510,1,0,0:0:0:0:
256,192,41558,1,2,0:0:0:0:
256,192,41701,1,0,0:0:0:0:
256,192,41844,1,6,0:0:0:0:
256,192,42130,1,4,0:0:0:0:
256,192,42272,1,0,0:0:0:0:
256,192,42415,1,2,0:0:0:0:
256,192,42558,1,2,0:0:0:0:
256,192,42630,1,2,0:0:0:0:
256,192,42701,1,0,0:0:0:0:
256,192,42772,1,2,0:0:0:0:
256,192,42844,1,2,0:0:0:0:
256,192,42915,1,2,0:0:0:0:
256,192,42987,1,0,0:0:0:0:
256,192,43130,1,2,0:0:0:0:
256,192,43272,1,0,0:0:0:0:
256,192,43415,1,2,0:0:0:0:
256,192,43558,1,0,0:0:0:0:
256,192,43701,1,2,0:0:0:0:
256,192,43772,1,2,0:0:0:0:
256,192,43844,1,0,0:0:0:0:
256,192,43915,1,2,0:0:0:0:
256,192,43987,1,2,0:0:0:0:
256,192,44130,1,0,0:0:0:0:
256,192,44201,1,0,0:0:0:0:
256,192,44272,1,2,0:0:0:0:
256,192,44415,1,2,0:0:0:0:
256,192,44558,1,0,0:0:0:0:
256,192,44630,1,0,0:0:0:0:
256,192,44701,1,2,0:0:0:0:
256,192,44772,1,2,0:0:0:0:
256,192,44844,1,0,0:0:0:0:
256,192,44987,1,6,0:0:0:0:
256,192,45272,1,6,0:0:0:0:
256,192,45558,1,4,0:0:0:0:
256,192,45701,1,0,0:0:0:0:
256,192,45844,1,2,0:0:0:0:
256,192,45987,1,2,0:0:0:0:
256,192,46058,1,2,0:0:0:0:
256,192,46130,1,0,0:0:0:0:
256,192,46201,1,0,0:0:0:0:
256,192,46272,1,2,0:0:0:0:
256,192,46320,1,2,0:0:0:0:
256,192,46368,1,2,0:0:0:0:
256,192,46415,1,0,0:0:0:0:
256,192,46487,1,0,0:0:0:0:
256,192,46558,1,2,0:0:0:0:
256,192,46701,1,4,0:0:0:0:
256,192,46844,1,2,0:0:0:0:
256,192,46987,1,0,0:0:0:0:
256,192,47130,1,2,0:0:0:0:
256,192,47201,1,2,0:0:0:0:
256,192,47272,1,0,0:0:0:0:
256,192,47344,1,2,0:0:0:0:
256,192,47415,1,2,0:0:0:0:
256,192,47487,1,2,0:0:0:0:
256,192,47558,1,0,0:0:0:0:
256,192,47701,1,2,0:0:0:0:
256,192,47844,1,0,0:0:0:0:
256,192,47987,1,2,0:0:0:0:
256,192,48058,1,2,0:0:0:0:
256,192,48130,1,0,0:0:0:0:
256,192,48272,1,2,0:0:0:0:
256,192,48344,1,2,0:0:0:0:
256,192,48415,1,0,0:0:0:0:
256,192,48487,1,2,0:0:0:0:
256,192,48558,1,2,0:0:0:0:
256,192,48630,1,0,0:0:0:0:
256,192,48701,1,0,0:0:0:0:
256,192,48844,1,2,0:0:0:0:
256,192,48987,1,0,0:0:0:0:
256,192,49034,1,0,0:0:0:0:
256,192,49082,1,0,0:0:0:0:
256,192,49130,1,2,0:0:0:0:
256,192,49201,1,2,0:0:0:0:
256,192,49272,1,0,0:0:0:0:
256,192,49344,1,0,0:0:0:0:
256,192,49415,1,2,0:0:0:0:
256,192,49558,1,0,0:0:0:0:
256,192,49630,1,2,0:0:0:0:
256,192,49701,1,2,0:0:0:0:
256,192,49772,1,2,0:0:0:0:
256,192,49844,1,0,0:0:0:0:
256,192,49915,1,0,0:0:0:0:
256,192,49987,1,2,0:0:0:0:
256,192,50130,1,0,0:0:0:0:
256,192,50272,1,2,0:0:0:0:
256,192,50415,1,2,0:0:0:0:
256,192,50487,1,0,0:0:0:0:
256,192,50558,1,2,0:0:0:0:
256,192,50630,1,0,0:0:0:0:
256,192,50701,1,2,0:0:0:0:
256,192,50844,1,2,0:0:0:0:
256,192,50915,1,0,0:0:0:0:
256,192,50987,1,2,0:0:0:0:
256,192,51034,1,2,0:0:0:0:
256,192,51082,1,2,0:0:0:0:
256,192,51130,1,0,0:0:0:0:
256,192,51272,1,6,0:0:0:0:
256,192,51415,1,0,0:0:0:0:
256,192,51487,1,0,0:0:0:0:
256,192,51558,1,2,0:0:0:0:
256,192,51701,1,0,0:0:0:0:
256,192,51772,1,0,0:0:0:0:
256,192,51844,1,2,0:0:0:0:
256,192,51987,1,0,0:0:0:0:
256,192,52130,1,2,0:0:0:0:
256,192,52201,1,2,0:0:0:0:
256,192,52272,1,0,0:0:0:0:
256,192,52344,1,0,0:0:0:0:
256,192,52415,1,2,0:0:0:0:
256,192,52558,1,0,0:0:0:0:
256,192,52630,1,0,0:0:0:0:
256,192,52701,1,2,0:0:0:0:
256,192,52844,1,2,0:0:0:0:
256,192,52915,1,0,0:0:0:0:
256,192,52987,1,2,0:0:0:0:
256,192,53130,1,2,0:0:0:0:
256,192,53272,1,0,0:0:0:0:
256,192,53344,1,0,0:0:0:0:
256,192,53415,1,2,0:0:0:0:
256,192,53487,1,2,0:0:0:0:
256,192,53558,1,0,0:0:0:0:
256,192,53844,1,6,0:0:0:0:
256,192,53987,1,6,0:0:0:0:
256,192,54130,1,6,0:0:0:0:
256,192,54415,1,6,0:0:0:0:
256,192,54558,1,6,0:0:0:0:
256,192,54701,1,4,0:0:0:0:
256,192,55558,1,0,0:0:0:0:
256,192,55630,1,0,0:0:0:0:
256,192,55701,1,0,0:0:0:0:
256,192,55772,1,0,0:0:0:0:
256,192,55844,1,2,0:0:0:0:
256,192,55987,1,4,0:0:0:0:
256,192,56130,1,4,0:0:0:0:
256,192,56272,1,2,0:0:0:0:
256,192,56415,1,0,0:0:0:0:
256,192,56487,1,2,0:0:0:0:
256,192,56558,1,2,0:0:0:0:
256,192,56630,1,2,0:0:0:0:
256,192,56701,1,0,0:0:0:0:
256,192,56844,1,2,0:0:0:0:
256,192,56915,1,2,0:0:0:0:
256,192,56987,1,0,0:0:0:0:
256,192,57130,1,2,0:0:0:0:
256,192,57272,1,0,0:0:0:0:
256,192,57415,1,2,0:0:0:0:
256,192,57487,1,2,0:0:0:0:
256,192,57558,1,0,0:0:0:0:
256,192,57630,1,2,0:0:0:0:
256,192,57701,1,2,0:0:0:0:
256,192,57772,1,2,0:0:0:0:
256,192,57844,1,0,0:0:0:0:
256,192,57987,1,2,0:0:0:0:
256,192,58130,1,0,0:0:0:0:
256,192,58201,1,2,0:0:0:0:
256,192,58272,1,2,0:0:0:0:
256,192,58415,1,0,0:0:0:0:
256,192,58558,1,2,0:0:0:0:
256,192,58701,1,0,0:0:0:0:
256,192,58772,1,0,0:0:0:0:
256,192,58844,1,2,0:0:0:0:
256,192,58915,1,2,0:0:0:0:
256,192,58987,1,0,0:0:0:0:
256,192,59130,1,0,0:0:0:0:
256,192,59201,1,2,0:0:0:0:
256,192,59272,1,0,0:0:0:0:
256,192,59415,1,2,0:0:0:0:
256,192,59558,1,0,0:0:0:0:
256,192,59701,1,2,0:0:0:0:
256,192,59844,1,2,0:0:0:0:
256,192,59915,1,0,0:0:0:0:
256,192,59987,1,0,0:0:0:0:
256,192,60058,1,0,0:0:0:0:
256,192,60130,1,2,0:0:0:0:
256,192,60201,1,2,0:0:0:0:
256,192,60272,1,0,0:0:0:0:
256,192,60415,1,0,0:0:0:0:
256,192,60487,1,0,0:0:0:0:
256,192,60630,1,0,0:0:0:0:
256,192,60701,1,2,0:0:0:0:
256,192,60844,1,0,0:0:0:0:
256,192,60987,1,0,0:0:0:0:
256,192,61058,1,2,0:0:0:0:
256,192,61130,1,2,0:0:0:0:
256,192,61201,1,2,0:0:0:0:
256,192,61272,1,0,0:0:0:0:
256,192,61415,1,2,0:0:0:0:
256,192,61487,1,0,0:0:0:0:
256,192,61558,1,2,0:0:0:0:
256,192,61701,1,0,0:0:0:0:
256,192,61844,1,2,0:0:0:0:
256,192,61987,1,0,0:0:0:0:
256,192,62130,1,0,0:0:0:0:
256,192,62201,1,0,0:0:0:0:
256,192,62272,1,2,0:0:0:0:
256,192,62344,1,2,0:0:0:0:
256,192,62415,1,0,0:0:0:0:
256,192,62558,1,0,0:0:0:0:
256,192,62701,1,2,0:0:0:0:
256,192,62844,1,0,0:0:0:0:
256,192,62987,1,2,0:0:0:0:
256,192,63082,1,0,0:0:0:0:
256,192,63177,1,0,0:0:0:0:
256,192,63272,1,2,0:0:0:0:
256,192,63415,1,0,0:0:0:0:
256,192,63558,1,2,0:0:0:0:
256,192,63630,1,0,0:0:0:0:
256,192,63701,1,0,0:0:0:0:
256,192,63772,1,0,0:0:0:0:
256,192,63844,1,2,0:0:0:0:
256,192,63987,1,0,0:0:0:0:
256,192,64034,1,0,0:0:0:0:
256,192,64082,1,0,0:0:0:0:
256,192,64130,1,2,0:0:0:0:
256,192,64272,1,0,0:0:0:0:
256,192,64344,1,0,0:0:0:0:
256,192,64415,1,2,0:0:0:0:
256,192,64558,1,2,0:0:0:0:
256,192,64606,1,0,0:0:0:0:
256,192,64653,1,0,0:0:0:0:
256,192,64701,1,2,0:0:0:0:
256,192,64772,1,2,0:0:0:0:
256,192,64844,1,0,0:0:0:0:
256,192,64987,1,0,0:0:0:0:
256,192,65272,1,6,0:0:0:0:
256,192,65415,1,0,0:0:0:0:
256,192,65558,1,2,0:0:0:0:
256,192,65606,1,2,0:0:0:0:
256,192,65653,1,2,0:0:0:0:
256,192,65701,1,0,0:0:0:0:
256,192,65772,1,0,0:0:0:0:
256,192,65844,1,2,0:0:0:0:
256,192,65987,1,0,0:0:0:0:
256,192,66058,1,2,0:0:0:0:
256,192,66130,1,0,0:0:0:0:
256,192,66272,1,2,0:0:0:0:
256,192,66415,1,0,0:0:0:0:
256,192,66558,1,2,0:0:0:0:
256,192,66630,1,2,0:0:0:0:
256,192,66701,1,0,0:0:0:0:
256,192,66749,1,2,0:0:0:0:
256,192,66796,1,2,0:0:0:0:
256,192,66844,1,0,0:0:0:0:
256,192,66915,1,0,0:0:0:0:
256,192,66987,1,2,0:0:0:0:
256,192,67130,1,0,0:0:0:0:
256,192,67201,1,0,0:0:0:0:
256,192,67272,1,2,0:0:0:0:
256,192,67344,1,0,0:0:0:0:
256,192,67415,1,2,0:0:0:0:
256,192,67558,1,0,0:0:0:0:
256,192,67701,1,2,0:0:0:0:
256,192,67772,1,0,0:0:0:0:
256,192,67844,1,2,0:0:0:0:
256,192,67891,1,2,0:0:0:0:
256,192,67939,1,2,0:0:0:0:
256,192,67987,1,0,0:0:0:0:
256,192,68058,1,0,0:0:0:0:
256,192,68130,1,2,0:0:0:0:
256,192,68272,1,0,0:0:0:0:
256,192,68415,1,2,0:0:0:0:
256,192,68558,1,0,0:0:0:0:
256,192,68701,1,2,0:0:0:0:
256,192,68749,1,0,0:0:0:0:
256,192,68796,1,0,0:0:0:0:
256,192,68844,1,2,0:0:0:0:
256,192,68915,1,0,0:0:0:0:
256,192,68987,1,2,0:0:0:0:
256,192,69034,1,2,0:0:0:0:
256,192,69082,1,2,0:0:0:0:
256,192,69130,1,0,0:0:0:0:
256,192,69201,1,0,0:0:0:0:
256,192,69272,1,2,0:0:0:0:
256,192,69344,1,0,0:0:0:0:
256,192,69415,1,2,0:0:0:0:
256,192,69558,1,6,0:0:0:0:
256,192,69701,1,0,0:0:0:0:
256,192,69772,1,2,0:0:0:0:
256,192,69844,1,0,0:0:0:0:
256,192,69915,1,0,0:0:0:0:
256,192,69987,1,2,0:0:0:0:
256,192,70059,1,0,0:0:0:0:
256,192,70130,1,0,0:0:0:0:
256,192,70201,1,2,0:0:0:0:
256,192,70273,1,0,0:0:0:0:
256,192,70344,1,0,0:0:0:0:
256,192,70415,1,2,0:0:0:0:
256,192,70487,1,0,0:0:0:0:
256,192,70558,1,0,0:0:0:0:
256,192,70701,1,2,0:0:0:0:
256,192,70844,1,0,0:0:0:0:
256,192,70915,1,2,0:0:0:0:
256,192,70987,1,0,0:0:0:0:
256,192,71058,1,0,0:0:0:0:
256,192,71130,1,2,0:0:0:0:
256,192,71202,1,0,0:0:0:0:
256,192,71273,1,0,0:0:0:0:
256,192,71344,1,2,0:0:0:0:
256,192,71416,1,0,0:0:0:0:
256,192,71487,1,0,0:0:0:0:
256,192,71558,1,2,0:0:0:0:
256,192,71630,1,0,0:0:0:0:
256,192,71701,1,0,0:0:0:0:
256,192,71844,1,2,0:0:0:0:
256,192,71915,1,0,0:0:0:0:
256,192,71987,1,0,0:0:0:0:
256,192,72058,1,2,0:0:0:0:
256,192,72130,1,0,0:0:0:0:
256,192,72201,1,0,0:0:0:0:
256,192,72272,1,2,0:0:0:0:
256,192,72344,1,0,0:0:0:0:
256,192,72415,1,2,0:0:0:0:
256,192,72486,1,0,0:0:0:0:
256,192,72558,1,0,0:0:0:0:
256,192,72629,1,2,0:0:0:0:
256,192,72701,1,0,0:0:0:0:
256,192,72772,1,0,0:0:0:0:
256,192,72843,1,2,0:0:0:0:
256,192,72915,1,2,0:0:0:0:
256,192,72987,1,0,0:0:0:0:
256,192,73058,1,0,0:0:0:0:
256,192,73130,1,2,0:0:0:0:
256,192,73177,1,2,0:0:0:0:
256,192,73225,1,2,0:0:0:0:
256,192,73272,1,0,0:0:0:0:
256,192,73344,1,0,0:0:0:0:
256,192,73415,1,0,0:0:0:0:
256,192,73487,1,2,0:0:0:0:
256,192,73558,1,2,0:0:0:0:
256,192,73701,1,2,0:0:0:0:
256,192,73772,1,2,0:0:0:0:
256,192,73915,1,2,0:0:0:0:
256,192,74130,1,4,0:0:0:0:
256,192,74415,1,2,0:0:0:0:
256,192,74987,1,2,0:0:0:0:
256,192,75272,1,2,0:0:0:0:
256,192,75415,1,2,0:0:0:0:
256,192,75558,1,0,0:0:0:0:
256,192,75701,1,0,0:0:0:0:
256,192,75844,1,2,0:0:0:0:
256,192,76130,1,2,0:0:0:0:
256,192,76415,1,0,0:0:0:0:
256,192,76701,1,2,0:0:0:0:
256,192,77272,1,2,0:0:0:0:
256,192,77558,1,0,0:0:0:0:
256,192,77701,1,0,0:0:0:0:
256,192,77844,1,2,0:0:0:0:
256,192,77987,1,0,0:0:0:0:
256,192,78130,1,0,0:0:0:0:
256,192,78415,1,2,0:0:0:0:
256,192,78701,1,4,0:0:0:0:
256,192,78987,1,2,0:0:0:0:
256,192,79558,1,2,0:0:0:0:
256,192,79844,1,2,0:0:0:0:
256,192,79987,1,2,0:0:0:0:
256,192,80130,1,2,0:0:0:0:
256,192,80272,1,2,0:0:0:0:
256,192,80415,1,0,0:0:0:0:
256,192,80701,1,2,0:0:0:0:
256,192,80987,1,0,0:0:0:0:
256,192,81272,1,2,0:0:0:0:
256,192,81844,1,2,0:0:0:0:
256,192,82415,1,2,0:0:0:0:
256,192,82987,1,2,0:0:0:0:
256,192,83272,1,6,0:0:0:0:
256,192,83415,1,0,0:0:0:0:
256,192,83487,1,0,0:0:0:0:
256,192,83558,1,2,0:0:0:0:
256,192,83701,1,0,0:0:0:0:
256,192,83844,1,2,0:0:0:0:
256,192,83987,1,0,0:0:0:0:
256,192,84130,1,2,0:0:0:0:
256,192,84201,1,0,0:0:0:0:
256,192,84272,1,0,0:0:0:0:
256,192,84415,1,2,0:0:0:0:
256,192,84558,1,0,0:0:0:0:
256,192,84630,1,0,0:0:0:0:
256,192,84701,1,2,0:0:0:0:
256,192,84844,1,0,0:0:0:0:
256,192,84987,1,2,0:0:0:0:
256,192,85058,1,0,0:0:0:0:
256,192,85130,1,0,0:0:0:0:
256,192,85272,1,2,0:0:0:0:
256,192,85344,1,0,0:0:0:0:
256,192,85415,1,0,0:0:0:0:
256,192,85558,1,2,0:0:0:0:
256,192,85701,1,0,0:0:0:0:
256,192,85772,1,0,0:0:0:0:
256,192,85844,1,2,0:0:0:0:
256,192,85987,1,0,0:0:0:0:
256,192,86130,1,2,0:0:0:0:
256,192,86201,1,0,0:0:0:0:
256,192,86272,1,0,0:0:0:0:
256,192,86415,1,2,0:0:0:0:
256,192,86558,1,0,0:0:0:0:
256,192,86701,1,2,0:0:0:0:
256,192,86844,1,0,0:0:0:0:
256,192,86915,1,0,0:0:0:0:
256,192,86987,1,2,0:0:0:0:
256,192,87058,1,0,0:0:0:0:
256,192,87130,1,0,0:0:0:0:
256,192,87201,1,0,0:0:0:0:
256,192,87272,1,2,0:0:0:0:
256,192,87344,1,0,0:0:0:0:
256,192,87415,1,0,0:0:0:0:
256,192,87487,1,0,0:0:0:0:
256,192,87558,1,2,0:0:0:0:
256,192,87630,1,2,0:0:0:0:
256,192,87701,1,0,0:0:0:0:
256,192,87844,1,2,0:0:0:0:
256,192,87915,1,2,0:0:0:0:
256,192,87987,1,0,0:0:0:0:
256,192,88058,1,0,0:0:0:0:
256,192,88130,1,2,0:0:0:0:
256,192,88201,1,0,0:0:0:0:
256,192,88272,1,0,0:0:0:0:
256,192,88344,1,0,0:0:0:0:
256,192,88415,1,2,0:0:0:0:
256,192,88486,1,2,0:0:0:0:
256,192,88558,1,0,0:0:0:0:
256,192,88629,1,0,0:0:0:0:
256,192,88701,1,2,0:0:0:0:
256,192,88772,1,0,0:0:0:0:
256,192,88843,1,0,0:0:0:0:
256,192,88915,1,0,0:0:0:0:
256,192,88987,1,2,0:0:0:0:
256,192,89058,1,2,0:0:0:0:
256,192,89130,1,0,0:0:0:0:
256,192,89201,1,2,0:0:0:0:
256,192,89272,1,2,0:0:0:0:
256,192,89344,1,0,0:0:0:0:
256,192,89415,1,2,0:0:0:0:
256,192,89487,1,0,0:0:0:0:
256,192,89558,1,2,0:0:0:0:
256,192,89630,1,2,0:0:0:0:
256,192,89701,1,0,0:0:0:0:
256,192,89772,1,2,0:0:0:0:
256,192,89844,1,2,0:0:0:0:
256,192,89915,1,0,0:0:0:0:
256,192,89987,1,2,0:0:0:0:
256,192,90058,1,0,0:0:0:0:
256,192,90130,1,2,0:0:0:0:
256,192,90201,1,2,0:0:0:0:
256,192,90272,1,2,0:0:0:0:
256,192,90344,1,0,0:0:0:0:
256,192,90415,1,2,0:0:0:0:
256,192,90487,1,0,0:0:0:0:
256,192,90558,1,2,0:0:0:0:
256,192,90630,1,0,0:0:0:0:
256,192,90701,1,2,0:0:0:0:
256,192,90749,1,2,0:0:0:0:
256,192,90796,1,2,0:0:0:0:
256,192,90844,1,0,0:0:0:0:
256,192,90915,1,0,0:0:0:0:
256,192,90987,1,2,0:0:0:0:
256,192,91034,1,2,0:0:0:0:
256,192,91082,1,2,0:0:0:0:
256,192,91130,1,2,0:0:0:0:
256,192,91177,1,2,0:0:0:0:
256,192,91225,1,2,0:0:0:0:
256,192,91272,1,0,0:0:0:0:
256,192,91415,1,0,0:0:0:0:
256,192,91487,1,0,0:0:0:0:
256,192,91558,1,2,0:0:0:0:
256,192,91701,1,2,0:0:0:0:
256,192,91772,1,2,0:0:0:0:
256,192,91844,1,0,0:0:0:0:
256,192,91915,1,2,0:0:0:0:
256,192,92058,1,2,0:0:0:0:
256,192,92130,1,0,0:0:0:0:
256,192,92272,1,2,0:0:0:0:
256,192,92415,1,4,0:0:0:0:
256,192,92844,1,0,0:0:0:0:
256,192,92915,1,2,0:0:0:0:
256,192,92987,1,0,0:0:0:0:
256,192,93058,1,2,0:0:0:0:
256,192,93130,1,0,0:0:0:0:
256,192,93201,1,0,0:0:0:0:
256,192,93272,1,2,0:0:0:0:
256,192,93344,1,0,0:0:0:0:
256,192,93415,1,0,0:0:0:0:
256,192,93487,1,2,0:0:0:0:
256,192,93558,1,0,0:0:0:0:
256,192,93630,1,0,0:0:0:0:
256,192,93701,1,2,0:0:0:0:
256,192,93772,1,0,0:0:0:0:
256,192,93844,1,0,0:0:0:0:
256,192,93915,1,2,0:0:0:0:
256,192,93987,1,0,0:0:0:0:
256,192,94058,1,0,0:0:0:0:
256,192,94130,1,2,0:0:0:0:
256,192,94201,1,0,0:0:0:0:
256,192,94272,1,0,0:0:0:0:
256,192,94344,1,2,0:0:0:0:
256,192,94415,1,0,0:0:0:0:
256,192,94463,1,0,0:0:0:0:
256,192,94510,1,0,0:0:0:0:
256,192,94558,1,2,0:0:0:0:
256,192,94701,1,4,0:0:0:0:
256,192,95130,1,0,0:0:0:0:
256,192,95201,1,0,0:0:0:0:
256,192,95272,1,0,0:0:0:0:
256,192,95344,1,2,0:0:0:0:
256,192,95415,1,0,0:0:0:0:
256,192,95487,1,0,0:0:0:0:
256,192,95558,1,2,0:0:0:0:
256,192,95630,1,0,0:0:0:0:
256,192,95701,1,0,0:0:0:0:
256,192,95772,1,2,0:0:0:0:
256,192,95844,1,0,0:0:0:0:
256,192,95915,1,0,0:0:0:0:
256,192,95987,1,2,0:0:0:0:
256,192,96058,1,0,0:0:0:0:
256,192,96130,1,0,0:0:0:0:
256,192,96201,1,2,0:0:0:0:
256,192,96272,1,0,0:0:0:0:
256,192,96344,1,0,0:0:0:0:
256,192,96415,1,2,0:0:0:0:
256,192,96487,1,0,0:0:0:0:
256,192,96558,1,0,0:0:0:0:
256,192,96630,1,0,0:0:0:0:
256,192,96701,1,2,0:0:0:0:
256,192,96749,1,0,0:0:0:0:
256,192,96796,1,0,0:0:0:0:
256,192,96844,1,2,0:0:0:0:
256,192,96987,1,4,0:0:0:0:
256,192,97415,1,0,0:0:0:0:
256,192,97486,1,2,0:0:0:0:
256,192,97558,1,0,0:0:0:0:
256,192,97629,1,2,0:0:0:0:
256,192,97701,1,0,0:0:0:0:
256,192,97772,1,0,0:0:0:0:
256,192,97843,1,2,0:0:0:0:
256,192,97915,1,0,0:0:0:0:
256,192,97986,1,0,0:0:0:0:
256,192,98058,1,2,0:0:0:0:
256,192,98129,1,0,0:0:0:0:
256,192,98201,1,0,0:0:0:0:
256,192,98272,1,2,0:0:0:0:
256,192,98343,1,0,0:0:0:0:
256,192,98415,1,0,0:0:0:0:
256,192,98486,1,2,0:0:0:0:
256,192,98558,1,0,0:0:0:0:
256,192,98629,1,0,0:0:0:0:
256,192,98701,1,2,0:0:0:0:
256,192,98772,1,0,0:0:0:0:
256,192,98843,1,0,0:0:0:0:
256,192,98915,1,2,0:0:0:0:
256,192,98986,1,0,0:0:0:0:
256,192,99034,1,0,0:0:0:0:
256,192,99081,1,0,0:0:0:0:
256,192,99129,1,2,0:0:0:0:
256,192,99272,1,4,0:0:0:0:
256,192,99701,1,0,0:0:0:0:
256,192,99772,1,0,0:0:0:0:
256,192,99843,1,0,0:0:0:0:
256,192,99915,1,2,0:0:0:0:
256,192,99986,1,0,0:0:0:0:
256,192,100058,1,0,0:0:0:0:
256,192,100129,1,2,0:0:0:0:
256,192,100201,1,0,0:0:0:0:
256,192,100272,1,0,0:0:0:0:
256,192,100343,1,0,0:0:0:0:
256,192,100415,1,2,0:0:0:0:
256,192,100463,1,2,0:0:0:0:
256,192,100510,1,2,0:0:0:0:
256,192,100558,1,0,0:0:0:0:
256,192,100629,1,2,0:0:0:0:
256,192,100701,1,0,0:0:0:0:
256,192,100748,1,0,0:0:0:0:
256,192,100796,1,0,0:0:0:0:
256,192,100844,1,2,0:0:0:0:
256,192,100915,1,0,0:0:0:0:
256,192,100986,1,2,0:0:0:0:
256,192,101058,1,0,0:0:0:0:
256,192,101130,1,2,0:0:0:0:
256,192,101177,1,0,0:0:0:0:
256,192,101225,1,0,0:0:0:0:
256,192,101272,1,2,0:0:0:0:
256,192,101344,1,2,0:0:0:0:
256,192,101415,1,0,0:0:0:0:
256,192,101558,1,6,0:0:0:0:
256,192,101987,1,2,0:0:0:0:
256,192,102058,1,0,0:0:0:0:
256,192,102130,1,2,0:0:0:0:
256,192,102201,1,0,0:0:0:0:
256,192,102273,1,2,0:0:0:0:
256,192,102344,1,2,0:0:0:0:
256,192,102415,1,0,0:0:0:0:
256,192,102487,1,2,0:0:0:0:
256,192,102558,1,2,0:0:0:0:
256,192,102630,1,0,0:0:0:0:
256,192,102701,1,2,0:0:0:0:
256,192,102773,1,2,0:0:0:0:
256,192,102844,1,0,0:0:0:0:
256,192,102915,1,2,0:0:0:0:
256,192,102987,1,2,0:0:0:0:
256,192,103058,1,0,0:0:0:0:
256,192,103130,1,2,0:0:0:0:
256,192,103201,1,2,0:0:0:0:
256,192,103273,1,0,0:0:0:0:
256,192,103344,1,2,0:0:0:0:
256,192,103415,1,2,0:0:0:0:
256,192,103487,1,0,0:0:0:0:
256,192,103558,1,2,0:0:0:0:
256,192,103606,1,0,0:0:0:0:
256,192,103653,1,0,0:0:0:0:
256,192,103701,1,2,0:0:0:0:
256,192,103844,1,6,0:0:0:0:
256,192,104272,1,2,0:0:0:0:
256,192,104344,1,2,0:0:0:0:
256,192,104415,1,2,0:0:0:0:
256,192,104487,1,0,0:0:0:0:
256,192,104558,1,2,0:0:0:0:
256,192,104630,1,2,0:0:0:0:
256,192,104701,1,0,0:0:0:0:
256,192,104773,1,2,0:0:0:0:
256,192,104844,1,2,0:0:0:0:
256,192,104915,1,0,0:0:0:0:
256,192,104987,1,2,0:0:0:0:
256,192,105058,1,2,0:0:0:0:
256,192,105130,1,0,0:0:0:0:
256,192,105201,1,2,0:0:0:0:
256,192,105273,1,2,0:0:0:0:
256,192,105344,1,0,0:0:0:0:
256,192,105415,1,2,0:0:0:0:
256,192,105487,1,2,0:0:0:0:
256,192,105558,1,0,0:0:0:0:
256,192,105630,1,2,0:0:0:0:
256,192,105701,1,2,0:0:0:0:
256,192,105773,1,0,0:0:0:0:
256,192,105844,1,2,0:0:0:0:
256,192,105915,1,2,0:0:0:0:
256,192,105987,1,2,0:0:0:0:
256,192,106130,1,6,0:0:0:0:
256,192,106558,1,2,0:0:0:0:
256,192,106630,1,0,0:0:0:0:
256,192,106701,1,2,0:0:0:0:
256,192,106772,1,0,0:0:0:0:
256,192,106844,1,2,0:0:0:0:
256,192,106915,1,2,0:0:0:0:
256,192,106987,1,0,0:0:0:0:
256,192,107058,1,2,0:0:0:0:
256,192,107130,1,2,0:0:0:0:
256,192,107201,1,0,0:0:0:0:
256,192,107272,1,2,0:0:0:0:
256,192,107344,1,2,0:0:0:0:
256,192,107415,1,0,0:0:0:0:
256,192,107487,1,2,0:0:0:0:
256,192,107558,1,2,0:0:0:0:
256,192,107630,1,0,0:0:0:0:
256,192,107701,1,2,0:0:0:0:
256,192,107772,1,2,0:0:0:0:
256,192,107844,1,0,0:0:0:0:
256,192,107915,1,2,0:0:0:0:
256,192,107987,1,2,0:0:0:0:
256,192,108058,1,0,0:0:0:0:
256,192,108130,1,2,0:0:0:0:
256,192,108201,1,2,0:0:0:0:
256,192,108272,1,2,0:0:0:0:
256,192,108344,1,0,0:0:0:0:
256,192,108415,1,2,0:0:0:0:
256,192,108487,1,2,0:0:0:0:
256,192,108558,1,2,0:0:0:0:
256,192,108630,1,0,0:0:0:0:
256,192,108701,1,2,0:0:0:0:
256,192,108749,1,2,0:0:0:0:
256,192,108796,1,2,0:0:0:0:
256,192,108844,1,0,0:0:0:0:
256,192,108915,1,0,0:0:0:0:
256,192,108987,1,2,0:0:0:0:
256,192,109034,1,2,0:0:0:0:
256,192,109082,1,2,0:0:0:0:
256,192,109130,1,0,0:0:0:0:
256,192,109201,1,0,0:0:0:0:
256,192,109272,1,2,0:0:0:0:
256,192,109320,1,2,0:0:0:0:
256,192,109368,1,2,0:0:0:0:
256,192,109415,1,0,0:0:0:0:
256,192,109487,1,0,0:0:0:0:
256,192,109558,1,2,0:0:0:0:
256,192,109701,1,2,0:0:0:0:
256,192,109844,1,0,0:0:0:0:
256,192,109891,1,0,0:0:0:0:
256,192,109939,1,0,0:0:0:0:
256,192,109987,1,2,0:0:0:0:
256,192,110058,1,2,0:0:0:0:
256,192,110130,1,0,0:0:0:0:
256,192,110272,1,0,0:0:0:0:
256,192,110415,1,2,0:0:0:0:
256,192,110701,1,4,0:0:0:0:
256,192,110987,1,0,0:0:0:0:
256,192,111130,1,0,0:0:0:0:
256,192,111272,1,2,0:0:0:0:
256,192,111415,1,0,0:0:0:0:
256,192,111487,1,2,0:0:0:0:
256,192,111558,1,0,0:0:0:0:
256,192,111630,1,2,0:0:0:0:
256,192,111701,1,2,0:0:0:0:
256,192,111844,1,0,0:0:0:0:
256,192,111915,1,2,0:0:0:0:
256,192,112058,1,2,0:0:0:0:
256,192,112130,1,0,0:0:0:0:
256,192,112272,1,2,0:0:0:0:
256,192,112344,1,0,0:0:0:0:
256,192,112415,1,2,0:0:0:0:
256,192,112487,1,2,0:0:0:0:
256,192,112558,1,2,0:0:0:0:
256,192,112701,1,0,0:0:0:0:
256,192,112749,1,0,0:0:0:0:
256,192,112796,1,0,0:0:0:0:
256,192,112844,1,2,0:0:0:0:
256,192,112987,1,4,0:0:0:0:
256,192,113415,1,2,0:0:0:0:
256,192,113487,1,2,0:0:0:0:
256,192,113558,1,0,0:0:0:0:
256,192,113701,1,2,0:0:0:0:
256,192,113772,1,2,0:0:0:0:
256,192,113844,1,0,0:0:0:0:
256,192,113915,1,2,0:0:0:0:
256,192,113987,1,2,0:0:0:0:
256,192,114130,1,0,0:0:0:0:
256,192,114201,1,2,0:0:0:0:
256,192,114344,1,2,0:0:0:0:
256,192,114415,1,0,0:0:0:0:
256,192,114558,1,2,0:0:0:0:
256,192,114630,1,2,0:0:0:0:
256,192,114701,1,0,0:0:0:0:
256,192,114772,1,2,0:0:0:0:
256,192,114844,1,2,0:0:0:0:
256,192,114987,1,0,0:0:0:0:
256,192,115034,1,2,0:0:0:0:
256,192,115082,1,2,0:0:0:0:
256,192,115130,1,0,0:0:0:0:
256,192,115272,1,6,0:0:0:0:
256,192,115701,1,0,0:0:0:0:
256,192,115844,1,2,0:0:0:0:
256,192,115987,1,0,0:0:0:0:
256,192,116022,1,0,0:0:0:0:
256,192,116130,1,0,0:0:0:0:
256,192,116165,1,0,0:0:0:0:
256,192,116272,1,2,0:0:0:0:
256,192,116320,1,2,0:0:0:0:
256,192,116368,1,2,0:0:0:0:
256,192,116415,1,0,0:0:0:0:
256,192,116558,1,2,0:0:0:0:
256,192,116630,1,2,0:0:0:0:
256,192,116701,1,0,0:0:0:0:
256,192,116772,1,2,0:0:0:0:
256,192,116844,1,2,0:0:0:0:
256,192,116915,1,2,0:0:0:0:
256,192,116987,1,0,0:0:0:0:
256,192,117058,1,2,0:0:0:0:
256,192,117130,1,2,0:0:0:0:
256,192,117201,1,2,0:0:0:0:
256,192,117272,1,0,0:0:0:0:
256,192,117415,1,2,0:0:0:0:
256,192,117558,1,4,0:0:0:0:
256,192,117987,1,0,0:0:0:0:
256,192,118130,1,2,0:0:0:0:
256,192,118165,1,2,0:0:0:0:
256,192,118272,1,0,0:0:0:0:
256,192,118308,1,2,0:0:0:0:
256,192,118415,1,0,0:0:0:0:
256,192,118451,1,0,0:0:0:0:
256,192,118558,1,2,0:0:0:0:
256,192,118594,1,0,0:0:0:0:
256,192,118701,1,2,0:0:0:0:
256,192,118749,1,2,0:0:0:0:
256,192,118796,1,2,0:0:0:0:
256,192,118844,1,0,0:0:0:0:
256,192,118915,1,2,0:0:0:0:
256,192,118987,1,0,0:0:0:0:
256,192,119034,1,0,0:0:0:0:
256,192,119082,1,0,0:0:0:0:
256,192,119130,1,2,0:0:0:0:
256,192,119201,1,0,0:0:0:0:
256,192,119272,1,2,0:0:0:0:
256,192,119415,1,0,0:0:0:0:
256,192,119487,1,2,0:0:0:0:
256,192,119558,1,0,0:0:0:0:
256,192,119630,1,2,0:0:0:0:
256,192,119701,1,0,0:0:0:0:
256,192,119844,1,0,0:0:0:0:
256,192,119987,1,0,0:0:0:0:
256,192,120130,1,2,0:0:0:0:
256,192,120272,1,2,0:0:0:0:
256,192,120415,1,2,0:0:0:0:
256,192,120558,1,0,0:0:0:0:
256,192,120701,1,6,0:0:0:0:
256,192,120844,1,2,0:0:0:0:
256,192,120915,1,0,0:0:0:0:
256,192,120987,1,2,0:0:0:0:
256,192,121058,1,2,0:0:0:0:
256,192,121201,1,0,0:0:0:0:
256,192,121272,1,2,0:0:0:0:
256,192,121415,1,2,0:0:0:0:
256,192,121487,1,2,0:0:0:0:
256,192,121558,1,0,0:0:0:0:
256,192,121630,1,2,0:0:0:0:
256,192,121701,1,0,0:0:0:0:
256,192,121844,1,0,0:0:0:0:
256,192,121891,1,0,0:0:0:0:
256,192,121939,1,0,0:0:0:0:
256,192,121987,1,2,0:0:0:0:
256,192,122130,1,4,0:0:0:0:
256,192,122415,1,0,0:0:0:0:
256,192,122558,1,0,0:0:0:0:
256,192,122629,1,2,0:0:0:0:
256,192,122701,1,2,0:0:0:0:
256,192,122844,1,0,0:0:0:0:
256,192,122915,1,2,0:0:0:0:
256,192,122987,1,0,0:0:0:0:
256,192,123058,1,2,0:0:0:0:
256,192,123130,1,2,0:0:0:0:
256,192,123272,1,0,0:0:0:0:
256,192,123344,1,2,0:0:0:0:
256,192,123487,1,2,0:0:0:0:
256,192,123558,1,0,0:0:0:0:
256,192,123701,1,2,0:0:0:0:
256,192,123772,1,2,0:0:0:0:
256,192,123844,1,0,0:0:0:0:
256,192,123915,1,2,0:0:0:0:
256,192,123987,1,2,0:0:0:0:
256,192,124130,1,0,0:0:0:0:
256,192,124177,1,0,0:0:0:0:
256,192,124225,1,0,0:0:0:0:
256,192,124272,1,2,0:0:0:0:
256,192,124415,1,4,0:0:0:0:
256,192,124701,1,2,0:0:0:0:
256,192,124844,1,0,0:0:0:0:
256,192,124915,1,0,0:0:0:0:
256,192,124987,1,0,0:0:0:0:
256,192,125130,1,0,0:0:0:0:
256,192,125272,1,2,0:0:0:0:
256,192,125415,1,0,0:0:0:0:
256,192,125487,1,2,0:0:0:0:
256,192,125558,1,0,0:0:0:0:
256,192,125844,1,2,0:0:0:0:
256,192,125987,1,0,0:0:0:0:
256,192,126058,1,0,0:0:0:0:
256,192,126130,1,0,0:0:0:0:
256,192,126272,1,0,0:0:0:0:
256,192,126415,1,2,0:0:0:0:
256,192,126487,1,2,0:0:0:0:
256,192,126558,1,0,0:0:0:0:
256,192,126701,1,2,0:0:0:0:
256,192,126844,1,0,0:0:0:0:
256,192,126915,1,0,0:0:0:0:
256,192,126987,1,2,0:0:0:0:
256,192,127130,1,0,0:0:0:0:
256,192,127201,1,0,0:0:0:0:
256,192,127272,1,2,0:0:0:0:
256,192,127415,1,0,0:0:0:0:
256,192,127487,1,2,0:0:0:0:
256,192,127558,1,2,0:0:0:0:
256,192,127701,1,0,0:0:0:0:
256,192,127772,1,2,0:0:0:0:
256,192,127844,1,2,0:0:0:0:
256,192,127915,1,0,0:0:0:0:
256,192,127987,1,0,0:0:0:0:
256,192,128058,1,2,0:0:0:0:
256,192,128130,1,0,0:0:0:0:
256,192,128201,1,0,0:0:0:0:
256,192,128272,1,2,0:0:0:0:
256,192,128344,1,0,0:0:0:0:
256,192,128415,1,2,0:0:0:0:
256,192,128463,1,0,0:0:0:0:
256,192,128510,1,0,0:0:0:0:
256,192,128558,1,2,0:0:0:0:
256,192,128630,1,0,0:0:0:0:
256,192,128701,1,2,0:0:0:0:
256,192,128987,1,0,0:0:0:0:
256,192,129272,1,6,0:0:0:0:
256,192,129415,1,0,0:0:0:0:
256,192,129487,1,2,0:0:0:0:
256,192,129558,1,0,0:0:0:0:
256,192,129701,1,0,0:0:0:0:
256,192,129772,1,2,0:0:0:0:
256,192,129844,1,0,0:0:0:0:
256,192,129915,1,2,0:0:0:0:
256,192,129987,1,2,0:0:0:0:
256,192,130130,1,0,0:0:0:0:
256,192,130201,1,2,0:0:0:0:
256,192,130272,1,0,0:0:0:0:
256,192,130344,1,2,0:0:0:0:
256,192,130415,1,2,0:0:0:0:
256,192,130487,1,0,0:0:0:0:
256,192,130558,1,2,0:0:0:0:
256,192,130630,1,2,0:0:0:0:
256,192,130701,1,0,0:0:0:0:
256,192,130772,1,2,0:0:0:0:
256,192,130844,1,0,0:0:0:0:
256,192,130987,1,0,0:0:0:0:
256,192,131034,1,0,0:0:0:0:
256,192,131082,1,0,0:0:0:0:
256,192,131130,1,2,0:0:0:0:
256,192,131272,1,4,0:0:0:0:
256,192,131558,1,2,0:0:0:0:
256,192,131701,1,0,0:0:0:0:
256,192,131772,1,2,0:0:0:0:
256,192,131844,1,0,0:0:0:0:
256,192,131987,1,2,0:0:0:0:
256,192,132058,1,2,0:0:0:0:
256,192,132130,1,0,0:0:0:0:
256,192,132201,1,2,0:0:0:0:
256,192,132272,1,2,0:0:0:0:
256,192,132415,1,0,0:0:0:0:
256,192,132487,1,2,0:0:0:0:
256,192,132558,1,0,0:0:0:0:
256,192,132630,1,2,0:0:0:0:
256,192,132701,1,2,0:0:0:0:
256,192,132772,1,0,0:0:0:0:
256,192,132844,1,2,0:0:0:0:
256,192,132915,1,2,0:0:0:0:
256,192,132987,1,0,0:0:0:0:
256,192,133058,1,0,0:0:0:0:
256,192,133130,1,2,0:0:0:0:
256,192,133272,1,0,0:0:0:0:
256,192,133320,1,0,0:0:0:0:
256,192,133368,1,0,0:0:0:0:
256,192,133415,1,2,0:0:0:0:
256,192,133558,1,6,0:0:0:0:
256,192,133701,1,0,0:0:0:0:
256,192,133844,1,0,0:0:0:0:
256,192,133987,1,2,0:0:0:0:
256,192,134022,1,2,0:0:0:0:
256,192,134130,1,0,0:0:0:0:
256,192,134272,1,2,0:0:0:0:
256,192,134308,1,2,0:0:0:0:
256,192,134415,1,0,0:0:0:0:
256,192,134558,1,2,0:0:0:0:
256,192,134594,1,2,0:0:0:0:
256,192,134701,1,0,0:0:0:0:
256,192,134844,1,2,0:0:0:0:
256,192,134915,1,2,0:0:0:0:
256,192,134987,1,0,0:0:0:0:
256,192,135058,1,2,0:0:0:0:
256,192,135130,1,2,0:0:0:0:
256,192,135201,1,2,0:0:0:0:
256,192,135272,1,0,0:0:0:0:
256,192,135344,1,2,0:0:0:0:
256,192,135415,1,2,0:0:0:0:
256,192,135487,1,2,0:0:0:0:
256,192,135558,1,0,0:0:0:0:
256,192,135701,1,2,0:0:0:0:
256,192,135844,1,4,0:0:0:0:
256,192,136130,1,0,0:0:0:0:
256,192,136273,1,2,0:0:0:0:
256,192,136308,1,2,0:0:0:0:
256,192,136416,1,0,0:0:0:0:
256,192,136558,1,2,0:0:0:0:
256,192,136594,1,2,0:0:0:0:
256,192,136701,1,0,0:0:0:0:
256,192,136844,1,2,0:0:0:0:
256,192,136880,1,2,0:0:0:0:
256,192,136987,1,0,0:0:0:0:
256,192,137034,1,2,0:0:0:0:
256,192,137082,1,2,0:0:0:0:
256,192,137130,1,2,0:0:0:0:
256,192,137201,1,2,0:0:0:0:
256,192,137272,1,0,0:0:0:0:
256,192,137415,1,0,0:0:0:0:
256,192,137487,1,0,0:0:0:0:
256,192,137558,1,2,0:0:0:0:
256,192,138130,1,6,0:0:0:0:
256,192,138272,1,4,0:0:0:0:
256,192,138415,1,6,0:0:0:0:
256,192,138558,1,0,0:0:0:0:
256,192,138630,1,0,0:0:0:0:
256,192,138701,1,2,0:0:0:0:
256,192,138844,1,2,0:0:0:0:
256,192,138915,1,2,0:0:0:0:
256,192,138987,1,0,0:0:0:0:
256,192,139058,1,2,0:0:0:0:
256,192,139130,1,2,0:0:0:0:
256,192,139272,1,0,0:0:0:0:
256,192,139344,1,0,0:0:0:0:
256,192,139487,1,2,0:0:0:0:
256,192,139558,1,0,0:0:0:0:
256,192,139701,1,2,0:0:0:0:
256,192,139772,1,2,0:0:0:0:
256,192,139844,1,0,0:0:0:0:
256,192,139987,1,2,0:0:0:0:
256,192,140058,1,2,0:0:0:0:
256,192,140130,1,0,0:0:0:0:
256,192,140177,1,0,0:0:0:0:
256,192,140225,1,0,0:0:0:0:
256,192,140272,1,2,0:0:0:0:
256,192,140415,1,4,0:0:0:0:
256,192,140558,1,2,0:0:0:0:
256,192,140701,1,0,0:0:0:0:
256,192,140844,1,2,0:0:0:0:
256,192,140915,1,2,0:0:0:0:
256,192,140987,1,0,0:0:0:0:
256,192,141130,1,2,0:0:0:0:
256,192,141201,1,2,0:0:0:0:
256,192,141272,1,0,0:0:0:0:
256,192,141344,1,0,0:0:0:0:
256,192,141415,1,2,0:0:0:0:
256,192,141558,1,0,0:0:0:0:
256,192,141630,1,0,0:0:0:0:
256,192,141701,1,2,0:0:0:0:
256,192,141772,1,0,0:0:0:0:
256,192,141844,1,2,0:0:0:0:
256,192,141987,1,0,0:0:0:0:
256,192,142130,1,0,0:0:0:0:
256,192,142201,1,2,0:0:0:0:
256,192,142272,1,2,0:0:0:0:
256,192,142415,1,0,0:0:0:0:
256,192,142463,1,2,0:0:0:0:
256,192,142510,1,2,0:0:0:0:
256,192,142558,1,0,0:0:0:0:
256,192,142701,1,2,0:0:0:0:
256,192,142987,1,0,0:0:0:0:
256,192,143130,1,2,0:0:0:0:
256,192,143165,1,2,0:0:0:0:
256,192,143273,1,0,0:0:0:0:
256,192,143415,1,2,0:0:0:0:
256,192,143451,1,2,0:0:0:0:
256,192,143558,1,0,0:0:0:0:
256,192,143701,1,2,0:0:0:0:
256,192,143737,1,2,0:0:0:0:
256,192,143844,1,0,0:0:0:0:
256,192,143987,1,0,0:0:0:0:
256,192,144022,1,2,0:0:0:0:
256,192,144130,1,0,0:0:0:0:
256,192,144272,1,0,0:0:0:0:
256,192,144308,1,2,0:0:0:0:
256,192,144415,1,0,0:0:0:0:
256,192,144558,1,0,0:0:0:0:
256,192,144594,1,2,0:0:0:0:
256,192,144701,1,0,0:0:0:0:
256,192,144844,1,0,0:0:0:0:
256,192,144880,1,2,0:0:0:0:
256,192,144987,1,0,0:0:0:0:
256,192,145058,1,0,0:0:0:0:
256,192,145130,1,2,0:0:0:0:
256,192,145201,1,2,0:0:0:0:
256,192,145272,1,0,0:0:0:0:
256,192,145344,1,0,0:0:0:0:
256,192,145415,1,2,0:0:0:0:
256,192,145487,1,2,0:0:0:0:
256,192,145558,1,0,0:0:0:0:
256,192,145606,1,0,0:0:0:0:
256,192,145653,1,0,0:0:0:0:
256,192,145701,1,2,0:0:0:0:
256,192,145772,1,2,0:0:0:0:
256,192,145844,1,0,0:0:0:0:
256,192,145892,1,0,0:0:0:0:
256,192,145939,1,0,0:0:0:0:
256,192,145987,1,2,0:0:0:0:
256,192,146058,1,0,0:0:0:0:
256,192,146130,1,2,0:0:0:0:
256,192,146272,1,0,0:0:0:0:
256,192,146344,1,0,0:0:0:0:
256,192,146415,1,2,0:0:0:0:
256,192,146558,1,0,0:0:0:0:
256,192,146630,1,0,0:0:0:0:
256,192,146701,1,2,0:0:0:0:
256,192,146844,1,0,0:0:0:0:
256,192,146915,1,0,0:0:0:0:
256,192,146987,1,2,0:0:0:0:
256,192,147272,1,4,0:0:0:0:
256,192,156415,5,0,0:0:0:0:
256,192,156558,1,2,0:0:0:0:
256,192,156701,1,0,0:0:0:0:
256,192,156772,1,2,0:0:0:0:
256,192,156844,1,0,0:0:0:0:
256,192,156987,1,0,0:0:0:0:
256,192,157415,1,2,0:0:0:0:
256,192,157558,1,0,0:0:0:0:
256,192,157701,1,0,0:0:0:0:
256,192,157844,1,2,0:0:0:0:
256,192,157987,1,0,0:0:0:0:
256,192,158130,1,2,0:0:0:0:
256,192,158272,1,2,0:0:0:0:
256,192,158415,1,0,0:0:0:0:
256,192,158558,1,2,0:0:0:0:
256,192,158701,1,0,0:0:0:0:
256,192,158844,1,2,0:0:0:0:
256,192,158987,1,0,0:0:0:0:
256,192,159058,1,2,0:0:0:0:
256,192,159130,1,0,0:0:0:0:
256,192,159201,1,2,0:0:0:0:
256,192,159272,1,0,0:0:0:0:
256,192,159415,1,2,0:0:0:0:
256,192,159558,1,0,0:0:0:0:
256,192,159701,1,2,0:0:0:0:
256,192,159844,1,0,0:0:0:0:
256,192,159987,1,0,0:0:0:0:
256,192,160130,1,2,0:0:0:0:
256,192,160272,1,0,0:0:0:0:
256,192,160344,1,0,0:0:0:0:
256,192,160415,1,2,0:0:0:0:
256,192,160558,1,0,0:0:0:0:
256,192,160701,1,2,0:0:0:0:
256,192,160844,1,2,0:0:0:0:
256,192,160987,1,0,0:0:0:0:
256,192,161130,1,2,0:0:0:0:
256,192,161273,1,0,0:0:0:0:
256,192,161344,1,2,0:0:0:0:
256,192,161416,1,0,0:0:0:0:
256,192,161559,1,0,0:0:0:0:
256,192,161987,1,2,0:0:0:0:
256,192,162130,1,0,0:0:0:0:
256,192,162273,1,0,0:0:0:0:
256,192,162416,1,2,0:0:0:0:
256,192,162559,1,0,0:0:0:0:
256,192,162702,1,2,0:0:0:0:
256,192,162844,1,2,0:0:0:0:
256,192,162987,1,0,0:0:0:0:
256,192,163130,1,2,0:0:0:0:
256,192,163273,1,0,0:0:0:0:
256,192,163416,1,2,0:0:0:0:
256,192,163559,1,0,0:0:0:0:
256,192,163630,1,2,0:0:0:0:
256,192,163702,1,0,0:0:0:0:
256,192,163773,1,2,0:0:0:0:
256,192,163844,1,0,0:0:0:0:
256,192,163987,1,2,0:0:0:0:
256,192,164130,1,0,0:0:0:0:
256,192,164273,1,2,0:0:0:0:
256,192,164416,1,0,0:0:0:0:
256,192,164559,1,0,0:0:0:0:
256,192,164702,1,2,0:0:0:0:
256,192,164844,1,0,0:0:0:0:
256,192,164916,1,0,0:0:0:0:
256,192,164987,1,2,0:0:0:0:
256,192,165130,1,0,0:0:0:0:
256,192,165201,1,0,0:0:0:0:
256,192,165273,1,0,0:0:0:0:
256,192,165416,1,2,0:0:0:0:
256,192,165558,1,0,0:0:0:0:
256,192,165701,1,2,0:0:0:0:
256,192,165844,1,0,0:0:0:0:
256,192,165915,1,2,0:0:0:0:
256,192,165987,1,0,0:0:0:0:
256,192,166130,1,0,0:0:0:0:
256,192,166558,1,2,0:0:0:0:
256,192,166701,1,0,0:0:0:0:
256,192,166844,1,0,0:0:0:0:
256,192,166987,1,2,0:0:0:0:
256,192,167130,1,0,0:0:0:0:
256,192,167201,1,0,0:0:0:0:
256,192,167273,1,2,0:0:0:0:
256,192,167415,1,2,0:0:0:0:
256,192,167558,1,0,0:0:0:0:
256,192,167701,1,2,0:0:0:0:
256,192,167844,1,0,0:0:0:0:
256,192,167987,1,2,0:0:0:0:
256,192,168130,1,0,0:0:0:0:
256,192,168201,1,2,0:0:0:0:
256,192,168273,1,0,0:0:0:0:
256,192,168344,1,2,0:0:0:0:
256,192,168415,1,0,0:0:0:0:
256,192,168558,1,2,0:0:0:0:
256,192,168701,1,0,0:0:0:0:
256,192,168844,1,2,0:0:0:0:
256,192,168987,1,0,0:0:0:0:
256,192,169130,1,0,0:0:0:0:
256,192,169273,1,2,0:0:0:0:
256,192,169415,1,0,0:0:0:0:
256,192,169487,1,0,0:0:0:0:
256,192,169558,1,2,0:0:0:0:
256,192,169701,1,0,0:0:0:0:
256,192,169844,1,2,0:0:0:0:
256,192,169987,1,2,0:0:0:0:
256,192,170130,1,0,0:0:0:0:
256,192,170273,1,2,0:0:0:0:
256,192,170416,1,0,0:0:0:0:
256,192,170487,1,2,0:0:0:0:
256,192,170559,1,0,0:0:0:0:
256,192,170702,1,0,0:0:0:0:
256,192,171272,12,0,173415,0:0:0:0:
256,192,173558,5,4,0:0:0:0:
256,192,174415,1,2,0:0:0:0:
256,192,174701,1,4,0:0:0:0:
256,192,174844,1,2,0:0:0:0:
256,192,174987,1,0,0:0:0:0:
256,192,175058,1,2,0:0:0:0:
256,192,175130,1,0,0:0:0:0:
256,192,175272,1,0,0:0:0:0:
256,192,175701,1,2,0:0:0:0:
256,192,175844,1,0,0:0:0:0:
256,192,175987,1,0,0:0:0:0:
256,192,176130,1,2,0:0:0:0:
256,192,176272,1,0,0:0:0:0:
256,192,176344,1,0,0:0:0:0:
256,192,176415,1,2,0:0:0:0:
256,192,176558,1,2,0:0:0:0:
256,192,176701,1,0,0:0:0:0:
256,192,176844,1,2,0:0:0:0:
256,192,176987,1,0,0:0:0:0:
256,192,177130,1,2,0:0:0:0:
256,192,177272,1,0,0:0:0:0:
256,192,177344,1,2,0:0:0:0:
256,192,177415,1,0,0:0:0:0:
256,192,177487,1,2,0:0:0:0:
256,192,177558,1,0,0:0:0:0:
256,192,177701,1,2,0:0:0:0:
256,192,177844,1,0,0:0:0:0:
256,192,177987,1,2,0:0:0:0:
256,192,178058,1,2,0:0:0:0:
256,192,178130,1,0,0:0:0:0:
256,192,178272,1,0,0:0:0:0:
256,192,178415,1,2,0:0:0:0:
256,192,178558,1,0,0:0:0:0:
256,192,178630,1,0,0:0:0:0:
256,192,178701,1,2,0:0:0:0:
256,192,178844,1,2,0:0:0:0:
256,192,178987,1,0,0:0:0:0:
256,192,179130,1,2,0:0:0:0:
256,192,179272,1,4,0:0:0:0:
256,192,179558,1,2,0:0:0:0:
256,192,179701,1,4,0:0:0:0:
256,192,180272,1,2,0:0:0:0:
256,192,180415,1,0,0:0:0:0:
256,192,180558,1,0,0:0:0:0:
256,192,180701,1,2,0:0:0:0:
256,192,180844,1,0,0:0:0:0:
256,192,180915,1,0,0:0:0:0:
256,192,180987,1,2,0:0:0:0:
256,192,181130,1,2,0:0:0:0:
256,192,181272,1,0,0:0:0:0:
256,192,181415,1,2,0:0:0:0:
256,192,181558,1,0,0:0:0:0:
256,192,181701,1,2,0:0:0:0:
256,192,181844,1,0,0:0:0:0:
256,192,181915,1,2,0:0:0:0:
256,192,181987,1,0,0:0:0:0:
256,192,182130,1,2,0:0:0:0:
256,192,182201,1,2,0:0:0:0:
256,192,182272,1,0,0:0:0:0:
256,192,182415,1,2,0:0:0:0:
256,192,182558,1,0,0:0:0:0:
256,192,182630,1,0,0:0:0:0:
256,192,182701,1,0,0:0:0:0:
256,192,182844,1,0,0:0:0:0:
256,192,182987,1,2,0:0:0:0:
256,192,183130,1,0,0:0:0:0:
256,192,183201,1,2,0:0:0:0:
256,192,183272,1,2,0:0:0:0:
256,192,183415,1,0,0:0:0:0:
256,192,183487,1,2,0:0:0:0:
256,192,183558,1,2,0:0:0:0:
256,192,183630,1,2,0:0:0:0:
256,192,183701,1,0,0:0:0:0:
256,192,183844,1,4,0:0:0:0:
256,192,184130,1,2,0:0:0:0:
256,192,184272,1,4,0:0:0:0:
256,192,184558,1,0,0:0:0:0:
256,192,184701,1,2,0:0:0:0:
256,192,184987,1,4,0:0:0:0:
256,192,185201,1,4,0:0:0:0:
256,192,185415,1,4,0:0:0:0:
256,192,185701,1,0,0:0:0:0:
256,192,185844,1,2,0:0:0:0:
256,192,186130,1,4,0:0:0:0:
256,192,186415,1,2,0:0:0:0:
256,192,186558,1,4,0:0:0:0:
256,192,186844,1,0,0:0:0:0:
256,192,186987,1,2,0:0:0:0:
256,192,187272,1,4,0:0:0:0:
256,192,187486,1,4,0:0:0:0:
256,192,187701,1,4,0:0:0:0:
256,192,187915,1,4,0:0:0:0:
256,192,188129,1,6,0:0:0:0:
256,192,188415,1,4,0:0:0:0:
256,192,188701,1,2,0:0:0:0:
256,192,188843,1,4,0:0:0:0:
256,192,189129,1,0,0:0:0:0:
256,192,189272,1,2,0:0:0:0:
256,192,189558,1,4,0:0:0:0:
256,192,189772,1,4,0:0:0:0:
256,192,189986,1,4,0:0:0:0:
256,192,190272,1,0,0:0:0:0:
256,192,190415,1,2,0:0:0:0:
256,192,190701,1,4,0:0:0:0:
256,192,190986,1,2,0:0:0:0:
256,192,191129,1,4,0:0:0:0:
256,192,191415,1,0,0:0:0:0:
256,192,191558,1,2,0:0:0:0:
256,192,191844,1,4,0:0:0:0:
256,192,192058,1,4,0:0:0:0:
256,192,192272,1,4,0:0:0:0:
256,192,192487,1,4,0:0:0:0:
256,192,192701,1,4,0:0:0:0:
256,192,192987,1,2,0:0:0:0:
256,192,193130,1,0,0:0:0:0:
256,192,193202,1,0,0:0:0:0:
256,192,193273,1,2,0:0:0:0:
256,192,193416,1,0,0:0:0:0:
256,192,193487,1,0,0:0:0:0:
256,192,193559,1,2,0:0:0:0:
256,192,193702,1,0,0:0:0:0:
256,192,193845,1,2,0:0:0:0:
256,192,193916,1,0,0:0:0:0:
256,192,193987,1,0,0:0:0:0:
256,192,194130,1,2,0:0:0:0:
256,192,194273,1,0,0:0:0:0:
256,192,194416,1,2,0:0:0:0:
256,192,194559,1,0,0:0:0:0:
256,192,194630,1,0,0:0:0:0:
256,192,194702,1,2,0:0:0:0:
256,192,194844,1,0,0:0:0:0:
256,192,194987,1,2,0:0:0:0:
256,192,195059,1,0,0:0:0:0:
256,192,195130,1,0,0:0:0:0:
256,192,195273,1,2,0:0:0:0:
256,192,195416,1,0,0:0:0:0:
256,192,195487,1,0,0:0:0:0:
256,192,195559,1,2,0:0:0:0:
256,192,195702,1,0,0:0:0:0:
256,192,195772,1,0,0:0:0:0:
256,192,195844,1,2,0:0:0:0:
256,192,195916,1,0,0:0:0:0:
256,192,195987,1,0,0:0:0:0:
256,192,196059,1,0,0:0:0:0:
256,192,196130,1,2,0:0:0:0:
256,192,196273,1,0,0:0:0:0:
256,192,196416,1,2,0:0:0:0:
256,192,196487,1,0,0:0:0:0:
256,192,196559,1,0,0:0:0:0:
256,192,196630,1,2,0:0:0:0:
256,192,196701,1,0,0:0:0:0:
256,192,196773,1,0,0:0:0:0:
256,192,196844,1,2,0:0:0:0:
256,192,196915,1,0,0:0:0:0:
256,192,196987,1,0,0:0:0:0:
256,192,197059,1,2,0:0:0:0:
256,192,197130,1,0,0:0:0:0:
256,192,197202,1,0,0:0:0:0:
256,192,197273,1,2,0:0:0:0:
256,192,197344,1,2,0:0:0:0:
256,192,197416,1,0,0:0:0:0:
256,192,197558,1,2,0:0:0:0:
256,192,197629,1,0,0:0:0:0:
256,192,197701,1,2,0:0:0:0:
256,192,197772,1,2,0:0:0:0:
256,192,197843,1,0,0:0:0:0:
256,192,197915,1,2,0:0:0:0:
256,192,197986,1,2,0:0:0:0:
256,192,198058,1,0,0:0:0:0:
256,192,198130,1,2,0:0:0:0:
256,192,198201,1,2,0:0:0:0:
256,192,198272,1,2,0:0:0:0:
256,192,198343,1,0,0:0:0:0:
256,192,198415,1,2,0:0:0:0:
256,192,198486,1,2,0:0:0:0:
256,192,198558,1,2,0:0:0:0:
256,192,198630,1,0,0:0:0:0:
256,192,198701,1,2,0:0:0:0:
256,192,198748,1,2,0:0:0:0:
256,192,198796,1,2,0:0:0:0:
256,192,198843,1,0,0:0:0:0:
256,192,198915,1,0,0:0:0:0:
256,192,198987,1,2,0:0:0:0:
256,192,199034,1,0,0:0:0:0:
256,192,199081,1,0,0:0:0:0:
256,192,199129,1,2,0:0:0:0:
256,192,199201,1,0,0:0:0:0:
256,192,199272,1,2,0:0:0:0:
256,192,199320,1,0,0:0:0:0:
256,192,199367,1,0,0:0:0:0:
256,192,199415,1,2,0:0:0:0:
256,192,199462,1,0,0:0:0:0:
256,192,199510,1,0,0:0:0:0:
256,192,199558,1,2,0:0:0:0:
256,192,199630,1,0,0:0:0:0:
256,192,199701,1,2,0:0:0:0:
256,192,199772,1,2,0:0:0:0:
256,192,199844,1,0,0:0:0:0:
256,192,200844,1,2,0:0:0:0:
256,192,200987,1,2,0:0:0:0:
256,192,201130,1,0,0:0:0:0:
256,192,201201,1,0,0:0:0:0:
256,192,201272,1,2,0:0:0:0:
256,192,201415,1,0,0:0:0:0:
256,192,201487,1,0,0:0:0:0:
256,192,201558,1,2,0:0:0:0:
256,192,201701,1,0,0:0:0:0:
256,192,201772,1,0,0:0:0:0:
256,192,201844,1,2,0:0:0:0:
256,192,201915,1,2,0:0:0:0:
256,192,201987,1,2,0:0:0:0:
256,192,202130,1,4,0:0:0:0:
256,192,202272,1,2,0:0:0:0:
256,192,202415,1,0,0:0:0:0:
256,192,202487,1,2,0:0:0:0:
256,192,202558,1,0,0:0:0:0:
256,192,202701,1,2,0:0:0:0:
256,192,202844,1,0,0:0:0:0:
256,192,202915,1,0,0:0:0:0:
256,192,202987,1,0,0:0:0:0:
256,192,203130,1,2,0:0:0:0:
256,192,203201,1,0,0:0:0:0:
256,192,203272,1,2,0:0:0:0:
256,192,203415,1,0,0:0:0:0:
256,192,203558,1,2,0:0:0:0:
256,192,203701,1,0,0:0:0:0:
256,192,203772,1,0,0:0:0:0:
256,192,203844,1,2,0:0:0:0:
256,192,203987,1,0,0:0:0:0:
256,192,204058,1,0,0:0:0:0:
256,192,204130,1,2,0:0:0:0:
256,192,204201,1,2,0:0:0:0:
256,192,204272,1,2,0:0:0:0:
256,192,204415,1,0,0:0:0:0:
256,192,204558,1,2,0:0:0:0:
256,192,204701,1,0,0:0:0:0:
256,192,204772,1,2,0:0:0:0:
256,192,204844,1,0,0:0:0:0:
256,192,204915,1,0,0:0:0:0:
256,192,204987,1,2,0:0:0:0:
256,192,205058,1,2,0:0:0:0:
256,192,205130,1,0,0:0:0:0:
256,192,205272,1,0,0:0:0:0:
256,192,205415,1,2,0:0:0:0:
256,192,205487,1,2,0:0:0:0:
256,192,205558,1,0,0:0:0:0:
256,192,205701,1,0,0:0:0:0:
256,192,205844,1,2,0:0:0:0:
256,192,205987,1,0,0:0:0:0:
256,192,206058,1,0,0:0:0:0:
256,192,206130,1,2,0:0:0:0:
256,192,206272,1,0,0:0:0:0:
256,192,206344,1,0,0:0:0:0:
256,192,206415,1,2,0:0:0:0:
256,192,206486,1,0,0:0:0:0:
256,192,206557,1,2,0:0:0:0:
256,192,206701,1,0,0:0:0:0:
256,192,206844,1,2,0:0:0:0:
256,192,206986,1,0,0:0:0:0:
256,192,207058,1,2,0:0:0:0:
256,192,207129,1,0,0:0:0:0:
256,192,207272,1,2,0:0:0:0:
256,192,207415,1,0,0:0:0:0:
256,192,207486,1,0,0:0:0:0:
256,192,207558,1,0,0:0:0:0:
256,192,207701,1,2,0:0:0:0:
256,192,207772,1,2,0:0:0:0:
256,192,207843,1,0,0:0:0:0:
256,192,207986,1,0,0:0:0:0:
256,192,208129,1,2,0:0:0:0:
256,192,208272,1,0,0:0:0:0:
256,192,208343,1,0,0:0:0:0:
256,192,208415,1,2,0:0:0:0:
256,192,208558,1,0,0:0:0:0:
256,192,208630,1,0,0:0:0:0:
256,192,208701,1,2,0:0:0:0:
256,192,208772,1,2,0:0:0:0:
256,192,208843,1,2,0:0:0:0:
256,192,208986,1,2,0:0:0:0:
256,192,209129,1,0,0:0:0:0:
256,192,209272,1,2,0:0:0:0:
256,192,209320,1,0,0:0:0:0:
256,192,209367,1,0,0:0:0:0:
256,192,209415,1,2,0:0:0:0:
256,192,209486,1,0,0:0:0:0:
256,192,209558,1,2,0:0:0:0:
256,192,209629,1,2,0:0:0:0:
256,192,209701,1,0,0:0:0:0:
256,192,209772,1,0,0:0:0:0:
256,192,209843,1,2,0:0:0:0:
256,192,209986,1,2,0:0:0:0:
256,192,210058,1,0,0:0:0:0:
256,192,210129,1,2,0:0:0:0:
256,192,210272,1,0,0:0:0:0:
256,192,210344,1,0,0:0:0:0:
256,192,210415,1,2,0:0:0:0:
256,192,210558,1,0,0:0:0:0:
256,192,210606,1,0,0:0:0:0:
256,192,210653,1,0,0:0:0:0:
256,192,210701,1,2,0:0:0:0:
256,192,210844,1,2,0:0:0:0:
256,192,210915,1,0,0:0:0:0:
256,192,210987,1,2,0:0:0:0:
256,192,211058,1,2,0:0:0:0:
256,192,211130,1,0,0:0:0:0:
256,192,211272,1,4,0:0:0:0:
256,192,211415,1,4,0:0:0:0:
256,192,211558,1,4,0:0:0:0:
256,192,211701,1,2,0:0:0:0:
256,192,211844,1,0,0:0:0:0:
256,192,211987,1,0,0:0:0:0:
256,192,212058,1,0,0:0:0:0:
256,192,212130,1,0,0:0:0:0:
256,192,212273,1,2,0:0:0:0:
256,192,212344,1,0,0:0:0:0:
256,192,212415,1,2,0:0:0:0:
256,192,212558,1,0,0:0:0:0:
256,192,212701,1,2,0:0:0:0:
256,192,212844,1,0,0:0:0:0:
256,192,212915,1,0,0:0:0:0:
256,192,212987,1,2,0:0:0:0:
256,192,213130,1,0,0:0:0:0:
256,192,213201,1,0,0:0:0:0:
256,192,213273,1,2,0:0:0:0:
256,192,213344,1,2,0:0:0:0:
256,192,213415,1,2,0:0:0:0:
256,192,213558,1,0,0:0:0:0:
256,192,213701,1,2,0:0:0:0:
256,192,213844,1,0,0:0:0:0:
256,192,213915,1,2,0:0:0:0:
256,192,213987,1,0,0:0:0:0:
256,192,214058,1,0,0:0:0:0:
256,192,214130,1,2,0:0:0:0:
256,192,214201,1,2,0:0:0:0:
256,192,214273,1,0,0:0:0:0:
256,192,214344,1,0,0:0:0:0:
256,192,214415,1,0,0:0:0:0:
256,192,214558,1,2,0:0:0:0:
256,192,214844,1,0,0:0:0:0:
256,192,214987,1,2,0:0:0:0:
256,192,215034,1,0,0:0:0:0:
256,192,215082,1,0,0:0:0:0:
256,192,215130,1,2,0:0:0:0:
256,192,215201,1,0,0:0:0:0:
256,192,215272,1,2,0:0:0:0:
256,192,215415,1,0,0:0:0:0:
256,192,215558,1,2,0:0:0:0:
256,192,215630,1,2,0:0:0:0:
256,192,215701,1,0,0:0:0:0:
256,192,215844,1,4,0:0:0:0:
256,192,215987,1,0,0:0:0:0:
256,192,216272,1,4,0:0:0:0:
256,192,216415,1,0,0:0:0:0:
256,192,216701,1,4,0:0:0:0:
256,192,216844,1,0,0:0:0:0:
256,192,216987,1,6,0:0:0:0:
256,192,217130,1,0,0:0:0:0:
256,192,217415,1,6,0:0:0:0:
256,192,217558,1,0,0:0:0:0:
256,192,217844,1,6,0:0:0:0:
256,192,217987,1,6,0:0:0:0:
256,192,218130,1,2,0:0:0:0:
256,192,218201,1,0,0:0:0:0:
256,192,218272,1,0,0:0:0:0:
256,192,218344,1,0,0:0:0:0:
256,192,218415,1,2,0:0:0:0:
256,192,218487,1,0,0:0:0:0:
256,192,218558,1,2,0:0:0:0:
256,192,218630,1,0,0:0:0:0:
256,192,218701,1,2,0:0:0:0:
256,192,218772,1,2,0:0:0:0:
256,192,218844,1,0,0:0:0:0:
256,192,218915,1,0,0:0:0:0:
256,192,218987,1,2,0:0:0:0:
256,192,219034,1,2,0:0:0:0:
256,192,219082,1,2,0:0:0:0:
256,192,219130,1,2,0:0:0:0:
256,192,219177,1,2,0:0:0:0:
256,192,219225,1,2,0:0:0:0:
256,192,219272,1,0,0:0:0:0:
256,192,219415,1,2,0:0:0:0:
256,192,219558,1,0,0:0:0:0:
256,192,219701,1,2,0:0:0:0:
256,192,219749,1,2,0:0:0:0:
256,192,219796,1,2,0:0:0:0:
256,192,219844,1,0,0:0:0:0:
256,192,219987,1,2,0:0:0:0:
256,192,220058,1,0,0:0:0:0:
256,192,220130,1,2,0:0:0:0:
256,192,220201,1,2,0:0:0:0:
256,192,220272,1,0,0:0:0:0:
256,192,220415,1,4,0:0:0:0:
256,192,220558,1,4,0:0:0:0:
256,192,220701,1,4,0:0:0:0:
256,192,220844,1,2,0:0:0:0:
256,192,220987,1,0,0:0:0:0:
256,192,221130,1,2,0:0:0:0:
256,192,221201,1,2,0:0:0:0:
256,192,221272,1,0,0:0:0:0:
256,192,221344,1,0,0:0:0:0:
256,192,221415,1,2,0:0:0:0:
256,192,221487,1,0,0:0:0:0:
256,192,221558,1,2,0:0:0:0:
256,192,221701,1,0,0:0:0:0:
256,192,221772,1,0,0:0:0:0:
256,192,221844,1,2,0:0:0:0:
256,192,221987,1,0,0:0:0:0:
256,192,222130,1,2,0:0:0:0:
256,192,222272,1,0,0:0:0:0:
256,192,222344,1,0,0:0:0:0:
256,192,222415,1,2,0:0:0:0:
256,192,222487,1,2,0:0:0:0:
256,192,222558,1,0,0:0:0:0:
256,192,222630,1,2,0:0:0:0:
256,192,222701,1,0,0:0:0:0:
256,192,222844,1,2,0:0:0:0:
256,192,222987,1,0,0:0:0:0:
256,192,223058,1,2,0:0:0:0:
256,192,223130,1,0,0:0:0:0:
256,192,223201,1,0,0:0:0:0:
256,192,223272,1,2,0:0:0:0:
256,192,223344,1,2,0:0:0:0:
256,192,223415,1,0,0:0:0:0:
256,192,223558,1,0,0:0:0:0:
256,192,223701,1,2,0:0:0:0:
256,192,223844,1,0,0:0:0:0:
256,192,223987,1,0,0:0:0:0:
256,192,224058,1,0,0:0:0:0:
256,192,224130,1,2,0:0:0:0:
256,192,224177,1,0,0:0:0:0:
256,192,224225,1,0,0:0:0:0:
256,192,224272,1,2,0:0:0:0:
256,192,224344,1,0,0:0:0:0:
256,192,224415,1,2,0:0:0:0:
256,192,224558,1,0,0:0:0:0:
256,192,224630,1,0,0:0:0:0:
256,192,224701,1,2,0:0:0:0:
256,192,224772,1,0,0:0:0:0:
256,192,224844,1,2,0:0:0:0:
256,192,224987,1,0,0:0:0:0:
256,192,225130,1,2,0:0:0:0:
256,192,225273,1,0,0:0:0:0:
256,192,225344,1,2,0:0:0:0:
256,192,225415,1,0,0:0:0:0:
256,192,225487,1,2,0:0:0:0:
256,192,225559,1,0,0:0:0:0:
256,192,225630,1,0,0:0:0:0:
256,192,225702,1,2,0:0:0:0:
256,192,225773,1,2,0:0:0:0:
256,192,225844,1,0,0:0:0:0:
256,192,225987,1,2,0:0:0:0:
256,192,226058,1,2,0:0:0:0:
256,192,226130,1,0,0:0:0:0:
256,192,226273,1,0,0:0:0:0:
256,192,226344,1,0,0:0:0:0:
256,192,226416,1,2,0:0:0:0:
256,192,226559,1,0,0:0:0:0:
256,192,226702,1,2,0:0:0:0:
256,192,226844,1,0,0:0:0:0:
256,192,226915,1,0,0:0:0:0:
256,192,226987,1,2,0:0:0:0:
256,192,227059,1,2,0:0:0:0:
256,192,227130,1,2,0:0:0:0:
256,192,227273,1,4,0:0:0:0:
256,192,227416,1,4,0:0:0:0:
256,192,227701,1,6,0:0:0:0:
256,192,227844,1,4,0:0:0:0:
256,192,228130,1,6,0:0:0:0:
256,192,228272,1,0,0:0:0:0:
256,192,228344,1,0,0:0:0:0:
256,192,228415,1,2,0:0:0:0:
256,192,228558,1,0,0:0:0:0:
256,192,228630,1,2,0:0:0:0:
256,192,228701,1,2,0:0:0:0:
256,192,228844,1,2,0:0:0:0:
256,192,228915,1,2,0:0:0:0:
256,192,228987,1,2,0:0:0:0:
256,192,229130,1,2,0:0:0:0:
256,192,229272,1,2,0:0:0:0:
256,192,229320,1,2,0:0:0:0:
256,192,229368,1,2,0:0:0:0:
256,192,229415,1,0,0:0:0:0:
256,192,229558,1,0,0:0:0:0:
256,192,229844,1,6,0:0:0:0:
256,192,229987,1,0,0:0:0:0:
256,192,230130,1,2,0:0:0:0:
256,192,230273,1,0,0:0:0:0:
256,192,230344,1,2,0:0:0:0:
256,192,230415,1,0,0:0:0:0:
256,192,230487,1,0,0:0:0:0:
256,192,230558,1,2,0:0:0:0:
256,192,230630,1,2,0:0:0:0:
256,192,230701,1,0,0:0:0:0:
256,192,230844,1,0,0:0:0:0:
256,192,230915,1,0,0:0:0:0:
256,192,230987,1,2,0:0:0:0:
256,192,231130,1,0,0:0:0:0:
256,192,231273,1,2,0:0:0:0:
256,192,231415,1,2,0:0:0:0:
256,192,231487,1,0,0:0:0:0:
256,192,231558,1,2,0:0:0:0:
256,192,231630,1,0,0:0:0:0:
256,192,231701,1,2,0:0:0:0:
256,192,231773,1,2,0:0:0:0:
256,192,231844,1,0,0:0:0:0:
256,192,231891,1,0,0:0:0:0:
256,192,231939,1,0,0:0:0:0:
256,192,231987,1,2,0:0:0:0:
256,192,232130,1,0,0:0:0:0:
256,192,232201,1,2,0:0:0:0:
256,192,232273,1,0,0:0:0:0:
256,192,232344,1,2,0:0:0:0:
256,192,232415,1,2,0:0:0:0:
256,192,232487,1,2,0:0:0:0:
256,192,232558,1,0,0:0:0:0:
256,192,232701,1,0,0:0:0:0:
256,192,232844,1,2,0:0:0:0:
256,192,232987,1,2,0:0:0:0:
256,192,233058,1,0,0:0:0:0:
256,192,233130,1,0,0:0:0:0:
256,192,233201,1,2,0:0:0:0:
256,192,233272,1,0,0:0:0:0:
256,192,233344,1,0,0:0:0:0:
256,192,233415,1,2,0:0:0:0:
256,192,233486,1,0,0:0:0:0:
256,192,233558,1,0,0:0:0:0:
256,192,233630,1,2,0:0:0:0:
256,192,233701,1,0,0:0:0:0:
256,192,233773,1,0,0:0:0:0:
256,192,233844,1,2,0:0:0:0:
256,192,233891,1,0,0:0:0:0:
256,192,233939,1,0,0:0:0:0:
256,192,233987,1,2,0:0:0:0:
256,192,234130,1,0,0:0:0:0:
256,192,234201,1,0,0:0:0:0:
256,192,234272,1,2,0:0:0:0:
256,192,234344,1,2,0:0:0:0:
256,192,234415,1,0,0:0:0:0:
256,192,234487,1,2,0:0:0:0:
256,192,234558,1,2,0:0:0:0:
256,192,234630,1,2,0:0:0:0:
256,192,234701,1,0,0:0:0:0:
256,192,234772,1,0,0:0:0:0:
256,192,234843,1,2,0:0:0:0:
256,192,234915,1,2,0:0:0:0:
256,192,234986,1,0,0:0:0:0:
256,192,235058,1,2,0:0:0:0:
256,192,235129,1,2,0:0:0:0:
256,192,235201,1,2,0:0:0:0:
256,192,235272,1,0,0:0:0:0:
256,192,235320,1,0,0:0:0:0:
256,192,235368,1,0,0:0:0:0:
256,192,235415,1,2,0:0:0:0:
256,192,235487,1,0,0:0:0:0:
256,192,235558,1,2,0:0:0:0:
256,192,235606,1,0,0:0:0:0:
256,192,235653,1,0,0:0:0:0:
256,192,235701,1,2,0:0:0:0:
256,192,235772,1,2,0:0:0:0:
256,192,235844,1,0,0:0:0:0:
256,192,235892,1,0,0:0:0:0:
256,192,235940,1,0,0:0:0:0:
256,192,235987,1,2,0:0:0:0:
256,192,236059,1,0,0:0:0:0:
256,192,236130,1,2,0:0:0:0:
256,192,236177,1,0,0:0:0:0:
256,192,236225,1,0,0:0:0:0:
256,192,236273,1,2,0:0:0:0:
256,192,236344,1,0,0:0:0:0:
256,192,236415,1,2,0:0:0:0:
256,192,236487,1,2,0:0:0:0:
256,192,236558,1,2,0:0:0:0:
256,192,236630,1,2,0:0:0:0:
256,192,236701,1,2,0:0:0:0:
256,192,236773,1,2,0:0:0:0:
256,192,236844,1,2,0:0:0:0:
256,192,236916,1,2,0:0:0:0:
256,192,236987,1,2,0:0:0:0:
256,192,237059,1,2,0:0:0:0:
256,192,237130,1,2,0:0:0:0:
256,192,237202,1,2,0:0:0:0:
256,192,237272,1,2,0:0:0:0:
256,192,237320,1,2,0:0:0:0:
256,192,237368,1,2,0:0:0:0:
256,192,237415,1,2,0:0:0:0:
256,192,237463,1,2,0:0:0:0:
256,192,237510,1,2,0:0:0:0:
256,192,237558,1,0,0:0:0:0:
256,192,237701,1,2,0:0:0:0:
256,192,237844,1,0,0:0:0:0:
256,192,237915,1,2,0:0:0:0:
256,192,237987,1,0,0:0:0:0:
256,192,238058,1,2,0:0:0:0:
256,192,238130,1,0,0:0:0:0:
256,192,238272,1,2,0:0:0:0:
256,192,238344,1,2,0:0:0:0:
256,192,238415,1,0,0:0:0:0:
256,192,238487,1,0,0:0:0:0:
256,192,238558,1,0,0:0:0:0:
256,192,238701,1,4,0:0:0:0:
256,192,239130,1,0,0:0:0:0:
256,192,239201,1,2,0:0:0:0:
256,192,239273,1,0,0:0:0:0:
256,192,239344,1,2,0:0:0:0:
256,192,239416,1,0,0:0:0:0:
256,192,239487,1,0,0:0:0:0:
256,192,239558,1,2,0:0:0:0:
256,192,239630,1,0,0:0:0:0:
256,192,239701,1,0,0:0:0:0:
256,192,239773,1,2,0:0:0:0:
256,192,239844,1,0,0:0:0:0:
256,192,239916,1,0,0:0:0:0:
256,192,239987,1,2,0:0:0:0:
256,192,240058,1,0,0:0:0:0:
256,192,240130,1,0,0:0:0:0:
256,192,240201,1,2,0:0:0:0:
256,192,240273,1,0,0:0:0:0:
256,192,240344,1,0,0:0:0:0:
256,192,240416,1,2,0:0:0:0:
256,192,240487,1,0,0:0:0:0:
256,192,240558,1,0,0:0:0:0:
256,192,240630,1,2,0:0:0:0:
256,192,240701,1,0,0:0:0:0:
256,192,240749,1,0,0:0:0:0:
256,192,240796,1,0,0:0:0:0:
256,192,240844,1,2,0:0:0:0:
256,192,240987,1,4,0:0:0:0:
256,192,241415,1,0,0:0:0:0:
256,192,241487,1,0,0:0:0:0:
256,192,241558,1,0,0:0:0:0:
256,192,241630,1,2,0:0:0:0:
256,192,241701,1,0,0:0:0:0:
256,192,241773,1,0,0:0:0:0:
256,192,241844,1,2,0:0:0:0:
256,192,241916,1,0,0:0:0:0:
256,192,241987,1,0,0:0:0:0:
256,192,242058,1,2,0:0:0:0:
256,192,242130,1,0,0:0:0:0:
256,192,242201,1,0,0:0:0:0:
256,192,242273,1,2,0:0:0:0:
256,192,242344,1,0,0:0:0:0:
256,192,242416,1,0,0:0:0:0:
256,192,242487,1,2,0:0:0:0:
256,192,242558,1,0,0:0:0:0:
256,192,242630,1,0,0:0:0:0:
256,192,242701,1,2,0:0:0:0:
256,192,242773,1,0,0:0:0:0:
256,192,242844,1,0,0:0:0:0:
256,192,242916,1,0,0:0:0:0:
256,192,242987,1,2,0:0:0:0:
256,192,243035,1,0,0:0:0:0:
256,192,243082,1,0,0:0:0:0:
256,192,243130,1,2,0:0:0:0:
256,192,243272,1,4,0:0:0:0:
256,192,243701,1,0,0:0:0:0:
256,192,243772,1,2,0:0:0:0:
256,192,243844,1,0,0:0:0:0:
256,192,243915,1,2,0:0:0:0:
256,192,243987,1,0,0:0:0:0:
256,192,244058,1,0,0:0:0:0:
256,192,244129,1,2,0:0:0:0:
256,192,244201,1,0,0:0:0:0:
256,192,244272,1,0,0:0:0:0:
256,192,244344,1,2,0:0:0:0:
256,192,244415,1,0,0:0:0:0:
256,192,244487,1,0,0:0:0:0:
256,192,244558,1,2,0:0:0:0:
256,192,244629,1,0,0:0:0:0:
256,192,244701,1,0,0:0:0:0:
256,192,244772,1,2,0:0:0:0:
256,192,244844,1,0,0:0:0:0:
256,192,244915,1,0,0:0:0:0:
256,192,244987,1,2,0:0:0:0:
256,192,245058,1,0,0:0:0:0:
256,192,245129,1,0,0:0:0:0:
256,192,245201,1,2,0:0:0:0:
256,192,245272,1,0,0:0:0:0:
256,192,245320,1,0,0:0:0:0:
256,192,245367,1,0,0:0:0:0:
256,192,245415,1,2,0:0:0:0:
256,192,245558,1,4,0:0:0:0:
256,192,245987,1,0,0:0:0:0:
256,192,246058,1,0,0:0:0:0:
256,192,246129,1,0,0:0:0:0:
256,192,246201,1,2,0:0:0:0:
256,192,246272,1,0,0:0:0:0:
256,192,246344,1,0,0:0:0:0:
256,192,246415,1,2,0:0:0:0:
256,192,246487,1,0,0:0:0:0:
256,192,246558,1,0,0:0:0:0:
256,192,246629,1,0,0:0:0:0:
256,192,246701,1,2,0:0:0:0:
256,192,246749,1,2,0:0:0:0:
256,192,246796,1,2,0:0:0:0:
256,192,246844,1,0,0:0:0:0:
256,192,246915,1,2,0:0:0:0:
256,192,246987,1,0,0:0:0:0:
256,192,247034,1,0,0:0:0:0:
256,192,247082,1,0,0:0:0:0:
256,192,247130,1,2,0:0:0:0:
256,192,247201,1,0,0:0:0:0:
256,192,247272,1,2,0:0:0:0:
256,192,247344,1,0,0:0:0:0:
256,192,247416,1,2,0:0:0:0:
256,192,247463,1,0,0:0:0:0:
256,192,247511,1,0,0:0:0:0:
256,192,247558,1,2,0:0:0:0:
256,192,247630,1,2,0:0:0:0:
256,192,247701,1,0,0:0:0:0:
256,192,247844,1,6,0:0:0:0:
256,192,248272,1,2,0:0:0:0:
256,192,248343,1,0,0:0:0:0:
256,192,248415,1,2,0:0:0:0:
256,192,248486,1,0,0:0:0:0:
256,192,248558,1,2,0:0:0:0:
256,192,248629,1,2,0:0:0:0:
256,192,248700,1,0,0:0:0:0:
256,192,248772,1,2,0:0:0:0:
256,192,248843,1,2,0:0:0:0:
256,192,248915,1,0,0:0:0:0:
256,192,248986,1,2,0:0:0:0:
256,192,249058,1,2,0:0:0:0:
256,192,249129,1,0,0:0:0:0:
256,192,249200,1,2,0:0:0:0:
256,192,249272,1,2,0:0:0:0:
256,192,249343,1,0,0:0:0:0:
256,192,249415,1,2,0:0:0:0:
256,192,249486,1,2,0:0:0:0:
256,192,249558,1,0,0:0:0:0:
256,192,249629,1,2,0:0:0:0:
256,192,249700,1,2,0:0:0:0:
256,192,249772,1,0,0:0:0:0:
256,192,249843,1,2,0:0:0:0:
256,192,249891,1,0,0:0:0:0:
256,192,249938,1,0,0:0:0:0:
256,192,249986,1,2,0:0:0:0:
256,192,250130,1,6,0:0:0:0:
256,192,250558,1,2,0:0:0:0:
256,192,250629,1,2,0:0:0:0:
256,192,250700,1,2,0:0:0:0:
256,192,250772,1,0,0:0:0:0:
256,192,250843,1,2,0:0:0:0:
256,192,250915,1,2,0:0:0:0:
256,192,250986,1,0,0:0:0:0:
256,192,251058,1,2,0:0:0:0:
256,192,251129,1,2,0:0:0:0:
256,192,251200,1,0,0:0:0:0:
256,192,251272,1,2,0:0:0:0:
256,192,251343,1,2,0:0:0:0:
256,192,251415,1,0,0:0:0:0:
256,192,251486,1,2,0:0:0:0:
256,192,251558,1,2,0:0:0:0:
256,192,251629,1,0,0:0:0:0:
256,192,251700,1,2,0:0:0:0:
256,192,251772,1,2,0:0:0:0:
256,192,251843,1,0,0:0:0:0:
256,192,251915,1,2,0:0:0:0:
256,192,251986,1,2,0:0:0:0:
256,192,252058,1,0,0:0:0:0:
256,192,252129,1,2,0:0:0:0:
256,192,252201,1,2,0:0:0:0:
256,192,252272,1,2,0:0:0:0:
256,192,252415,1,6,0:0:0:0:
256,192,252844,1,2,0:0:0:0:
256,192,252916,1,0,0:0:0:0:
256,192,252987,1,2,0:0:0:0:
256,192,253058,1,0,0:0:0:0:
256,192,253130,1,2,0:0:0:0:
256,192,253201,1,2,0:0:0:0:
256,192,253273,1,0,0:0:0:0:
256,192,253344,1,2,0:0:0:0:
256,192,253416,1,2,0:0:0:0:
256,192,253487,1,0,0:0:0:0:
256,192,253558,1,2,0:0:0:0:
256,192,253630,1,0,0:0:0:0:
256,192,253701,1,2,0:0:0:0:
256,192,253773,1,2,0:0:0:0:
256,192,253844,1,0,0:0:0:0:
256,192,253916,1,2,0:0:0:0:
256,192,253987,1,2,0:0:0:0:
256,192,254058,1,0,0:0:0:0:
256,192,254130,1,2,0:0:0:0:
256,192,254201,1,0,0:0:0:0:
256,192,254273,1,2,0:0:0:0:
256,192,254344,1,2,0:0:0:0:
256,192,254416,1,0,0:0:0:0:
256,192,254487,1,2,0:0:0:0:
256,192,254558,1,2,0:0:0:0:
256,192,254630,1,0,0:0:0:0:
256,192,254701,1,2,0:0:0:0:
256,192,254773,1,0,0:0:0:0:
256,192,254844,1,2,0:0:0:0:
256,192,254916,1,2,0:0:0:0:
256,192,254987,1,0,0:0:0:0:
256,192,255058,1,2,0:0:0:0:
256,192,255130,1,2,0:0:0:0:
256,192,255201,1,0,0:0:0:0:
256,192,255272,1,2,0:0:0:0:
256,192,255344,1,0,0:0:0:0:
256,192,255415,1,2,0:0:0:0:
256,192,255487,1,2,0:0:0:0:
256,192,255558,1,0,0:0:0:0:
256,192,255630,1,2,0:0:0:0:
256,192,255701,1,2,0:0:0:0:
256,192,255772,1,0,0:0:0:0:
256,192,255844,1,2,0:0:0:0:
256,192,255987,1,0,0:0:0:0:
256,192,256058,1,0,0:0:0:0:
256,192,256130,1,2,0:0:0:0:
256,192,256272,1,0,0:0:0:0:
256,192,256344,1,0,0:0:0:0:
256,192,256415,1,2,0:0:0:0:
256,192,256558,1,0,0:0:0:0:
256,192,256630,1,0,0:0:0:0:
256,192,256701,1,2,0:0:0:0:
256,192,256987,1,4,0:0:0:0:
256,192,257058,12,0,266130,0:0:0:0:
