osu file format v14

[General]
AudioFilename: audio.mp3
AudioLeadIn: 0
PreviewTime: -1
Countdown: 2
SampleSet: Normal
StackLeniency: 0.5
Mode: 0
LetterboxInBreaks: 0
WidescreenStoryboard: 0

[Editor]
Bookmarks: 28432,35289,36289,39503,73003,92432
DistanceSpacing: 0.5
BeatDivisor: 4
GridSize: 4
TimelineZoom: 2.8

[Metadata]
Title:The King Of Lions
TitleUnicode:The King Of Lions
Artist:Camellia
ArtistUnicode:かめりあ
Creator:Aosek
Version:ExXx
Source:
Tags:
BeatmapID:1624673
BeatmapSetID:772910

[Difficulty]
HPDrainRate:3
CircleSize:3.8
OverallDifficulty:8
ApproachRate:10
SliderMultiplier:1.5
SliderTickRate:1

[Events]
//Background and Video events
0,0,"1390328569938.jpg",0,0
//Break Periods
2,49345,257667
//Storyboard Layer 0 (Background)
//Storyboard Layer 1 (Fail)
//Storyboard Layer 2 (Pass)
//Storyboard Layer 3 (Foreground)
//Storyboard Sound Samples

[TimingPoints]
-139,285.714285714286,4,1,0,50,1,0
2003,-125,4,1,0,50,0,0
3861,-100,4,1,0,50,0,0
4861,-83.3333333333333,4,1,0,50,0,0
9003,-100,4,1,0,50,0,0
9146,-166.666666666667,4,1,0,50,0,0
9289,-142.857142857143,4,1,0,50,0,0
9432,-125,4,1,0,50,0,0
9575,-100,4,1,0,50,0,0
9861,-55.5555555555556,4,1,0,50,0,0
10146,-83.3333333333333,4,1,0,50,0,0
11146,-166.666666666667,4,1,0,50,0,0
12432,-83.3333333333333,4,1,0,50,0,0
13718,-71.4285714285714,4,1,0,50,0,0
14146,-100,4,1,0,50,0,0
14718,-45.4545454545455,4,1,0,100,0,0
15003,-166.666666666667,4,1,0,50,0,0
15146,-45.4545454545455,4,1,0,100,0,0
15718,-166.666666666667,4,1,0,50,0,0
17003,-55.5555555555556,4,1,0,50,0,0
17718,-62.5,4,1,0,50,0,0
18003,-71.4285714285714,4,1,0,50,0,0
18146,-166.666666666667,4,1,0,50,0,0
18718,-125,4,1,0,50,0,0
19289,-45.4545454545455,4,1,0,100,0,0
19575,-166.666666666667,4,1,0,50,0,0
19646,-41.6666666666667,4,1,0,100,0,0
20146,-125,4,1,0,50,0,0
20432,-50,4,1,0,100,0,0
20646,-45.4545454545455,4,1,0,100,0,0
20861,-41.6666666666667,4,1,0,100,0,0
21289,-125,4,1,0,50,0,0
21575,-41.6666666666667,4,1,0,100,0,0
21789,-166.666666666667,4,1,0,50,0,0
22003,-38.4615384615385,4,1,0,100,0,0
22432,-166.666666666667,4,1,0,50,0,0
22718,-41.6666666666667,4,1,0,100,0,0
22932,-38.4615384615385,4,1,0,100,0,0
23146,-35.7142857142857,4,1,0,100,0,0
23361,-33.3333333333333,4,1,0,100,0,0
23575,-166.666666666667,4,1,0,50,0,0
23861,-45.4545454545455,4,1,0,100,0,0
24075,-166.666666666667,4,1,0,50,0,0
24289,-41.6666666666667,4,1,0,100,0,0
24718,-166.666666666667,4,1,0,50,0,0
25003,-41.6666666666667,4,1,0,100,0,0
25218,-38.4615384615385,4,1,0,100,0,0
25439,-35.7142857142857,4,1,0,100,0,0
25646,-33.3333333333333,4,1,0,100,0,0
25861,-166.666666666667,4,1,0,50,0,0
26146,-41.6666666666667,4,1,0,100,0,0
26361,-166.666666666667,4,1,0,50,0,0
26575,-38.4615384615385,4,1,0,100,0,0
27003,-166.666666666667,4,1,0,50,0,0
27289,-45.4545454545455,4,1,0,100,0,0
27503,-41.6666666666667,4,1,0,100,0,0
27718,-38.4615384615385,4,1,0,100,0,0
27932,-35.7142857142857,4,1,0,100,0,0
28146,-33.3333333333333,4,1,0,100,0,0
28432,-166.666666666667,4,1,0,50,0,0
28718,-125,4,1,0,50,0,0
29003,-100,4,1,0,50,0,0
29289,-83.3333333333333,4,1,0,50,0,0
29575,-71.4285714285714,4,1,0,50,0,0
30146,-62.5,4,1,0,50,0,0
30503,-166.666666666667,4,1,0,50,0,0
30646,-166.666666666667,4,1,0,50,0,0
31003,-125,4,1,0,50,0,0
31146,-100,4,1,0,50,0,0
31861,-125,4,1,0,50,0,0
32075,-71.4285714285714,4,1,0,50,0,0
32289,-45.4545454545455,4,1,0,100,0,0
32718,-125,4,1,0,50,0,0
33003,-166.666666666667,4,1,0,50,0,0
34146,-166.666666666667,4,1,0,50,0,0
34218,-142.857142857143,4,1,0,50,0,0
34289,-125,4,1,0,50,0,0
34361,-111.111111111111,4,1,0,50,0,0
34432,-100,4,1,0,50,0,0
34503,-90.909090909091,4,1,0,50,0,0
34575,-83.3333333333333,4,1,0,50,0,0
34646,-76.9230769230769,4,1,0,50,0,0
34718,-71.4285714285714,4,1,0,50,0,0
34789,-66.6666666666667,4,1,0,50,0,0
34861,-62.5,4,1,0,50,0,0
34932,-58.8235294117647,4,1,0,50,0,0
35003,-55.5555555555556,4,1,0,50,0,0
35075,-52.6315789473684,4,1,0,50,0,0
35146,-50,4,1,0,50,0,0
35218,-47.6190476190476,4,1,0,100,0,0
35289,-71.4285714285714,4,1,0,50,0,0
36575,-125,4,1,0,50,0,0
37003,-62.5,4,1,0,50,0,0
37289,-55.5555555555556,4,1,0,50,0,0
37575,-41.6666666666667,4,1,0,100,0,0
37861,-35.7142857142857,4,1,0,100,0,0
38146,-38.4615384615385,4,1,0,100,0,0
38218,-41.6666666666667,4,1,0,100,0,0
38289,-45.4545454545455,4,1,0,100,0,0
38361,-50,4,1,0,100,0,0
38432,-55.5555555555556,4,1,0,100,0,0
38861,-35.7142857142857,4,1,0,100,0,0
39146,-33.3333333333333,4,1,0,100,0,0
39575,-166.666666666667,4,1,0,100,0,0
39718,-33.3333333333333,4,1,0,100,0,0
39861,-41.6666666666667,4,1,0,100,0,0
40146,-35.7142857142857,4,1,0,100,0,0
40432,-100,4,1,0,100,0,0
40718,-38.4615384615386,4,1,0,100,0,0
41003,-166.666666666667,4,1,0,100,0,0
41146,-33.3333333333333,4,1,0,100,0,0
41289,-166.666666666667,4,1,0,100,0,0
41432,-33.3333333333333,4,1,0,100,0,0
41861,-83.3333333333333,4,1,0,100,0,0
42146,-41.6666666666667,4,1,0,100,0,0
42432,-35.7142857142857,4,1,0,100,0,0
43003,-38.4615384615385,4,1,0,100,0,0
43146,-62.5,4,1,0,100,0,0
43289,-83.3333333333334,4,1,0,100,0,0
43432,-31.25,4,1,0,100,0,0
43718,-83.3333333333334,4,1,0,100,0,0
43896,-71.4285714285714,4,1,0,100,0,0
44146,-35.7142857142857,4,1,0,100,0,0
44432,-41.6666666666667,4,1,0,100,0,0
44575,-45.4545454545455,4,1,0,100,0,0
44718,-38.4615384615385,4,1,0,100,0,0
44861,-35.7142857142857,4,1,0,100,0,0
45003,-33.3333333333333,4,1,0,100,0,0
45575,-83.3333333333334,4,1,0,100,0,0
45861,-38.4615384615385,4,1,0,100,0,0
46003,-29.4117647058824,4,1,0,100,0,0
46146,-166.666666666667,4,1,0,100,0,0
46432,-71.4285714285714,4,1,0,100,0,0
46718,-38.4615384615385,4,1,0,100,0,0
47003,-62.5,4,1,0,100,0,0
47575,-41.6666666666667,4,1,0,100,0,0
47718,-35.7142857142857,4,1,0,100,0,0
47861,-166.666666666667,4,1,0,100,0,0
48003,-33.3333333333333,4,1,0,100,0,0
48718,-35.7142857142857,4,1,0,100,0,0
258146,285.714285714286,4,1,0,100,1,0
258246,-10,4,1,0,100,0,0

[Colours]
Combo1 : 255,117,51
Combo2 : 255,255,255
Combo3 : 213,0,0

[HitObjects]
4,248,2003,6,0,B|27:304|27:304|56:276|72:236|44:208|44:208|104:188|136:231|136:231|188:224|203:260|203:260|221:277|272:272|272:272|300:244|300:244|352:244|352:244|352:212|352:212|395:201|395:201|382:164|382:164|460:164|520:100,1,780
164,60,4861,2,0,L|188:92,12,22.4999993133545
256,192,5575,12,0,8718,0:0:0:0:
52,208,9003,6,0,L|104:236,1,37.5
112,328,9146,6,0,L|140:316,1,22.4999993133545
192,248,9289,6,0,L|232:264,1,26.2499991989136
252,336,9432,6,0,L|284:328,1,30
352,276,9575,2,0,B|388:252|388:252|416:204,1,75
304,104,9861,6,0,B|260:88|260:88|224:56|224:56|140:44,1,134.999995880127
160,248,10146,6,0,P|194:296|261:316,1,89.9999972534181
272,192,10432,1,0,0:0:0:0:
356,128,10575,2,0,L|456:100,1,89.9999972534181
352,132,10861,6,0,L|455:121,1,89.9999972534181
348,136,11146,6,0,L|451:143,1,89.9999972534181
316,284,11861,5,0,0:0:0:0:
192,332,12004,1,0,0:0:0:0:
60,164,12432,6,0,P|83:119|156:94,1,89.9999972534181
172,220,12718,1,0,0:0:0:0:
256,160,12861,2,0,L|356:220,1,89.9999972534181
252,164,13146,6,0,L|340:240,1,89.9999972534181
248,168,13432,6,0,L|321:258,1,89.9999972534181
372,332,13718,6,0,P|407:331|429:278,1,52.4999983978272,0|0,2:0|2:0,2:0:0:0:
432,231,13861,2,0,P|456:205|435:152,1,52.4999983978272
400,56,14146,6,0,L|340:36,1,37.5
272,116,14289,2,0,L|216:132,1,37.5
48,104,14718,6,0,P|136:24|264:7,1,165.000005035401
168,144,15003,6,0,L|144:168,1,22.4999993133545
224,232,15146,22,0,P|132:328|12:360,2,165.000005035401
268,88,15718,2,0,L|328:56,1,44.999998626709
416,140,16432,5,0,0:0:0:0:
336,216,16575,1,0,0:0:0:0:
92,304,17003,6,0,B|132:224|172:304|228:188,1,134.999995880127
292,184,17289,1,0,0:0:0:0:
99,143,17432,6,0,B|160:184|171:82|247:111,1,134.999995880127
312,24,17718,2,0,P|378:58|399:149,1,120
344,152,18003,6,0,P|381:187|391:215,1,52.4999983978272
324,252,18146,2,0,L|336:284,7,22.4999993133545
240,296,18718,2,0,L|268:330,1,30
188,366,18861,2,0,L|171:341,1,30
84,284,19003,2,0,L|102:306,1,30
36,350,19146,2,0,L|19:325,1,30
248,88,19289,6,0,L|460:12,1,165.000005035401
236,180,19575,6,0,L|200:192,1,22.4999993133545
328,236,19718,6,0,L|96:320,2,179.999994506836
428,352,20146,2,0,P|455:339|464:311,1,60
448,104,20432,6,0,P|392:56|276:12,1,150
408,168,20646,6,0,P|360:116|172:96,1,165.000005035401
364,236,20861,6,0,P|301:166|148:175,1,179.999994506836
92,224,21146,1,0,0:0:0:0:
140,312,21289,2,0,P|156:336|200:340,1,60
96,116,21575,6,0,B|140:36|140:36|244:52,1,179.999994506836
252,147,21789,2,0,L|208:168,1,44.999998626709
404,140,22003,6,0,B|378:232|378:232|280:246,2,194.999991073609
52,224,22432,2,0,P|57:246|88:256,1,44.999998626709
445,328,22718,6,0,L|232:176,1,179.999994506836
435,244,22932,2,0,L|176:164,1,194.999991073609
408,165,23146,6,0,L|120:156,1,209.999993591309
377,91,23361,2,0,L|96:184,1,225.000008583069
112,328,23575,6,0,P|128:347|160:346,1,44.999998626709
348,272,23861,6,0,B|360:228|360:228|440:192|440:192|476:136,1,165.000005035401
364,56,24075,2,0,L|340:100,1,44.999998626709
124,156,24289,6,0,B|155:114|155:114|232:95|232:95|256:46,2,179.999994506836
320,328,24718,2,0,P|348:316|372:284,1,44.999998626709
228,268,25003,6,0,B|84:296|84:296|112:264,1,179.999994506836,0|0,0:3|0:3,0:3:0:0:
288,224,25218,6,0,B|433:231|433:231|388:204,1,194.999991073609
204,160,25432,6,0,B|48:136|48:136|88:108,1,194.999991073609
312,104,25646,6,0,B|488:47|488:47|440:28,1,225.000008583069
256,0,25861,6,0,L|256:52,1,44.999998626709
176,256,26146,6,0,L|36:372,1,179.999994506836
136,192,26361,2,0,L|188:152,1,44.999998626709
300,0,26575,6,0,L|116:116,2,194.999991073609
376,120,27003,2,0,L|412:92,1,44.999998626709
272,356,27289,6,0,L|476:228,1,165.000005035401
388,220,27503,6,0,B|308:256|308:256|236:316,1,179.999994506836
200,260,27718,6,0,B|268:188|268:188|420:136,1,194.999991073609
312,80,27932,6,0,B|216:100|216:100|144:192,1,209.999993591309
96,120,28146,6,0,B|172:24|172:24|296:4,1,225.000008583069
364,92,28432,6,0,L|336:120,3,22.4999993133545
432,208,28718,2,0,L|404:240,3,30
332,216,29003,6,0,L|300:248,3,37.5
352,268,29289,2,0,L|316:304,3,44.999998626709
160,184,29575,6,0,L|168:128,3,52.4999983978272
152,192,29861,6,0,L|116:148,3,52.4999983978272
104,244,30146,2,0,P|152:272|208:272,1,60
224,208,30289,2,0,P|300:232|412:132,1,240
304,64,30646,6,0,L|316:36,4,22.4999993133545
236,124,31003,6,0,L|231:84,1,30
300,184,31146,2,0,L|316:148,1,37.5
200,224,31289,6,0,L|220:180,3,37.5
288,288,31575,2,0,L|286:239,3,37.5
80,328,31861,2,0,P|124:340|148:340,1,60
68,232,32075,2,0,P|116:244|180:248,1,104.999996795654
60,128,32289,2,0,P|136:160|224:168,2,165.000005035401
132,68,32718,2,0,L|216:52,1,60
328,48,33003,2,0,L|304:72,3,22.4999993133545
392,128,33289,5,0,0:0:0:0:
388,132,33361,1,0,0:0:0:0:
384,136,33432,1,0,0:0:0:0:
380,140,33503,1,0,0:0:0:0:
300,144,33575,5,0,0:0:0:0:
292,152,33647,1,0,0:0:0:0:
284,160,33718,1,0,0:0:0:0:
276,168,33789,1,0,0:0:0:0:
340,232,33861,5,0,0:0:0:0:
324,248,33933,1,0,0:0:0:0:
308,264,34004,1,0,0:0:0:0:
292,280,34075,1,0,0:0:0:0:
28,360,34146,6,0,L|48:356,1,11.2499996566773
20,324,34218,6,0,L|44:320,1,13.1249995994568
12,268,34289,6,0,L|36:272,1,15
20,216,34361,6,0,L|37:225,1,16.8749994850159
48,160,34432,6,0,L|64:172,1,18.75
92,108,34503,6,0,L|108:130,1,20.6250006294251
144,64,34575,6,0,L|155:91,1,22.4999993133545
212,36,34646,6,0,L|216:61,1,24.3749988842011
288,32,34718,6,0,L|284:65,1,26.2499991989136
364,40,34789,6,0,L|347:72,1,28.1250010728836
436,72,34861,6,0,L|407:103,1,30
468,152,34932,6,0,L|424:160,1,31.8750006079674
440,236,35003,6,0,L|397:218,1,33.7499989700318
368,284,35075,6,0,L|322:254,1,35.6249990487099
288,332,35146,6,0,L|246:301,1,37.5
192,356,35218,6,0,L|140:308,1,39.3749987983704
32,298,35289,2,0,B|20:257|20:257|54:246|54:246|59:222|59:222|108:214|108:214|139:185|211:220|211:220|192:156|192:156|224:144|224:104|224:104|260:120|288:88|288:88|357:153|464:80,1,629.999980773926
368,232,36289,6,0,P|393:231|416:200,1,52.4999983978272
480,248,36432,2,0,P|468:270|428:280,1,52.4999983978272
288,328,36575,1,0,0:0:0:0:
288,328,36646,1,0,0:0:0:0:
288,328,36718,1,0,0:0:0:0:
204,364,36789,2,0,L|164:344,1,30
68,336,36932,1,0,0:0:0:0:
64,248,37003,6,0,L|92:196,2,60
164,200,37289,6,0,L|188:64,1,134.999995880127
280,44,37575,6,0,B|292:60|292:60|444:104|444:104|488:100|488:100|424:48,1,269.999991760254
432,256,37861,2,0,P|416:308|340:344,1,104.999996795654
228,292,38003,2,0,P|266:253|350:257,1,104.999996795654
88,216,38146,6,0,L|142:213,1,48.7499977684022
68,172,38218,2,0,L|115:181,1,44.999998626709
68,129,38289,6,0,L|112:160,1,41.2500012588501
84,100,38361,2,0,L|103:147,1,37.5
104,88,38432,6,0,L|106:138,1,33.7499989700318
208,148,38575,1,0,0:0:0:0:
296,116,38718,1,0,0:0:0:0:
464,168,38861,6,0,B|432:248|432:248|380:288|380:288|352:360,1,209.999993591309
64,264,39146,2,0,P|52:232|56:204,1,56.2500021457673
64,264,39218,2,0,P|90:242|118:237,1,56.2500021457673
64,264,39289,2,0,P|93:281|107:306,1,56.2500021457673
64,264,39361,2,0,P|56:297|37:318,1,56.2500021457673
64,264,39432,2,0,P|29:266|4:255,1,56.2500021457673
224,272,39575,6,0,L|248:256,1,22.4999993133545
332,308,39718,2,0,B|387:300|387:300|469:175,1,112.500004291535
344,52,39861,6,0,B|292:24|292:24|63:118,1,269.999991760254
280,252,40146,6,0,P|329:237|361:181,1,104.999996795654
264,160,40289,6,0,P|214:175|182:231,1,104.999996795654
456,260,40432,5,0,0:0:0:0:
440,304,40503,1,0,0:0:0:0:
420,336,40575,1,0,0:0:0:0:
384,360,40646,1,0,0:0:0:0:
144,356,40718,2,0,B|116:324|116:324|72:332|44:244|44:244,1,97.4999955368044
104,216,40861,6,0,B|128:252|128:252|172:244|200:332|200:332,1,97.4999955368044
256,276,41003,6,0,L|280:264,1,22.4999993133545
356,192,41146,6,0,P|302:163|277:72,1,112.500004291535
364,112,41289,6,0,L|372:124,2,11.2499996566773
336,16,41432,6,0,P|440:84|480:224,2,225.000008583069
220,292,41861,6,0,P|184:256|128:284,1,89.9999972534181
384,352,42146,6,0,B|505:252|337:199|471:105,1,269.999991760254
300,28,42432,6,0,L|240:156,1,104.999996795654
168,148,42575,2,0,L|228:280,1,104.999996795654
389,280,42718,5,0,0:0:0:0:
407,309,42789,1,0,0:0:0:0:
378,327,42861,5,0,0:0:0:0:
360,298,42932,1,0,0:0:0:0:
152,312,43003,6,0,P|128:264|128:176,1,97.4999955368044
196,224,43146,6,0,P|190:194|160:156,1,60
280,56,43289,6,0,L|332:44,1,44.999998626709
428,92,43432,2,0,B|456:80|456:80|392:256|392:256|372:220,1,240
76,264,43718,6,0,L|92:280,1,22.4999993133545
116,184,43789,2,0,L|152:228,1,44.999998626709
219,183,43896,6,0,L|196:168,1,26.2499991989136
237,96,43967,2,0,L|192:56,1,52.4999983978272
368,204,44146,6,0,L|412:163,2,52.4999983978272
435,267,44253,6,0,L|475:310,2,52.4999983978272
271,381,44432,6,0,L|184:355,1,89.9999972534181
232,320,44575,2,0,L|160:280,1,82.5000025177003
56,232,44718,6,0,L|160:186,1,97.4999955368044
68,172,44861,2,0,L|168:141,1,104.999996795654
132,56,45003,6,0,B|152:24|152:24|316:8,1,112.500004291535
288,104,45146,6,0,L|412:80,1,112.500004291535
504,112,45289,6,0,B|484:144|484:144|204:208,1,225.000008583069
84,276,45575,6,0,P|91:326|147:344,1,89.9999972534181
184,232,45861,6,0,L|136:141,1,97.4999955368044
292,204,46003,2,0,L|395:297,1,127.50000243187
184,232,46146,6,0,L|148:192,1,44.999998626709
292,204,46432,6,0,L|360:288,1,104.999996795654
424,96,46718,6,0,B|320:40|168:32|168:32|184:68,1,292.499986610413
64,188,47003,2,0,L|40:252,1,60
128,290,47146,2,0,L|96:240,1,60
245,347,47289,5,0,0:0:0:0:
320,300,47360,1,0,0:0:0:0:
352,236,47432,5,0,0:0:0:0:
320,164,47503,1,0,0:0:0:0:
148,40,47575,6,0,P|100:64|56:152,1,89.9999972534181
164,76,47718,6,0,P|127:115|118:213,1,104.999996795654,0|0,0:3|0:3,0:3:0:0:
200,260,47861,2,0,L|192:280,1,22.4999993133545
404,336,48003,2,0,B|308:175|308:175|300:216,1,225.000008583069
444,80,48289,6,0,B|476:88|476:88|520:64,1,56.2500021457673
436,88,48360,2,0,B|416:120|416:120|436:160,1,56.2500021457673
428,80,48432,6,0,B|396:72|396:72|352:96,1,56.2500021457673
436,72,48503,2,0,B|456:40|456:40|436:0,1,56.2500021457673
136,192,48718,2,0,B|264:280|264:280|280:308|280:308|332:344,1,209.999993591309
20,245,49003,6,0,P|48:139|190:42,1,209.999993591309
256,192,258146,12,0,265003,0:0:0:0:
