osu file format v14

[General]
AudioFilename: mp3.mp3
AudioLeadIn: 0
PreviewTime: 200422
Countdown: 0
SampleSet: None
StackLeniency: 0.3
Mode: 3
LetterboxInBreaks: 0
SpecialStyle: 0
WidescreenStoryboard: 1

[Editor]
DistanceSpacing: 0.5
BeatDivisor: 4
GridSize: 32
TimelineZoom: 1.5

[Metadata]
Title:Tabata no Uta - THE INNOCENT SHOJIN ROAD TO THE N.x.A.N. -
TitleUnicode:田端のうた - THE INNOCENT SHOJIN ROAD TO THE N.x.A.N. -
Artist:Camellia
ArtistUnicode:かめりあ
Creator:snexe
Version:aaaa
Source:
Tags:song of the burst!! cametek c87 kamel minamotoya
BeatmapID:1399184
BeatmapSetID:660833

[Difficulty]
HPDrainRate:8
CircleSize:4
OverallDifficulty:8
ApproachRate:9.2
SliderMultiplier:1.6
SliderTickRate:1

[Events]
//Background and Video events
0,0,"3.jpg",0,0
//Break Periods
//Storyboard Layer 0 (Background)
//Storyboard Layer 1 (Fail)
//Storyboard Layer 2 (Pass)
//Storyboard Layer 3 (Foreground)
//Storyboard Sound Samples

[TimingPoints]
509,344.827586206897,4,2,0,40,1,0

[Colours]
Combo1 : 194,121,255
Combo2 : 170,253,115

[HitObjects]
448,192,509,128,0,2922:0:0:0:0:
320,192,2577,128,0,3095:0:0:0:0:
192,192,2922,128,0,3267:0:0:0:0:
64,192,3267,1,0,0:0:0:0:
448,192,3267,1,0,0:0:0:0:
320,192,3267,1,0,0:0:0:0:
64,192,3526,1,0,0:0:0:0:
64,192,3784,1,0,0:0:0:0:
320,192,3957,1,0,0:0:0:0:
320,192,4215,1,0,0:0:0:0:
320,192,4474,1,0,0:0:0:0:
192,192,4646,1,0,0:0:0:0:
192,192,4905,1,0,0:0:0:0:
192,192,5164,1,0,0:0:0:0:
448,192,5336,1,0,0:0:0:0:
448,192,5595,1,0,0:0:0:0:
448,192,5853,1,0,0:0:0:0:
64,192,6026,1,0,0:0:0:0:
64,192,6284,1,0,0:0:0:0:
64,192,6543,1,0,0:0:0:0:
192,192,6715,1,0,0:0:0:0:
192,192,6974,1,0,0:0:0:0:
192,192,7233,1,0,0:0:0:0:
320,192,7405,1,0,0:0:0:0:
320,192,7664,1,0,0:0:0:0:
320,192,7922,1,0,0:0:0:0:
448,192,8095,1,0,0:0:0:0:
448,192,8353,1,0,0:0:0:0:
448,192,8612,128,0,8784:0:0:0:0:
192,192,8784,1,0,0:0:0:0:
64,192,8784,1,0,0:0:0:0:
320,192,8957,1,0,0:0:0:0:
64,192,9043,1,0,0:0:0:0:
64,192,9302,128,0,9474:0:0:0:0:
320,192,9474,1,0,0:0:0:0:
448,192,9474,1,0,0:0:0:0:
192,192,9646,1,0,0:0:0:0:
448,192,9733,1,0,0:0:0:0:
448,192,9991,128,0,10164:0:0:0:0:
192,192,10164,1,0,0:0:0:0:
64,192,10164,1,0,0:0:0:0:
320,192,10336,1,0,0:0:0:0:
64,192,10509,1,0,0:0:0:0:
448,192,10509,1,0,0:0:0:0:
192,192,10681,1,0,0:0:0:0:
320,192,10853,1,0,0:0:0:0:
448,192,10853,1,0,0:0:0:0:
64,192,11026,1,0,0:0:0:0:
192,192,11198,1,0,0:0:0:0:
320,192,11371,128,0,11543:0:0:0:0:
448,192,11543,1,0,0:0:0:0:
64,192,11543,1,0,0:0:0:0:
192,192,11715,1,0,0:0:0:0:
320,192,11802,1,0,0:0:0:0:
192,192,12060,128,0,12233:0:0:0:0:
64,192,12233,1,0,0:0:0:0:
448,192,12233,1,0,0:0:0:0:
320,192,12319,1,0,0:0:0:0:
192,192,12405,1,0,0:0:0:0:
64,192,12405,1,0,0:0:0:0:
320,192,12491,1,0,0:0:0:0:
448,192,12491,1,0,0:0:0:0:
192,192,12577,1,0,0:0:0:0:
64,192,12577,1,0,0:0:0:0:
320,192,12664,1,0,0:0:0:0:
448,192,12664,1,0,0:0:0:0:
192,192,12750,1,0,0:0:0:0:
64,192,12750,1,0,0:0:0:0:
320,192,12836,1,0,0:0:0:0:
448,192,12836,1,0,0:0:0:0:
192,192,12922,1,0,0:0:0:0:
64,192,12922,1,0,0:0:0:0:
448,192,13181,1,0,0:0:0:0:
64,192,13181,1,0,0:0:0:0:
448,192,13440,1,0,0:0:0:0:
320,192,13440,1,0,0:0:0:0:
64,192,13612,1,0,0:0:0:0:
192,192,13698,1,0,0:0:0:0:
448,192,13784,1,0,0:0:0:0:
64,192,13784,1,0,0:0:0:0:
320,192,13871,1,0,0:0:0:0:
64,192,13957,1,0,0:0:0:0:
448,192,13957,1,0,0:0:0:0:
192,192,14043,1,0,0:0:0:0:
448,192,14129,128,0,14302:0:0:0:0:
320,192,14215,1,0,0:0:0:0:
192,192,14302,1,0,0:0:0:0:
64,192,14302,1,0,0:0:0:0:
320,192,14474,1,0,0:0:0:0:
448,192,14560,1,0,0:0:0:0:
64,192,14646,1,0,0:0:0:0:
320,192,14646,1,0,0:0:0:0:
448,192,14646,1,0,0:0:0:0:
192,192,14819,1,0,0:0:0:0:
320,192,14905,1,0,0:0:0:0:
192,192,14991,1,0,0:0:0:0:
64,192,14991,1,0,0:0:0:0:
448,192,15164,1,0,0:0:0:0:
64,192,15250,1,0,0:0:0:0:
320,192,15336,1,0,0:0:0:0:
448,192,15336,1,0,0:0:0:0:
64,192,15336,1,0,0:0:0:0:
192,192,15509,1,0,0:0:0:0:
448,192,15595,1,0,0:0:0:0:
320,192,15681,1,0,0:0:0:0:
64,192,15681,1,0,0:0:0:0:
192,192,15853,1,0,0:0:0:0:
320,192,15940,1,0,0:0:0:0:
192,192,16026,1,0,0:0:0:0:
320,192,16026,1,0,0:0:0:0:
448,192,16026,1,0,0:0:0:0:
64,192,16198,1,0,0:0:0:0:
448,192,16284,1,0,0:0:0:0:
320,192,16371,1,0,0:0:0:0:
64,192,16371,1,0,0:0:0:0:
448,192,16543,1,0,0:0:0:0:
192,192,16629,1,0,0:0:0:0:
192,192,16715,1,0,0:0:0:0:
64,192,16715,1,0,0:0:0:0:
448,192,16715,1,0,0:0:0:0:
320,192,16888,1,0,0:0:0:0:
64,192,16974,1,0,0:0:0:0:
192,192,17060,1,0,0:0:0:0:
448,192,17060,1,0,0:0:0:0:
320,192,17233,1,0,0:0:0:0:
64,192,17319,1,0,0:0:0:0:
320,192,17405,1,0,0:0:0:0:
192,192,17405,1,0,0:0:0:0:
64,192,17405,1,0,0:0:0:0:
448,192,17577,1,0,0:0:0:0:
320,192,17664,1,0,0:0:0:0:
192,192,17750,1,0,0:0:0:0:
64,192,17750,1,0,0:0:0:0:
448,192,17922,1,0,0:0:0:0:
320,192,18009,1,0,0:0:0:0:
320,192,18095,1,0,0:0:0:0:
448,192,18095,1,0,0:0:0:0:
64,192,18095,1,0,0:0:0:0:
192,192,18267,1,0,0:0:0:0:
448,192,18353,1,0,0:0:0:0:
192,192,18440,1,0,0:0:0:0:
64,192,18440,1,0,0:0:0:0:
320,192,18612,1,0,0:0:0:0:
448,192,18698,1,0,0:0:0:0:
64,192,18784,1,0,0:0:0:0:
320,192,18784,1,0,0:0:0:0:
448,192,18784,1,0,0:0:0:0:
192,192,18957,1,0,0:0:0:0:
320,192,19043,1,0,0:0:0:0:
64,192,19129,1,0,0:0:0:0:
448,192,19129,1,0,0:0:0:0:
192,192,19302,1,0,0:0:0:0:
448,192,19388,1,0,0:0:0:0:
320,192,19474,1,0,0:0:0:0:
448,192,19474,1,0,0:0:0:0:
192,192,19474,1,0,0:0:0:0:
64,192,19646,1,0,0:0:0:0:
192,192,19733,1,0,0:0:0:0:
64,192,19819,1,0,0:0:0:0:
448,192,19819,1,0,0:0:0:0:
320,192,19991,1,0,0:0:0:0:
448,192,20077,1,0,0:0:0:0:
448,192,20164,1,0,0:0:0:0:
320,192,20164,1,0,0:0:0:0:
64,192,20164,1,0,0:0:0:0:
192,192,20336,1,0,0:0:0:0:
64,192,20422,1,0,0:0:0:0:
320,192,20509,1,0,0:0:0:0:
448,192,20509,1,0,0:0:0:0:
192,192,20681,1,0,0:0:0:0:
320,192,20767,1,0,0:0:0:0:
320,192,20853,1,0,0:0:0:0:
64,192,20853,1,0,0:0:0:0:
448,192,20853,1,0,0:0:0:0:
192,192,21026,1,0,0:0:0:0:
64,192,21026,1,0,0:0:0:0:
320,192,21112,1,0,0:0:0:0:
448,192,21112,1,0,0:0:0:0:
448,192,21198,1,0,0:0:0:0:
192,192,21198,1,0,0:0:0:0:
64,192,21198,1,0,0:0:0:0:
448,192,21371,1,0,0:0:0:0:
320,192,21414,1,0,0:0:0:0:
192,192,21457,1,0,0:0:0:0:
64,192,21500,1,0,0:0:0:0:
192,192,21543,1,0,0:0:0:0:
320,192,21543,1,0,0:0:0:0:
448,192,21543,1,0,0:0:0:0:
64,192,21715,1,0,0:0:0:0:
192,192,21759,1,0,0:0:0:0:
320,192,21802,1,0,0:0:0:0:
448,192,21845,1,0,0:0:0:0:
320,192,21888,1,0,0:0:0:0:
192,192,21888,1,0,0:0:0:0:
64,192,21888,1,0,0:0:0:0:
448,192,22060,1,0,0:0:0:0:
320,192,22146,1,0,0:0:0:0:
320,192,22233,1,0,0:0:0:0:
64,192,22233,1,0,0:0:0:0:
448,192,22233,1,0,0:0:0:0:
192,192,22405,1,0,0:0:0:0:
320,192,22491,1,0,0:0:0:0:
64,192,22577,1,0,0:0:0:0:
448,192,22577,1,0,0:0:0:0:
320,192,22750,1,0,0:0:0:0:
64,192,22836,1,0,0:0:0:0:
64,192,22922,1,0,0:0:0:0:
448,192,22922,1,0,0:0:0:0:
192,192,22922,1,0,0:0:0:0:
320,192,23095,1,0,0:0:0:0:
192,192,23181,1,0,0:0:0:0:
64,192,23267,1,0,0:0:0:0:
448,192,23267,1,0,0:0:0:0:
320,192,23440,1,0,0:0:0:0:
448,192,23526,1,0,0:0:0:0:
448,192,23612,1,0,0:0:0:0:
64,192,23612,1,0,0:0:0:0:
192,192,23612,1,0,0:0:0:0:
320,192,23784,1,0,0:0:0:0:
448,192,23871,1,0,0:0:0:0:
192,192,23957,1,0,0:0:0:0:
64,192,23957,1,0,0:0:0:0:
448,192,24129,1,0,0:0:0:0:
64,192,24215,1,0,0:0:0:0:
448,192,24302,1,0,0:0:0:0:
64,192,24302,1,0,0:0:0:0:
192,192,24302,1,0,0:0:0:0:
320,192,24474,1,0,0:0:0:0:
192,192,24560,1,0,0:0:0:0:
320,192,24646,1,0,0:0:0:0:
64,192,24646,1,0,0:0:0:0:
448,192,24819,1,0,0:0:0:0:
320,192,24905,1,0,0:0:0:0:
320,192,24991,1,0,0:0:0:0:
192,192,24991,1,0,0:0:0:0:
64,192,24991,1,0,0:0:0:0:
448,192,25164,1,0,0:0:0:0:
320,192,25250,1,0,0:0:0:0:
448,192,25336,1,0,0:0:0:0:
192,192,25336,1,0,0:0:0:0:
64,192,25336,128,0,26715:0:0:0:0:
448,192,25853,128,0,26371:0:0:0:0:
448,192,26715,128,0,27405:0:0:0:0:
192,192,26715,1,0,0:0:0:0:
192,192,26888,1,0,0:0:0:0:
64,192,26888,1,0,0:0:0:0:
64,192,27060,1,0,0:0:0:0:
192,192,27060,1,0,0:0:0:0:
192,192,27233,1,0,0:0:0:0:
64,192,27233,1,0,0:0:0:0:
64,192,27405,1,0,0:0:0:0:
192,192,27448,1,0,0:0:0:0:
320,192,27491,1,0,0:0:0:0:
448,192,27534,1,0,0:0:0:0:
192,192,27577,1,0,0:0:0:0:
64,192,27577,1,0,0:0:0:0:
320,192,27664,1,0,0:0:0:0:
448,192,27664,1,0,0:0:0:0:
192,192,27750,1,0,0:0:0:0:
64,192,27750,1,0,0:0:0:0:
320,192,27836,1,0,0:0:0:0:
448,192,27836,1,0,0:0:0:0:
192,192,27922,1,0,0:0:0:0:
64,192,27922,1,0,0:0:0:0:
320,192,28009,1,0,0:0:0:0:
448,192,28009,1,0,0:0:0:0:
192,192,28095,1,0,0:0:0:0:
64,192,28095,1,0,0:0:0:0:
64,192,28267,1,0,0:0:0:0:
64,192,28440,1,0,0:0:0:0:
64,192,28784,1,0,0:0:0:0:
64,192,28957,1,0,0:0:0:0:
64,192,29129,1,0,0:0:0:0:
64,192,29474,1,0,0:0:0:0:
64,192,29646,1,0,0:0:0:0:
64,192,29819,1,0,0:0:0:0:
64,192,30164,1,0,0:0:0:0:
64,192,30336,1,0,0:0:0:0:
64,192,30509,1,0,0:0:0:0:
448,192,30853,1,0,0:0:0:0:
320,192,30853,1,0,0:0:0:0:
448,192,31026,1,0,0:0:0:0:
448,192,31198,1,0,0:0:0:0:
448,192,31543,1,0,0:0:0:0:
448,192,31715,1,0,0:0:0:0:
448,192,31888,1,0,0:0:0:0:
448,192,32233,1,0,0:0:0:0:
448,192,32405,1,0,0:0:0:0:
448,192,32577,1,0,0:0:0:0:
448,192,32922,1,0,0:0:0:0:
448,192,33095,1,0,0:0:0:0:
448,192,33267,1,0,0:0:0:0:
320,192,33612,1,0,0:0:0:0:
192,192,33612,1,0,0:0:0:0:
320,192,33784,1,0,0:0:0:0:
320,192,33957,1,0,0:0:0:0:
320,192,34302,1,0,0:0:0:0:
320,192,34474,1,0,0:0:0:0:
320,192,34646,1,0,0:0:0:0:
320,192,34991,1,0,0:0:0:0:
320,192,35164,1,0,0:0:0:0:
320,192,35336,1,0,0:0:0:0:
320,192,35681,1,0,0:0:0:0:
320,192,35853,1,0,0:0:0:0:
320,192,36026,1,0,0:0:0:0:
320,192,36371,1,0,0:0:0:0:
192,192,36371,1,0,0:0:0:0:
192,192,36543,1,0,0:0:0:0:
192,192,36715,1,0,0:0:0:0:
192,192,37060,1,0,0:0:0:0:
192,192,37233,1,0,0:0:0:0:
192,192,37405,1,0,0:0:0:0:
192,192,37750,1,0,0:0:0:0:
192,192,37922,1,0,0:0:0:0:
192,192,38095,1,0,0:0:0:0:
192,192,38440,1,0,0:0:0:0:
192,192,38612,1,0,0:0:0:0:
320,192,38784,1,0,0:0:0:0:
192,192,38871,1,0,0:0:0:0:
320,192,38957,1,0,0:0:0:0:
192,192,39043,1,0,0:0:0:0:
448,192,39129,1,0,0:0:0:0:
64,192,39129,1,0,0:0:0:0:
448,192,39302,1,0,0:0:0:0:
448,192,39474,1,0,0:0:0:0:
320,192,39474,1,0,0:0:0:0:
64,192,39819,1,0,0:0:0:0:
448,192,39819,1,0,0:0:0:0:
448,192,39991,1,0,0:0:0:0:
448,192,40164,1,0,0:0:0:0:
320,192,40164,1,0,0:0:0:0:
64,192,40509,1,0,0:0:0:0:
448,192,40509,1,0,0:0:0:0:
448,192,40681,1,0,0:0:0:0:
448,192,40853,1,0,0:0:0:0:
320,192,40853,1,0,0:0:0:0:
448,192,41198,1,0,0:0:0:0:
64,192,41198,1,0,0:0:0:0:
448,192,41371,1,0,0:0:0:0:
320,192,41414,1,0,0:0:0:0:
192,192,41457,1,0,0:0:0:0:
64,192,41500,1,0,0:0:0:0:
320,192,41543,1,0,0:0:0:0:
448,192,41543,1,0,0:0:0:0:
192,192,41715,1,0,0:0:0:0:
64,192,41888,1,0,0:0:0:0:
448,192,41888,1,0,0:0:0:0:
64,192,42060,1,0,0:0:0:0:
64,192,42233,1,0,0:0:0:0:
192,192,42233,1,0,0:0:0:0:
64,192,42577,1,0,0:0:0:0:
448,192,42577,1,0,0:0:0:0:
64,192,42750,1,0,0:0:0:0:
64,192,42922,1,0,0:0:0:0:
192,192,42922,1,0,0:0:0:0:
64,192,43267,1,0,0:0:0:0:
448,192,43267,1,0,0:0:0:0:
64,192,43440,1,0,0:0:0:0:
64,192,43612,1,0,0:0:0:0:
192,192,43612,1,0,0:0:0:0:
64,192,43957,1,0,0:0:0:0:
448,192,43957,1,0,0:0:0:0:
64,192,44129,1,0,0:0:0:0:
192,192,44172,1,0,0:0:0:0:
320,192,44215,1,0,0:0:0:0:
448,192,44259,1,0,0:0:0:0:
64,192,44302,1,0,0:0:0:0:
192,192,44302,1,0,0:0:0:0:
320,192,44474,1,0,0:0:0:0:
448,192,44646,1,0,0:0:0:0:
64,192,44646,1,0,0:0:0:0:
192,192,44819,1,0,0:0:0:0:
320,192,44819,1,0,0:0:0:0:
64,192,44991,1,0,0:0:0:0:
448,192,44991,1,0,0:0:0:0:
320,192,45164,1,0,0:0:0:0:
192,192,45164,1,0,0:0:0:0:
448,192,45250,1,0,0:0:0:0:
192,192,45336,1,0,0:0:0:0:
64,192,45336,1,0,0:0:0:0:
320,192,45509,1,0,0:0:0:0:
448,192,45509,1,0,0:0:0:0:
64,192,45681,1,0,0:0:0:0:
192,192,45681,1,0,0:0:0:0:
320,192,45853,1,0,0:0:0:0:
448,192,45853,1,0,0:0:0:0:
192,192,45940,1,0,0:0:0:0:
64,192,46026,1,0,0:0:0:0:
320,192,46026,1,0,0:0:0:0:
448,192,46198,1,0,0:0:0:0:
192,192,46198,1,0,0:0:0:0:
320,192,46371,1,0,0:0:0:0:
64,192,46371,1,0,0:0:0:0:
192,192,46543,1,0,0:0:0:0:
448,192,46543,1,0,0:0:0:0:
320,192,46715,1,0,0:0:0:0:
64,192,46715,1,0,0:0:0:0:
192,192,46888,1,0,0:0:0:0:
448,192,46888,1,0,0:0:0:0:
320,192,47060,1,0,0:0:0:0:
64,192,47060,1,0,0:0:0:0:
192,192,47233,1,0,0:0:0:0:
448,192,47233,1,0,0:0:0:0:
192,192,47405,1,0,0:0:0:0:
64,192,47405,1,0,0:0:0:0:
320,192,47491,1,0,0:0:0:0:
64,192,47577,1,0,0:0:0:0:
448,192,47577,1,0,0:0:0:0:
192,192,47664,1,0,0:0:0:0:
320,192,47750,1,0,0:0:0:0:
448,192,47750,1,0,0:0:0:0:
192,192,47836,1,0,0:0:0:0:
64,192,47922,1,0,0:0:0:0:
448,192,47922,1,0,0:0:0:0:
320,192,48009,1,0,0:0:0:0:
192,192,48095,1,0,0:0:0:0:
64,192,48095,1,0,0:0:0:0:
320,192,48181,1,0,0:0:0:0:
64,192,48267,1,0,0:0:0:0:
448,192,48267,1,0,0:0:0:0:
192,192,48353,1,0,0:0:0:0:
320,192,48440,1,0,0:0:0:0:
448,192,48440,1,0,0:0:0:0:
192,192,48526,1,0,0:0:0:0:
64,192,48612,1,0,0:0:0:0:
448,192,48612,1,0,0:0:0:0:
320,192,48698,1,0,0:0:0:0:
64,192,48784,1,0,0:0:0:0:
192,192,48784,1,0,0:0:0:0:
320,192,48871,1,0,0:0:0:0:
448,192,48871,1,0,0:0:0:0:
192,192,48957,1,0,0:0:0:0:
64,192,48957,1,0,0:0:0:0:
320,192,49043,1,0,0:0:0:0:
448,192,49043,1,0,0:0:0:0:
192,192,49129,1,0,0:0:0:0:
64,192,49129,1,0,0:0:0:0:
320,192,49215,1,0,0:0:0:0:
448,192,49215,1,0,0:0:0:0:
192,192,49302,1,0,0:0:0:0:
64,192,49302,1,0,0:0:0:0:
320,192,49388,1,0,0:0:0:0:
448,192,49388,1,0,0:0:0:0:
64,192,49474,1,0,0:0:0:0:
64,192,49646,1,0,0:0:0:0:
192,192,49905,1,0,0:0:0:0:
448,192,49991,128,0,50164:0:0:0:0:
192,192,50164,1,0,0:0:0:0:
64,192,50207,1,0,0:0:0:0:
320,192,50250,1,0,0:0:0:0:
448,192,50293,1,0,0:0:0:0:
192,192,50336,1,0,0:0:0:0:
64,192,50379,1,0,0:0:0:0:
320,192,50422,1,0,0:0:0:0:
448,192,50465,1,0,0:0:0:0:
192,192,50509,1,0,0:0:0:0:
192,192,50681,1,0,0:0:0:0:
192,192,50767,1,0,0:0:0:0:
192,192,50853,1,0,0:0:0:0:
64,192,50853,1,0,0:0:0:0:
192,192,51026,1,0,0:0:0:0:
192,192,51198,1,0,0:0:0:0:
448,192,51198,1,0,0:0:0:0:
448,192,51371,1,0,0:0:0:0:
448,192,51543,1,0,0:0:0:0:
448,192,51715,1,0,0:0:0:0:
448,192,51802,1,0,0:0:0:0:
448,192,51888,1,0,0:0:0:0:
448,192,52060,1,0,0:0:0:0:
320,192,52060,1,0,0:0:0:0:
64,192,52233,1,0,0:0:0:0:
192,192,52233,128,0,52577:0:0:0:0:
64,192,52577,1,0,0:0:0:0:
320,192,52577,1,0,0:0:0:0:
448,192,52577,128,0,52750:0:0:0:0:
64,192,52922,1,0,0:0:0:0:
192,192,52965,1,0,0:0:0:0:
448,192,53009,1,0,0:0:0:0:
320,192,53052,1,0,0:0:0:0:
64,192,53095,1,0,0:0:0:0:
192,192,53138,1,0,0:0:0:0:
448,192,53181,1,0,0:0:0:0:
320,192,53224,1,0,0:0:0:0:
64,192,53267,1,0,0:0:0:0:
64,192,53440,1,0,0:0:0:0:
64,192,53526,1,0,0:0:0:0:
64,192,53612,1,0,0:0:0:0:
192,192,53612,1,0,0:0:0:0:
64,192,53784,1,0,0:0:0:0:
64,192,53957,1,0,0:0:0:0:
320,192,53957,1,0,0:0:0:0:
320,192,54129,1,0,0:0:0:0:
320,192,54302,1,0,0:0:0:0:
320,192,54474,1,0,0:0:0:0:
320,192,54560,1,0,0:0:0:0:
320,192,54646,1,0,0:0:0:0:
320,192,54819,1,0,0:0:0:0:
192,192,54819,1,0,0:0:0:0:
64,192,54991,1,0,0:0:0:0:
448,192,54991,128,0,55336:0:0:0:0:
320,192,55336,1,0,0:0:0:0:
192,192,55336,128,0,55509:0:0:0:0:
64,192,55509,128,0,55681:0:0:0:0:
320,192,55681,1,0,0:0:0:0:
448,192,55724,1,0,0:0:0:0:
192,192,55767,1,0,0:0:0:0:
64,192,55810,1,0,0:0:0:0:
320,192,55853,1,0,0:0:0:0:
448,192,55896,1,0,0:0:0:0:
192,192,55940,1,0,0:0:0:0:
64,192,55983,1,0,0:0:0:0:
448,192,56026,1,0,0:0:0:0:
448,192,56198,1,0,0:0:0:0:
448,192,56284,1,0,0:0:0:0:
448,192,56371,1,0,0:0:0:0:
192,192,56371,1,0,0:0:0:0:
448,192,56543,1,0,0:0:0:0:
448,192,56715,1,0,0:0:0:0:
64,192,56715,1,0,0:0:0:0:
64,192,56888,1,0,0:0:0:0:
64,192,57060,1,0,0:0:0:0:
64,192,57233,1,0,0:0:0:0:
64,192,57319,1,0,0:0:0:0:
64,192,57405,1,0,0:0:0:0:
64,192,57577,1,0,0:0:0:0:
192,192,57577,1,0,0:0:0:0:
320,192,57750,128,0,58095:0:0:0:0:
448,192,57750,1,0,0:0:0:0:
64,192,58095,1,0,0:0:0:0:
192,192,58095,128,0,58267:0:0:0:0:
320,192,58440,1,0,0:0:0:0:
448,192,58483,1,0,0:0:0:0:
192,192,58526,1,0,0:0:0:0:
64,192,58569,1,0,0:0:0:0:
320,192,58612,1,0,0:0:0:0:
448,192,58655,1,0,0:0:0:0:
192,192,58698,1,0,0:0:0:0:
64,192,58741,1,0,0:0:0:0:
320,192,58784,1,0,0:0:0:0:
320,192,58957,1,0,0:0:0:0:
320,192,59043,1,0,0:0:0:0:
320,192,59129,1,0,0:0:0:0:
64,192,59129,1,0,0:0:0:0:
320,192,59302,1,0,0:0:0:0:
320,192,59474,1,0,0:0:0:0:
192,192,59474,1,0,0:0:0:0:
192,192,59646,1,0,0:0:0:0:
192,192,59819,1,0,0:0:0:0:
192,192,59991,1,0,0:0:0:0:
192,192,60077,1,0,0:0:0:0:
192,192,60164,128,0,60336:0:0:0:0:
320,192,60336,1,0,0:0:0:0:
64,192,60336,128,0,60509:0:0:0:0:
448,192,60509,128,0,60681:0:0:0:0:
192,192,60509,1,0,0:0:0:0:
320,192,60681,128,0,60853:0:0:0:0:
64,192,60853,128,0,61026:0:0:0:0:
192,192,60853,1,0,0:0:0:0:
448,192,61026,128,0,61198:0:0:0:0:
64,192,61198,1,0,0:0:0:0:
192,192,61241,1,0,0:0:0:0:
320,192,61284,1,0,0:0:0:0:
448,192,61327,1,0,0:0:0:0:
64,192,61371,1,0,0:0:0:0:
192,192,61414,1,0,0:0:0:0:
320,192,61457,1,0,0:0:0:0:
448,192,61500,1,0,0:0:0:0:
64,192,61543,1,0,0:0:0:0:
192,192,61543,1,0,0:0:0:0:
64,192,61715,1,0,0:0:0:0:
64,192,61802,1,0,0:0:0:0:
64,192,61888,1,0,0:0:0:0:
448,192,61888,1,0,0:0:0:0:
64,192,62060,1,0,0:0:0:0:
192,192,62146,1,0,0:0:0:0:
64,192,62233,1,0,0:0:0:0:
320,192,62233,1,0,0:0:0:0:
320,192,62405,1,0,0:0:0:0:
320,192,62577,1,0,0:0:0:0:
448,192,62577,1,0,0:0:0:0:
320,192,62750,1,0,0:0:0:0:
320,192,62836,1,0,0:0:0:0:
320,192,62922,1,0,0:0:0:0:
64,192,62922,1,0,0:0:0:0:
320,192,63095,1,0,0:0:0:0:
448,192,63267,128,0,63440:0:0:0:0:
192,192,63267,1,0,0:0:0:0:
64,192,63440,128,0,63612:0:0:0:0:
320,192,63440,1,0,0:0:0:0:
448,192,63612,128,0,63784:0:0:0:0:
192,192,63612,1,0,0:0:0:0:
64,192,63784,128,0,63957:0:0:0:0:
320,192,63784,1,0,0:0:0:0:
448,192,63957,1,0,0:0:0:0:
320,192,64000,1,0,0:0:0:0:
192,192,64043,1,0,0:0:0:0:
64,192,64086,1,0,0:0:0:0:
448,192,64129,1,0,0:0:0:0:
320,192,64172,1,0,0:0:0:0:
192,192,64215,1,0,0:0:0:0:
64,192,64259,1,0,0:0:0:0:
448,192,64302,1,0,0:0:0:0:
320,192,64302,1,0,0:0:0:0:
448,192,64474,1,0,0:0:0:0:
448,192,64560,1,0,0:0:0:0:
448,192,64646,1,0,0:0:0:0:
192,192,64646,1,0,0:0:0:0:
448,192,64819,1,0,0:0:0:0:
320,192,64905,1,0,0:0:0:0:
448,192,64991,1,0,0:0:0:0:
64,192,64991,1,0,0:0:0:0:
64,192,65164,1,0,0:0:0:0:
64,192,65336,1,0,0:0:0:0:
192,192,65336,1,0,0:0:0:0:
64,192,65509,1,0,0:0:0:0:
64,192,65595,1,0,0:0:0:0:
64,192,65681,1,0,0:0:0:0:
320,192,65681,1,0,0:0:0:0:
64,192,65853,1,0,0:0:0:0:
320,192,66026,128,0,66198:0:0:0:0:
448,192,66026,1,0,0:0:0:0:
192,192,66198,128,0,66371:0:0:0:0:
64,192,66198,1,0,0:0:0:0:
320,192,66371,128,0,66543:0:0:0:0:
448,192,66371,1,0,0:0:0:0:
192,192,66543,128,0,66715:0:0:0:0:
64,192,66543,1,0,0:0:0:0:
448,192,66715,1,0,0:0:0:0:
320,192,66715,1,0,0:0:0:0:
64,192,66759,1,0,0:0:0:0:
192,192,66802,1,0,0:0:0:0:
320,192,66845,1,0,0:0:0:0:
448,192,66888,1,0,0:0:0:0:
64,192,66888,1,0,0:0:0:0:
64,192,67060,1,0,0:0:0:0:
192,192,67060,1,0,0:0:0:0:
64,192,67233,1,0,0:0:0:0:
192,192,67233,1,0,0:0:0:0:
64,192,67405,1,0,0:0:0:0:
192,192,67405,1,0,0:0:0:0:
448,192,67448,1,0,0:0:0:0:
320,192,67491,1,0,0:0:0:0:
192,192,67534,1,0,0:0:0:0:
64,192,67577,1,0,0:0:0:0:
448,192,67577,1,0,0:0:0:0:
320,192,67750,1,0,0:0:0:0:
448,192,67750,1,0,0:0:0:0:
448,192,67922,1,0,0:0:0:0:
320,192,67922,1,0,0:0:0:0:
320,192,68095,1,0,0:0:0:0:
448,192,68095,1,0,0:0:0:0:
64,192,68138,1,0,0:0:0:0:
192,192,68181,1,0,0:0:0:0:
320,192,68224,1,0,0:0:0:0:
448,192,68267,1,0,0:0:0:0:
64,192,68267,1,0,0:0:0:0:
64,192,68440,1,0,0:0:0:0:
320,192,68440,1,0,0:0:0:0:
64,192,68612,1,0,0:0:0:0:
320,192,68612,1,0,0:0:0:0:
192,192,68784,1,0,0:0:0:0:
64,192,68784,1,0,0:0:0:0:
448,192,68827,1,0,0:0:0:0:
320,192,68871,1,0,0:0:0:0:
192,192,68914,1,0,0:0:0:0:
64,192,68957,1,0,0:0:0:0:
448,192,68957,1,0,0:0:0:0:
320,192,69129,1,0,0:0:0:0:
448,192,69129,1,0,0:0:0:0:
448,192,69302,1,0,0:0:0:0:
320,192,69302,1,0,0:0:0:0:
192,192,69474,1,0,0:0:0:0:
64,192,69474,1,0,0:0:0:0:
320,192,69560,1,0,0:0:0:0:
64,192,69646,1,0,0:0:0:0:
448,192,69646,1,0,0:0:0:0:
192,192,69733,1,0,0:0:0:0:
320,192,69819,1,0,0:0:0:0:
448,192,69819,1,0,0:0:0:0:
192,192,69905,1,0,0:0:0:0:
64,192,69991,1,0,0:0:0:0:
448,192,69991,1,0,0:0:0:0:
320,192,70077,1,0,0:0:0:0:
192,192,70164,1,0,0:0:0:0:
64,192,70164,1,0,0:0:0:0:
320,192,70250,1,0,0:0:0:0:
448,192,70250,1,0,0:0:0:0:
192,192,70336,1,0,0:0:0:0:
64,192,70336,1,0,0:0:0:0:
320,192,70422,1,0,0:0:0:0:
448,192,70422,1,0,0:0:0:0:
192,192,70509,1,0,0:0:0:0:
64,192,70509,1,0,0:0:0:0:
320,192,70595,1,0,0:0:0:0:
448,192,70595,1,0,0:0:0:0:
192,192,70681,1,0,0:0:0:0:
64,192,70681,1,0,0:0:0:0:
320,192,70767,1,0,0:0:0:0:
448,192,70767,1,0,0:0:0:0:
192,192,70853,1,0,0:0:0:0:
64,192,70853,1,0,0:0:0:0:
320,192,70940,1,0,0:0:0:0:
448,192,70940,1,0,0:0:0:0:
192,192,71026,1,0,0:0:0:0:
64,192,71026,1,0,0:0:0:0:
320,192,71112,1,0,0:0:0:0:
448,192,71112,1,0,0:0:0:0:
192,192,71198,1,0,0:0:0:0:
64,192,71198,1,0,0:0:0:0:
320,192,71284,1,0,0:0:0:0:
448,192,71284,1,0,0:0:0:0:
192,192,71371,1,0,0:0:0:0:
64,192,71371,1,0,0:0:0:0:
320,192,71457,1,0,0:0:0:0:
448,192,71457,1,0,0:0:0:0:
64,192,71543,128,0,71888:0:0:0:0:
192,192,72060,128,0,72233:0:0:0:0:
448,192,72233,1,0,0:0:0:0:
64,192,72233,1,0,0:0:0:0:
320,192,72276,1,0,0:0:0:0:
192,192,72319,1,0,0:0:0:0:
64,192,72362,1,0,0:0:0:0:
448,192,72405,1,0,0:0:0:0:
320,192,72448,1,0,0:0:0:0:
192,192,72491,1,0,0:0:0:0:
64,192,72534,1,0,0:0:0:0:
448,192,72577,1,0,0:0:0:0:
320,192,72621,1,0,0:0:0:0:
192,192,72664,1,0,0:0:0:0:
64,192,72707,1,0,0:0:0:0:
448,192,72750,1,0,0:0:0:0:
320,192,72836,1,0,0:0:0:0:
64,192,72922,1,0,0:0:0:0:
192,192,72951,1,0,0:0:0:0:
448,192,72980,1,0,0:0:0:0:
320,192,73009,1,0,0:0:0:0:
64,192,73037,1,0,0:0:0:0:
192,192,73066,1,0,0:0:0:0:
448,192,73095,1,0,0:0:0:0:
320,192,73123,1,0,0:0:0:0:
64,192,73152,1,0,0:0:0:0:
192,192,73181,1,0,0:0:0:0:
448,192,73210,1,0,0:0:0:0:
320,192,73238,1,0,0:0:0:0:
64,192,73267,1,0,0:0:0:0:
192,192,73296,1,0,0:0:0:0:
448,192,73325,1,0,0:0:0:0:
320,192,73353,1,0,0:0:0:0:
64,192,73382,1,0,0:0:0:0:
192,192,73411,1,0,0:0:0:0:
448,192,73440,1,0,0:0:0:0:
320,192,73468,1,0,0:0:0:0:
64,192,73497,1,0,0:0:0:0:
192,192,73526,1,0,0:0:0:0:
448,192,73554,1,0,0:0:0:0:
320,192,73583,1,0,0:0:0:0:
192,192,73612,1,0,0:0:0:0:
64,192,73612,1,0,0:0:0:0:
448,192,73698,1,0,0:0:0:0:
448,192,73784,1,0,0:0:0:0:
320,192,73871,1,0,0:0:0:0:
320,192,73957,1,0,0:0:0:0:
192,192,74043,1,0,0:0:0:0:
192,192,74129,1,0,0:0:0:0:
64,192,74215,1,0,0:0:0:0:
64,192,74302,1,0,0:0:0:0:
320,192,74302,128,0,74388:0:0:0:0:
448,192,74302,128,0,74388:0:0:0:0:
320,192,74474,128,0,74560:0:0:0:0:
448,192,74474,128,0,74560:0:0:0:0:
448,192,74646,128,0,74991:0:0:0:0:
320,192,74646,128,0,74991:0:0:0:0:
64,192,74991,1,0,0:0:0:0:
192,192,75034,1,0,0:0:0:0:
320,192,75077,1,0,0:0:0:0:
448,192,75121,1,0,0:0:0:0:
64,192,75164,1,0,0:0:0:0:
192,192,75207,1,0,0:0:0:0:
320,192,75250,1,0,0:0:0:0:
448,192,75293,1,0,0:0:0:0:
64,192,75336,1,0,0:0:0:0:
192,192,75379,1,0,0:0:0:0:
320,192,75422,1,0,0:0:0:0:
448,192,75465,1,0,0:0:0:0:
64,192,75509,1,0,0:0:0:0:
192,192,75595,1,0,0:0:0:0:
448,192,75681,1,0,0:0:0:0:
320,192,75710,1,0,0:0:0:0:
64,192,75738,1,0,0:0:0:0:
192,192,75767,1,0,0:0:0:0:
448,192,75796,1,0,0:0:0:0:
320,192,75825,1,0,0:0:0:0:
64,192,75853,1,0,0:0:0:0:
192,192,75882,1,0,0:0:0:0:
448,192,75911,1,0,0:0:0:0:
320,192,75940,1,0,0:0:0:0:
64,192,75968,1,0,0:0:0:0:
192,192,75997,1,0,0:0:0:0:
448,192,76026,1,0,0:0:0:0:
448,192,76112,1,0,0:0:0:0:
448,192,76198,1,0,0:0:0:0:
448,192,76284,1,0,0:0:0:0:
64,192,76371,1,0,0:0:0:0:
320,192,76371,1,0,0:0:0:0:
64,192,76457,1,0,0:0:0:0:
192,192,76543,1,0,0:0:0:0:
192,192,76629,1,0,0:0:0:0:
320,192,76715,1,0,0:0:0:0:
320,192,76802,1,0,0:0:0:0:
448,192,76888,1,0,0:0:0:0:
448,192,76974,1,0,0:0:0:0:
64,192,77060,1,0,0:0:0:0:
320,192,77060,1,0,0:0:0:0:
320,192,77146,1,0,0:0:0:0:
192,192,77233,1,0,0:0:0:0:
192,192,77319,1,0,0:0:0:0:
64,192,77405,128,0,77577:0:0:0:0:
192,192,77577,128,0,77750:0:0:0:0:
448,192,77750,1,0,0:0:0:0:
64,192,77750,1,0,0:0:0:0:
320,192,77793,1,0,0:0:0:0:
192,192,77836,1,0,0:0:0:0:
64,192,77879,1,0,0:0:0:0:
448,192,77922,1,0,0:0:0:0:
320,192,77965,1,0,0:0:0:0:
192,192,78009,1,0,0:0:0:0:
64,192,78052,1,0,0:0:0:0:
448,192,78095,1,0,0:0:0:0:
320,192,78138,1,0,0:0:0:0:
192,192,78181,1,0,0:0:0:0:
64,192,78224,1,0,0:0:0:0:
448,192,78267,1,0,0:0:0:0:
320,192,78353,1,0,0:0:0:0:
64,192,78440,1,0,0:0:0:0:
192,192,78468,1,0,0:0:0:0:
448,192,78497,1,0,0:0:0:0:
320,192,78526,1,0,0:0:0:0:
64,192,78554,1,0,0:0:0:0:
192,192,78583,1,0,0:0:0:0:
448,192,78612,1,0,0:0:0:0:
320,192,78641,1,0,0:0:0:0:
64,192,78669,1,0,0:0:0:0:
192,192,78698,1,0,0:0:0:0:
448,192,78727,1,0,0:0:0:0:
320,192,78756,1,0,0:0:0:0:
64,192,78784,1,0,0:0:0:0:
192,192,78813,1,0,0:0:0:0:
448,192,78842,1,0,0:0:0:0:
320,192,78871,1,0,0:0:0:0:
64,192,78899,1,0,0:0:0:0:
192,192,78928,1,0,0:0:0:0:
448,192,78957,1,0,0:0:0:0:
320,192,78986,1,0,0:0:0:0:
64,192,79014,1,0,0:0:0:0:
192,192,79043,1,0,0:0:0:0:
448,192,79072,1,0,0:0:0:0:
320,192,79100,1,0,0:0:0:0:
192,192,79129,1,0,0:0:0:0:
64,192,79129,1,0,0:0:0:0:
64,192,79215,1,0,0:0:0:0:
192,192,79302,1,0,0:0:0:0:
192,192,79388,1,0,0:0:0:0:
320,192,79474,1,0,0:0:0:0:
320,192,79560,1,0,0:0:0:0:
448,192,79646,1,0,0:0:0:0:
448,192,79733,1,0,0:0:0:0:
192,192,79819,128,0,79905:0:0:0:0:
64,192,79819,128,0,79905:0:0:0:0:
64,192,79991,128,0,80077:0:0:0:0:
192,192,79991,128,0,80077:0:0:0:0:
192,192,80164,128,0,80509:0:0:0:0:
64,192,80164,128,0,80509:0:0:0:0:
448,192,80509,1,0,0:0:0:0:
320,192,80552,1,0,0:0:0:0:
192,192,80595,1,0,0:0:0:0:
64,192,80638,1,0,0:0:0:0:
448,192,80681,1,0,0:0:0:0:
320,192,80724,1,0,0:0:0:0:
192,192,80767,1,0,0:0:0:0:
64,192,80810,1,0,0:0:0:0:
448,192,80853,1,0,0:0:0:0:
320,192,80896,1,0,0:0:0:0:
192,192,80940,1,0,0:0:0:0:
64,192,80983,1,0,0:0:0:0:
448,192,81026,1,0,0:0:0:0:
320,192,81112,1,0,0:0:0:0:
64,192,81198,1,0,0:0:0:0:
64,192,81371,1,0,0:0:0:0:
64,192,81543,1,0,0:0:0:0:
192,192,81715,1,0,0:0:0:0:
192,192,81888,1,0,0:0:0:0:
192,192,82060,1,0,0:0:0:0:
192,192,82146,1,0,0:0:0:0:
192,192,82233,1,0,0:0:0:0:
192,192,82405,1,0,0:0:0:0:
448,192,82577,128,0,82922:0:0:0:0:
320,192,82922,128,0,83095:0:0:0:0:
448,192,83267,1,0,0:0:0:0:
64,192,83267,1,0,0:0:0:0:
192,192,83310,1,0,0:0:0:0:
320,192,83353,1,0,0:0:0:0:
448,192,83396,1,0,0:0:0:0:
64,192,83440,1,0,0:0:0:0:
192,192,83483,1,0,0:0:0:0:
320,192,83526,1,0,0:0:0:0:
448,192,83569,1,0,0:0:0:0:
64,192,83612,1,0,0:0:0:0:
192,192,83655,1,0,0:0:0:0:
320,192,83698,1,0,0:0:0:0:
448,192,83741,1,0,0:0:0:0:
64,192,83784,1,0,0:0:0:0:
192,192,83871,1,0,0:0:0:0:
448,192,83957,1,0,0:0:0:0:
320,192,83986,1,0,0:0:0:0:
64,192,84014,1,0,0:0:0:0:
192,192,84043,1,0,0:0:0:0:
448,192,84072,1,0,0:0:0:0:
320,192,84100,1,0,0:0:0:0:
64,192,84129,1,0,0:0:0:0:
192,192,84158,1,0,0:0:0:0:
448,192,84187,1,0,0:0:0:0:
320,192,84215,1,0,0:0:0:0:
64,192,84244,1,0,0:0:0:0:
192,192,84273,1,0,0:0:0:0:
448,192,84302,1,0,0:0:0:0:
320,192,84330,1,0,0:0:0:0:
64,192,84359,1,0,0:0:0:0:
192,192,84388,1,0,0:0:0:0:
448,192,84417,1,0,0:0:0:0:
320,192,84445,1,0,0:0:0:0:
64,192,84474,1,0,0:0:0:0:
192,192,84503,1,0,0:0:0:0:
448,192,84531,1,0,0:0:0:0:
320,192,84560,1,0,0:0:0:0:
64,192,84589,1,0,0:0:0:0:
192,192,84618,1,0,0:0:0:0:
320,192,84646,1,0,0:0:0:0:
448,192,84646,1,0,0:0:0:0:
448,192,84733,1,0,0:0:0:0:
320,192,84819,1,0,0:0:0:0:
320,192,84905,1,0,0:0:0:0:
192,192,84991,1,0,0:0:0:0:
192,192,85077,1,0,0:0:0:0:
64,192,85164,1,0,0:0:0:0:
64,192,85250,1,0,0:0:0:0:
320,192,85336,128,0,85422:0:0:0:0:
448,192,85336,128,0,85422:0:0:0:0:
320,192,85509,128,0,85595:0:0:0:0:
448,192,85509,128,0,85595:0:0:0:0:
448,192,85681,128,0,86026:0:0:0:0:
320,192,85681,128,0,86026:0:0:0:0:
64,192,86026,1,0,0:0:0:0:
192,192,86069,1,0,0:0:0:0:
320,192,86112,1,0,0:0:0:0:
448,192,86155,1,0,0:0:0:0:
64,192,86198,1,0,0:0:0:0:
192,192,86241,1,0,0:0:0:0:
320,192,86284,1,0,0:0:0:0:
448,192,86327,1,0,0:0:0:0:
64,192,86371,1,0,0:0:0:0:
192,192,86414,1,0,0:0:0:0:
320,192,86457,1,0,0:0:0:0:
448,192,86500,1,0,0:0:0:0:
64,192,86543,1,0,0:0:0:0:
192,192,86629,1,0,0:0:0:0:
448,192,86715,1,0,0:0:0:0:
320,192,86744,1,0,0:0:0:0:
64,192,86773,1,0,0:0:0:0:
192,192,86802,1,0,0:0:0:0:
448,192,86830,1,0,0:0:0:0:
320,192,86859,1,0,0:0:0:0:
64,192,86888,1,0,0:0:0:0:
192,192,86917,1,0,0:0:0:0:
448,192,86945,1,0,0:0:0:0:
320,192,86974,1,0,0:0:0:0:
64,192,87003,1,0,0:0:0:0:
192,192,87031,1,0,0:0:0:0:
448,192,87060,1,0,0:0:0:0:
448,192,87146,1,0,0:0:0:0:
448,192,87233,1,0,0:0:0:0:
448,192,87319,1,0,0:0:0:0:
320,192,87405,1,0,0:0:0:0:
64,192,87405,1,0,0:0:0:0:
64,192,87491,1,0,0:0:0:0:
192,192,87577,1,0,0:0:0:0:
192,192,87664,1,0,0:0:0:0:
320,192,87750,1,0,0:0:0:0:
320,192,87836,1,0,0:0:0:0:
448,192,87922,1,0,0:0:0:0:
448,192,88009,1,0,0:0:0:0:
320,192,88095,1,0,0:0:0:0:
64,192,88095,1,0,0:0:0:0:
320,192,88181,1,0,0:0:0:0:
192,192,88267,1,0,0:0:0:0:
192,192,88353,1,0,0:0:0:0:
64,192,88440,128,0,88612:0:0:0:0:
320,192,88612,128,0,88784:0:0:0:0:
64,192,88784,1,0,0:0:0:0:
448,192,88784,1,0,0:0:0:0:
192,192,88827,1,0,0:0:0:0:
320,192,88871,1,0,0:0:0:0:
448,192,88914,1,0,0:0:0:0:
64,192,88957,1,0,0:0:0:0:
192,192,89000,1,0,0:0:0:0:
320,192,89043,1,0,0:0:0:0:
448,192,89086,1,0,0:0:0:0:
64,192,89129,1,0,0:0:0:0:
192,192,89172,1,0,0:0:0:0:
320,192,89215,1,0,0:0:0:0:
448,192,89259,1,0,0:0:0:0:
64,192,89302,1,0,0:0:0:0:
192,192,89388,1,0,0:0:0:0:
448,192,89474,1,0,0:0:0:0:
320,192,89503,1,0,0:0:0:0:
64,192,89531,1,0,0:0:0:0:
192,192,89560,1,0,0:0:0:0:
448,192,89589,1,0,0:0:0:0:
320,192,89618,1,0,0:0:0:0:
64,192,89646,1,0,0:0:0:0:
192,192,89675,1,0,0:0:0:0:
448,192,89704,1,0,0:0:0:0:
320,192,89733,1,0,0:0:0:0:
64,192,89761,1,0,0:0:0:0:
192,192,89790,1,0,0:0:0:0:
448,192,89819,1,0,0:0:0:0:
320,192,89848,1,0,0:0:0:0:
64,192,89876,1,0,0:0:0:0:
192,192,89905,1,0,0:0:0:0:
448,192,89934,1,0,0:0:0:0:
320,192,89963,1,0,0:0:0:0:
64,192,89991,1,0,0:0:0:0:
192,192,90020,1,0,0:0:0:0:
448,192,90049,1,0,0:0:0:0:
320,192,90077,1,0,0:0:0:0:
64,192,90106,1,0,0:0:0:0:
192,192,90135,1,0,0:0:0:0:
320,192,90164,1,0,0:0:0:0:
448,192,90164,1,0,0:0:0:0:
448,192,90250,1,0,0:0:0:0:
64,192,90336,1,0,0:0:0:0:
64,192,90422,1,0,0:0:0:0:
320,192,90509,1,0,0:0:0:0:
320,192,90595,1,0,0:0:0:0:
192,192,90681,1,0,0:0:0:0:
192,192,90767,1,0,0:0:0:0:
320,192,90853,128,0,90940:0:0:0:0:
448,192,90853,128,0,90940:0:0:0:0:
64,192,90853,1,0,0:0:0:0:
320,192,91026,128,0,91112:0:0:0:0:
448,192,91026,128,0,91112:0:0:0:0:
64,192,91198,1,0,0:0:0:0:
320,192,91198,128,0,91543:0:0:0:0:
448,192,91198,128,0,91543:0:0:0:0:
192,192,91543,1,0,0:0:0:0:
64,192,91543,1,0,0:0:0:0:
448,192,92060,1,0,0:0:0:0:
320,192,92060,1,0,0:0:0:0:
320,192,92233,1,0,0:0:0:0:
448,192,92233,1,0,0:0:0:0:
448,192,92577,1,0,0:0:0:0:
320,192,92577,1,0,0:0:0:0:
448,192,93095,1,0,0:0:0:0:
320,192,93095,1,0,0:0:0:0:
64,192,93181,1,0,0:0:0:0:
320,192,93267,1,0,0:0:0:0:
448,192,93267,1,0,0:0:0:0:
192,192,93353,1,0,0:0:0:0:
64,192,93440,1,0,0:0:0:0:
320,192,93526,1,0,0:0:0:0:
448,192,93612,1,0,0:0:0:0:
64,192,93612,1,0,0:0:0:0:
192,192,93698,1,0,0:0:0:0:
320,192,93784,1,0,0:0:0:0:
448,192,93871,1,0,0:0:0:0:
192,192,93957,1,0,0:0:0:0:
64,192,93957,1,0,0:0:0:0:
448,192,94043,1,0,0:0:0:0:
320,192,94129,1,0,0:0:0:0:
192,192,94215,1,0,0:0:0:0:
448,192,94302,1,0,0:0:0:0:
64,192,94302,1,0,0:0:0:0:
192,192,94345,1,0,0:0:0:0:
320,192,94388,1,0,0:0:0:0:
448,192,94431,1,0,0:0:0:0:
64,192,94474,1,0,0:0:0:0:
192,192,94517,1,0,0:0:0:0:
320,192,94560,1,0,0:0:0:0:
448,192,94603,1,0,0:0:0:0:
64,192,94646,1,0,0:0:0:0:
192,192,94690,1,0,0:0:0:0:
320,192,94733,1,0,0:0:0:0:
448,192,94776,1,0,0:0:0:0:
64,192,94819,1,0,0:0:0:0:
192,192,94905,1,0,0:0:0:0:
448,192,94991,1,0,0:0:0:0:
320,192,95020,1,0,0:0:0:0:
64,192,95049,1,0,0:0:0:0:
192,192,95077,1,0,0:0:0:0:
448,192,95135,1,0,0:0:0:0:
320,192,95164,1,0,0:0:0:0:
64,192,95221,1,0,0:0:0:0:
192,192,95250,1,0,0:0:0:0:
448,192,95279,1,0,0:0:0:0:
320,192,95307,1,0,0:0:0:0:
64,192,95336,1,0,0:0:0:0:
192,192,95365,1,0,0:0:0:0:
448,192,95394,1,0,0:0:0:0:
320,192,95422,1,0,0:0:0:0:
64,192,95451,1,0,0:0:0:0:
192,192,95480,1,0,0:0:0:0:
448,192,95509,1,0,0:0:0:0:
320,192,95537,1,0,0:0:0:0:
64,192,95566,1,0,0:0:0:0:
192,192,95595,1,0,0:0:0:0:
448,192,95623,1,0,0:0:0:0:
320,192,95652,1,0,0:0:0:0:
192,192,95681,1,0,0:0:0:0:
64,192,95681,1,0,0:0:0:0:
64,192,95767,1,0,0:0:0:0:
320,192,95853,1,0,0:0:0:0:
320,192,95940,1,0,0:0:0:0:
64,192,96026,1,0,0:0:0:0:
448,192,96026,1,0,0:0:0:0:
448,192,96112,1,0,0:0:0:0:
320,192,96198,1,0,0:0:0:0:
320,192,96284,1,0,0:0:0:0:
192,192,96371,128,0,96457:0:0:0:0:
64,192,96371,128,0,96457:0:0:0:0:
64,192,96543,128,0,96629:0:0:0:0:
192,192,96543,128,0,96629:0:0:0:0:
448,192,96543,1,0,0:0:0:0:
192,192,96715,128,0,97060:0:0:0:0:
64,192,96715,128,0,97060:0:0:0:0:
448,192,97060,1,0,0:0:0:0:
320,192,97103,1,0,0:0:0:0:
192,192,97146,1,0,0:0:0:0:
64,192,97190,1,0,0:0:0:0:
448,192,97233,1,0,0:0:0:0:
320,192,97276,1,0,0:0:0:0:
192,192,97319,1,0,0:0:0:0:
64,192,97362,1,0,0:0:0:0:
448,192,97405,128,0,97577:0:0:0:0:
192,192,97577,1,0,0:0:0:0:
64,192,97664,1,0,0:0:0:0:
448,192,97750,1,0,0:0:0:0:
320,192,97779,1,0,0:0:0:0:
64,192,97807,1,0,0:0:0:0:
192,192,97836,1,0,0:0:0:0:
448,192,97865,1,0,0:0:0:0:
320,192,97894,1,0,0:0:0:0:
64,192,97922,1,0,0:0:0:0:
192,192,97951,1,0,0:0:0:0:
448,192,97980,1,0,0:0:0:0:
320,192,98009,1,0,0:0:0:0:
64,192,98037,1,0,0:0:0:0:
192,192,98066,1,0,0:0:0:0:
448,192,98095,128,0,98440:0:0:0:0:
320,192,98095,1,0,0:0:0:0:
64,192,98267,1,0,0:0:0:0:
320,192,98440,1,0,0:0:0:0:
192,192,98440,128,0,98612:0:0:0:0:
64,192,98612,128,0,98784:0:0:0:0:
192,192,98784,1,0,0:0:0:0:
320,192,98784,1,0,0:0:0:0:
448,192,98784,128,0,98957:0:0:0:0:
448,192,99043,128,0,99129:0:0:0:0:
448,192,99215,1,0,0:0:0:0:
192,192,99302,1,0,0:0:0:0:
64,192,99302,1,0,0:0:0:0:
320,192,99388,1,0,0:0:0:0:
64,192,99474,1,0,0:0:0:0:
192,192,99474,1,0,0:0:0:0:
448,192,99474,128,0,99646:0:0:0:0:
320,192,99646,1,0,0:0:0:0:
192,192,99733,1,0,0:0:0:0:
64,192,99819,1,0,0:0:0:0:
448,192,99819,1,0,0:0:0:0:
192,192,99862,1,0,0:0:0:0:
320,192,99905,1,0,0:0:0:0:
448,192,99948,1,0,0:0:0:0:
64,192,99991,1,0,0:0:0:0:
192,192,100034,1,0,0:0:0:0:
320,192,100077,1,0,0:0:0:0:
448,192,100121,1,0,0:0:0:0:
64,192,100164,1,0,0:0:0:0:
192,192,100207,1,0,0:0:0:0:
320,192,100250,1,0,0:0:0:0:
448,192,100293,1,0,0:0:0:0:
64,192,100336,1,0,0:0:0:0:
192,192,100422,1,0,0:0:0:0:
448,192,100509,1,0,0:0:0:0:
320,192,100537,1,0,0:0:0:0:
64,192,100566,1,0,0:0:0:0:
192,192,100595,1,0,0:0:0:0:
448,192,100623,1,0,0:0:0:0:
320,192,100652,1,0,0:0:0:0:
64,192,100681,1,0,0:0:0:0:
192,192,100710,1,0,0:0:0:0:
448,192,100738,1,0,0:0:0:0:
320,192,100767,1,0,0:0:0:0:
64,192,100796,1,0,0:0:0:0:
192,192,100825,1,0,0:0:0:0:
448,192,100853,1,0,0:0:0:0:
320,192,100882,1,0,0:0:0:0:
64,192,100911,1,0,0:0:0:0:
192,192,100940,1,0,0:0:0:0:
448,192,100968,1,0,0:0:0:0:
320,192,100997,1,0,0:0:0:0:
64,192,101026,1,0,0:0:0:0:
192,192,101054,1,0,0:0:0:0:
448,192,101083,1,0,0:0:0:0:
320,192,101112,1,0,0:0:0:0:
64,192,101141,1,0,0:0:0:0:
192,192,101169,1,0,0:0:0:0:
320,192,101198,1,0,0:0:0:0:
448,192,101198,1,0,0:0:0:0:
448,192,101284,1,0,0:0:0:0:
192,192,101371,1,0,0:0:0:0:
192,192,101457,1,0,0:0:0:0:
64,192,101543,1,0,0:0:0:0:
448,192,101543,1,0,0:0:0:0:
64,192,101629,1,0,0:0:0:0:
192,192,101715,1,0,0:0:0:0:
192,192,101802,1,0,0:0:0:0:
448,192,101888,128,0,101974:0:0:0:0:
320,192,101888,128,0,101974:0:0:0:0:
448,192,102060,128,0,102146:0:0:0:0:
320,192,102060,128,0,102146:0:0:0:0:
320,192,102233,128,0,102577:0:0:0:0:
448,192,102233,128,0,102577:0:0:0:0:
64,192,102233,1,0,0:0:0:0:
64,192,102577,1,0,0:0:0:0:
192,192,102621,1,0,0:0:0:0:
320,192,102664,1,0,0:0:0:0:
448,192,102707,1,0,0:0:0:0:
64,192,102750,1,0,0:0:0:0:
192,192,102793,1,0,0:0:0:0:
320,192,102836,1,0,0:0:0:0:
448,192,102879,1,0,0:0:0:0:
64,192,102922,128,0,103095:0:0:0:0:
192,192,103095,1,0,0:0:0:0:
448,192,103267,128,0,103353:0:0:0:0:
64,192,103267,1,0,0:0:0:0:
320,192,103353,128,0,103440:0:0:0:0:
192,192,103440,128,0,103526:0:0:0:0:
64,192,103526,128,0,103612:0:0:0:0:
448,192,103612,1,0,0:0:0:0:
448,192,103698,1,0,0:0:0:0:
320,192,103784,1,0,0:0:0:0:
192,192,103784,1,0,0:0:0:0:
320,192,103871,1,0,0:0:0:0:
64,192,103957,1,0,0:0:0:0:
64,192,104043,1,0,0:0:0:0:
192,192,104129,1,0,0:0:0:0:
448,192,104129,1,0,0:0:0:0:
192,192,104215,1,0,0:0:0:0:
320,192,104302,1,0,0:0:0:0:
320,192,104388,1,0,0:0:0:0:
448,192,104474,1,0,0:0:0:0:
64,192,104474,1,0,0:0:0:0:
448,192,104560,1,0,0:0:0:0:
192,192,104646,1,0,0:0:0:0:
192,192,104733,1,0,0:0:0:0:
320,192,104819,1,0,0:0:0:0:
64,192,104819,1,0,0:0:0:0:
320,192,104905,1,0,0:0:0:0:
192,192,104991,1,0,0:0:0:0:
448,192,104991,1,0,0:0:0:0:
192,192,105077,1,0,0:0:0:0:
64,192,105164,1,0,0:0:0:0:
448,192,105164,1,0,0:0:0:0:
64,192,105250,1,0,0:0:0:0:
192,192,105336,1,0,0:0:0:0:
320,192,105336,1,0,0:0:0:0:
448,192,105336,1,0,0:0:0:0:
448,192,105422,1,0,0:0:0:0:
64,192,105509,1,0,0:0:0:0:
64,192,105595,1,0,0:0:0:0:
192,192,105681,1,0,0:0:0:0:
320,192,105681,1,0,0:0:0:0:
320,192,105767,1,0,0:0:0:0:
448,192,105853,1,0,0:0:0:0:
448,192,105940,1,0,0:0:0:0:
192,192,106026,1,0,0:0:0:0:
192,192,106112,1,0,0:0:0:0:
64,192,106198,1,0,0:0:0:0:
320,192,106198,1,0,0:0:0:0:
64,192,106284,1,0,0:0:0:0:
448,192,106371,1,0,0:0:0:0:
192,192,106371,1,0,0:0:0:0:
448,192,106457,1,0,0:0:0:0:
192,192,106543,1,0,0:0:0:0:
192,192,106629,1,0,0:0:0:0:
448,192,106715,1,0,0:0:0:0:
64,192,106715,1,0,0:0:0:0:
448,192,106802,1,0,0:0:0:0:
320,192,106888,1,0,0:0:0:0:
320,192,106974,1,0,0:0:0:0:
64,192,107060,1,0,0:0:0:0:
192,192,107060,1,0,0:0:0:0:
448,192,107060,1,0,0:0:0:0:
320,192,107233,1,0,0:0:0:0:
448,192,107405,1,0,0:0:0:0:
192,192,107577,1,0,0:0:0:0:
64,192,107577,1,0,0:0:0:0:
64,192,107750,1,0,0:0:0:0:
320,192,107750,1,0,0:0:0:0:
448,192,107750,1,0,0:0:0:0:
192,192,107922,1,0,0:0:0:0:
64,192,108095,1,0,0:0:0:0:
448,192,108095,1,0,0:0:0:0:
448,192,108181,1,0,0:0:0:0:
192,192,108267,1,0,0:0:0:0:
192,192,108353,1,0,0:0:0:0:
448,192,108440,1,0,0:0:0:0:
64,192,108440,1,0,0:0:0:0:
448,192,108526,1,0,0:0:0:0:
192,192,108612,1,0,0:0:0:0:
192,192,108698,1,0,0:0:0:0:
64,192,108784,1,0,0:0:0:0:
64,192,108871,1,0,0:0:0:0:
320,192,108957,1,0,0:0:0:0:
448,192,108957,1,0,0:0:0:0:
320,192,109043,1,0,0:0:0:0:
192,192,109129,1,0,0:0:0:0:
64,192,109129,1,0,0:0:0:0:
192,192,109215,1,0,0:0:0:0:
448,192,109302,1,0,0:0:0:0:
448,192,109388,1,0,0:0:0:0:
320,192,109474,1,0,0:0:0:0:
64,192,109474,1,0,0:0:0:0:
64,192,109560,1,0,0:0:0:0:
192,192,109646,1,0,0:0:0:0:
192,192,109733,1,0,0:0:0:0:
320,192,109819,1,0,0:0:0:0:
64,192,109819,1,0,0:0:0:0:
320,192,109905,1,0,0:0:0:0:
448,192,109991,1,0,0:0:0:0:
448,192,110077,1,0,0:0:0:0:
64,192,110164,1,0,0:0:0:0:
64,192,110250,1,0,0:0:0:0:
448,192,110336,1,0,0:0:0:0:
320,192,110336,1,0,0:0:0:0:
448,192,110422,1,0,0:0:0:0:
64,192,110509,1,0,0:0:0:0:
192,192,110509,1,0,0:0:0:0:
64,192,110595,1,0,0:0:0:0:
448,192,110681,1,0,0:0:0:0:
448,192,110767,1,0,0:0:0:0:
64,192,110853,1,0,0:0:0:0:
192,192,110853,1,0,0:0:0:0:
64,192,110940,1,0,0:0:0:0:
192,192,111026,1,0,0:0:0:0:
448,192,111026,1,0,0:0:0:0:
448,192,111112,1,0,0:0:0:0:
320,192,111198,1,0,0:0:0:0:
192,192,111198,1,0,0:0:0:0:
64,192,111198,1,0,0:0:0:0:
192,192,111284,1,0,0:0:0:0:
64,192,111371,1,0,0:0:0:0:
448,192,111371,1,0,0:0:0:0:
448,192,111457,1,0,0:0:0:0:
320,192,111543,1,0,0:0:0:0:
64,192,111543,1,0,0:0:0:0:
320,192,111629,1,0,0:0:0:0:
192,192,111715,1,0,0:0:0:0:
64,192,111715,1,0,0:0:0:0:
64,192,111802,1,0,0:0:0:0:
448,192,111888,1,0,0:0:0:0:
320,192,111888,1,0,0:0:0:0:
192,192,111888,1,0,0:0:0:0:
448,192,111974,1,0,0:0:0:0:
320,192,112060,1,0,0:0:0:0:
64,192,112060,1,0,0:0:0:0:
320,192,112146,1,0,0:0:0:0:
64,192,112233,1,0,0:0:0:0:
448,192,112233,1,0,0:0:0:0:
448,192,112319,1,0,0:0:0:0:
192,192,112405,1,0,0:0:0:0:
320,192,112405,1,0,0:0:0:0:
192,192,112491,1,0,0:0:0:0:
64,192,112577,1,0,0:0:0:0:
320,192,112577,1,0,0:0:0:0:
448,192,112577,1,0,0:0:0:0:
448,192,112664,1,0,0:0:0:0:
320,192,112750,1,0,0:0:0:0:
64,192,112750,1,0,0:0:0:0:
64,192,112836,1,0,0:0:0:0:
192,192,112922,1,0,0:0:0:0:
448,192,112922,1,0,0:0:0:0:
448,192,113009,1,0,0:0:0:0:
320,192,113095,1,0,0:0:0:0:
192,192,113095,1,0,0:0:0:0:
192,192,113181,1,0,0:0:0:0:
64,192,113267,1,0,0:0:0:0:
320,192,113267,1,0,0:0:0:0:
448,192,113267,1,0,0:0:0:0:
64,192,113353,1,0,0:0:0:0:
192,192,113440,1,0,0:0:0:0:
448,192,113440,1,0,0:0:0:0:
448,192,113526,1,0,0:0:0:0:
320,192,113612,1,0,0:0:0:0:
192,192,113612,1,0,0:0:0:0:
192,192,113698,1,0,0:0:0:0:
64,192,113784,1,0,0:0:0:0:
448,192,113784,1,0,0:0:0:0:
64,192,113871,1,0,0:0:0:0:
192,192,113957,1,0,0:0:0:0:
320,192,113957,1,0,0:0:0:0:
448,192,113957,1,0,0:0:0:0:
320,192,114043,1,0,0:0:0:0:
192,192,114129,1,0,0:0:0:0:
64,192,114129,1,0,0:0:0:0:
192,192,114215,1,0,0:0:0:0:
64,192,114302,1,0,0:0:0:0:
320,192,114302,1,0,0:0:0:0:
448,192,114302,1,0,0:0:0:0:
448,192,114388,1,0,0:0:0:0:
320,192,114474,1,0,0:0:0:0:
192,192,114474,1,0,0:0:0:0:
192,192,114560,1,0,0:0:0:0:
64,192,114646,1,0,0:0:0:0:
320,192,114646,1,0,0:0:0:0:
448,192,114646,1,0,0:0:0:0:
64,192,114733,1,0,0:0:0:0:
192,192,114819,1,0,0:0:0:0:
448,192,114819,1,0,0:0:0:0:
448,192,114905,1,0,0:0:0:0:
320,192,114991,1,0,0:0:0:0:
192,192,114991,1,0,0:0:0:0:
64,192,114991,1,0,0:0:0:0:
64,192,115077,1,0,0:0:0:0:
192,192,115164,1,0,0:0:0:0:
320,192,115164,1,0,0:0:0:0:
320,192,115250,1,0,0:0:0:0:
64,192,115336,1,0,0:0:0:0:
448,192,115336,1,0,0:0:0:0:
448,192,115422,1,0,0:0:0:0:
192,192,115509,1,0,0:0:0:0:
64,192,115509,1,0,0:0:0:0:
320,192,115509,1,0,0:0:0:0:
64,192,115595,1,0,0:0:0:0:
448,192,115681,1,0,0:0:0:0:
320,192,115681,1,0,0:0:0:0:
448,192,115767,1,0,0:0:0:0:
320,192,115853,1,0,0:0:0:0:
64,192,115853,1,0,0:0:0:0:
64,192,115940,1,0,0:0:0:0:
192,192,116026,1,0,0:0:0:0:
320,192,116026,1,0,0:0:0:0:
448,192,116026,1,0,0:0:0:0:
448,192,116112,1,0,0:0:0:0:
320,192,116112,1,0,0:0:0:0:
192,192,116112,1,0,0:0:0:0:
64,192,116198,1,0,0:0:0:0:
192,192,116284,1,0,0:0:0:0:
320,192,116284,1,0,0:0:0:0:
448,192,116284,1,0,0:0:0:0:
64,192,116371,128,0,117750:0:0:0:0:
