osu file format v14

[General]
AudioFilename: audio.mp3
AudioLeadIn: 0
PreviewTime: 233105
Countdown: 1
SampleSet: Normal
StackLeniency: 0.2
Mode: 0
LetterboxInBreaks: 0
WidescreenStoryboard: 0

[Editor]
Bookmarks: 62705
DistanceSpacing: 1.2
BeatDivisor: 4
GridSize: 4
TimelineZoom: 4.299998

[Metadata]
Title:Superluminal Absolutely EXTRA-TONE-ordinary -Bumpy Ride-
TitleUnicode:Superluminal Absolutely EXTRA-TONE-ordinary -Bumpy Ride-
Artist:Camellia
ArtistUnicode:かめりあ
Creator:san undertal
Version:welcome to camellias funhouse
Source:1000 OVER!!
Tags:
BeatmapID:1826013
BeatmapSetID:873592

[Difficulty]
HPDrainRate:0
CircleSize:3.8
OverallDifficulty:8.5
ApproachRate:10
SliderMultiplier:0.600000005960464
SliderTickRate:1

[Events]
//Background and Video events
0,0,"BLAPHOLE.jpg",0,0
//Break Periods
//Storyboard Layer 0 (Background)
//Storyboard Layer 1 (Fail)
//Storyboard Layer 2 (Pass)
//Storyboard Layer 3 (Foreground)
//Storyboard Sound Samples

[TimingPoints]
305.615384615385,75,4,1,0,100,1,0
14705,-83.3333333333333,4,1,0,100,0,0
24305,-133.333333333333,4,1,0,100,0,0
32705,-66.6666666666667,4,1,0,100,0,0
45905,-100,4,1,0,100,0,0
47105,-50,4,1,0,100,0,0
48305,-83.3333333333333,4,1,0,100,0,0
49505,-45.4545454545455,4,1,0,100,0,0
50705,-76.9230769230769,4,1,0,100,0,0
51905,-41.6666666666667,4,1,0,100,0,0
52805,-27.7777777777778,4,1,0,100,0,0
53105,-100,4,1,0,100,0,0
55505,-66.6666666666667,4,1,0,100,0,0
58505,-50,4,1,0,100,0,0
59105,-33.3333333333333,4,1,0,100,0,0
59705,-25,4,1,0,100,0,0
60305,-66.6666666666667,4,1,0,100,0,0
61805,-100,4,1,0,100,0,0
62705,-52.6315789473684,4,1,0,100,0,0
81905,-83.3333333333333,4,1,0,100,0,0

[Colours]
Combo1 : 253,57,36
Combo2 : 141,153,231
Combo3 : 90,90,220
Combo4 : 72,37,177
Combo5 : 251,193,60
Combo6 : 254,106,35

[HitObjects]
157,70,230,6,0,L|188:67,1,30.0000002980232,0|0,0:0|0:0,0:0:0:0:
212,45,305,6,0,P|246:40|352:134,2,180.000001788139,0|0|0,0:0|0:0|0:0,0:0:0:0:
339,206,905,5,0,0:0:0:0:
343,226,980,1,0,0:0:0:0:
259,203,1130,1,0,0:0:0:0:
255,223,1205,1,0,0:0:0:0:
119,142,1355,1,0,0:0:0:0:
53,327,1505,53,0,0:0:0:0:
82,325,1580,1,0,0:0:0:0:
112,323,1655,1,0,0:0:0:0:
142,321,1730,1,0,0:0:0:0:
172,320,1805,1,0,0:0:0:0:
314,384,1955,2,0,L|324:321,1,60.0000005960464,0|0,0:0|0:0,0:0:0:0:
414,288,2105,6,0,L|412:254,4,30.0000002980232,0|0|0|0|0,0:0|0:0|0:0|0:0|0:0,0:0:0:0:
461,120,2405,2,0,L|463:86,4,30.0000002980232,0|0|0|0|0,0:0|0:0|0:0|0:0|0:0,0:0:0:0:
266,46,2705,5,0,0:0:0:0:
177,220,2855,1,0,0:0:0:0:
71,56,3005,1,0,0:0:0:0:
170,108,3155,1,0,0:0:0:0:
30,275,3305,2,0,P|101:279|140:318,1,120.000001192093,0|0,0:0|0:0,0:0:0:0:
187,370,3605,1,0,0:0:0:0:
219,377,3680,1,0,0:0:0:0:
251,384,3755,1,0,0:0:0:0:
355,323,3905,53,0,0:0:0:0:
355,323,3980,1,0,0:0:0:0:
355,323,4055,1,0,0:0:0:0:
324,190,4205,2,0,L|395:183,1,60.0000005960464,0|0,0:0|0:0,0:0:0:0:
171,102,4355,2,0,L|100:95,1,60.0000005960464,0|0,0:0|0:0,0:0:0:0:
308,40,4505,2,0,P|347:23|427:28,1,120.000001192093,0|0,0:0|0:0,0:0:0:0:
461,203,4805,6,0,L|495:201,1,30.0000002980232,0|0,0:0|0:0,0:0:0:0:
459,229,4880,2,0,L|493:227,1,30.0000002980232,0|0,0:0|0:0,0:0:0:0:
457,255,4955,1,0,0:0:0:0:
455,281,5030,1,0,0:0:0:0:
453,325,5105,6,0,L|383:336,1,60.0000005960464,0|0,0:0|0:0,0:0:0:0:
278,352,5255,1,0,0:0:0:0:
278,352,5330,1,0,0:0:0:0:
278,352,5405,2,0,L|208:363,1,60.0000005960464,0|0,0:0|0:0,0:0:0:0:
72,376,5555,2,0,L|97:309,1,60.0000005960464,0|0,0:0|0:0,0:0:0:0:
159,148,5705,1,0,0:0:0:0:
176,277,5855,1,0,0:0:0:0:
176,277,5930,1,0,0:0:0:0:
176,277,6005,54,0,L|243:280,1,60.0000005960464,0|0,0:0|0:0,0:0:0:0:
351,173,6155,2,0,L|284:176,1,60.0000005960464,0|0,0:0|0:0,0:0:0:0:
219,15,6305,5,0,0:0:0:0:
219,15,6380,1,0,0:0:0:0:
219,15,6455,2,0,L|223:81,1,60.0000005960464,0|0,0:0|0:0,0:0:0:0:
77,163,6605,2,0,L|80:103,1,60.0000005960464,0|0,0:0|0:0,0:0:0:0:
170,274,6755,2,0,L|166:214,1,60.0000005960464,0|0,0:0|0:0,0:0:0:0:
0,317,6905,5,0,0:0:0:0:
28,308,6980,1,0,0:0:0:0:
58,307,7055,1,0,0:0:0:0:
88,313,7130,1,0,0:0:0:0:
115,325,7205,1,0,0:0:0:0:
252,205,7355,1,0,0:0:0:0:
269,230,7430,54,0,L|274:271,1,30.0000002980232,0|0,0:0|0:0,0:0:0:0:
277,289,7505,2,0,L|286:360,1,60.0000005960464,0|0,0:0|0:0,0:0:0:0:
400,199,7655,1,0,0:0:0:0:
400,199,7730,1,0,0:0:0:0:
400,199,7805,2,0,L|407:139,1,60.0000005960464,0|0,0:0|0:0,0:0:0:0:
421,37,7955,1,0,0:0:0:0:
197,40,8105,5,0,0:0:0:0:
269,230,8255,1,0,0:0:0:0:
314,104,8405,1,0,0:0:0:0:
314,104,8480,1,0,0:0:0:0:
314,104,8555,1,0,0:0:0:0:
33,103,8705,6,0,P|63:128|88:136,1,60.0000005960464,0|0,0:0|0:0,0:0:0:0:
190,126,8855,1,0,0:0:0:0:
42,331,9005,2,0,P|78:317|98:299,1,60.0000005960464,0|0,0:0|0:0,0:0:0:0:
140,206,9155,1,0,0:0:0:0:
230,370,9305,53,0,0:0:0:0:
328,211,9455,1,0,0:0:0:0:
156,222,9605,1,0,0:0:0:0:
156,222,9680,1,0,0:0:0:0:
156,222,9755,1,0,0:0:0:0:
156,222,9830,2,0,L|154:262,1,30.0000002980232,0|0,0:0|0:0,0:0:0:0:
155,287,9905,6,0,L|224:289,1,60.0000005960464,0|0,0:0|0:0,0:0:0:0:
353,362,10055,1,0,0:0:0:0:
353,362,10130,1,0,0:0:0:0:
353,362,10205,2,0,L|363:298,1,60.0000005960464,0|0,0:0|0:0,0:0:0:0:
419,195,10355,2,0,L|409:131,1,60.0000005960464,0|0,0:0|0:0,0:0:0:0:
263,170,10505,1,0,0:0:0:0:
263,170,10580,1,0,0:0:0:0:
263,170,10655,1,0,0:0:0:0:
55,298,10805,5,0,0:0:0:0:
44,269,10880,1,0,0:0:0:0:
42,240,10955,1,0,0:0:0:0:
49,210,11030,1,0,0:0:0:0:
63,186,11105,54,0,L|62:127,2,60.0000005960464,0|0|0,0:0|0:0|0:0,0:0:0:0:
176,351,11405,1,0,0:0:0:0:
263,170,11555,1,0,0:0:0:0:
161,71,11705,1,0,0:0:0:0:
161,71,11780,1,0,0:0:0:0:
161,71,11855,1,0,0:0:0:0:
391,352,12005,6,0,B|398:264|398:264|404:248|404:248|410:177,1,165.000001639128,0|0,0:0|0:0,0:0:0:0:
389,28,12305,6,0,P|345:47|334:68,1,60.0000005960464,0|0,0:0|0:0,0:0:0:0:
270,177,12455,1,0,0:0:0:0:
270,177,12530,1,0,0:0:0:0:
270,177,12605,2,0,L|281:242,1,60.0000005960464,0|0,0:0|0:0,0:0:0:0:
302,330,12755,1,0,0:0:0:0:
412,111,12905,53,0,0:0:0:0:
181,120,13055,1,0,0:0:0:0:
181,120,13130,1,0,0:0:0:0:
181,120,13205,2,0,L|115:124,1,60.0000005960464,0|0,0:0|0:0,0:0:0:0:
165,258,13355,1,0,0:0:0:0:
170,273,13430,1,0,0:0:0:0:
175,288,13505,6,0,P|194:329|209:344,1,60.0000005960464,0|0,0:0|0:0,0:0:0:0:
284,194,13655,1,0,0:0:0:0:
284,194,13730,1,0,0:0:0:0:
284,194,13805,2,0,P|257:230|252:251,1,60.0000005960464,0|0,0:0|0:0,0:0:0:0:
431,224,13955,1,0,0:0:0:0:
431,224,14030,1,0,0:0:0:0:
431,224,14105,2,0,P|385:219|365:225,1,60.0000005960464,0|0,0:0|0:0,0:0:0:0:
461,351,14255,1,0,0:0:0:0:
461,351,14330,1,0,0:0:0:0:
461,351,14405,6,0,P|446:269|466:166,1,180.000001788139,0|0,0:0|0:0,0:0:0:0:
512,90,14705,53,0,0:0:0:0:
359,24,14855,1,0,0:0:0:0:
359,24,14930,1,0,0:0:0:0:
359,24,15005,2,0,P|321:22|287:36,1,71.9999985179901,0|0,0:0|0:0,0:0:0:0:
137,40,15155,2,0,P|135:78|149:112,1,71.9999985179901,0|0,0:0|0:0,0:0:0:0:
112,237,15305,1,0,0:0:0:0:
112,237,15380,1,0,0:0:0:0:
112,237,15455,2,0,L|191:251,1,71.9999985179901,0|0,0:0|0:0,0:0:0:0:
300,250,15605,5,0,0:0:0:0:
342,243,15680,1,0,0:0:0:0:
383,255,15755,1,0,0:0:0:0:
414,284,15830,1,0,0:0:0:0:
430,324,15905,5,0,0:0:0:0:
423,339,15980,1,0,0:0:0:0:
416,354,16055,1,0,0:0:0:0:
360,164,16205,1,0,0:0:0:0:
452,63,16355,1,0,0:0:0:0:
263,129,16505,1,0,0:0:0:0:
229,139,16580,1,0,0:0:0:0:
193,134,16655,1,0,0:0:0:0:
165,113,16730,2,0,L|152:41,1,71.9999985179901,0|0,0:0|0:0,0:0:0:0:
112,246,16955,53,0,0:0:0:0:
112,246,17030,2,0,L|115:282,1,35.999999258995,0|0,0:0|0:0,0:0:0:0:
112,246,17105,2,0,P|165:236|194:248,1,71.9999985179901,0|0,0:0|0:0,0:0:0:0:
281,331,17255,1,0,0:0:0:0:
281,331,17330,1,0,0:0:0:0:
281,331,17405,2,0,L|283:257,1,71.9999985179901,0|0,0:0|0:0,0:0:0:0:
394,199,17555,2,0,L|457:237,1,71.9999985179901,0|0,0:0|0:0,0:0:0:0:
407,355,17705,1,0,0:0:0:0:
328,95,17855,1,0,0:0:0:0:
328,95,17930,1,0,0:0:0:0:
328,95,18005,6,0,L|339:22,1,71.9999985179901,0|0,0:0|0:0,0:0:0:0:
203,152,18155,1,0,0:0:0:0:
156,134,18230,1,0,0:0:0:0:
105,134,18305,2,0,L|34:168,1,71.9999985179901,0|0,0:0|0:0,0:0:0:0:
161,323,18455,1,0,0:0:0:0:
293,172,18605,6,0,L|227:126,1,71.9999985179901,0|0,0:0|0:0,0:0:0:0:
156,314,18755,1,0,0:0:0:0:
342,351,18830,54,0,L|348:271,1,71.9999985179901,0|0,0:0|0:0,0:0:0:0:
283,93,18980,2,0,L|289:172,1,71.9999985179901,0|0,0:0|0:0,0:0:0:0:
487,309,19205,1,0,0:0:0:0:
487,309,19280,1,0,0:0:0:0:
487,309,19355,1,0,0:0:0:0:
487,309,19430,2,0,L|490:269,1,35.999999258995,0|0,0:0|0:0,0:0:0:0:
487,309,19505,6,0,P|423:291|407:299,1,71.9999985179901,0|0,0:0|0:0,0:0:0:0:
272,355,19655,1,0,0:0:0:0:
272,355,19730,1,0,0:0:0:0:
272,355,19805,2,0,L|195:348,1,71.9999985179901,0|0,0:0|0:0,0:0:0:0:
75,245,19955,2,0,L|152:238,1,71.9999985179901,0|0,0:0|0:0,0:0:0:0:
266,138,20105,2,0,P|309:157|325:186,1,71.9999985179901,0|0,0:0|0:0,0:0:0:0:
67,53,20255,1,0,0:0:0:0:
67,53,20330,1,0,0:0:0:0:
67,53,20405,5,0,0:0:0:0:
69,101,20480,1,0,0:0:0:0:
71,149,20555,1,0,0:0:0:0:
73,197,20630,1,0,0:0:0:0:
75,245,20705,53,0,0:0:0:0:
234,34,20855,1,0,0:0:0:0:
234,34,20930,1,0,0:0:0:0:
234,34,21005,1,0,0:0:0:0:
71,149,21155,1,0,0:0:0:0:
191,263,21305,2,0,L|274:250,1,71.9999985179901,0|0,0:0|0:0,0:0:0:0:
339,237,21455,1,0,0:0:0:0:
339,237,21530,1,0,0:0:0:0:
409,31,21680,5,0,0:0:0:0:
407,74,21755,1,0,0:0:0:0:
406,117,21830,1,0,0:0:0:0:
404,160,21905,1,0,0:0:0:0:
268,44,22055,1,0,0:0:0:0:
268,44,22130,1,0,0:0:0:0:
268,44,22205,1,0,0:0:0:0:
494,130,22355,1,0,0:0:0:0:
332,289,22505,6,0,L|251:302,1,71.9999985179901,0|0,0:0|0:0,0:0:0:0:
185,317,22655,1,0,0:0:0:0:
185,317,22730,1,0,0:0:0:0:
80,152,22880,53,0,0:0:0:0:
115,127,22955,1,0,0:0:0:0:
156,116,23030,1,0,0:0:0:0:
199,120,23105,2,0,L|247:182,1,71.9999985179901,0|0,0:0|0:0,0:0:0:0:
350,63,23255,5,0,0:0:0:0:
350,63,23330,1,0,0:0:0:0:
350,63,23405,2,0,L|320:134,1,71.9999985179901,0|0,0:0|0:0,0:0:0:0:
512,181,23555,5,0,0:0:0:0:
512,181,23630,1,0,0:0:0:0:
512,181,23705,2,0,L|435:191,1,71.9999985179901,0|0,0:0|0:0,0:0:0:0:
506,376,23855,53,0,0:0:0:0:
434,364,23930,1,0,0:0:0:0:
363,352,24005,2,0,P|255:383|155:358,1,215.99999555397,0|0,0:0|0:0,0:0:0:0:
108,293,24305,5,0,0:0:0:0:
42,327,24455,1,0,0:0:0:0:
45,252,24605,1,0,0:0:0:0:
45,252,24680,1,0,0:0:0:0:
45,252,24755,1,0,0:0:0:0:
159,209,24905,5,0,0:0:0:0:
96,168,25055,1,0,0:0:0:0:
163,133,25205,1,0,0:0:0:0:
163,133,25280,1,0,0:0:0:0:
163,133,25355,1,0,0:0:0:0:
259,186,25505,53,0,0:0:0:0:
263,110,25655,1,0,0:0:0:0:
326,151,25805,1,0,0:0:0:0:
326,151,25880,1,0,0:0:0:0:
326,151,25955,1,0,0:0:0:0:
321,258,26105,5,0,0:0:0:0:
388,223,26255,1,0,0:0:0:0:
384,298,26405,1,0,0:0:0:0:
384,298,26480,1,0,0:0:0:0:
384,298,26555,1,0,0:0:0:0:
276,354,26705,5,0,0:0:0:0:
326,151,26855,1,0,0:0:0:0:
463,262,27005,2,0,L|466:315,2,45.0000021636487,0|0|0,0:0|0:0|0:0,0:0:0:0:
241,204,27305,53,0,0:0:0:0:
392,33,27455,1,0,0:0:0:0:
360,242,27605,2,0,L|359:290,2,45.0000021636487,0|0|0,0:0|0:0|0:0,0:0:0:0:
186,69,27905,5,0,0:0:0:0:
394,129,28055,1,0,0:0:0:0:
170,243,28205,2,0,L|129:261,2,45.0000021636487,0|0|0,0:0|0:0|0:0,0:0:0:0:
292,38,28505,5,0,0:0:0:0:
260,285,28655,1,0,0:0:0:0:
113,109,28805,2,0,L|100:63,2,45.0000021636487,0|0|0,0:0|0:0|0:0,0:0:0:0:
312,136,29105,53,0,0:0:0:0:
86,218,29255,1,0,0:0:0:0:
168,53,29405,1,0,0:0:0:0:
168,53,29480,1,0,0:0:0:0:
168,53,29555,1,0,0:0:0:0:
201,303,29705,5,0,0:0:0:0:
75,113,29855,1,0,0:0:0:0:
319,144,30005,1,0,0:0:0:0:
319,144,30080,1,0,0:0:0:0:
319,144,30155,1,0,0:0:0:0:
103,328,30305,5,0,0:0:0:0:
179,147,30455,1,0,0:0:0:0:
296,310,30605,1,0,0:0:0:0:
296,310,30680,1,0,0:0:0:0:
296,310,30755,1,0,0:0:0:0:
63,226,30905,53,0,0:0:0:0:
298,173,31055,1,0,0:0:0:0:
112,336,31205,1,0,0:0:0:0:
112,336,31280,1,0,0:0:0:0:
112,336,31355,1,0,0:0:0:0:
146,207,31505,5,0,0:0:0:0:
145,186,31580,1,0,0:0:0:0:
144,165,31655,1,0,0:0:0:0:
223,125,31805,5,0,0:0:0:0:
224,148,31880,1,0,0:0:0:0:
225,171,31955,1,0,0:0:0:0:
314,236,32105,53,0,0:0:0:0:
312,208,32180,1,0,0:0:0:0:
311,180,32255,1,0,0:0:0:0:
380,70,32405,5,0,0:0:0:0:
382,106,32480,1,0,0:0:0:0:
383,142,32555,1,0,0:0:0:0:
468,279,32705,22,0,L|470:311,22,22.5000010818243,0|0|0|0|0|0|0|0|0|0|0|0|0|0|0|0|0|0|0|0|0|0|0,0:0|0:0|0:0|0:0|0:0|0:0|0:0|0:0|0:0|0:0|0:0|0:0|0:0|0:0|0:0|0:0|0:0|0:0|0:0|0:0|0:0|0:0|0:0,0:0:0:0:
485,206,33155,6,0,L|492:183,9,15.0000007212162,0|0|0|0|0|0|0|0|0|0,0:0|0:0|0:0|0:0|0:0|0:0|0:0|0:0|0:0|0:0,0:0:0:0:
400,326,33305,70,0,L|402:358,14,22.5000010818243,0|0|0|0|0|0|0|0|0|0|0|0|0|0|0,0:0|0:0|0:0|0:0|0:0|0:0|0:0|0:0|0:0|0:0|0:0|0:0|0:0|0:0|0:0,0:0:0:0:
355,222,33605,6,0,L|348:199,21,15.0000007212162,0|0|0|0|0|0|0|0|0|0|0|0|0|0|0|0|0|0|0|0|0|0,0:0|0:0|0:0|0:0|0:0|0:0|0:0|0:0|0:0|0:0|0:0|0:0|0:0|0:0|0:0|0:0|0:0|0:0|0:0|0:0|0:0|0:0,0:0:0:0:
256,353,33905,21,0,0:0:0:0:
199,273,34055,1,0,0:0:0:0:
252,96,34205,1,0,0:0:0:0:
252,96,34280,1,0,0:0:0:0:
252,96,34355,1,0,0:0:0:0:
391,124,34505,5,0,0:0:0:0:
308,162,34655,1,0,0:0:0:0:
70,59,34805,1,0,0:0:0:0:
70,59,34880,1,0,0:0:0:0:
70,59,34955,1,0,0:0:0:0:
65,204,35105,5,0,0:0:0:0:
17,132,35255,1,0,0:0:0:0:
312,55,35405,1,0,0:0:0:0:
312,55,35480,1,0,0:0:0:0:
312,55,35555,1,0,0:0:0:0:
155,21,35705,53,0,0:0:0:0:
236,12,35855,1,0,0:0:0:0:
204,298,36005,1,0,0:0:0:0:
204,298,36080,1,0,0:0:0:0:
204,298,36155,1,0,0:0:0:0:
49,312,36305,5,0,0:0:0:0:
121,265,36455,1,0,0:0:0:0:
372,364,36605,1,0,0:0:0:0:
372,364,36680,1,0,0:0:0:0:
372,364,36755,1,0,0:0:0:0:
230,381,36905,5,0,0:0:0:0:
293,331,37055,1,0,0:0:0:0:
234,86,37205,1,0,0:0:0:0:
234,86,37280,1,0,0:0:0:0:
234,86,37355,1,0,0:0:0:0:
66,146,37505,53,0,0:0:0:0:
176,155,37655,1,0,0:0:0:0:
465,175,37805,1,0,0:0:0:0:
465,175,37880,1,0,0:0:0:0:
465,175,37955,1,0,0:0:0:0:
173,342,38105,5,0,0:0:0:0:
134,251,38255,1,0,0:0:0:0:
395,44,38405,1,0,0:0:0:0:
395,44,38480,1,0,0:0:0:0:
395,44,38555,1,0,0:0:0:0:
422,346,38705,5,0,0:0:0:0:
334,367,38855,1,0,0:0:0:0:
481,39,39005,1,0,0:0:0:0:
481,39,39080,1,0,0:0:0:0:
481,39,39155,1,0,0:0:0:0:
239,273,39305,53,0,0:0:0:0:
334,367,39455,1,0,0:0:0:0:
350,20,39605,1,0,0:0:0:0:
350,20,39680,1,0,0:0:0:0:
350,20,39755,1,0,0:0:0:0:
501,246,39905,5,0,0:0:0:0:
400,149,40055,1,0,0:0:0:0:
70,339,40205,1,0,0:0:0:0:
70,339,40280,1,0,0:0:0:0:
70,339,40355,1,0,0:0:0:0:
35,257,40505,5,0,0:0:0:0:
192,205,40655,1,0,0:0:0:0:
76,31,40805,1,0,0:0:0:0:
76,31,40880,1,0,0:0:0:0:
76,31,40955,1,0,0:0:0:0:
170,318,41105,53,0,0:0:0:0:
203,305,41180,1,0,0:0:0:0:
239,300,41255,1,0,0:0:0:0:
275,304,41330,1,0,0:0:0:0:
309,314,41405,1,0,0:0:0:0:
344,323,41480,1,0,0:0:0:0:
380,326,41555,1,0,0:0:0:0:
415,320,41630,1,0,0:0:0:0:
449,308,41705,5,0,0:0:0:0:
410,272,41780,1,0,0:0:0:0:
393,221,41855,1,0,0:0:0:0:
402,169,41930,1,0,0:0:0:0:
436,128,42005,22,0,L|481:104,6,45.0000021636487,0|0|0|0|0|0|0,0:0|0:0|0:0|0:0|0:0|0:0|0:0,0:0:0:0:
256,46,42305,6,0,L|254:-6,2,45.0000021636487,0|0|0,0:0|0:0|0:0,0:0:0:0:
274,384,42455,1,0,0:0:0:0:
61,192,42755,6,0,L|6:194,2,45.0000021636487,0|0|0,0:0|0:0|0:0,0:0:0:0:
511,168,42905,1,0,0:0:0:0:
160,96,43205,53,0,0:0:0:0:
159,118,43242,1,0,0:0:0:0:
158,140,43280,1,0,0:0:0:0:
157,163,43317,1,0,0:0:0:0:
157,185,43355,1,0,0:0:0:0:
156,208,43392,1,0,0:0:0:0:
155,230,43430,1,0,0:0:0:0:
155,253,43467,1,0,0:0:0:0:
154,275,43505,37,0,0:0:0:0:
357,356,43655,1,0,0:0:0:0:
357,356,43730,1,0,0:0:0:0:
357,356,43805,2,0,L|364:257,1,90.0000043272973,0|0,0:0|0:0,0:0:0:0:
323,120,43955,2,0,P|269:106|230:128,1,90.0000043272973,0|0,0:0|0:0,0:0:0:0:
460,208,44105,1,0,0:0:0:0:
460,208,44180,1,0,0:0:0:0:
460,208,44255,1,0,0:0:0:0:
361,29,44405,5,0,0:0:0:0:
283,233,44555,1,0,0:0:0:0:
77,31,44705,21,0,0:0:0:0:
36,96,44780,1,0,0:0:0:0:
32,172,44855,1,0,0:0:0:0:
230,332,45005,2,0,L|129:328,1,90.0000043272973,0|0,0:0|0:0,0:0:0:0:
331,156,45155,2,0,L|277:241,1,90.0000043272973,0|0,0:0|0:0,0:0:0:0:
214,41,45305,5,0,0:0:0:0:
201,75,45380,1,0,0:0:0:0:
237,70,45455,1,0,0:0:0:0:
217,61,45530,2,0,B|243:125|243:125|208:339,1,270.000012981892,0|0,0:0|0:0,0:0:0:0:
63,170,45830,5,0,0:0:0:0:
63,170,45868,1,0,0:0:0:0:
63,170,45905,6,0,L|135:162,1,60.0000005960464,0|0,0:0|0:0,0:0:0:0:
360,133,46055,1,0,0:0:0:0:
360,133,46130,1,0,0:0:0:0:
360,133,46205,1,0,0:0:0:0:
275,375,46355,2,0,L|267:305,1,60.0000005960464,0|0,0:0|0:0,0:0:0:0:
160,41,46505,2,0,P|204:45|219:63,1,60.0000005960464,0|0,0:0|0:0,0:0:0:0:
244,135,46655,1,0,0:0:0:0:
244,135,46730,1,0,0:0:0:0:
86,313,46880,5,0,0:0:0:0:
86,313,46955,1,0,0:0:0:0:
86,313,47030,1,0,0:0:0:0:
86,313,47105,22,0,P|127:264|185:257,1,120.000001192093,0|0,0:0|0:0,0:0:0:0:
275,299,47255,2,0,P|320:336|379:334,1,120.000001192093,0|0,0:0|0:0,0:0:0:0:
170,144,47405,6,0,P|232:155|267:201,1,120.000001192093,0|0,0:0|0:0,0:0:0:0:
275,299,47555,2,0,P|320:336|379:334,1,120.000001192093,0|0,0:0|0:0,0:0:0:0:
443,169,47705,6,0,P|419:215|360:256,1,120.000001192093,0|0,0:0|0:0,0:0:0:0:
282,169,47855,2,0,P|230:171|165:140,1,120.000001192093,0|0,0:0|0:0,0:0:0:0:
330,21,48005,2,0,B|308:138|384:123|363:260,1,240.000002384186,0|0,0:0|0:0,0:0:0:0:
206,357,48230,53,0,0:0:0:0:
206,357,48268,1,0,0:0:0:0:
206,357,48305,37,0,0:0:0:0:
59,180,48455,1,0,0:0:0:0:
59,180,48530,1,0,0:0:0:0:
59,180,48605,2,0,L|79:104,1,71.9999985179901,0|0,0:0|0:0,0:0:0:0:
330,21,48755,2,0,P|362:55|372:82,1,71.9999985179901,0|0,0:0|0:0,0:0:0:0:
259,284,48905,6,0,L|242:130,1,143.99999703598,0|0,0:0|0:0,0:0:0:0:
230,63,49130,1,0,0:0:0:0:
438,228,49280,5,0,0:0:0:0:
438,228,49355,1,0,0:0:0:0:
438,228,49430,1,0,0:0:0:0:
438,228,49505,5,0,0:0:0:0:
361,273,49580,1,0,0:0:0:0:
316,196,49655,1,0,0:0:0:0:
458,87,49805,6,0,P|485:164|468:235,1,132.000005339623,0|0,0:0|0:0,0:0:0:0:
276,180,49955,2,0,P|298:101|352:53,1,132.000005339623,0|0,0:0|0:0,0:0:0:0:
275,298,50105,5,0,0:0:0:0:
188,272,50180,1,0,0:0:0:0:
103,305,50255,2,0,P|45:231|34:176,1,132.000005339623,0|0,0:0|0:0,0:0:0:0:
276,180,50405,54,0,P|207:242|262:122,1,396.000016018868,0|0,0:0|0:0,0:0:0:0:
383,175,50705,38,0,L|390:261,1,77.9999972043038,0|0,0:0|0:0,0:0:0:0:
449,41,50855,1,0,0:0:0:0:
449,41,50930,1,0,0:0:0:0:
449,41,51005,2,0,P|404:28|365:33,1,77.9999972043038,0|0,0:0|0:0,0:0:0:0:
252,111,51155,2,0,P|207:124|168:119,1,77.9999972043038,0|0,0:0|0:0,0:0:0:0:
48,38,51305,5,0,0:0:0:0:
335,103,51455,1,0,0:0:0:0:
335,103,51530,1,0,0:0:0:0:
106,348,51680,5,0,0:0:0:0:
104,309,51755,1,0,0:0:0:0:
102,270,51830,1,0,0:0:0:0:
101,231,51905,6,0,L|97:76,1,143.99999703598,0|0,0:0|0:0,0:0:0:0:
232,264,52055,5,0,0:0:0:0:
232,264,52130,1,0,0:0:0:0:
232,264,52205,2,0,L|228:109,1,143.99999703598,0|0,0:0|0:0,0:0:0:0:
385,357,52355,5,0,0:0:0:0:
385,357,52430,1,0,0:0:0:0:
385,357,52505,2,0,L|381:202,1,143.99999703598,0|0,0:0|0:0,0:0:0:0:
477,33,52655,53,0,0:0:0:0:
477,33,52730,1,0,0:0:0:0:
477,33,52805,6,0,B|395:-6|330:9|330:9|303:97|364:143|364:143|386:142|386:142|473:204|413:313|322:324|263:250,1,593.999987773418,0|0,0:0|0:0,0:0:0:0:
283,265,53105,6,0,L|282:245,28,15.0000001490116,0|0|0|0|0|0|0|0|0|0|0|0|0|0|0|0|0|0|0|0|0|0|0|0|0|0|0|0|0,0:0|0:0|0:0|0:0|0:0|0:0|0:0|0:0|0:0|0:0|0:0|0:0|0:0|0:0|0:0|0:0|0:0|0:0|0:0|0:0|0:0|0:0|0:0|0:0|0:0|0:0|0:0|0:0|0:0,0:0:0:0:
198,304,53705,2,0,L|199:284,28,15.0000001490116,0|0|0|0|0|0|0|0|0|0|0|0|0|0|0|0|0|0|0|0|0|0|0|0|0|0|0|0|0,0:0|0:0|0:0|0:0|0:0|0:0|0:0|0:0|0:0|0:0|0:0|0:0|0:0|0:0|0:0|0:0|0:0|0:0|0:0|0:0|0:0|0:0|0:0|0:0|0:0|0:0|0:0|0:0|0:0,0:0:0:0:
116,241,54305,54,0,L|100:253,12,15.0000001490116,0|0|0|0|0|0|0|0|0|0|0|0|0,0:0|0:0|0:0|0:0|0:0|0:0|0:0|0:0|0:0|0:0|0:0|0:0|0:0,0:0:0:0:
162,159,54605,2,0,L|177:171,12,15.0000001490116,0|0|0|0|0|0|0|0|0|0|0|0|0,0:0|0:0|0:0|0:0|0:0|0:0|0:0|0:0|0:0|0:0|0:0|0:0|0:0,0:0:0:0:
102,35,54905,6,0,L|86:47,3,15.0000001490116,0|0|0|0,0:0|0:0|0:0|0:0,0:0:0:0:
178,44,55018,2,0,L|159:36,3,15.0000001490116,0|0|0|0,0:0|0:0|0:0|0:0,0:0:0:0:
257,37,55130,6,0,L|241:49,16,15.0000001490116,0|0|0|0|0|0|0|0|0|0|0|0|0|0|0|0|0,0:0|0:0|0:0|0:0|0:0|0:0|0:0|0:0|0:0|0:0|0:0|0:0|0:0|0:0|0:0|0:0|0:0,0:0:0:0:
388,111,55505,70,0,L|397:142,28,22.5000010818243,0|0|0|0|0|0|0|0|0|0|0|0|0|0|0|0|0|0|0|0|0|0|0|0|0|0|0|0|0,0:0|0:0|0:0|0:0|0:0|0:0|0:0|0:0|0:0|0:0|0:0|0:0|0:0|0:0|0:0|0:0|0:0|0:0|0:0|0:0|0:0|0:0|0:0|0:0|0:0|0:0|0:0|0:0|0:0,0:0:0:0:
327,205,56105,2,0,L|318:236,28,22.5000010818243,0|0|0|0|0|0|0|0|0|0|0|0|0|0|0|0|0|0|0|0|0|0|0|0|0|0|0|0|0,0:0|0:0|0:0|0:0|0:0|0:0|0:0|0:0|0:0|0:0|0:0|0:0|0:0|0:0|0:0|0:0|0:0|0:0|0:0|0:0|0:0|0:0|0:0|0:0|0:0|0:0|0:0|0:0|0:0,0:0:0:0:
415,333,56705,6,0,L|442:349,12,22.5000010818243,0|0|0|0|0|0|0|0|0|0|0|0|0,0:0|0:0|0:0|0:0|0:0|0:0|0:0|0:0|0:0|0:0|0:0|0:0|0:0,0:0:0:0:
281,346,57005,2,0,L|308:362,12,22.5000010818243,0|0|0|0|0|0|0|0|0|0|0|0|0,0:0|0:0|0:0|0:0|0:0|0:0|0:0|0:0|0:0|0:0|0:0|0:0|0:0,0:0:0:0:
152,328,57305,54,0,L|146:342,8,11.2500005409122,0|0|0|0|0|0|0|0|0,0:0|0:0|0:0|0:0|0:0|0:0|0:0|0:0|0:0,0:0:0:0:
109,260,57418,2,0,L|93:261,8,11.2500005409122,0|0|0|0|0|0|0|0|0,0:0|0:0|0:0|0:0|0:0|0:0|0:0|0:0|0:0,0:0:0:0:
147,193,57530,2,0,L|137:180,4,11.2500005409122,0|0|0|0|0,0:0|0:0|0:0|0:0|0:0,0:0:0:0:
211,75,57605,6,0,L|217:60,12,11.2500005409122,0|0|0|0|0|0|0|0|0|0|0|0|0,0:0|0:0|0:0|0:0|0:0|0:0|0:0|0:0|0:0|0:0|0:0|0:0|0:0,0:0:0:0:
246,95,57755,2,0,L|240:80,12,11.2500005409122,0|0|0|0|0|0|0|0|0|0|0|0|0,0:0|0:0|0:0|0:0|0:0|0:0|0:0|0:0|0:0|0:0|0:0|0:0|0:0,0:0:0:0:
328,30,57905,6,0,L|321:61,30,22.5000010818243,0|0|0|0|0|0|0|0|0|0|0|0|0|0|0|0|0|0|0|0|0|0|0|0|0|0|0|0|0|0|0,0:0|0:0|0:0|0:0|0:0|0:0|0:0|0:0|0:0|0:0|0:0|0:0|0:0|0:0|0:0|0:0|0:0|0:0|0:0|0:0|0:0|0:0|0:0|0:0|0:0|0:0|0:0|0:0|0:0|0:0|0:0,0:0:0:0:
412,77,58505,54,0,L|415:129,30,30.0000002980232,0|0|0|0|0|0|0|0|0|0|0|0|0|0|0|0|0|0|0|0|0|0|0|0|0|0|0|0|0|0|0,0:0|0:0|0:0|0:0|0:0|0:0|0:0|0:0|0:0|0:0|0:0|0:0|0:0|0:0|0:0|0:0|0:0|0:0|0:0|0:0|0:0|0:0|0:0|0:0|0:0|0:0|0:0|0:0|0:0|0:0|0:0,0:0:0:0:
288,208,59105,6,0,L|282:258,30,45.0000021636487,0|0|0|0|0|0|0|0|0|0|0|0|0|0|0|0|0|0|0|0|0|0|0|0|0|0|0|0|0|0|0,0:0|0:0|0:0|0:0|0:0|0:0|0:0|0:0|0:0|0:0|0:0|0:0|0:0|0:0|0:0|0:0|0:0|0:0|0:0|0:0|0:0|0:0|0:0|0:0|0:0|0:0|0:0|0:0|0:0|0:0|0:0,0:0:0:0:
488,325,59705,6,0,L|498:389,30,60.0000005960464,0|0|0|0|0|0|0|0|0|0|0|0|0|0|0|0|0|0|0|0|0|0|0|0|0|0|0|0|0|0|0,0:0|0:0|0:0|0:0|0:0|0:0|0:0|0:0|0:0|0:0|0:0|0:0|0:0|0:0|0:0|0:0|0:0|0:0|0:0|0:0|0:0|0:0|0:0|0:0|0:0|0:0|0:0|0:0|0:0|0:0|0:0,0:0:0:0:
316,331,60305,6,0,L|270:313,1,45.0000021636487,0|0,0:0|0:0,0:0:0:0:
296,342,60380,6,0,L|251:320,1,45.0000021636487,0|0,0:0|0:0,0:0:0:0:
275,349,60455,6,0,L|235:319,1,45.0000021636487,0|0,0:0|0:0,0:0:0:0:
253,353,60530,6,0,L|222:314,1,45.0000021636487,0|0,0:0|0:0,0:0:0:0:
230,352,60605,6,0,L|210:306,1,45.0000021636487,0|0,0:0|0:0,0:0:0:0:
208,347,60680,6,0,L|200:298,1,45.0000021636487,0|0,0:0|0:0,0:0:0:0:
188,338,60755,6,0,L|193:288,1,45.0000021636487,0|0,0:0|0:0,0:0:0:0:
169,325,60830,6,0,L|186:279,1,45.0000021636487,0|0,0:0|0:0,0:0:0:0:
153,310,60905,6,0,L|182:270,1,45.0000021636487,0|0,0:0|0:0,0:0:0:0:
141,291,60980,6,0,L|179:260,1,45.0000021636487,0|0,0:0|0:0,0:0:0:0:
132,270,61055,6,0,L|177:250,1,45.0000021636487,0|0,0:0|0:0,0:0:0:0:
127,248,61130,6,0,L|172:236,1,45.0000021636487,0|0,0:0|0:0,0:0:0:0:
126,226,61205,6,0,L|172:226,1,45.0000021636487,0|0,0:0|0:0,0:0:0:0:
129,204,61280,6,0,L|173:216,1,45.0000021636487,0|0,0:0|0:0,0:0:0:0:
137,183,61355,6,0,L|176:207,1,45.0000021636487,0|0,0:0|0:0,0:0:0:0:
148,163,61430,6,0,L|180:196,1,45.0000021636487,0|0,0:0|0:0,0:0:0:0:
163,147,61505,38,0,P|204:105|235:106,1,90.0000043272973
319,192,61655,2,0,P|362:185|388:150,1,90.0000043272973
372,65,61805,6,0,L|360:4,2,60.0000005960464
458,226,62105,6,0,L|452:297,1,60.0000005960464
444,367,62255,1,0,0:0:0:0:
444,367,62330,1,0,0:0:0:0:
444,367,62405,1,0,0:0:0:0:
81,52,62705,6,0,L|144:47,1,56.9999990441799
213,68,62780,1,0,0:0:0:0:
230,72,62818,1,0,0:0:0:0:
247,76,62855,2,0,L|260:134,1,56.9999990441799,0|0,0:0|0:0,0:0:0:0:
168,224,62930,2,0,L|181:166,1,56.9999990441799,0|0,0:0|0:0,0:0:0:0:
245,277,63005,6,0,L|296:261,6,28.4999995220899,0|0|0|0|0|0|0,0:0|0:0|0:0|0:0|0:0|0:0|0:0,0:0:0:0:
197,338,63155,2,0,L|146:322,6,28.4999995220899,0|0|0|0|0|0|0,0:0|0:0|0:0|0:0|0:0|0:0|0:0,0:0:0:0:
278,370,63305,5,0,0:0:0:0:
292,351,63342,1,0,0:0:0:0:
311,336,63380,1,0,0:0:0:0:
333,326,63417,1,0,0:0:0:0:
357,321,63455,1,0,0:0:0:0:
381,322,63492,1,0,0:0:0:0:
404,329,63530,2,0,L|459:361,1,56.9999990441799,0|0,0:0|0:0,0:0:0:0:
410,235,63605,2,0,L|465:267,1,56.9999990441799,0|0,0:0|0:0,0:0:0:0:
441,124,63680,54,0,P|405:142|391:159,1,56.9999990441799,0|0,0:0|0:0,0:0:0:0:
330,71,63755,2,0,P|296:48|274:45,1,56.9999990441799,0|0,0:0|0:0,0:0:0:0:
190,134,63830,2,0,P|154:152|140:169,1,56.9999990441799,0|0,0:0|0:0,0:0:0:0:
7,45,63905,6,0,L|73:49,1,56.9999990441799,0|0,0:0|0:0,0:0:0:0:
147,25,63980,2,0,L|213:29,1,56.9999990441799,0|0,0:0|0:0,0:0:0:0:
46,252,64055,2,0,P|40:187|58:141,1,113.99999808836,0|0,0:0|0:0,0:0:0:0:
157,324,64205,6,0,L|153:359,6,28.4999995220899,0|0|0|0|0|0|0,0:0|0:0|0:0|0:0|0:0|0:0|0:0,0:0:0:0:
223,273,64355,2,0,L|219:238,6,28.4999995220899,0|0|0|0|0|0|0,0:0|0:0|0:0|0:0|0:0|0:0|0:0,0:0:0:0:
374,364,64505,54,0,L|376:323,6,28.4999995220899,0|0|0|0|0|0|0,0:0|0:0|0:0|0:0|0:0|0:0|0:0,0:0:0:0:
428,271,64655,2,0,L|426:230,6,28.4999995220899,0|0|0|0|0|0|0,0:0|0:0|0:0|0:0|0:0|0:0|0:0,0:0:0:0:
369,180,64805,5,0,0:0:0:0:
346,175,64843,1,0,0:0:0:0:
323,170,64880,1,0,0:0:0:0:
300,165,64918,1,0,0:0:0:0:
277,160,64955,2,0,L|219:173,1,56.9999990441799,0|0,0:0|0:0,0:0:0:0:
95,96,65030,2,0,L|153:109,1,56.9999990441799,0|0,0:0|0:0,0:0:0:0:
308,37,65105,5,0,0:0:0:0:
308,37,65143,1,0,0:0:0:0:
308,37,65180,2,0,L|243:56,1,56.9999990441799,0|0,0:0|0:0,0:0:0:0:
86,206,65255,2,0,L|140:190,1,56.9999990441799,0|0,0:0|0:0,0:0:0:0:
336,290,65330,2,0,P|292:263|212:269,1,113.99999808836,0|0,0:0|0:0,0:0:0:0:
117,340,65480,53,0,0:0:0:0:
139,342,65517,1,0,0:0:0:0:
162,344,65555,1,0,0:0:0:0:
185,346,65592,1,0,0:0:0:0:
207,348,65630,1,0,0:0:0:0:
230,350,65667,1,0,0:0:0:0:
253,353,65705,6,0,L|311:387,1,56.9999990441799,0|0,0:0|0:0,0:0:0:0:
468,271,65780,2,0,L|410:305,1,56.9999990441799,0|0,0:0|0:0,0:0:0:0:
319,151,65855,2,0,L|377:185,1,56.9999990441799,0|0,0:0|0:0,0:0:0:0:
465,71,65930,2,0,L|407:105,1,56.9999990441799,0|0,0:0|0:0,0:0:0:0:
353,28,66005,5,0,0:0:0:0:
447,193,66080,1,0,0:0:0:0:
262,231,66155,1,0,0:0:0:0:
512,141,66230,1,0,0:0:0:0:
197,66,66305,54,0,P|187:82|190:98,4,28.4999995220899,0|0|0|0|0,0:0|0:0|0:0|0:0|0:0,0:0:0:0:
111,136,66418,2,0,P|119:152|135:158,4,28.4999995220899,0|0|0|0|0,0:0|0:0|0:0|0:0|0:0,0:0:0:0:
124,244,66530,2,0,P|142:244|155:234,4,28.4999995220899,0|0|0|0|0,0:0|0:0|0:0|0:0|0:0,0:0:0:0:
206,331,66643,2,0,P|253:326|316:365,1,113.99999808836,0|0,0:0|0:0,0:0:0:0:
30,376,66755,6,0,L|37:345,6,28.4999995220899,0|0|0|0|0|0|0,0:0|0:0|0:0|0:0|0:0|0:0|0:0,0:0:0:0:
13,274,66905,5,0,0:0:0:0:
9,251,66942,1,0,0:0:0:0:
9,228,66980,1,0,0:0:0:0:
14,206,67017,1,0,0:0:0:0:
25,186,67055,1,0,0:0:0:0:
36,166,67092,1,0,0:0:0:0:
45,145,67130,1,0,0:0:0:0:
49,123,67167,1,0,0:0:0:0:
48,100,67205,54,0,B|42:85|42:85|25:72,14,28.4999995220899,0|0|0|0|0|0|0|0|0|0|0|0|0|0|0,0:0|0:0|0:0|0:0|0:0|0:0|0:0|0:0|0:0|0:0|0:0|0:0|0:0|0:0|0:0,0:0:0:0:
99,31,67505,6,0,L|161:20,1,56.9999990441799,0|0,0:0|0:0,0:0:0:0:
298,102,67580,2,0,L|236:91,1,56.9999990441799,0|0,0:0|0:0,0:0:0:0:
419,30,67655,1,0,0:0:0:0:
322,198,67730,1,0,0:0:0:0:
275,18,67805,1,0,0:0:0:0:
440,111,67880,1,0,0:0:0:0:
220,166,67955,6,0,L|158:155,1,56.9999990441799,0|0,0:0|0:0,0:0:0:0:
362,20,68030,2,0,L|424:31,1,56.9999990441799,0|0,0:0|0:0,0:0:0:0:
415,247,68105,2,0,P|391:322|302:338,1,170.99999713254,0|0,0:0|0:0,0:0:0:0:
207,287,68255,1,0,0:0:0:0:
178,290,68292,1,0,0:0:0:0:
150,294,68330,1,0,0:0:0:0:
122,297,68367,1,0,0:0:0:0:
93,301,68405,54,0,L|61:306,6,28.4999995220899,0|0|0|0|0|0|0,0:0|0:0|0:0|0:0|0:0|0:0|0:0,0:0:0:0:
92,210,68555,2,0,L|124:215,6,28.4999995220899,0|0|0|0|0|0|0,0:0|0:0|0:0|0:0|0:0|0:0|0:0,0:0:0:0:
35,133,68705,5,0,0:0:0:0:
35,104,68742,1,0,0:0:0:0:
45,77,68780,1,0,0:0:0:0:
62,55,68817,1,0,0:0:0:0:
86,40,68855,1,0,0:0:0:0:
114,33,68892,1,0,0:0:0:0:
142,34,68930,1,0,0:0:0:0:
168,45,68967,1,0,0:0:0:0:
190,64,69005,6,0,L|248:76,1,56.9999990441799,0|0,0:0|0:0,0:0:0:0:
338,36,69080,2,0,L|372:41,10,28.4999995220899,0|0|0|0|0|0|0|0|0|0|0,0:0|0:0|0:0|0:0|0:0|0:0|0:0|0:0|0:0|0:0|0:0,0:0:0:0:
435,111,69305,54,0,P|443:158|437:180,1,56.9999990441799,0|0,0:0|0:0,0:0:0:0:
343,284,69380,2,0,P|301:307|278:309,1,56.9999990441799,0|0,0:0|0:0,0:0:0:0:
483,327,69455,2,0,P|455:365|435:377,1,56.9999990441799,0|0,0:0|0:0,0:0:0:0:
295,384,69530,2,0,P|249:371|231:356,1,56.9999990441799,0|0,0:0|0:0,0:0:0:0:
252,200,69605,6,0,L|269:24,1,170.99999713254,0|0,0:0|0:0,0:0:0:0:
280,18,69755,2,0,L|263:188,1,170.99999713254,0|0,0:0|0:0,0:0:0:0:
178,243,69905,6,0,L|180:263,28,14.249999761045,0|0|0|0|0|0|0|0|0|0|0|0|0|0|0|0|0|0|0|0|0|0|0|0|0|0|0|0|0,0:0|0:0|0:0|0:0|0:0|0:0|0:0|0:0|0:0|0:0|0:0|0:0|0:0|0:0|0:0|0:0|0:0|0:0|0:0|0:0|0:0|0:0|0:0|0:0|0:0|0:0|0:0|0:0|0:0,0:0:0:0:
123,151,70205,54,0,L|63:143,1,56.9999990441799,0|0,0:0|0:0,0:0:0:0:
37,300,70280,2,0,L|97:292,1,56.9999990441799,0|0,0:0|0:0,0:0:0:0:
160,84,70355,2,0,L|100:76,1,56.9999990441799,0|0,0:0|0:0,0:0:0:0:
76,367,70430,2,0,L|136:359,1,56.9999990441799,0|0,0:0|0:0,0:0:0:0:
50,210,70505,6,0,P|13:234|-2:264,1,56.9999990441799,0|0,0:0|0:0,0:0:0:0:
174,171,70580,2,0,P|134:150|101:152,1,56.9999990441799,0|0,0:0|0:0,0:0:0:0:
286,225,70655,2,0,P|283:180|265:152,1,56.9999990441799,0|0,0:0|0:0,0:0:0:0:
257,351,70730,2,0,P|294:327|309:297,1,56.9999990441799,0|0,0:0|0:0,0:0:0:0:
130,246,70805,6,0,L|126:307,1,56.9999990441799,0|0,0:0|0:0,0:0:0:0:
278,169,70880,2,0,L|274:112,1,56.9999990441799,0|0,0:0|0:0,0:0:0:0:
46,73,70955,2,0,L|42:134,1,56.9999990441799,0|0,0:0|0:0,0:0:0:0:
358,56,71030,2,0,L|354:0,1,56.9999990441799,0|0,0:0|0:0,0:0:0:0:
154,38,71105,6,0,P|134:100|152:158,1,113.99999808836,0|0,0:0|0:0,0:0:0:0:
278,169,71255,1,0,0:0:0:0:
302,175,71330,1,0,0:0:0:0:
326,181,71405,2,0,P|355:240|347:293,1,113.99999808836,0|0,0:0|0:0,0:0:0:0:
201,363,71555,1,0,0:0:0:0:
177,357,71630,1,0,0:0:0:0:
153,351,71705,2,0,P|124:292|132:239,1,113.99999808836,0|0,0:0|0:0,0:0:0:0:
290,77,71855,5,0,0:0:0:0:
368,71,71930,1,0,0:0:0:0:
443,129,72005,2,0,P|453:169|452:199,6,56.9999990441799,0|0|0|0|0|0|0,0:0|0:0|0:0|0:0|0:0|0:0|0:0,0:0:0:0:
465,315,72305,22,0,L|406:309,1,56.9999990441799,0|0,0:0|0:0,0:0:0:0:
313,321,72380,1,0,0:0:0:0:
284,318,72417,1,0,0:0:0:0:
256,315,72455,2,0,L|222:265,1,56.9999990441799,0|0,0:0|0:0,0:0:0:0:
125,217,72530,2,0,L|158:167,1,56.9999990441799,0|0,0:0|0:0,0:0:0:0:
370,173,72605,5,0,0:0:0:0:
346,188,72642,1,0,0:0:0:0:
319,198,72680,1,0,0:0:0:0:
291,201,72717,1,0,0:0:0:0:
263,197,72755,2,0,L|235:189,6,28.4999995220899,0|0|0|0|0|0|0,0:0|0:0|0:0|0:0|0:0|0:0|0:0,0:0:0:0:
162,53,72905,6,0,L|226:45,1,56.9999990441799,0|0,0:0|0:0,0:0:0:0:
308,0,72980,2,0,L|355:43,1,56.9999990441799,0|0,0:0|0:0,0:0:0:0:
442,77,73055,2,0,L|438:141,1,56.9999990441799,0|0,0:0|0:0,0:0:0:0:
469,228,73130,2,0,L|417:266,1,56.9999990441799,0|0,0:0|0:0,0:0:0:0:
385,350,73205,53,0,0:0:0:0:
359,327,73242,1,0,0:0:0:0:
328,313,73280,1,0,0:0:0:0:
294,308,73317,1,0,0:0:0:0:
260,312,73355,2,0,L|195:333,1,56.9999990441799,0|0,0:0|0:0,0:0:0:0:
119,260,73430,2,0,L|103:326,1,56.9999990441799,0|0,0:0|0:0,0:0:0:0:
17,364,73505,6,0,L|12:292,1,56.9999990441799,0|0,0:0|0:0,0:0:0:0:
0,131,73580,2,0,L|5:203,1,56.9999990441799,0|0,0:0|0:0,0:0:0:0:
176,202,73655,1,0,0:0:0:0:
201,188,73692,1,0,0:0:0:0:
228,182,73730,1,0,0:0:0:0:
257,185,73767,1,0,0:0:0:0:
284,195,73805,2,0,L|341:227,1,56.9999990441799,0|0,0:0|0:0,0:0:0:0:
454,104,73880,2,0,L|397:136,1,56.9999990441799,0|0,0:0|0:0,0:0:0:0:
261,55,73955,6,0,L|263:24,6,28.4999995220899,0|0|0|0|0|0|0,0:0|0:0|0:0|0:0|0:0|0:0|0:0,0:0:0:0:
148,108,74105,53,0,0:0:0:0:
148,108,74143,1,0,0:0:0:0:
148,108,74180,2,0,L|146:77,4,28.4999995220899,0|0|0|0|0,0:0|0:0|0:0|0:0|0:0,0:0:0:0:
105,171,74293,1,0,0:0:0:0:
55,228,74330,2,0,L|53:256,4,28.4999995220899,0|0|0|0|0,0:0|0:0|0:0|0:0|0:0,0:0:0:0:
114,302,74443,5,0,0:0:0:0:
203,346,74480,2,0,L|266:341,1,56.9999990441799,0|0,0:0|0:0,0:0:0:0:
280,245,74555,2,0,L|343:240,1,56.9999990441799,0|0,0:0|0:0,0:0:0:0:
357,144,74630,2,0,L|420:139,1,56.9999990441799,0|0,0:0|0:0,0:0:0:0:
472,325,74705,6,0,P|429:339|360:310,1,113.99999808836,0|0,0:0|0:0,0:0:0:0:
498,122,74855,2,0,L|500:192,1,56.9999990441799,0|0,0:0|0:0,0:0:0:0:
276,166,74930,2,0,L|277:109,1,56.9999990441799,0|0,0:0|0:0,0:0:0:0:
395,39,75005,1,0,0:0:0:0:
395,78,75042,1,0,0:0:0:0:
395,118,75080,1,0,0:0:0:0:
395,158,75117,1,0,0:0:0:0:
395,198,75155,54,0,L|394:220,12,14.249999761045,0|0|0|0|0|0|0|0|0|0|0|0|0,0:0|0:0|0:0|0:0|0:0|0:0|0:0|0:0|0:0|0:0|0:0|0:0|0:0,0:0:0:0:
290,49,75305,5,0,0:0:0:0:
266,32,75342,1,0,0:0:0:0:
239,23,75380,1,0,0:0:0:0:
211,22,75417,1,0,0:0:0:0:
184,29,75455,1,0,0:0:0:0:
159,44,75492,1,0,0:0:0:0:
141,66,75530,1,0,0:0:0:0:
129,91,75567,1,0,0:0:0:0:
123,118,75605,6,0,L|128:188,1,56.9999990441799,0|0,0:0|0:0,0:0:0:0:
156,328,75680,2,0,L|214:288,1,56.9999990441799,0|0,0:0|0:0,0:0:0:0:
322,195,75755,2,0,L|258:164,1,56.9999990441799,0|0,0:0|0:0,0:0:0:0:
54,186,75830,2,0,L|58:255,1,56.9999990441799,0|0,0:0|0:0,0:0:0:0:
279,340,75905,5,0,0:0:0:0:
355,329,76205,1,0,0:0:0:0:
431,318,76505,1,0,0:0:0:0:
464,246,76655,5,0,0:0:0:0:
457,232,76730,1,0,0:0:0:0:
450,218,76805,1,0,0:0:0:0:
483,39,76955,1,0,0:0:0:0:
247,110,77105,22,0,L|170:103,1,56.9999990441799,0|0,0:0|0:0,0:0:0:0:
90,25,77180,2,0,L|83:102,1,56.9999990441799,0|0,0:0|0:0,0:0:0:0:
5,182,77255,2,0,L|82:189,1,56.9999990441799,0|0,0:0|0:0,0:0:0:0:
162,267,77330,2,0,L|169:190,1,56.9999990441799,0|0,0:0|0:0,0:0:0:0:
134,154,77405,1,0,0:0:0:0:
134,154,77443,1,0,0:0:0:0:
134,154,77480,1,0,0:0:0:0:
251,187,77555,6,0,L|248:215,2,28.4999995220899,0|0|0,0:0|0:0|0:0,0:0:0:0:
227,36,77630,2,0,L|229:7,2,28.4999995220899,0|0|0,0:0|0:0|0:0,0:0:0:0:
326,90,77705,5,0,0:0:0:0:
354,94,77742,1,0,0:0:0:0:
379,107,77780,1,0,0:0:0:0:
399,127,77817,1,0,0:0:0:0:
412,152,77855,1,0,0:0:0:0:
417,180,77892,1,0,0:0:0:0:
412,208,77930,1,0,0:0:0:0:
400,234,77967,1,0,0:0:0:0:
380,254,78005,6,0,L|322:264,3,56.9999990441799,0|0|0|0,0:0|0:0|0:0|0:0,0:0:0:0:
253,346,78155,2,0,L|340:332,1,85.4999985662698,0|0,0:0|0:0,0:0:0:0:
71,361,78305,38,0,P|61:340|60:307,1,56.9999990441799,0|0,0:0|0:0,0:0:0:0:
150,263,78380,2,0,P|159:283|160:316,1,56.9999990441799,0|0,0:0|0:0,0:0:0:0:
49,268,78455,6,0,P|46:243|58:208,1,56.9999990441799,0|0,0:0|0:0,0:0:0:0:
166,195,78530,2,0,P|168:219|156:254,1,56.9999990441799,0|0,0:0|0:0,0:0:0:0:
54,165,78605,6,0,P|60:139|85:106,1,56.9999990441799,0|0,0:0|0:0,0:0:0:0:
201,133,78680,2,0,P|194:158|169:191,1,56.9999990441799,0|0,0:0|0:0,0:0:0:0:
93,66,78755,54,0,P|109:41|147:17,1,56.9999990441799,0|0,0:0|0:0,0:0:0:0:
256,88,78830,2,0,P|239:112|201:136,1,56.9999990441799,0|0,0:0|0:0,0:0:0:0:
179,2,78905,5,0,0:0:0:0:
377,97,78980,1,0,0:0:0:0:
239,206,79055,1,0,0:0:0:0:
297,0,79130,1,0,0:0:0:0:
365,246,79205,21,0,0:0:0:0:
329,177,79318,1,0,0:0:0:0:
455,341,79505,38,0,L|460:300,6,28.4999995220899
310,363,79655,2,0,L|304:296,1,56.9999990441799,0|0,0:0|0:0,0:0:0:0:
294,220,79730,2,0,L|288:153,1,56.9999990441799,0|0,0:0|0:0,0:0:0:0:
57,341,79805,6,0,L|52:300,6,28.4999995220899,0|0|0|0|0|0|0,0:0|0:0|0:0|0:0|0:0|0:0|0:0,0:0:0:0:
202,363,79955,2,0,L|208:296,1,56.9999990441799,0|0,0:0|0:0,0:0:0:0:
218,220,80030,2,0,L|224:153,1,56.9999990441799,0|0,0:0|0:0,0:0:0:0:
255,4,80105,6,0,L|255:42,6,28.4999995220899,0|0|0|0|0|0|0,0:0|0:0|0:0|0:0|0:0|0:0|0:0,0:0:0:0:
256,316,80255,2,0,L|256:278,6,28.4999995220899,0|0|0|0|0|0|0,0:0|0:0|0:0|0:0|0:0|0:0|0:0,0:0:0:0:
144,191,80405,1,0,0:0:0:0:
158,160,80442,1,0,0:0:0:0:
181,135,80480,1,0,0:0:0:0:
211,117,80517,1,0,0:0:0:0:
244,109,80555,1,0,0:0:0:0:
278,112,80592,1,0,0:0:0:0:
310,124,80630,1,0,0:0:0:0:
337,144,80667,1,0,0:0:0:0:
356,172,80705,53,0,0:0:0:0:
256,192,80724,12,0,81755,0:0:0:0:
256,34,81905,38,0,L|256:114,1,71.9999985179901
256,349,82055,2,0,L|256:269,1,71.9999985179901,0|0,0:0|0:0,0:0:0:0:
392,113,82205,2,0,L|323:153,1,71.9999985179901,0|0,0:0|0:0,0:0:0:0:
119,270,82355,2,0,L|188:230,1,71.9999985179901,0|0,0:0|0:0,0:0:0:0:
392,270,82505,2,0,L|323:230,1,71.9999985179901,0|0,0:0|0:0,0:0:0:0:
119,113,82655,2,0,L|188:153,1,71.9999985179901,0|0,0:0|0:0,0:0:0:0:
256,349,82805,6,0,L|256:269,1,71.9999985179901,0|0,0:0|0:0,0:0:0:0:
256,106,82955,1,0,0:0:0:0:
256,106,83030,1,0,0:0:0:0:
256,106,83105,6,0,L|256:34,1,71.9999985179901,0|0,0:0|0:0,0:0:0:0:
337,165,83255,2,0,L|405:143,1,71.9999985179901,0|0,0:0|0:0,0:0:0:0:
306,261,83405,2,0,L|348:319,1,71.9999985179901,0|0,0:0|0:0,0:0:0:0:
205,261,83555,2,0,L|163:319,1,71.9999985179901,0|0,0:0|0:0,0:0:0:0:
174,165,83705,2,0,L|106:143,1,71.9999985179901,0|0,0:0|0:0,0:0:0:0:
256,106,83855,54,0,L|256:34,1,71.9999985179901,0|0,0:0|0:0,0:0:0:0:
468,185,84005,1,0,0:0:0:0:
465,220,84080,1,0,0:0:0:0:
462,256,84155,1,0,0:0:0:0:
460,292,84230,1,0,0:0:0:0:
457,328,84305,6,0,P|422:348|383:344,1,71.9999985179901,0|0,0:0|0:0,0:0:0:0:
276,384,84455,2,0,P|256:349|260:310,1,71.9999985179901,0|0,0:0|0:0,0:0:0:0:
220,203,84605,2,0,P|255:183|294:187,1,71.9999985179901,0|0,0:0|0:0,0:0:0:0:
401,147,84755,2,0,P|421:182|417:221,1,71.9999985179901,0|0,0:0|0:0,0:0:0:0:
281,379,84905,6,0,L|206:375,1,71.9999985179901,0|0,0:0|0:0,0:0:0:0:
123,298,85055,2,0,L|48:294,1,71.9999985179901,0|0,0:0|0:0,0:0:0:0:
171,89,85205,1,0,0:0:0:0:
202,105,85280,1,0,0:0:0:0:
223,134,85355,1,0,0:0:0:0:
229,169,85430,1,0,0:0:0:0:
220,203,85505,54,0,L|220:246,4,35.999999258995,0|0|0|0|0,0:0|0:0|0:0|0:0|0:0,0:0:0:0:
221,270,85730,1,0,0:0:0:0:
221,284,85805,2,0,L|300:282,1,71.9999985179901,0|0,0:0|0:0,0:0:0:0:
442,210,85955,2,0,L|363:208,1,71.9999985179901,0|0,0:0|0:0,0:0:0:0:
269,3,86105,6,0,P|307:35|298:157,2,179.999996294975,0|0|0,0:0|0:0|0:0,0:0:0:0:
75,75,86630,6,0,L|78:120,1,35.999999258995,0|0,0:0|0:0,0:0:0:0:
78,133,86705,54,0,L|94:214,1,71.9999985179901
59,317,86855,2,0,L|140:301,1,71.9999985179901,0|0,0:3|0:3,0:3:0:0:
243,336,87005,2,0,L|227:255,1,71.9999985179901,0|0,0:3|0:3,0:3:0:0:
262,152,87155,2,0,L|181:168,1,71.9999985179901,0|0,0:3|0:3,0:3:0:0:
38,187,87305,6,0,L|92:249,1,71.9999985179901
113,356,87455,2,0,L|175:302,1,71.9999985179901,0|0,0:3|0:3,0:3:0:0:
282,281,87605,2,0,L|228:219,1,71.9999985179901,0|0,0:3|0:3,0:3:0:0:
190,50,87755,1,0,0:0:0:0:
190,50,87830,1,0,0:0:0:0:
190,50,87905,6,0,L|107:60,1,71.9999985179901
370,74,88055,2,0,L|299:83,1,71.9999985179901
251,166,88205,2,0,L|168:176,1,71.9999985179901
431,190,88355,2,0,L|359:198,1,71.9999985179901
494,324,88505,53,0,0:0:0:0:
465,345,88580,1,0,0:0:0:0:
430,354,88655,1,0,0:0:0:0:
395,348,88730,1,0,0:0:0:0:
365,329,88805,6,0,L|319:331,6,35.999999258995
256,384,89105,5,0,0:0:0:0:
64,192,89705,53,0,0:0:0:0:
448,192,90155,37,0,0:0:0:0:
448,192,90230,1,0,0:0:0:0:
448,192,90305,1,0,0:0:0:0:
256,0,90455,5,0,0:0:0:0:
256,0,90530,1,0,0:0:0:0:
256,0,90605,1,0,0:0:0:0:
64,192,90755,5,0,0:0:0:0:
64,192,90830,1,0,0:0:0:0:
64,192,90905,1,0,0:0:0:0:
256,384,91055,53,0,0:0:0:0:
256,384,91130,1,0,0:0:0:0:
256,384,91205,2,0,L|256:344,6,35.999999258995
256,12,91505,38,0,L|256:88,1,71.9999985179901
256,372,91655,2,0,L|256:296,1,71.9999985179901
140,54,91805,6,0,L|189:112,1,71.9999985179901
371,329,91955,2,0,L|322:271,1,71.9999985179901
78,160,92105,6,0,L|153:173,1,71.9999985179901
433,223,92255,2,0,L|358:210,1,71.9999985179901
100,282,92405,54,0,L|165:244,1,71.9999985179901
411,101,92555,2,0,L|346:140,1,71.9999985179901
219,293,92705,6,0,L|194:361,1,71.9999985179901
292,90,92855,2,0,L|317:22,1,71.9999985179901
292,293,93005,6,0,L|317:361,1,71.9999985179901
219,90,93155,2,0,L|194:22,1,71.9999985179901
349,245,93305,54,0,L|411:281,1,71.9999985179901
162,137,93455,2,0,L|146:128,4,17.9999996294975
362,173,93605,6,0,L|433:160,1,71.9999985179901
149,210,93755,2,0,L|78:223,1,71.9999985179901
402,67,93905,6,0,P|364:79|340:114,1,71.9999985179901
180,70,94055,2,0,P|192:108|227:132,1,71.9999985179901
183,292,94205,2,0,P|221:280|245:245,1,71.9999985179901
405,289,94355,2,0,P|393:251|358:227,1,71.9999985179901
290,23,94505,54,0,P|271:58|279:100,1,71.9999985179901
135,181,94655,2,0,P|170:199|212:191,1,71.9999985179901
294,336,94805,2,0,P|312:300|304:258,1,71.9999985179901
449,177,94955,2,0,P|413:158|371:166,1,71.9999985179901
139,39,95105,5,0,0:0:0:0:
124,67,95180,2,0,L|129:110,4,35.999999258995
31,185,95405,69,0,0:0:0:0:
46,213,95480,2,0,L|41:256,4,35.999999258995
104,355,95705,6,0,L|177:342,1,71.9999985179901
264,360,95855,2,0,L|337:347,1,71.9999985179901
426,359,96005,5,0,0:0:0:0:
401,282,96080,1,0,0:0:0:0:
421,220,96155,1,0,0:0:0:0:
405,170,96230,1,0,0:0:0:0:
417,130,96305,54,0,L|399:58,1,71.9999985179901
95,130,96455,2,0,L|113:58,1,71.9999985179901
349,212,96605,2,0,L|331:140,1,71.9999985179901
163,212,96755,2,0,L|181:140,1,71.9999985179901
426,359,96905,6,0,L|353:366,1,71.9999985179901
86,359,97055,2,0,L|159:366,1,71.9999985179901
479,274,97205,2,0,L|406:281,1,71.9999985179901
33,274,97355,2,0,L|106:281,1,71.9999985179901
417,130,97505,6,0,L|412:212,1,71.9999985179901
99,201,97655,2,0,L|95:130,1,71.9999985179901
500,75,97805,2,0,L|495:157,1,71.9999985179901
16,146,97955,2,0,L|12:75,1,71.9999985179901
421,58,98105,54,0,L|416:140,1,71.9999985179901
95,129,98255,2,0,L|92:90,2,35.999999258995
256,336,98405,5,0,0:0:0:0:
256,285,98480,1,0,0:0:0:0:
256,235,98555,1,0,0:0:0:0:
256,184,98630,1,0,0:0:0:0:
256,134,98705,6,0,L|256:88,2,35.999999258995
147,278,98855,2,0,L|147:301,4,17.9999996294975
365,278,99005,1,0,0:0:0:0:
365,278,99080,1,0,0:0:0:0:
365,278,99155,2,0,L|365:296,4,17.9999996294975
256,98,99305,2,0,L|256:51,6,35.999999258995
156,278,99605,53,0,0:0:0:0:
206,278,99680,1,0,0:0:0:0:
256,278,99755,1,0,0:0:0:0:
307,278,99830,1,0,0:0:0:0:
357,278,99905,5,0,0:0:0:0:
256,36,100055,1,0,0:0:0:0:
140,315,100205,5,0,0:0:0:0:
256,36,100355,1,0,0:0:0:0:
396,371,100505,53,0,0:0:0:0:
256,36,100655,1,0,0:0:0:0:
116,371,100805,2,0,L|128:343,12,17.9999996294975
30,144,101105,38,0,L|105:150,1,71.9999985179901
482,144,101255,2,0,L|406:150,1,71.9999985179901
15,64,101405,2,0,L|90:70,1,71.9999985179901
497,64,101555,2,0,L|421:70,1,71.9999985179901
256,347,101705,6,0,L|256:323,12,17.9999996294975
256,48,102005,5,0,0:0:0:0:
256,66,102042,1,0,0:0:0:0:
256,84,102080,1,0,0:0:0:0:
256,102,102117,1,0,0:0:0:0:
256,120,102155,1,0,0:0:0:0:
256,138,102192,1,0,0:0:0:0:
256,156,102230,1,0,0:0:0:0:
256,174,102267,1,0,0:0:0:0:
256,192,102305,54,0,L|256:272,1,71.9999985179901
163,121,102455,2,0,L|106:177,1,71.9999985179901
349,121,102605,2,0,L|405:177,1,71.9999985179901
30,224,102755,2,0,L|80:274,1,71.9999985179901
482,224,102905,2,0,L|469:236,12,17.9999996294975
256,344,103205,5,0,0:0:0:0:
256,289,103280,1,0,0:0:0:0:
256,236,103355,1,0,0:0:0:0:
256,182,103430,1,0,0:0:0:0:
256,127,103505,6,0,L|256:93,8,17.9999996294975
256,32,103730,53,0,0:0:0:0:
256,32,103768,1,0,0:0:0:0:
256,32,103805,2,0,L|256:-12,6,35.999999258995
256,360,104105,5,0,0:0:0:0:
256,360,104180,1,0,0:0:0:0:
256,360,104255,2,0,L|256:388,8,17.9999996294975
36,192,104480,5,0,0:0:0:0:
79,192,104555,1,0,0:0:0:0:
122,192,104630,1,0,0:0:0:0:
165,192,104705,5,0,0:0:0:0:
379,26,104855,1,0,0:0:0:0:
165,192,105005,5,0,0:0:0:0:
379,358,105155,1,0,0:0:0:0:
379,26,105305,5,0,0:0:0:0:
379,358,105455,1,0,0:0:0:0:
133,26,105605,53,0,0:0:0:0:
133,358,105755,1,0,0:0:0:0:
