osu file format v14

[General]
AudioFilename: audio.mp3
AudioLeadIn: 0
PreviewTime: 73054
Countdown: 0
SampleSet: Normal
StackLeniency: 0.8
Mode: 3
LetterboxInBreaks: 0
SpecialStyle: 1
WidescreenStoryboard: 0

[Editor]
DistanceSpacing: 0.8
BeatDivisor: 12
GridSize: 32
TimelineZoom: 3.399999

[Metadata]
Title:Sulfide [cut ver.]
TitleUnicode:Sulfide [cut ver.]
Artist:Camellia
ArtistUnicode:Camellia
Creator:Herkkupala
Version:Cl–CH2CH2–S–CH2CH2–Cl
Source:
Tags:dump jacks bursts dense jumpstream xD
BeatmapID:1469643
BeatmapSetID:694709

[Difficulty]
HPDrainRate:8.3
CircleSize:4
OverallDifficulty:8.8
ApproachRate:5
SliderMultiplier:1.4
SliderTickRate:1

[Events]
//Background and Video events
0,0,"bg.png",0,0
//Break Periods
//Storyboard Layer 0 (Background)
//Storyboard Layer 1 (Fail)
//Storyboard Layer 2 (Pass)
//Storyboard Layer 3 (Foreground)
//Storyboard Sound Samples

[TimingPoints]
-4,352.941176,4,1,0,30,1,0

[HitObjects]
64,192,5819,5,0,0:0:0:0:
320,192,5995,128,0,6348:0:0:0:0:
192,192,6348,1,0,0:0:0:0:
64,192,6525,128,0,6878:0:0:0:0:
320,192,8643,1,0,0:0:0:0:
64,192,8819,128,0,9172:0:0:0:0:
192,192,9172,1,0,0:0:0:0:
448,192,9348,128,0,9701:0:0:0:0:
320,192,10054,128,0,10407:0:0:0:0:
192,192,11466,1,0,0:0:0:0:
448,192,11643,128,0,11995:0:0:0:0:
320,192,11995,1,0,0:0:0:0:
192,192,12172,128,0,12525:0:0:0:0:
192,192,13407,128,0,13672:0:0:0:0:
448,192,13760,128,0,13937:0:0:0:0:
320,192,14113,1,0,0:0:0:0:
320,192,14290,128,0,14643:0:0:0:0:
64,192,14643,1,0,0:0:0:0:
192,192,14819,128,0,15084:0:0:0:0:
64,192,15172,128,0,15878:0:0:0:0:
448,192,15878,128,0,16584:0:0:0:0:
64,192,17113,1,0,0:0:0:0:
320,192,17290,128,0,17643:0:0:0:0:
192,192,17643,1,0,0:0:0:0:
64,192,17819,128,0,18172:0:0:0:0:
448,192,19937,1,0,0:0:0:0:
192,192,20113,128,0,20466:0:0:0:0:
320,192,20466,1,0,0:0:0:0:
64,192,20643,128,0,20995:0:0:0:0:
192,192,21348,128,0,21790:0:0:0:0:
320,192,22760,1,0,0:0:0:0:
64,192,22937,128,0,23290:0:0:0:0:
192,192,23290,1,0,0:0:0:0:
320,192,23466,128,0,23819:0:0:0:0:
64,192,24701,128,0,25054:0:0:0:0:
320,192,25054,1,0,0:0:0:0:
320,192,25407,1,0,0:0:0:0:
192,192,25584,1,0,0:0:0:0:
320,192,25760,1,0,0:0:0:0:
448,192,25760,1,0,0:0:0:0:
320,192,25937,1,0,0:0:0:0:
448,192,25937,1,0,0:0:0:0:
64,192,26113,1,0,0:0:0:0:
192,192,26113,1,0,0:0:0:0:
64,192,26290,1,0,0:0:0:0:
192,192,26290,1,0,0:0:0:0:
64,192,26466,1,0,0:0:0:0:
192,192,26466,1,0,0:0:0:0:
448,192,26466,1,0,0:0:0:0:
320,192,26643,1,0,0:0:0:0:
64,192,26731,1,0,0:0:0:0:
192,192,26731,1,0,0:0:0:0:
192,192,26907,1,0,0:0:0:0:
64,192,26995,1,0,0:0:0:0:
320,192,26995,1,0,0:0:0:0:
448,192,26995,1,0,0:0:0:0:
192,192,27172,1,0,0:0:0:0:
320,192,27260,1,0,0:0:0:0:
448,192,27260,1,0,0:0:0:0:
320,192,27437,1,0,0:0:0:0:
64,192,27525,1,0,0:0:0:0:
192,192,27525,1,0,0:0:0:0:
448,192,27525,1,0,0:0:0:0:
320,192,27701,1,0,0:0:0:0:
64,192,27878,1,0,0:0:0:0:
448,192,27878,1,0,0:0:0:0:
320,192,28054,1,0,0:0:0:0:
64,192,28231,1,0,0:0:0:0:
192,192,28231,1,0,0:0:0:0:
448,192,28231,1,0,0:0:0:0:
320,192,28407,1,0,0:0:0:0:
192,192,28495,1,0,0:0:0:0:
320,192,28584,1,0,0:0:0:0:
192,192,28672,1,0,0:0:0:0:
64,192,28760,1,0,0:0:0:0:
320,192,28760,1,0,0:0:0:0:
64,192,28937,1,0,0:0:0:0:
192,192,28937,1,0,0:0:0:0:
448,192,28937,1,0,0:0:0:0:
320,192,29113,1,0,0:0:0:0:
192,192,29290,1,0,0:0:0:0:
448,192,29290,1,0,0:0:0:0:
64,192,29466,1,0,0:0:0:0:
192,192,29643,1,0,0:0:0:0:
320,192,29643,1,0,0:0:0:0:
448,192,29643,1,0,0:0:0:0:
64,192,29819,1,0,0:0:0:0:
192,192,29907,1,0,0:0:0:0:
64,192,29995,1,0,0:0:0:0:
192,192,30084,1,0,0:0:0:0:
320,192,30172,1,0,0:0:0:0:
448,192,30172,128,0,30437:0:0:0:0:
192,192,30437,1,0,0:0:0:0:
64,192,30525,1,0,0:0:0:0:
320,192,30525,1,0,0:0:0:0:
448,192,30525,1,0,0:0:0:0:
192,192,30701,1,0,0:0:0:0:
320,192,30701,1,0,0:0:0:0:
448,192,30878,1,0,0:0:0:0:
64,192,31054,1,0,0:0:0:0:
192,192,31054,1,0,0:0:0:0:
320,192,31054,1,0,0:0:0:0:
448,192,31231,1,0,0:0:0:0:
192,192,31319,1,0,0:0:0:0:
448,192,31407,1,0,0:0:0:0:
192,192,31495,1,0,0:0:0:0:
320,192,31584,1,0,0:0:0:0:
448,192,31584,1,0,0:0:0:0:
64,192,31760,1,0,0:0:0:0:
192,192,31760,1,0,0:0:0:0:
448,192,31760,1,0,0:0:0:0:
320,192,31937,1,0,0:0:0:0:
192,192,32025,1,0,0:0:0:0:
64,192,32113,1,0,0:0:0:0:
320,192,32113,1,0,0:0:0:0:
448,192,32290,1,0,0:0:0:0:
64,192,32466,1,0,0:0:0:0:
192,192,32466,1,0,0:0:0:0:
320,192,32466,1,0,0:0:0:0:
448,192,32643,1,0,0:0:0:0:
320,192,32731,1,0,0:0:0:0:
64,192,32819,1,0,0:0:0:0:
192,192,32819,1,0,0:0:0:0:
320,192,32907,1,0,0:0:0:0:
448,192,32907,1,0,0:0:0:0:
64,192,32995,1,0,0:0:0:0:
192,192,32995,1,0,0:0:0:0:
64,192,33172,1,0,0:0:0:0:
320,192,33172,1,0,0:0:0:0:
448,192,33172,1,0,0:0:0:0:
192,192,33348,1,0,0:0:0:0:
64,192,33437,1,0,0:0:0:0:
448,192,33437,1,0,0:0:0:0:
192,192,33525,1,0,0:0:0:0:
320,192,33525,1,0,0:0:0:0:
64,192,33701,1,0,0:0:0:0:
192,192,33878,1,0,0:0:0:0:
320,192,33878,1,0,0:0:0:0:
448,192,33878,1,0,0:0:0:0:
64,192,34054,1,0,0:0:0:0:
320,192,34143,1,0,0:0:0:0:
64,192,34231,1,0,0:0:0:0:
320,192,34319,1,0,0:0:0:0:
192,192,34407,1,0,0:0:0:0:
448,192,34407,1,0,0:0:0:0:
64,192,34584,1,0,0:0:0:0:
320,192,34584,1,0,0:0:0:0:
448,192,34584,1,0,0:0:0:0:
192,192,34760,1,0,0:0:0:0:
320,192,34937,1,0,0:0:0:0:
448,192,34937,1,0,0:0:0:0:
64,192,35113,1,0,0:0:0:0:
192,192,35290,1,0,0:0:0:0:
320,192,35290,1,0,0:0:0:0:
448,192,35290,1,0,0:0:0:0:
64,192,35466,1,0,0:0:0:0:
448,192,35554,1,0,0:0:0:0:
64,192,35643,1,0,0:0:0:0:
448,192,35731,1,0,0:0:0:0:
192,192,35819,1,0,0:0:0:0:
320,192,35819,1,0,0:0:0:0:
64,192,35995,1,0,0:0:0:0:
192,192,35995,1,0,0:0:0:0:
448,192,35995,1,0,0:0:0:0:
320,192,36172,1,0,0:0:0:0:
64,192,36348,1,0,0:0:0:0:
192,192,36348,1,0,0:0:0:0:
448,192,36525,1,0,0:0:0:0:
64,192,36701,1,0,0:0:0:0:
192,192,36701,1,0,0:0:0:0:
320,192,36701,1,0,0:0:0:0:
448,192,36878,1,0,0:0:0:0:
320,192,36966,1,0,0:0:0:0:
448,192,37054,1,0,0:0:0:0:
320,192,37143,1,0,0:0:0:0:
64,192,37231,1,0,0:0:0:0:
192,192,37231,1,0,0:0:0:0:
64,192,37407,1,0,0:0:0:0:
320,192,37407,1,0,0:0:0:0:
448,192,37407,1,0,0:0:0:0:
192,192,37584,1,0,0:0:0:0:
320,192,37672,1,0,0:0:0:0:
64,192,37760,1,0,0:0:0:0:
192,192,37760,1,0,0:0:0:0:
320,192,37848,1,0,0:0:0:0:
448,192,37848,1,0,0:0:0:0:
192,192,37937,1,0,0:0:0:0:
320,192,38025,1,0,0:0:0:0:
448,192,38025,1,0,0:0:0:0:
64,192,38113,1,0,0:0:0:0:
192,192,38113,1,0,0:0:0:0:
320,192,38290,1,0,0:0:0:0:
64,192,38466,1,0,0:0:0:0:
192,192,38466,1,0,0:0:0:0:
448,192,38466,1,0,0:0:0:0:
192,192,38643,1,0,0:0:0:0:
320,192,38643,1,0,0:0:0:0:
64,192,38731,1,0,0:0:0:0:
448,192,38731,1,0,0:0:0:0:
64,192,38907,1,0,0:0:0:0:
192,192,38907,1,0,0:0:0:0:
320,192,38995,1,0,0:0:0:0:
448,192,38995,1,0,0:0:0:0:
320,192,39084,1,0,0:0:0:0:
448,192,39084,1,0,0:0:0:0:
64,192,39172,1,0,0:0:0:0:
192,192,39172,1,0,0:0:0:0:
64,192,39525,1,0,0:0:0:0:
320,192,39525,1,0,0:0:0:0:
448,192,39525,1,0,0:0:0:0:
192,192,39613,1,0,0:0:0:0:
64,192,39701,1,0,0:0:0:0:
320,192,39790,1,0,0:0:0:0:
192,192,39878,1,0,0:0:0:0:
320,192,39966,1,0,0:0:0:0:
64,192,40054,1,0,0:0:0:0:
448,192,40054,1,0,0:0:0:0:
64,192,40231,1,0,0:0:0:0:
192,192,40231,1,0,0:0:0:0:
320,192,40231,1,0,0:0:0:0:
448,192,40407,1,0,0:0:0:0:
320,192,40495,1,0,0:0:0:0:
192,192,40584,1,0,0:0:0:0:
64,192,40584,1,0,0:0:0:0:
320,192,40760,1,0,0:0:0:0:
64,192,40937,1,0,0:0:0:0:
192,192,40937,1,0,0:0:0:0:
448,192,40937,1,0,0:0:0:0:
320,192,41113,1,0,0:0:0:0:
448,192,41201,1,0,0:0:0:0:
320,192,41290,1,0,0:0:0:0:
448,192,41378,1,0,0:0:0:0:
64,192,41466,1,0,0:0:0:0:
192,192,41466,1,0,0:0:0:0:
320,192,41643,1,0,0:0:0:0:
64,192,41819,1,0,0:0:0:0:
192,192,41819,1,0,0:0:0:0:
448,192,41819,1,0,0:0:0:0:
192,192,41995,1,0,0:0:0:0:
320,192,41995,1,0,0:0:0:0:
64,192,42172,1,0,0:0:0:0:
192,192,42348,1,0,0:0:0:0:
320,192,42348,1,0,0:0:0:0:
448,192,42348,1,0,0:0:0:0:
64,192,42525,1,0,0:0:0:0:
320,192,42613,1,0,0:0:0:0:
64,192,42701,1,0,0:0:0:0:
320,192,42790,1,0,0:0:0:0:
192,192,42878,1,0,0:0:0:0:
448,192,42878,1,0,0:0:0:0:
64,192,43054,1,0,0:0:0:0:
320,192,43054,1,0,0:0:0:0:
448,192,43054,1,0,0:0:0:0:
192,192,43231,1,0,0:0:0:0:
320,192,43319,1,0,0:0:0:0:
64,192,43407,1,0,0:0:0:0:
192,192,43407,1,0,0:0:0:0:
448,192,43584,1,0,0:0:0:0:
64,192,43760,1,0,0:0:0:0:
192,192,43760,1,0,0:0:0:0:
320,192,43760,1,0,0:0:0:0:
448,192,43937,1,0,0:0:0:0:
192,192,44025,1,0,0:0:0:0:
64,192,44113,1,0,0:0:0:0:
320,192,44113,1,0,0:0:0:0:
192,192,44201,1,0,0:0:0:0:
448,192,44201,1,0,0:0:0:0:
64,192,44290,1,0,0:0:0:0:
320,192,44290,1,0,0:0:0:0:
192,192,44466,1,0,0:0:0:0:
320,192,44466,1,0,0:0:0:0:
448,192,44466,1,0,0:0:0:0:
192,192,44643,1,0,0:0:0:0:
64,192,44731,1,0,0:0:0:0:
320,192,44731,1,0,0:0:0:0:
448,192,44731,1,0,0:0:0:0:
320,192,44819,1,0,0:0:0:0:
448,192,44819,1,0,0:0:0:0:
192,192,44995,1,0,0:0:0:0:
64,192,45172,1,0,0:0:0:0:
320,192,45172,1,0,0:0:0:0:
448,192,45172,1,0,0:0:0:0:
192,192,45348,1,0,0:0:0:0:
320,192,45437,1,0,0:0:0:0:
192,192,45525,1,0,0:0:0:0:
320,192,45613,1,0,0:0:0:0:
64,192,45701,1,0,0:0:0:0:
448,192,45701,1,0,0:0:0:0:
64,192,45878,1,0,0:0:0:0:
192,192,45878,1,0,0:0:0:0:
320,192,45878,1,0,0:0:0:0:
448,192,46054,1,0,0:0:0:0:
320,192,46143,1,0,0:0:0:0:
64,192,46231,1,0,0:0:0:0:
192,192,46231,1,0,0:0:0:0:
320,192,46407,1,0,0:0:0:0:
64,192,46584,1,0,0:0:0:0:
192,192,46584,1,0,0:0:0:0:
448,192,46584,1,0,0:0:0:0:
320,192,46760,1,0,0:0:0:0:
64,192,46848,1,0,0:0:0:0:
320,192,46937,1,0,0:0:0:0:
64,192,47025,1,0,0:0:0:0:
192,192,47113,1,0,0:0:0:0:
448,192,47113,1,0,0:0:0:0:
64,192,47290,1,0,0:0:0:0:
320,192,47290,1,0,0:0:0:0:
448,192,47290,1,0,0:0:0:0:
192,192,47466,1,0,0:0:0:0:
64,192,47554,1,0,0:0:0:0:
320,192,47643,1,0,0:0:0:0:
448,192,47643,1,0,0:0:0:0:
320,192,47819,1,0,0:0:0:0:
448,192,47819,1,0,0:0:0:0:
64,192,47995,1,0,0:0:0:0:
192,192,47995,1,0,0:0:0:0:
64,192,48172,1,0,0:0:0:0:
192,192,48172,1,0,0:0:0:0:
320,192,48348,1,0,0:0:0:0:
448,192,48348,1,0,0:0:0:0:
320,192,48525,1,0,0:0:0:0:
448,192,48525,1,0,0:0:0:0:
64,192,48701,1,0,0:0:0:0:
192,192,48701,1,0,0:0:0:0:
64,192,48878,1,0,0:0:0:0:
192,192,48878,1,0,0:0:0:0:
320,192,49054,1,0,0:0:0:0:
448,192,49054,1,0,0:0:0:0:
64,192,49143,1,0,0:0:0:0:
192,192,49143,1,0,0:0:0:0:
320,192,49231,1,0,0:0:0:0:
448,192,49231,1,0,0:0:0:0:
64,192,49319,1,0,0:0:0:0:
192,192,49319,1,0,0:0:0:0:
320,192,49407,1,0,0:0:0:0:
448,192,49407,1,0,0:0:0:0:
64,192,49495,1,0,0:0:0:0:
192,192,49495,1,0,0:0:0:0:
320,192,49584,1,0,0:0:0:0:
448,192,49584,1,0,0:0:0:0:
64,192,49672,1,0,0:0:0:0:
192,192,49672,1,0,0:0:0:0:
448,192,49760,1,0,0:0:0:0:
320,192,49848,1,0,0:0:0:0:
448,192,49937,1,0,0:0:0:0:
320,192,50025,1,0,0:0:0:0:
64,192,50113,1,0,0:0:0:0:
192,192,50201,1,0,0:0:0:0:
64,192,50290,1,0,0:0:0:0:
192,192,50378,1,0,0:0:0:0:
320,192,50466,1,0,0:0:0:0:
448,192,50466,1,0,0:0:0:0:
192,192,50525,1,0,0:0:0:0:
64,192,50584,1,0,0:0:0:0:
448,192,50643,1,0,0:0:0:0:
192,192,50701,1,0,0:0:0:0:
448,192,50760,1,0,0:0:0:0:
64,192,50819,128,0,50863:0:0:0:0:
192,192,50819,128,0,50863:0:0:0:0:
320,192,50819,1,0,0:0:0:0:
448,192,50995,1,0,0:0:0:0:
64,192,51084,128,0,51128:0:0:0:0:
192,192,51084,128,0,51128:0:0:0:0:
448,192,51084,1,0,0:0:0:0:
320,192,51172,1,0,0:0:0:0:
64,192,51348,128,0,51393:0:0:0:0:
192,192,51348,128,0,51393:0:0:0:0:
320,192,51348,1,0,0:0:0:0:
320,192,51437,1,0,0:0:0:0:
448,192,51525,1,0,0:0:0:0:
64,192,51613,128,0,51657:0:0:0:0:
192,192,51613,128,0,51657:0:0:0:0:
320,192,51701,1,0,0:0:0:0:
64,192,51878,128,0,51966:0:0:0:0:
192,192,51878,128,0,51966:0:0:0:0:
448,192,51878,1,0,0:0:0:0:
320,192,52054,1,0,0:0:0:0:
64,192,52231,1,0,0:0:0:0:
320,192,52231,128,0,52275:0:0:0:0:
448,192,52231,128,0,52275:0:0:0:0:
192,192,52407,1,0,0:0:0:0:
192,192,52495,1,0,0:0:0:0:
320,192,52495,128,0,52540:0:0:0:0:
448,192,52495,128,0,52540:0:0:0:0:
64,192,52584,1,0,0:0:0:0:
64,192,52760,1,0,0:0:0:0:
320,192,52760,128,0,52804:0:0:0:0:
448,192,52760,128,0,52804:0:0:0:0:
64,192,52848,1,0,0:0:0:0:
192,192,52937,128,0,53025:0:0:0:0:
320,192,53025,128,0,53069:0:0:0:0:
448,192,53025,128,0,53069:0:0:0:0:
320,192,53290,1,0,0:0:0:0:
448,192,53290,1,0,0:0:0:0:
192,192,53348,1,0,0:0:0:0:
64,192,53407,1,0,0:0:0:0:
448,192,53466,1,0,0:0:0:0:
192,192,53525,1,0,0:0:0:0:
448,192,53584,1,0,0:0:0:0:
64,192,53643,128,0,53687:0:0:0:0:
192,192,53643,128,0,53687:0:0:0:0:
320,192,53643,1,0,0:0:0:0:
448,192,53819,1,0,0:0:0:0:
64,192,53907,128,0,53951:0:0:0:0:
192,192,53907,128,0,53951:0:0:0:0:
448,192,53907,1,0,0:0:0:0:
320,192,53995,1,0,0:0:0:0:
64,192,54172,128,0,54216:0:0:0:0:
192,192,54172,128,0,54216:0:0:0:0:
320,192,54172,1,0,0:0:0:0:
320,192,54260,1,0,0:0:0:0:
448,192,54348,1,0,0:0:0:0:
64,192,54437,128,0,54481:0:0:0:0:
192,192,54437,128,0,54481:0:0:0:0:
320,192,54525,1,0,0:0:0:0:
64,192,54701,128,0,54790:0:0:0:0:
192,192,54701,128,0,54790:0:0:0:0:
448,192,54701,1,0,0:0:0:0:
320,192,54878,1,0,0:0:0:0:
192,192,55054,1,0,0:0:0:0:
320,192,55054,128,0,55098:0:0:0:0:
448,192,55054,128,0,55098:0:0:0:0:
64,192,55231,1,0,0:0:0:0:
64,192,55319,1,0,0:0:0:0:
320,192,55319,128,0,55363:0:0:0:0:
448,192,55319,128,0,55363:0:0:0:0:
192,192,55407,1,0,0:0:0:0:
192,192,55584,1,0,0:0:0:0:
320,192,55584,128,0,55628:0:0:0:0:
448,192,55584,128,0,55628:0:0:0:0:
192,192,55672,1,0,0:0:0:0:
64,192,55760,128,0,55848:0:0:0:0:
320,192,55848,1,0,0:0:0:0:
448,192,55848,1,0,0:0:0:0:
320,192,55937,1,0,0:0:0:0:
448,192,55937,1,0,0:0:0:0:
192,192,55995,1,0,0:0:0:0:
320,192,56113,1,0,0:0:0:0:
448,192,56113,1,0,0:0:0:0:
192,192,56172,1,0,0:0:0:0:
64,192,56231,1,0,0:0:0:0:
448,192,56290,1,0,0:0:0:0:
192,192,56348,1,0,0:0:0:0:
448,192,56407,1,0,0:0:0:0:
64,192,56466,128,0,56554:0:0:0:0:
192,192,56466,128,0,56554:0:0:0:0:
320,192,56466,1,0,0:0:0:0:
448,192,56643,1,0,0:0:0:0:
64,192,56731,128,0,56819:0:0:0:0:
192,192,56731,128,0,56819:0:0:0:0:
448,192,56731,1,0,0:0:0:0:
320,192,56819,1,0,0:0:0:0:
64,192,56995,128,0,57084:0:0:0:0:
192,192,56995,128,0,57084:0:0:0:0:
448,192,57172,1,0,0:0:0:0:
64,192,57260,128,0,57348:0:0:0:0:
192,192,57260,128,0,57348:0:0:0:0:
320,192,57348,1,0,0:0:0:0:
64,192,57525,128,0,57701:0:0:0:0:
192,192,57525,128,0,57701:0:0:0:0:
448,192,57525,1,0,0:0:0:0:
320,192,57701,1,0,0:0:0:0:
64,192,57878,1,0,0:0:0:0:
320,192,57878,128,0,57966:0:0:0:0:
448,192,57878,128,0,57966:0:0:0:0:
192,192,58054,1,0,0:0:0:0:
192,192,58143,1,0,0:0:0:0:
320,192,58143,128,0,58231:0:0:0:0:
448,192,58143,128,0,58231:0:0:0:0:
64,192,58231,1,0,0:0:0:0:
64,192,58407,1,0,0:0:0:0:
320,192,58407,128,0,58495:0:0:0:0:
448,192,58407,128,0,58495:0:0:0:0:
64,192,58495,1,0,0:0:0:0:
192,192,58584,128,0,58672:0:0:0:0:
320,192,58672,128,0,58760:0:0:0:0:
448,192,58672,128,0,58760:0:0:0:0:
320,192,58937,1,0,0:0:0:0:
448,192,58937,1,0,0:0:0:0:
192,192,58995,1,0,0:0:0:0:
64,192,59054,1,0,0:0:0:0:
448,192,59113,1,0,0:0:0:0:
192,192,59172,1,0,0:0:0:0:
448,192,59231,1,0,0:0:0:0:
64,192,59290,128,0,59378:0:0:0:0:
192,192,59290,128,0,59378:0:0:0:0:
320,192,59290,1,0,0:0:0:0:
448,192,59466,1,0,0:0:0:0:
64,192,59554,128,0,59643:0:0:0:0:
192,192,59554,128,0,59643:0:0:0:0:
448,192,59554,1,0,0:0:0:0:
320,192,59643,1,0,0:0:0:0:
64,192,59819,128,0,59907:0:0:0:0:
192,192,59819,128,0,59907:0:0:0:0:
320,192,59819,1,0,0:0:0:0:
320,192,59907,1,0,0:0:0:0:
448,192,59995,1,0,0:0:0:0:
64,192,60084,128,0,60172:0:0:0:0:
192,192,60084,128,0,60172:0:0:0:0:
320,192,60172,1,0,0:0:0:0:
64,192,60348,128,0,60525:0:0:0:0:
192,192,60348,128,0,60525:0:0:0:0:
448,192,60348,1,0,0:0:0:0:
448,192,60525,1,0,0:0:0:0:
64,192,60701,128,0,60790:0:0:0:0:
192,192,60701,128,0,60790:0:0:0:0:
448,192,60701,1,0,0:0:0:0:
448,192,60878,1,0,0:0:0:0:
64,192,60966,128,0,61054:0:0:0:0:
192,192,60966,128,0,61054:0:0:0:0:
448,192,60966,1,0,0:0:0:0:
448,192,61054,1,0,0:0:0:0:
64,192,61231,128,0,61319:0:0:0:0:
192,192,61231,128,0,61319:0:0:0:0:
448,192,61231,1,0,0:0:0:0:
320,192,61319,1,0,0:0:0:0:
64,192,61495,1,0,0:0:0:0:
192,192,61495,1,0,0:0:0:0:
448,192,61495,1,0,0:0:0:0:
64,192,61584,1,0,0:0:0:0:
192,192,61584,1,0,0:0:0:0:
320,192,61584,1,0,0:0:0:0:
64,192,61760,1,0,0:0:0:0:
192,192,61760,1,0,0:0:0:0:
320,192,61819,1,0,0:0:0:0:
448,192,61878,1,0,0:0:0:0:
64,192,61937,1,0,0:0:0:0:
320,192,61995,1,0,0:0:0:0:
64,192,62054,1,0,0:0:0:0:
192,192,62113,128,0,62201:0:0:0:0:
448,192,62113,128,0,62201:0:0:0:0:
64,192,62290,1,0,0:0:0:0:
448,192,62319,1,0,0:0:0:0:
192,192,62348,1,0,0:0:0:0:
320,192,62407,1,0,0:0:0:0:
64,192,62466,1,0,0:0:0:0:
192,192,62466,1,0,0:0:0:0:
448,192,62525,1,0,0:0:0:0:
320,192,62584,1,0,0:0:0:0:
64,192,62643,1,0,0:0:0:0:
192,192,62643,1,0,0:0:0:0:
448,192,62701,1,0,0:0:0:0:
320,192,62760,1,0,0:0:0:0:
64,192,62819,128,0,62995:0:0:0:0:
320,192,62995,1,0,0:0:0:0:
320,192,63084,1,0,0:0:0:0:
192,192,63172,1,0,0:0:0:0:
448,192,63172,1,0,0:0:0:0:
320,192,63231,1,0,0:0:0:0:
64,192,63290,1,0,0:0:0:0:
192,192,63348,1,0,0:0:0:0:
448,192,63348,1,0,0:0:0:0:
320,192,63407,1,0,0:0:0:0:
64,192,63466,1,0,0:0:0:0:
448,192,63525,128,0,63701:0:0:0:0:
192,192,63701,128,0,63760:0:0:0:0:
320,192,63878,1,0,0:0:0:0:
448,192,63878,1,0,0:0:0:0:
192,192,63937,1,0,0:0:0:0:
64,192,63995,1,0,0:0:0:0:
320,192,64054,1,0,0:0:0:0:
448,192,64054,1,0,0:0:0:0:
192,192,64113,1,0,0:0:0:0:
64,192,64172,1,0,0:0:0:0:
192,192,64231,1,0,0:0:0:0:
448,192,64231,1,0,0:0:0:0:
192,192,64348,1,0,0:0:0:0:
448,192,64348,1,0,0:0:0:0:
192,192,64466,1,0,0:0:0:0:
448,192,64466,1,0,0:0:0:0:
64,192,64584,1,0,0:0:0:0:
320,192,64584,1,0,0:0:0:0:
192,192,64643,1,0,0:0:0:0:
448,192,64701,1,0,0:0:0:0:
64,192,64760,1,0,0:0:0:0:
320,192,64760,1,0,0:0:0:0:
192,192,64819,1,0,0:0:0:0:
448,192,64878,1,0,0:0:0:0:
64,192,64937,128,0,65113:0:0:0:0:
192,192,65113,1,0,0:0:0:0:
320,192,65201,1,0,0:0:0:0:
64,192,65290,1,0,0:0:0:0:
448,192,65290,1,0,0:0:0:0:
192,192,65348,1,0,0:0:0:0:
320,192,65407,1,0,0:0:0:0:
64,192,65466,1,0,0:0:0:0:
448,192,65466,1,0,0:0:0:0:
192,192,65525,1,0,0:0:0:0:
320,192,65584,1,0,0:0:0:0:
64,192,65643,128,0,65995:0:0:0:0:
192,192,65995,1,0,0:0:0:0:
320,192,65995,1,0,0:0:0:0:
448,192,66054,1,0,0:0:0:0:
64,192,66113,1,0,0:0:0:0:
192,192,66172,1,0,0:0:0:0:
320,192,66172,1,0,0:0:0:0:
448,192,66231,1,0,0:0:0:0:
64,192,66290,1,0,0:0:0:0:
192,192,66348,1,0,0:0:0:0:
448,192,66378,1,0,0:0:0:0:
64,192,66437,1,0,0:0:0:0:
192,192,66525,1,0,0:0:0:0:
448,192,66554,1,0,0:0:0:0:
64,192,66613,1,0,0:0:0:0:
448,192,66701,1,0,0:0:0:0:
192,192,66745,1,0,0:0:0:0:
64,192,66790,1,0,0:0:0:0:
320,192,66856,1,0,0:0:0:0:
192,192,66922,1,0,0:0:0:0:
448,192,66995,1,0,0:0:0:0:
320,192,67054,128,0,67231:0:0:0:0:
320,192,67407,1,0,0:0:0:0:
448,192,67407,1,0,0:0:0:0:
64,192,67495,1,0,0:0:0:0:
192,192,67495,1,0,0:0:0:0:
64,192,67584,1,0,0:0:0:0:
192,192,67584,1,0,0:0:0:0:
448,192,67672,1,0,0:0:0:0:
64,192,67760,1,0,0:0:0:0:
320,192,67760,1,0,0:0:0:0:
192,192,67848,1,0,0:0:0:0:
448,192,67848,1,0,0:0:0:0:
192,192,67937,1,0,0:0:0:0:
448,192,67937,1,0,0:0:0:0:
320,192,68025,1,0,0:0:0:0:
64,192,68113,1,0,0:0:0:0:
192,192,68113,1,0,0:0:0:0:
320,192,68201,1,0,0:0:0:0:
448,192,68201,1,0,0:0:0:0:
320,192,68290,1,0,0:0:0:0:
448,192,68290,1,0,0:0:0:0:
192,192,68378,1,0,0:0:0:0:
64,192,68466,1,0,0:0:0:0:
448,192,68466,1,0,0:0:0:0:
192,192,68554,1,0,0:0:0:0:
320,192,68554,1,0,0:0:0:0:
192,192,68643,1,0,0:0:0:0:
320,192,68643,1,0,0:0:0:0:
64,192,68731,1,0,0:0:0:0:
192,192,68819,1,0,0:0:0:0:
448,192,68819,1,0,0:0:0:0:
64,192,68907,1,0,0:0:0:0:
320,192,68907,1,0,0:0:0:0:
64,192,68995,1,0,0:0:0:0:
320,192,68995,1,0,0:0:0:0:
192,192,69084,1,0,0:0:0:0:
320,192,69172,1,0,0:0:0:0:
448,192,69172,1,0,0:0:0:0:
64,192,69260,1,0,0:0:0:0:
192,192,69260,1,0,0:0:0:0:
64,192,69348,1,0,0:0:0:0:
192,192,69348,1,0,0:0:0:0:
448,192,69437,1,0,0:0:0:0:
64,192,69525,1,0,0:0:0:0:
320,192,69525,1,0,0:0:0:0:
192,192,69613,1,0,0:0:0:0:
448,192,69613,1,0,0:0:0:0:
192,192,69701,1,0,0:0:0:0:
448,192,69701,1,0,0:0:0:0:
320,192,69790,1,0,0:0:0:0:
64,192,69878,1,0,0:0:0:0:
192,192,69878,1,0,0:0:0:0:
320,192,69966,1,0,0:0:0:0:
448,192,69966,1,0,0:0:0:0:
320,192,70054,1,0,0:0:0:0:
448,192,70054,1,0,0:0:0:0:
192,192,70143,1,0,0:0:0:0:
64,192,70231,1,0,0:0:0:0:
448,192,70231,1,0,0:0:0:0:
320,192,70275,1,0,0:0:0:0:
192,192,70319,1,0,0:0:0:0:
64,192,70363,1,0,0:0:0:0:
320,192,70407,1,0,0:0:0:0:
192,192,70451,1,0,0:0:0:0:
448,192,70495,1,0,0:0:0:0:
320,192,70540,1,0,0:0:0:0:
64,192,70584,1,0,0:0:0:0:
192,192,70628,1,0,0:0:0:0:
320,192,70672,1,0,0:0:0:0:
448,192,70716,1,0,0:0:0:0:
192,192,70760,1,0,0:0:0:0:
320,192,70804,1,0,0:0:0:0:
64,192,70848,1,0,0:0:0:0:
192,192,70893,1,0,0:0:0:0:
448,192,70937,1,0,0:0:0:0:
320,192,70981,1,0,0:0:0:0:
192,192,71025,1,0,0:0:0:0:
64,192,71069,1,0,0:0:0:0:
320,192,71113,1,0,0:0:0:0:
192,192,71157,1,0,0:0:0:0:
448,192,71201,1,0,0:0:0:0:
320,192,71245,1,0,0:0:0:0:
64,192,71290,1,0,0:0:0:0:
448,192,71334,1,0,0:0:0:0:
192,192,71378,1,0,0:0:0:0:
320,192,71422,1,0,0:0:0:0:
64,192,71466,1,0,0:0:0:0:
448,192,71510,1,0,0:0:0:0:
192,192,71554,1,0,0:0:0:0:
320,192,71598,1,0,0:0:0:0:
64,192,71643,128,0,72348:0:0:0:0:
448,192,71643,1,0,0:0:0:0:
320,192,71731,1,0,0:0:0:0:
192,192,71819,1,0,0:0:0:0:
320,192,71907,1,0,0:0:0:0:
448,192,71995,1,0,0:0:0:0:
320,192,72084,1,0,0:0:0:0:
192,192,72172,1,0,0:0:0:0:
320,192,72260,1,0,0:0:0:0:
192,192,72348,128,0,72525:0:0:0:0:
448,192,72348,1,0,0:0:0:0:
448,192,72701,1,0,0:0:0:0:
448,192,72790,1,0,0:0:0:0:
64,192,72878,1,0,0:0:0:0:
64,192,72966,1,0,0:0:0:0:
320,192,73054,1,0,0:0:0:0:
448,192,73054,1,0,0:0:0:0:
192,192,73098,1,0,0:0:0:0:
64,192,73143,1,0,0:0:0:0:
448,192,73172,1,0,0:0:0:0:
192,192,73231,1,0,0:0:0:0:
320,192,73290,1,0,0:0:0:0:
64,192,73348,1,0,0:0:0:0:
192,192,73407,1,0,0:0:0:0:
448,192,73407,1,0,0:0:0:0:
320,192,73466,1,0,0:0:0:0:
64,192,73525,1,0,0:0:0:0:
448,192,73584,1,0,0:0:0:0:
192,192,73672,1,0,0:0:0:0:
448,192,73672,1,0,0:0:0:0:
320,192,73760,1,0,0:0:0:0:
192,192,73819,1,0,0:0:0:0:
64,192,73848,1,0,0:0:0:0:
448,192,73878,1,0,0:0:0:0:
192,192,73937,1,0,0:0:0:0:
320,192,73937,1,0,0:0:0:0:
320,192,74025,1,0,0:0:0:0:
64,192,74113,1,0,0:0:0:0:
448,192,74172,1,0,0:0:0:0:
192,192,74201,1,0,0:0:0:0:
320,192,74201,1,0,0:0:0:0:
64,192,74231,1,0,0:0:0:0:
448,192,74290,1,0,0:0:0:0:
64,192,74378,1,0,0:0:0:0:
320,192,74466,1,0,0:0:0:0:
448,192,74466,1,0,0:0:0:0:
192,192,74525,1,0,0:0:0:0:
448,192,74584,1,0,0:0:0:0:
64,192,74643,1,0,0:0:0:0:
320,192,74643,1,0,0:0:0:0:
64,192,74731,1,0,0:0:0:0:
320,192,74731,1,0,0:0:0:0:
192,192,74819,1,0,0:0:0:0:
448,192,74819,1,0,0:0:0:0:
320,192,74878,1,0,0:0:0:0:
64,192,74937,1,0,0:0:0:0:
192,192,74995,1,0,0:0:0:0:
192,192,75084,1,0,0:0:0:0:
320,192,75084,1,0,0:0:0:0:
448,192,75172,1,0,0:0:0:0:
64,192,75231,1,0,0:0:0:0:
320,192,75260,1,0,0:0:0:0:
64,192,75348,1,0,0:0:0:0:
448,192,75348,1,0,0:0:0:0:
192,192,75437,1,0,0:0:0:0:
64,192,75525,1,0,0:0:0:0:
320,192,75525,1,0,0:0:0:0:
192,192,75613,1,0,0:0:0:0:
448,192,75613,1,0,0:0:0:0:
320,192,75701,1,0,0:0:0:0:
192,192,75790,1,0,0:0:0:0:
64,192,75878,1,0,0:0:0:0:
448,192,75878,1,0,0:0:0:0:
192,192,75922,1,0,0:0:0:0:
320,192,75966,1,0,0:0:0:0:
64,192,75995,1,0,0:0:0:0:
448,192,76054,1,0,0:0:0:0:
192,192,76113,1,0,0:0:0:0:
320,192,76172,1,0,0:0:0:0:
64,192,76231,1,0,0:0:0:0:
448,192,76231,1,0,0:0:0:0:
192,192,76290,1,0,0:0:0:0:
320,192,76348,1,0,0:0:0:0:
64,192,76407,1,0,0:0:0:0:
64,192,76495,1,0,0:0:0:0:
448,192,76495,1,0,0:0:0:0:
320,192,76584,1,0,0:0:0:0:
192,192,76643,1,0,0:0:0:0:
64,192,76672,1,0,0:0:0:0:
448,192,76701,1,0,0:0:0:0:
192,192,76760,1,0,0:0:0:0:
320,192,76760,1,0,0:0:0:0:
320,192,76848,1,0,0:0:0:0:
64,192,76937,1,0,0:0:0:0:
448,192,76937,1,0,0:0:0:0:
64,192,77025,1,0,0:0:0:0:
192,192,77025,1,0,0:0:0:0:
320,192,77113,1,0,0:0:0:0:
448,192,77113,1,0,0:0:0:0:
320,192,77201,1,0,0:0:0:0:
448,192,77201,1,0,0:0:0:0:
64,192,77290,1,0,0:0:0:0:
192,192,77290,1,0,0:0:0:0:
320,192,77348,1,0,0:0:0:0:
64,192,77407,1,0,0:0:0:0:
192,192,77466,1,0,0:0:0:0:
448,192,77466,1,0,0:0:0:0:
192,192,77554,1,0,0:0:0:0:
448,192,77554,1,0,0:0:0:0:
64,192,77643,1,0,0:0:0:0:
320,192,77643,1,0,0:0:0:0:
192,192,77701,1,0,0:0:0:0:
448,192,77760,1,0,0:0:0:0:
320,192,77819,1,0,0:0:0:0:
192,192,77907,1,0,0:0:0:0:
320,192,77907,1,0,0:0:0:0:
64,192,77995,1,0,0:0:0:0:
448,192,78054,1,0,0:0:0:0:
192,192,78113,1,0,0:0:0:0:
320,192,78172,1,0,0:0:0:0:
448,192,78172,1,0,0:0:0:0:
64,192,78260,1,0,0:0:0:0:
64,192,78348,1,0,0:0:0:0:
320,192,78348,1,0,0:0:0:0:
192,192,78437,1,0,0:0:0:0:
320,192,78437,1,0,0:0:0:0:
448,192,78525,1,0,0:0:0:0:
192,192,78584,1,0,0:0:0:0:
320,192,78643,1,0,0:0:0:0:
64,192,78701,1,0,0:0:0:0:
448,192,78701,1,0,0:0:0:0:
192,192,78745,1,0,0:0:0:0:
320,192,78790,1,0,0:0:0:0:
448,192,78819,1,0,0:0:0:0:
64,192,78878,1,0,0:0:0:0:
320,192,78937,1,0,0:0:0:0:
192,192,78995,1,0,0:0:0:0:
64,192,79054,1,0,0:0:0:0:
320,192,79054,1,0,0:0:0:0:
448,192,79054,1,0,0:0:0:0:
192,192,79113,1,0,0:0:0:0:
64,192,79172,1,0,0:0:0:0:
320,192,79172,1,0,0:0:0:0:
192,192,79290,1,0,0:0:0:0:
448,192,79290,1,0,0:0:0:0:
64,192,79407,1,0,0:0:0:0:
192,192,79407,1,0,0:0:0:0:
448,192,79407,1,0,0:0:0:0:
320,192,79466,1,0,0:0:0:0:
64,192,79525,1,0,0:0:0:0:
192,192,79584,1,0,0:0:0:0:
448,192,79643,1,0,0:0:0:0:
64,192,79760,1,0,0:0:0:0:
192,192,79760,1,0,0:0:0:0:
320,192,79760,1,0,0:0:0:0:
448,192,79760,1,0,0:0:0:0:
64,192,79878,1,0,0:0:0:0:
192,192,79878,1,0,0:0:0:0:
192,192,79995,1,0,0:0:0:0:
448,192,79995,1,0,0:0:0:0:
64,192,80113,1,0,0:0:0:0:
320,192,80113,1,0,0:0:0:0:
448,192,80113,1,0,0:0:0:0:
192,192,80172,1,0,0:0:0:0:
64,192,80231,1,0,0:0:0:0:
320,192,80231,1,0,0:0:0:0:
192,192,80348,1,0,0:0:0:0:
448,192,80348,1,0,0:0:0:0:
64,192,80466,1,0,0:0:0:0:
192,192,80466,1,0,0:0:0:0:
320,192,80466,1,0,0:0:0:0:
448,192,80466,1,0,0:0:0:0:
448,192,80584,1,0,0:0:0:0:
64,192,80701,1,0,0:0:0:0:
320,192,80701,1,0,0:0:0:0:
192,192,80760,1,0,0:0:0:0:
64,192,80819,1,0,0:0:0:0:
320,192,80819,1,0,0:0:0:0:
448,192,80819,1,0,0:0:0:0:
192,192,80937,1,0,0:0:0:0:
448,192,80937,1,0,0:0:0:0:
64,192,81054,1,0,0:0:0:0:
320,192,81054,1,0,0:0:0:0:
64,192,81172,1,0,0:0:0:0:
192,192,81172,1,0,0:0:0:0:
320,192,81172,1,0,0:0:0:0:
448,192,81172,1,0,0:0:0:0:
448,192,81290,1,0,0:0:0:0:
320,192,81348,1,0,0:0:0:0:
64,192,81407,128,0,81525:0:0:0:0:
320,192,81525,1,0,0:0:0:0:
448,192,81525,1,0,0:0:0:0:
192,192,81569,1,0,0:0:0:0:
448,192,81613,1,0,0:0:0:0:
64,192,81643,1,0,0:0:0:0:
192,192,81701,1,0,0:0:0:0:
320,192,81760,1,0,0:0:0:0:
64,192,81878,1,0,0:0:0:0:
192,192,81878,1,0,0:0:0:0:
320,192,81878,1,0,0:0:0:0:
448,192,81878,1,0,0:0:0:0:
192,192,81995,1,0,0:0:0:0:
448,192,81995,1,0,0:0:0:0:
64,192,82113,1,0,0:0:0:0:
320,192,82113,1,0,0:0:0:0:
64,192,82231,1,0,0:0:0:0:
192,192,82231,1,0,0:0:0:0:
448,192,82231,1,0,0:0:0:0:
320,192,82348,1,0,0:0:0:0:
192,192,82407,1,0,0:0:0:0:
448,192,82466,1,0,0:0:0:0:
64,192,82584,1,0,0:0:0:0:
192,192,82584,1,0,0:0:0:0:
320,192,82584,1,0,0:0:0:0:
448,192,82584,1,0,0:0:0:0:
64,192,82701,1,0,0:0:0:0:
320,192,82701,1,0,0:0:0:0:
192,192,82819,1,0,0:0:0:0:
448,192,82819,1,0,0:0:0:0:
64,192,82937,1,0,0:0:0:0:
192,192,82937,1,0,0:0:0:0:
320,192,82937,1,0,0:0:0:0:
448,192,82937,1,0,0:0:0:0:
64,192,83054,1,0,0:0:0:0:
320,192,83054,1,0,0:0:0:0:
192,192,83172,1,0,0:0:0:0:
448,192,83172,1,0,0:0:0:0:
64,192,83290,1,0,0:0:0:0:
192,192,83290,1,0,0:0:0:0:
320,192,83290,1,0,0:0:0:0:
448,192,83290,1,0,0:0:0:0:
64,192,83407,1,0,0:0:0:0:
320,192,83407,1,0,0:0:0:0:
192,192,83525,1,0,0:0:0:0:
320,192,83584,1,0,0:0:0:0:
64,192,83643,1,0,0:0:0:0:
448,192,83643,1,0,0:0:0:0:
192,192,83731,1,0,0:0:0:0:
448,192,83775,1,0,0:0:0:0:
320,192,83841,1,0,0:0:0:0:
192,192,83878,1,0,0:0:0:0:
64,192,83929,1,0,0:0:0:0:
320,192,83995,128,0,84018:0:0:0:0:
192,192,84040,128,0,84084:0:0:0:0:
448,192,84128,128,0,84194:0:0:0:0:
320,192,84238,128,0,84304:0:0:0:0:
64,192,84348,1,0,0:0:0:0:
192,192,84348,1,0,0:0:0:0:
448,192,84393,1,0,0:0:0:0:
320,192,84437,1,0,0:0:0:0:
64,192,84466,1,0,0:0:0:0:
192,192,84525,1,0,0:0:0:0:
320,192,84584,1,0,0:0:0:0:
448,192,84643,1,0,0:0:0:0:
64,192,84701,1,0,0:0:0:0:
320,192,84701,1,0,0:0:0:0:
192,192,84760,1,0,0:0:0:0:
448,192,84819,1,0,0:0:0:0:
320,192,84878,1,0,0:0:0:0:
64,192,84966,1,0,0:0:0:0:
320,192,84966,1,0,0:0:0:0:
192,192,85054,1,0,0:0:0:0:
448,192,85054,1,0,0:0:0:0:
64,192,85143,1,0,0:0:0:0:
192,192,85231,1,0,0:0:0:0:
448,192,85231,1,0,0:0:0:0:
320,192,85319,1,0,0:0:0:0:
192,192,85348,1,0,0:0:0:0:
448,192,85407,1,0,0:0:0:0:
320,192,85495,1,0,0:0:0:0:
448,192,85495,1,0,0:0:0:0:
64,192,85584,1,0,0:0:0:0:
192,192,85584,1,0,0:0:0:0:
448,192,85672,1,0,0:0:0:0:
64,192,85760,1,0,0:0:0:0:
320,192,85760,1,0,0:0:0:0:
192,192,85819,1,0,0:0:0:0:
448,192,85878,1,0,0:0:0:0:
64,192,85937,1,0,0:0:0:0:
320,192,85937,1,0,0:0:0:0:
64,192,86025,1,0,0:0:0:0:
320,192,86025,1,0,0:0:0:0:
192,192,86113,1,0,0:0:0:0:
448,192,86113,1,0,0:0:0:0:
320,192,86172,1,0,0:0:0:0:
64,192,86231,1,0,0:0:0:0:
192,192,86290,1,0,0:0:0:0:
192,192,86378,1,0,0:0:0:0:
448,192,86378,1,0,0:0:0:0:
320,192,86466,1,0,0:0:0:0:
64,192,86525,1,0,0:0:0:0:
320,192,86554,1,0,0:0:0:0:
192,192,86643,1,0,0:0:0:0:
448,192,86643,1,0,0:0:0:0:
320,192,86731,1,0,0:0:0:0:
64,192,86790,1,0,0:0:0:0:
448,192,86819,1,0,0:0:0:0:
192,192,86907,1,0,0:0:0:0:
320,192,86907,1,0,0:0:0:0:
448,192,86966,1,0,0:0:0:0:
64,192,86995,1,0,0:0:0:0:
192,192,87084,1,0,0:0:0:0:
448,192,87084,1,0,0:0:0:0:
64,192,87172,1,0,0:0:0:0:
320,192,87172,1,0,0:0:0:0:
192,192,87216,1,0,0:0:0:0:
448,192,87260,1,0,0:0:0:0:
64,192,87290,1,0,0:0:0:0:
320,192,87348,1,0,0:0:0:0:
192,192,87407,1,0,0:0:0:0:
320,192,87466,1,0,0:0:0:0:
64,192,87525,1,0,0:0:0:0:
448,192,87525,1,0,0:0:0:0:
192,192,87584,1,0,0:0:0:0:
320,192,87643,1,0,0:0:0:0:
64,192,87701,1,0,0:0:0:0:
192,192,87790,1,0,0:0:0:0:
448,192,87790,1,0,0:0:0:0:
320,192,87878,1,0,0:0:0:0:
192,192,87937,1,0,0:0:0:0:
64,192,87966,1,0,0:0:0:0:
448,192,87995,1,0,0:0:0:0:
192,192,88054,1,0,0:0:0:0:
320,192,88054,1,0,0:0:0:0:
320,192,88143,1,0,0:0:0:0:
64,192,88231,1,0,0:0:0:0:
448,192,88231,1,0,0:0:0:0:
320,192,88319,1,0,0:0:0:0:
448,192,88319,1,0,0:0:0:0:
64,192,88407,1,0,0:0:0:0:
192,192,88407,1,0,0:0:0:0:
64,192,88495,1,0,0:0:0:0:
192,192,88495,1,0,0:0:0:0:
320,192,88584,1,0,0:0:0:0:
448,192,88584,1,0,0:0:0:0:
192,192,88643,1,0,0:0:0:0:
64,192,88701,1,0,0:0:0:0:
320,192,88760,1,0,0:0:0:0:
448,192,88760,1,0,0:0:0:0:
320,192,88848,1,0,0:0:0:0:
448,192,88848,1,0,0:0:0:0:
64,192,88937,1,0,0:0:0:0:
192,192,88937,1,0,0:0:0:0:
320,192,89025,1,0,0:0:0:0:
192,192,89113,1,0,0:0:0:0:
320,192,89201,1,0,0:0:0:0:
448,192,89201,1,0,0:0:0:0:
192,192,89290,1,0,0:0:0:0:
64,192,89378,1,0,0:0:0:0:
320,192,89378,1,0,0:0:0:0:
192,192,89466,1,0,0:0:0:0:
448,192,89466,1,0,0:0:0:0:
64,192,89554,1,0,0:0:0:0:
448,192,89643,1,0,0:0:0:0:
192,192,89731,1,0,0:0:0:0:
320,192,89731,1,0,0:0:0:0:
64,192,89819,1,0,0:0:0:0:
448,192,89819,1,0,0:0:0:0:
64,192,89907,1,0,0:0:0:0:
320,192,89907,1,0,0:0:0:0:
192,192,89995,1,0,0:0:0:0:
448,192,89995,1,0,0:0:0:0:
320,192,90040,1,0,0:0:0:0:
64,192,90084,1,0,0:0:0:0:
448,192,90113,1,0,0:0:0:0:
192,192,90172,1,0,0:0:0:0:
320,192,90231,1,0,0:0:0:0:
64,192,90290,1,0,0:0:0:0:
448,192,90348,1,0,0:0:0:0:
448,192,90466,1,0,0:0:0:0:
64,192,90643,1,0,0:0:0:0:
192,192,90701,1,0,0:0:0:0:
320,192,90701,1,0,0:0:0:0:
64,192,90937,1,0,0:0:0:0:
192,192,91054,1,0,0:0:0:0:
448,192,91054,1,0,0:0:0:0:
320,192,91098,1,0,0:0:0:0:
64,192,91143,1,0,0:0:0:0:
192,192,91187,1,0,0:0:0:0:
320,192,91231,1,0,0:0:0:0:
64,192,91275,1,0,0:0:0:0:
192,192,91319,1,0,0:0:0:0:
448,192,91363,1,0,0:0:0:0:
64,192,91407,1,0,0:0:0:0:
320,192,91407,1,0,0:0:0:0:
192,192,91466,1,0,0:0:0:0:
320,192,91525,1,0,0:0:0:0:
448,192,91525,1,0,0:0:0:0:
64,192,91584,1,0,0:0:0:0:
192,192,91584,1,0,0:0:0:0:
320,192,91643,1,0,0:0:0:0:
448,192,91643,1,0,0:0:0:0:
64,192,91701,1,0,0:0:0:0:
192,192,91760,1,0,0:0:0:0:
448,192,91760,1,0,0:0:0:0:
320,192,91819,1,0,0:0:0:0:
64,192,91878,1,0,0:0:0:0:
192,192,91878,1,0,0:0:0:0:
448,192,91937,1,0,0:0:0:0:
64,192,91995,1,0,0:0:0:0:
320,192,91995,1,0,0:0:0:0:
192,192,92054,1,0,0:0:0:0:
64,192,92113,1,0,0:0:0:0:
448,192,92113,1,0,0:0:0:0:
192,192,92172,1,0,0:0:0:0:
320,192,92231,1,0,0:0:0:0:
448,192,92231,1,0,0:0:0:0:
64,192,92290,1,0,0:0:0:0:
192,192,92290,1,0,0:0:0:0:
320,192,92348,1,0,0:0:0:0:
448,192,92348,1,0,0:0:0:0:
64,192,92407,1,0,0:0:0:0:
192,192,92466,1,0,0:0:0:0:
448,192,92466,1,0,0:0:0:0:
320,192,92525,1,0,0:0:0:0:
64,192,92584,1,0,0:0:0:0:
192,192,92584,1,0,0:0:0:0:
320,192,92643,1,0,0:0:0:0:
192,192,92701,1,0,0:0:0:0:
448,192,92701,1,0,0:0:0:0:
320,192,92760,1,0,0:0:0:0:
64,192,92819,1,0,0:0:0:0:
192,192,92819,1,0,0:0:0:0:
448,192,92863,1,0,0:0:0:0:
320,192,92907,1,0,0:0:0:0:
64,192,92937,1,0,0:0:0:0:
448,192,92995,1,0,0:0:0:0:
192,192,93054,1,0,0:0:0:0:
320,192,93113,1,0,0:0:0:0:
64,192,93172,1,0,0:0:0:0:
192,192,93172,1,0,0:0:0:0:
448,192,93172,1,0,0:0:0:0:
192,192,93290,1,0,0:0:0:0:
320,192,93290,1,0,0:0:0:0:
448,192,93290,1,0,0:0:0:0:
64,192,93407,1,0,0:0:0:0:
320,192,93407,1,0,0:0:0:0:
448,192,93407,1,0,0:0:0:0:
64,192,93525,1,0,0:0:0:0:
320,192,93525,1,0,0:0:0:0:
448,192,93525,1,0,0:0:0:0:
192,192,93643,1,0,0:0:0:0:
320,192,93643,1,0,0:0:0:0:
448,192,93643,1,0,0:0:0:0:
64,192,93760,1,0,0:0:0:0:
192,192,93760,1,0,0:0:0:0:
320,192,93760,1,0,0:0:0:0:
64,192,93878,1,0,0:0:0:0:
192,192,93878,1,0,0:0:0:0:
320,192,93878,1,0,0:0:0:0:
448,192,93878,1,0,0:0:0:0:
64,192,93995,1,0,0:0:0:0:
320,192,93995,1,0,0:0:0:0:
448,192,93995,1,0,0:0:0:0:
64,192,94113,1,0,0:0:0:0:
192,192,94113,1,0,0:0:0:0:
320,192,94143,1,0,0:0:0:0:
448,192,94143,1,0,0:0:0:0:
64,192,94231,1,0,0:0:0:0:
192,192,94260,1,0,0:0:0:0:
448,192,94290,1,0,0:0:0:0:
320,192,94319,1,0,0:0:0:0:
64,192,94363,1,0,0:0:0:0:
192,192,94407,1,0,0:0:0:0:
448,192,94451,1,0,0:0:0:0:
320,192,94495,1,0,0:0:0:0:
192,192,94540,1,0,0:0:0:0:
64,192,94584,1,0,0:0:0:0:
448,192,94643,1,0,0:0:0:0:
192,192,94672,1,0,0:0:0:0:
320,192,94701,1,0,0:0:0:0:
64,192,94760,1,0,0:0:0:0:
448,192,94804,1,0,0:0:0:0:
320,192,94848,1,0,0:0:0:0:
192,192,94893,1,0,0:0:0:0:
64,192,94937,1,0,0:0:0:0:
192,192,94995,1,0,0:0:0:0:
320,192,95054,1,0,0:0:0:0:
448,192,95054,1,0,0:0:0:0:
320,192,95172,1,0,0:0:0:0:
448,192,95172,1,0,0:0:0:0:
320,192,95290,1,0,0:0:0:0:
448,192,95290,1,0,0:0:0:0:
64,192,95378,1,0,0:0:0:0:
192,192,95378,1,0,0:0:0:0:
448,192,95422,1,0,0:0:0:0:
320,192,95466,1,0,0:0:0:0:
64,192,95525,1,0,0:0:0:0:
192,192,95584,1,0,0:0:0:0:
320,192,95643,1,0,0:0:0:0:
448,192,95643,1,0,0:0:0:0:
64,192,95687,1,0,0:0:0:0:
192,192,95731,1,0,0:0:0:0:
448,192,95760,1,0,0:0:0:0:
64,192,95819,1,0,0:0:0:0:
320,192,95878,1,0,0:0:0:0:
192,192,95937,1,0,0:0:0:0:
320,192,95995,1,0,0:0:0:0:
448,192,95995,1,0,0:0:0:0:
192,192,96054,1,0,0:0:0:0:
64,192,96113,1,0,0:0:0:0:
320,192,96172,1,0,0:0:0:0:
448,192,96172,1,0,0:0:0:0:
320,192,96260,1,0,0:0:0:0:
448,192,96260,1,0,0:0:0:0:
64,192,96348,1,0,0:0:0:0:
192,192,96348,1,0,0:0:0:0:
320,192,96407,1,0,0:0:0:0:
448,192,96466,1,0,0:0:0:0:
64,192,96525,1,0,0:0:0:0:
320,192,96525,1,0,0:0:0:0:
64,192,96613,1,0,0:0:0:0:
320,192,96613,1,0,0:0:0:0:
192,192,96701,1,0,0:0:0:0:
448,192,96701,1,0,0:0:0:0:
320,192,96760,1,0,0:0:0:0:
64,192,96819,1,0,0:0:0:0:
192,192,96878,1,0,0:0:0:0:
448,192,96878,1,0,0:0:0:0:
192,192,96966,1,0,0:0:0:0:
448,192,96966,1,0,0:0:0:0:
64,192,97054,1,0,0:0:0:0:
320,192,97054,1,0,0:0:0:0:
192,192,97113,1,0,0:0:0:0:
448,192,97172,1,0,0:0:0:0:
64,192,97231,1,0,0:0:0:0:
192,192,97231,1,0,0:0:0:0:
64,192,97319,1,0,0:0:0:0:
192,192,97319,1,0,0:0:0:0:
320,192,97407,1,0,0:0:0:0:
448,192,97407,1,0,0:0:0:0:
192,192,97466,1,0,0:0:0:0:
64,192,97525,1,0,0:0:0:0:
320,192,97584,1,0,0:0:0:0:
448,192,97584,1,0,0:0:0:0:
320,192,97672,1,0,0:0:0:0:
448,192,97672,1,0,0:0:0:0:
64,192,97760,1,0,0:0:0:0:
192,192,97760,1,0,0:0:0:0:
320,192,97819,1,0,0:0:0:0:
448,192,97878,1,0,0:0:0:0:
192,192,97937,1,0,0:0:0:0:
320,192,97937,1,0,0:0:0:0:
192,192,98025,1,0,0:0:0:0:
320,192,98025,1,0,0:0:0:0:
64,192,98113,1,0,0:0:0:0:
448,192,98113,1,0,0:0:0:0:
192,192,98201,1,0,0:0:0:0:
192,192,98290,1,0,0:0:0:0:
320,192,98290,1,0,0:0:0:0:
192,192,98378,1,0,0:0:0:0:
320,192,98378,1,0,0:0:0:0:
64,192,98466,1,0,0:0:0:0:
320,192,98466,1,0,0:0:0:0:
448,192,98466,1,0,0:0:0:0:
192,192,98510,1,0,0:0:0:0:
64,192,98554,1,0,0:0:0:0:
448,192,98598,1,0,0:0:0:0:
320,192,98643,1,0,0:0:0:0:
64,192,98701,1,0,0:0:0:0:
448,192,98760,1,0,0:0:0:0:
192,192,98819,1,0,0:0:0:0:
320,192,98819,1,0,0:0:0:0:
64,192,98878,1,0,0:0:0:0:
448,192,98937,1,0,0:0:0:0:
64,192,98995,1,0,0:0:0:0:
320,192,98995,1,0,0:0:0:0:
64,192,99084,1,0,0:0:0:0:
320,192,99084,1,0,0:0:0:0:
192,192,99172,1,0,0:0:0:0:
448,192,99172,1,0,0:0:0:0:
320,192,99231,1,0,0:0:0:0:
64,192,99290,1,0,0:0:0:0:
192,192,99348,1,0,0:0:0:0:
448,192,99348,1,0,0:0:0:0:
192,192,99437,1,0,0:0:0:0:
448,192,99437,1,0,0:0:0:0:
64,192,99525,1,0,0:0:0:0:
320,192,99525,1,0,0:0:0:0:
192,192,99584,1,0,0:0:0:0:
448,192,99643,1,0,0:0:0:0:
64,192,99701,1,0,0:0:0:0:
192,192,99701,1,0,0:0:0:0:
64,192,99790,1,0,0:0:0:0:
192,192,99790,1,0,0:0:0:0:
320,192,99878,1,0,0:0:0:0:
448,192,99878,1,0,0:0:0:0:
192,192,99937,1,0,0:0:0:0:
448,192,99995,1,0,0:0:0:0:
64,192,100054,1,0,0:0:0:0:
320,192,100054,1,0,0:0:0:0:
64,192,100143,1,0,0:0:0:0:
320,192,100143,1,0,0:0:0:0:
192,192,100231,1,0,0:0:0:0:
448,192,100231,1,0,0:0:0:0:
320,192,100290,1,0,0:0:0:0:
64,192,100348,1,0,0:0:0:0:
192,192,100407,1,0,0:0:0:0:
320,192,100407,1,0,0:0:0:0:
192,192,100495,1,0,0:0:0:0:
320,192,100495,1,0,0:0:0:0:
64,192,100584,1,0,0:0:0:0:
448,192,100584,1,0,0:0:0:0:
320,192,100643,1,0,0:0:0:0:
192,192,100701,1,0,0:0:0:0:
320,192,100760,1,0,0:0:0:0:
448,192,100760,1,0,0:0:0:0:
320,192,100848,1,0,0:0:0:0:
448,192,100848,1,0,0:0:0:0:
64,192,100937,1,0,0:0:0:0:
192,192,100937,1,0,0:0:0:0:
192,192,101025,1,0,0:0:0:0:
448,192,101025,1,0,0:0:0:0:
320,192,101084,1,0,0:0:0:0:
64,192,101143,1,0,0:0:0:0:
192,192,101179,1,0,0:0:0:0:
448,192,101231,1,0,0:0:0:0:
64,192,101290,1,0,0:0:0:0:
320,192,101290,1,0,0:0:0:0:
192,192,101334,1,0,0:0:0:0:
448,192,101378,1,0,0:0:0:0:
64,192,101407,1,0,0:0:0:0:
320,192,101466,1,0,0:0:0:0:
448,192,101525,1,0,0:0:0:0:
192,192,101584,1,0,0:0:0:0:
64,192,101643,1,0,0:0:0:0:
320,192,101643,1,0,0:0:0:0:
448,192,101643,1,0,0:0:0:0:
192,192,101701,1,0,0:0:0:0:
64,192,101760,1,0,0:0:0:0:
320,192,101760,1,0,0:0:0:0:
192,192,101878,1,0,0:0:0:0:
448,192,101878,1,0,0:0:0:0:
64,192,101995,1,0,0:0:0:0:
192,192,101995,1,0,0:0:0:0:
448,192,101995,1,0,0:0:0:0:
320,192,102054,1,0,0:0:0:0:
64,192,102113,1,0,0:0:0:0:
192,192,102172,1,0,0:0:0:0:
448,192,102231,1,0,0:0:0:0:
64,192,102348,1,0,0:0:0:0:
192,192,102348,1,0,0:0:0:0:
320,192,102348,1,0,0:0:0:0:
448,192,102348,1,0,0:0:0:0:
64,192,102466,1,0,0:0:0:0:
192,192,102466,1,0,0:0:0:0:
192,192,102584,1,0,0:0:0:0:
448,192,102584,1,0,0:0:0:0:
64,192,102701,1,0,0:0:0:0:
320,192,102701,1,0,0:0:0:0:
448,192,102701,1,0,0:0:0:0:
192,192,102760,1,0,0:0:0:0:
64,192,102819,1,0,0:0:0:0:
320,192,102819,1,0,0:0:0:0:
192,192,102937,1,0,0:0:0:0:
448,192,102937,1,0,0:0:0:0:
64,192,103054,1,0,0:0:0:0:
192,192,103054,1,0,0:0:0:0:
320,192,103054,1,0,0:0:0:0:
448,192,103054,1,0,0:0:0:0:
448,192,103172,1,0,0:0:0:0:
320,192,103231,1,0,0:0:0:0:
64,192,103290,1,0,0:0:0:0:
448,192,103290,1,0,0:0:0:0:
192,192,103348,1,0,0:0:0:0:
64,192,103407,1,0,0:0:0:0:
320,192,103407,1,0,0:0:0:0:
448,192,103407,1,0,0:0:0:0:
192,192,103525,1,0,0:0:0:0:
320,192,103525,1,0,0:0:0:0:
64,192,103643,1,0,0:0:0:0:
448,192,103643,1,0,0:0:0:0:
64,192,103760,1,0,0:0:0:0:
192,192,103760,1,0,0:0:0:0:
320,192,103760,1,0,0:0:0:0:
448,192,103760,1,0,0:0:0:0:
448,192,103878,1,0,0:0:0:0:
320,192,103937,1,0,0:0:0:0:
192,192,103995,1,0,0:0:0:0:
448,192,104054,1,0,0:0:0:0:
64,192,104113,1,0,0:0:0:0:
320,192,104113,1,0,0:0:0:0:
192,192,104157,1,0,0:0:0:0:
448,192,104201,1,0,0:0:0:0:
64,192,104231,1,0,0:0:0:0:
320,192,104290,1,0,0:0:0:0:
192,192,104348,1,0,0:0:0:0:
448,192,104407,1,0,0:0:0:0:
64,192,104466,128,0,104525:0:0:0:0:
320,192,104466,128,0,104525:0:0:0:0:
192,192,104525,1,0,0:0:0:0:
448,192,104584,1,0,0:0:0:0:
192,192,104643,128,0,104701:0:0:0:0:
320,192,104643,128,0,104701:0:0:0:0:
192,192,104760,128,0,104819:0:0:0:0:
448,192,104760,128,0,104819:0:0:0:0:
64,192,104819,1,0,0:0:0:0:
320,192,104819,1,0,0:0:0:0:
448,192,104937,128,0,104995:0:0:0:0:
64,192,104937,128,0,104995:0:0:0:0:
192,192,104995,128,0,105054:0:0:0:0:
320,192,104995,128,0,105054:0:0:0:0:
64,192,105172,128,0,105231:0:0:0:0:
320,192,105172,128,0,105231:0:0:0:0:
448,192,105172,1,0,0:0:0:0:
192,192,105348,128,0,105407:0:0:0:0:
320,192,105348,128,0,105407:0:0:0:0:
192,192,105466,128,0,105525:0:0:0:0:
448,192,105466,128,0,105525:0:0:0:0:
320,192,105525,1,0,0:0:0:0:
64,192,105525,1,0,0:0:0:0:
64,192,105643,128,0,105701:0:0:0:0:
448,192,105643,128,0,105701:0:0:0:0:
192,192,105701,128,0,105760:0:0:0:0:
320,192,105701,128,0,105760:0:0:0:0:
64,192,105878,1,0,0:0:0:0:
192,192,105878,1,0,0:0:0:0:
448,192,105878,1,0,0:0:0:0:
320,192,105944,1,0,0:0:0:0:
64,192,106054,1,0,0:0:0:0:
320,192,106098,1,0,0:0:0:0:
192,192,106143,1,0,0:0:0:0:
448,192,106187,1,0,0:0:0:0:
64,192,106231,1,0,0:0:0:0:
320,192,106231,1,0,0:0:0:0:
192,192,106319,1,0,0:0:0:0:
448,192,106348,1,0,0:0:0:0:
320,192,106385,1,0,0:0:0:0:
64,192,106429,1,0,0:0:0:0:
192,192,106495,1,0,0:0:0:0:
448,192,106554,1,0,0:0:0:0:
320,192,106606,1,0,0:0:0:0:
64,192,106672,1,0,0:0:0:0:
192,192,106760,1,0,0:0:0:0:
448,192,106848,1,0,0:0:0:0:
64,192,106937,1,0,0:0:0:0:
320,192,106937,1,0,0:0:0:0:
192,192,106981,1,0,0:0:0:0:
448,192,107025,1,0,0:0:0:0:
64,192,107054,1,0,0:0:0:0:
320,192,107113,1,0,0:0:0:0:
192,192,107172,1,0,0:0:0:0:
448,192,107231,1,0,0:0:0:0:
64,192,107290,1,0,0:0:0:0:
320,192,107290,1,0,0:0:0:0:
192,192,107348,1,0,0:0:0:0:
448,192,107407,1,0,0:0:0:0:
64,192,107466,1,0,0:0:0:0:
192,192,107554,1,0,0:0:0:0:
320,192,107554,1,0,0:0:0:0:
192,192,107643,1,0,0:0:0:0:
448,192,107643,1,0,0:0:0:0:
320,192,107701,1,0,0:0:0:0:
64,192,107760,1,0,0:0:0:0:
192,192,107819,1,0,0:0:0:0:
320,192,107819,1,0,0:0:0:0:
448,192,107907,1,0,0:0:0:0:
64,192,107995,1,0,0:0:0:0:
320,192,107995,1,0,0:0:0:0:
192,192,108084,1,0,0:0:0:0:
320,192,108084,1,0,0:0:0:0:
64,192,108172,1,0,0:0:0:0:
320,192,108260,1,0,0:0:0:0:
64,192,108348,1,0,0:0:0:0:
192,192,108348,1,0,0:0:0:0:
448,192,108348,1,0,0:0:0:0:
320,192,108407,1,0,0:0:0:0:
192,192,108466,1,0,0:0:0:0:
448,192,108525,1,0,0:0:0:0:
320,192,108613,1,0,0:0:0:0:
64,192,108701,1,0,0:0:0:0:
192,192,108701,1,0,0:0:0:0:
448,192,108701,1,0,0:0:0:0:
320,192,108760,1,0,0:0:0:0:
64,192,108819,1,0,0:0:0:0:
192,192,108966,1,0,0:0:0:0:
448,192,108966,1,0,0:0:0:0:
64,192,109054,1,0,0:0:0:0:
448,192,109054,1,0,0:0:0:0:
192,192,109113,1,0,0:0:0:0:
320,192,109172,1,0,0:0:0:0:
64,192,109231,1,0,0:0:0:0:
64,192,109319,1,0,0:0:0:0:
192,192,109407,1,0,0:0:0:0:
320,192,109407,1,0,0:0:0:0:
448,192,109407,1,0,0:0:0:0:
64,192,109495,1,0,0:0:0:0:
448,192,109495,1,0,0:0:0:0:
192,192,109584,1,0,0:0:0:0:
192,192,109672,1,0,0:0:0:0:
64,192,109760,1,0,0:0:0:0:
320,192,109760,1,0,0:0:0:0:
448,192,109760,1,0,0:0:0:0:
192,192,109804,1,0,0:0:0:0:
320,192,109848,1,0,0:0:0:0:
64,192,109878,1,0,0:0:0:0:
448,192,109937,1,0,0:0:0:0:
320,192,109995,1,0,0:0:0:0:
64,192,110054,1,0,0:0:0:0:
192,192,110113,1,0,0:0:0:0:
448,192,110113,1,0,0:0:0:0:
320,192,110172,1,0,0:0:0:0:
64,192,110231,1,0,0:0:0:0:
448,192,110290,1,0,0:0:0:0:
192,192,110378,1,0,0:0:0:0:
320,192,110378,1,0,0:0:0:0:
64,192,110466,1,0,0:0:0:0:
320,192,110466,1,0,0:0:0:0:
192,192,110525,1,0,0:0:0:0:
448,192,110584,1,0,0:0:0:0:
64,192,110643,1,0,0:0:0:0:
320,192,110643,1,0,0:0:0:0:
192,192,110731,1,0,0:0:0:0:
64,192,110819,1,0,0:0:0:0:
320,192,110819,1,0,0:0:0:0:
64,192,110907,1,0,0:0:0:0:
448,192,110907,1,0,0:0:0:0:
320,192,110995,1,0,0:0:0:0:
320,192,111084,1,0,0:0:0:0:
64,192,111172,1,0,0:0:0:0:
192,192,111172,1,0,0:0:0:0:
448,192,111172,1,0,0:0:0:0:
320,192,111231,1,0,0:0:0:0:
192,192,111290,1,0,0:0:0:0:
64,192,111348,1,0,0:0:0:0:
64,192,111437,1,0,0:0:0:0:
192,192,111525,1,0,0:0:0:0:
320,192,111525,1,0,0:0:0:0:
448,192,111525,1,0,0:0:0:0:
64,192,111584,1,0,0:0:0:0:
448,192,111643,1,0,0:0:0:0:
192,192,111701,1,0,0:0:0:0:
64,192,111790,1,0,0:0:0:0:
320,192,111790,1,0,0:0:0:0:
192,192,111878,1,0,0:0:0:0:
320,192,111878,1,0,0:0:0:0:
448,192,111937,1,0,0:0:0:0:
64,192,111995,1,0,0:0:0:0:
192,192,112054,1,0,0:0:0:0:
320,192,112054,1,0,0:0:0:0:
192,192,112143,1,0,0:0:0:0:
320,192,112143,1,0,0:0:0:0:
64,192,112231,1,0,0:0:0:0:
448,192,112231,1,0,0:0:0:0:
64,192,112319,1,0,0:0:0:0:
448,192,112319,1,0,0:0:0:0:
320,192,112363,1,0,0:0:0:0:
192,192,112407,1,0,0:0:0:0:
448,192,112451,1,0,0:0:0:0:
320,192,112495,1,0,0:0:0:0:
64,192,112540,1,0,0:0:0:0:
192,192,112584,1,0,0:0:0:0:
448,192,112584,1,0,0:0:0:0:
320,192,112628,1,0,0:0:0:0:
64,192,112672,1,0,0:0:0:0:
448,192,112716,1,0,0:0:0:0:
192,192,112760,1,0,0:0:0:0:
320,192,112819,1,0,0:0:0:0:
64,192,112878,1,0,0:0:0:0:
192,192,112937,1,0,0:0:0:0:
320,192,112937,1,0,0:0:0:0:
448,192,112937,1,0,0:0:0:0:
64,192,112995,1,0,0:0:0:0:
320,192,113054,1,0,0:0:0:0:
192,192,113135,1,0,0:0:0:0:
64,192,113201,1,0,0:0:0:0:
320,192,113201,1,0,0:0:0:0:
448,192,113201,1,0,0:0:0:0:
192,192,113260,1,0,0:0:0:0:
448,192,113319,1,0,0:0:0:0:
320,192,113400,1,0,0:0:0:0:
64,192,113466,1,0,0:0:0:0:
192,192,113466,1,0,0:0:0:0:
448,192,113466,1,0,0:0:0:0:
320,192,113525,1,0,0:0:0:0:
64,192,113584,1,0,0:0:0:0:
192,192,113665,1,0,0:0:0:0:
64,192,113731,1,0,0:0:0:0:
320,192,113731,1,0,0:0:0:0:
448,192,113731,1,0,0:0:0:0:
192,192,113790,1,0,0:0:0:0:
448,192,113848,1,0,0:0:0:0:
320,192,113929,1,0,0:0:0:0:
64,192,113995,1,0,0:0:0:0:
192,192,113995,1,0,0:0:0:0:
448,192,113995,1,0,0:0:0:0:
64,192,114084,1,0,0:0:0:0:
320,192,114084,1,0,0:0:0:0:
192,192,114172,1,0,0:0:0:0:
448,192,114172,1,0,0:0:0:0:
64,192,114260,1,0,0:0:0:0:
320,192,114260,1,0,0:0:0:0:
192,192,114348,1,0,0:0:0:0:
320,192,114348,1,0,0:0:0:0:
448,192,114348,1,0,0:0:0:0:
64,192,114407,1,0,0:0:0:0:
320,192,114466,1,0,0:0:0:0:
192,192,114547,1,0,0:0:0:0:
64,192,114613,1,0,0:0:0:0:
320,192,114613,1,0,0:0:0:0:
448,192,114613,1,0,0:0:0:0:
192,192,114672,1,0,0:0:0:0:
448,192,114731,1,0,0:0:0:0:
64,192,114812,1,0,0:0:0:0:
320,192,114812,1,0,0:0:0:0:
64,192,114878,1,0,0:0:0:0:
192,192,114878,1,0,0:0:0:0:
448,192,114878,1,0,0:0:0:0:
320,192,114937,1,0,0:0:0:0:
64,192,114995,1,0,0:0:0:0:
192,192,115076,1,0,0:0:0:0:
448,192,115076,1,0,0:0:0:0:
64,192,115143,1,0,0:0:0:0:
320,192,115143,1,0,0:0:0:0:
448,192,115143,1,0,0:0:0:0:
192,192,115201,1,0,0:0:0:0:
448,192,115260,1,0,0:0:0:0:
64,192,115341,1,0,0:0:0:0:
320,192,115341,1,0,0:0:0:0:
192,192,115407,1,0,0:0:0:0:
448,192,115407,1,0,0:0:0:0:
320,192,115451,1,0,0:0:0:0:
64,192,115495,1,0,0:0:0:0:
192,192,115540,1,0,0:0:0:0:
320,192,115584,1,0,0:0:0:0:
448,192,115628,1,0,0:0:0:0:
192,192,115672,1,0,0:0:0:0:
320,192,115716,1,0,0:0:0:0:
64,192,115760,1,0,0:0:0:0:
192,192,115804,1,0,0:0:0:0:
448,192,115848,1,0,0:0:0:0:
320,192,115893,1,0,0:0:0:0:
192,192,115937,1,0,0:0:0:0:
64,192,115981,1,0,0:0:0:0:
320,192,116025,1,0,0:0:0:0:
192,192,116069,1,0,0:0:0:0:
448,192,116113,1,0,0:0:0:0:
320,192,116157,1,0,0:0:0:0:
64,192,116201,1,0,0:0:0:0:
192,192,116245,1,0,0:0:0:0:
320,192,116290,1,0,0:0:0:0:
64,192,116334,1,0,0:0:0:0:
192,192,116378,1,0,0:0:0:0:
448,192,116422,1,0,0:0:0:0:
320,192,116466,1,0,0:0:0:0:
192,192,116510,1,0,0:0:0:0:
448,192,116554,1,0,0:0:0:0:
320,192,116598,1,0,0:0:0:0:
64,192,116643,1,0,0:0:0:0:
192,192,116687,1,0,0:0:0:0:
320,192,116731,1,0,0:0:0:0:
448,192,116775,1,0,0:0:0:0:
192,192,116907,1,0,0:0:0:0:
320,192,116995,128,0,117040:0:0:0:0:
64,192,117084,1,0,0:0:0:0:
448,192,117172,128,0,117216:0:0:0:0:
192,192,117260,1,0,0:0:0:0:
320,192,117348,128,0,117393:0:0:0:0:
64,192,117437,1,0,0:0:0:0:
448,192,117525,128,0,117569:0:0:0:0:
192,192,117613,1,0,0:0:0:0:
320,192,117701,128,0,117745:0:0:0:0:
192,192,117790,1,0,0:0:0:0:
64,192,117878,128,0,118231:0:0:0:0:
448,192,117878,128,0,117922:0:0:0:0:
320,192,117966,1,0,0:0:0:0:
192,192,118054,1,0,0:0:0:0:
320,192,118231,1,0,0:0:0:0:
448,192,118231,1,0,0:0:0:0:
192,192,118275,1,0,0:0:0:0:
448,192,118319,1,0,0:0:0:0:
64,192,118363,1,0,0:0:0:0:
320,192,118407,1,0,0:0:0:0:
192,192,118466,1,0,0:0:0:0:
448,192,118525,1,0,0:0:0:0:
64,192,118584,1,0,0:0:0:0:
320,192,118584,1,0,0:0:0:0:
192,192,118643,1,0,0:0:0:0:
448,192,118701,1,0,0:0:0:0:
320,192,118760,1,0,0:0:0:0:
64,192,118848,1,0,0:0:0:0:
192,192,118937,1,0,0:0:0:0:
448,192,118937,1,0,0:0:0:0:
320,192,118995,1,0,0:0:0:0:
64,192,119054,1,0,0:0:0:0:
192,192,119113,1,0,0:0:0:0:
448,192,119201,1,0,0:0:0:0:
192,192,119290,1,0,0:0:0:0:
320,192,119290,1,0,0:0:0:0:
64,192,119348,1,0,0:0:0:0:
448,192,119407,1,0,0:0:0:0:
320,192,119466,1,0,0:0:0:0:
192,192,119554,1,0,0:0:0:0:
64,192,119643,1,0,0:0:0:0:
448,192,119643,1,0,0:0:0:0:
320,192,119701,1,0,0:0:0:0:
192,192,119760,1,0,0:0:0:0:
448,192,119819,1,0,0:0:0:0:
64,192,119907,1,0,0:0:0:0:
320,192,119995,1,0,0:0:0:0:
448,192,119995,1,0,0:0:0:0:
192,192,120054,1,0,0:0:0:0:
64,192,120113,1,0,0:0:0:0:
320,192,120172,1,0,0:0:0:0:
448,192,120260,1,0,0:0:0:0:
64,192,120348,1,0,0:0:0:0:
192,192,120348,1,0,0:0:0:0:
320,192,120407,1,0,0:0:0:0:
448,192,120466,1,0,0:0:0:0:
192,192,120525,1,0,0:0:0:0:
64,192,120613,1,0,0:0:0:0:
320,192,120613,1,0,0:0:0:0:
192,192,120701,1,0,0:0:0:0:
448,192,120701,1,0,0:0:0:0:
320,192,120760,1,0,0:0:0:0:
64,192,120819,1,0,0:0:0:0:
192,192,120878,1,0,0:0:0:0:
448,192,120966,1,0,0:0:0:0:
64,192,121054,1,0,0:0:0:0:
320,192,121054,1,0,0:0:0:0:
192,192,121098,1,0,0:0:0:0:
448,192,121143,1,0,0:0:0:0:
320,192,121187,1,0,0:0:0:0:
64,192,121231,1,0,0:0:0:0:
192,192,121275,1,0,0:0:0:0:
448,192,121319,1,0,0:0:0:0:
64,192,121363,1,0,0:0:0:0:
192,192,121407,1,0,0:0:0:0:
320,192,121407,1,0,0:0:0:0:
448,192,121466,1,0,0:0:0:0:
320,192,121525,1,0,0:0:0:0:
192,192,121584,1,0,0:0:0:0:
64,192,121672,1,0,0:0:0:0:
192,192,121760,1,0,0:0:0:0:
448,192,121760,1,0,0:0:0:0:
64,192,121819,1,0,0:0:0:0:
320,192,121878,1,0,0:0:0:0:
192,192,121937,1,0,0:0:0:0:
320,192,122025,1,0,0:0:0:0:
64,192,122113,1,0,0:0:0:0:
448,192,122113,1,0,0:0:0:0:
192,192,122172,1,0,0:0:0:0:
320,192,122231,1,0,0:0:0:0:
448,192,122290,1,0,0:0:0:0:
64,192,122378,1,0,0:0:0:0:
192,192,122466,1,0,0:0:0:0:
320,192,122466,1,0,0:0:0:0:
448,192,122525,1,0,0:0:0:0:
64,192,122584,1,0,0:0:0:0:
192,192,122643,1,0,0:0:0:0:
448,192,122731,1,0,0:0:0:0:
64,192,122819,1,0,0:0:0:0:
192,192,122819,1,0,0:0:0:0:
320,192,122878,1,0,0:0:0:0:
64,192,122937,1,0,0:0:0:0:
448,192,122995,1,0,0:0:0:0:
192,192,123084,1,0,0:0:0:0:
320,192,123172,1,0,0:0:0:0:
448,192,123172,1,0,0:0:0:0:
192,192,123231,1,0,0:0:0:0:
448,192,123290,1,0,0:0:0:0:
64,192,123348,1,0,0:0:0:0:
192,192,123437,1,0,0:0:0:0:
320,192,123437,1,0,0:0:0:0:
192,192,123525,1,0,0:0:0:0:
64,192,123613,1,0,0:0:0:0:
448,192,123613,1,0,0:0:0:0:
320,192,123657,1,0,0:0:0:0:
192,192,123701,1,0,0:0:0:0:
448,192,123760,1,0,0:0:0:0:
320,192,123819,1,0,0:0:0:0:
64,192,123878,1,0,0:0:0:0:
192,192,123878,1,0,0:0:0:0:
448,192,123922,1,0,0:0:0:0:
64,192,123966,1,0,0:0:0:0:
320,192,124010,1,0,0:0:0:0:
192,192,124054,1,0,0:0:0:0:
448,192,124098,1,0,0:0:0:0:
320,192,124143,1,0,0:0:0:0:
64,192,124187,1,0,0:0:0:0:
192,192,124231,1,0,0:0:0:0:
448,192,124231,1,0,0:0:0:0:
320,192,124290,1,0,0:0:0:0:
64,192,124348,1,0,0:0:0:0:
448,192,124407,1,0,0:0:0:0:
192,192,124495,1,0,0:0:0:0:
320,192,124584,1,0,0:0:0:0:
448,192,124584,1,0,0:0:0:0:
64,192,124643,1,0,0:0:0:0:
192,192,124701,1,0,0:0:0:0:
448,192,124760,1,0,0:0:0:0:
320,192,124848,1,0,0:0:0:0:
64,192,124937,1,0,0:0:0:0:
448,192,124937,1,0,0:0:0:0:
192,192,124995,1,0,0:0:0:0:
320,192,125054,1,0,0:0:0:0:
64,192,125113,1,0,0:0:0:0:
448,192,125201,1,0,0:0:0:0:
192,192,125290,1,0,0:0:0:0:
320,192,125290,1,0,0:0:0:0:
64,192,125348,1,0,0:0:0:0:
448,192,125407,1,0,0:0:0:0:
320,192,125466,1,0,0:0:0:0:
192,192,125554,1,0,0:0:0:0:
64,192,125643,1,0,0:0:0:0:
320,192,125643,1,0,0:0:0:0:
448,192,125701,1,0,0:0:0:0:
192,192,125760,1,0,0:0:0:0:
320,192,125819,1,0,0:0:0:0:
192,192,125907,1,0,0:0:0:0:
64,192,125995,1,0,0:0:0:0:
320,192,125995,1,0,0:0:0:0:
448,192,126054,1,0,0:0:0:0:
192,192,126113,1,0,0:0:0:0:
320,192,126172,1,0,0:0:0:0:
64,192,126260,1,0,0:0:0:0:
192,192,126260,1,0,0:0:0:0:
64,192,126348,1,0,0:0:0:0:
320,192,126437,1,0,0:0:0:0:
448,192,126437,1,0,0:0:0:0:
192,192,126495,1,0,0:0:0:0:
320,192,126554,1,0,0:0:0:0:
64,192,126635,1,0,0:0:0:0:
192,192,126701,1,0,0:0:0:0:
448,192,126701,1,0,0:0:0:0:
320,192,126745,1,0,0:0:0:0:
64,192,126790,1,0,0:0:0:0:
192,192,126834,1,0,0:0:0:0:
448,192,126878,1,0,0:0:0:0:
64,192,126922,1,0,0:0:0:0:
320,192,126966,1,0,0:0:0:0:
192,192,127010,1,0,0:0:0:0:
64,192,127054,1,0,0:0:0:0:
448,192,127054,1,0,0:0:0:0:
320,192,127113,1,0,0:0:0:0:
448,192,127172,1,0,0:0:0:0:
192,192,127231,1,0,0:0:0:0:
320,192,127319,1,0,0:0:0:0:
64,192,127407,1,0,0:0:0:0:
192,192,127407,1,0,0:0:0:0:
448,192,127466,1,0,0:0:0:0:
320,192,127525,1,0,0:0:0:0:
192,192,127584,1,0,0:0:0:0:
64,192,127672,1,0,0:0:0:0:
320,192,127760,1,0,0:0:0:0:
448,192,127760,1,0,0:0:0:0:
192,192,127819,1,0,0:0:0:0:
64,192,127878,1,0,0:0:0:0:
320,192,127937,1,0,0:0:0:0:
448,192,128025,1,0,0:0:0:0:
64,192,128113,1,0,0:0:0:0:
192,192,128113,1,0,0:0:0:0:
320,192,128172,1,0,0:0:0:0:
448,192,128231,1,0,0:0:0:0:
192,192,128290,1,0,0:0:0:0:
64,192,128378,1,0,0:0:0:0:
320,192,128466,1,0,0:0:0:0:
448,192,128466,1,0,0:0:0:0:
192,192,128525,1,0,0:0:0:0:
64,192,128584,1,0,0:0:0:0:
320,192,128643,1,0,0:0:0:0:
192,192,128701,1,0,0:0:0:0:
448,192,128760,1,0,0:0:0:0:
64,192,128819,1,0,0:0:0:0:
320,192,128819,1,0,0:0:0:0:
192,192,128907,1,0,0:0:0:0:
320,192,128995,1,0,0:0:0:0:
448,192,128995,1,0,0:0:0:0:
64,192,129084,1,0,0:0:0:0:
192,192,129172,1,0,0:0:0:0:
448,192,129172,1,0,0:0:0:0:
320,192,129231,1,0,0:0:0:0:
448,192,129290,1,0,0:0:0:0:
192,192,129348,1,0,0:0:0:0:
320,192,129407,1,0,0:0:0:0:
64,192,129466,1,0,0:0:0:0:
320,192,129525,1,0,0:0:0:0:
448,192,129525,1,0,0:0:0:0:
192,192,129569,1,0,0:0:0:0:
64,192,129613,1,0,0:0:0:0:
448,192,129657,1,0,0:0:0:0:
320,192,129701,1,0,0:0:0:0:
192,192,129760,1,0,0:0:0:0:
64,192,129819,1,0,0:0:0:0:
192,192,129878,1,0,0:0:0:0:
448,192,130143,1,0,0:0:0:0:
448,192,130407,1,0,0:0:0:0:
448,192,130672,1,0,0:0:0:0:
448,192,130937,1,0,0:0:0:0:
64,192,131290,1,0,0:0:0:0:
64,192,131554,1,0,0:0:0:0:
64,192,131819,1,0,0:0:0:0:
64,192,132084,1,0,0:0:0:0:
64,192,132348,1,0,0:0:0:0:
192,192,132415,1,0,0:0:0:0:
448,192,132481,1,0,0:0:0:0:
320,192,132554,1,0,0:0:0:0:
192,192,132635,1,0,0:0:0:0:
320,192,132701,1,0,0:0:0:0:
320,192,132966,1,0,0:0:0:0:
320,192,133231,1,0,0:0:0:0:
320,192,133495,1,0,0:0:0:0:
320,192,133760,1,0,0:0:0:0:
192,192,134113,1,0,0:0:0:0:
192,192,134378,1,0,0:0:0:0:
192,192,134643,1,0,0:0:0:0:
192,192,134907,1,0,0:0:0:0:
448,192,134995,128,0,135172:0:0:0:0:
192,192,135172,1,0,0:0:0:0:
64,192,135260,1,0,0:0:0:0:
192,192,135348,1,0,0:0:0:0:
64,192,135437,1,0,0:0:0:0:
320,192,135525,1,0,0:0:0:0:
320,192,135790,1,0,0:0:0:0:
320,192,136054,1,0,0:0:0:0:
320,192,136319,1,0,0:0:0:0:
320,192,136584,1,0,0:0:0:0:
64,192,136937,1,0,0:0:0:0:
64,192,137201,1,0,0:0:0:0:
64,192,137466,1,0,0:0:0:0:
320,192,137554,1,0,0:0:0:0:
64,192,137731,1,0,0:0:0:0:
320,192,137819,1,0,0:0:0:0:
192,192,137995,128,0,138348:0:0:0:0:
448,192,137995,1,0,0:0:0:0:
448,192,138348,1,0,0:0:0:0:
448,192,138613,1,0,0:0:0:0:
448,192,138878,1,0,0:0:0:0:
448,192,139143,1,0,0:0:0:0:
448,192,139407,1,0,0:0:0:0:
192,192,139760,1,0,0:0:0:0:
192,192,140025,1,0,0:0:0:0:
192,192,140290,1,0,0:0:0:0:
320,192,140378,1,0,0:0:0:0:
64,192,140466,128,0,140819:0:0:0:0:
448,192,140466,128,0,140819:0:0:0:0:
192,192,140554,1,0,0:0:0:0:
320,192,140643,1,0,0:0:0:0:
