osu file format v14

[General]
AudioFilename: audio.mp3
AudioLeadIn: 0
PreviewTime: 244241
Countdown: 0
SampleSet: Normal
StackLeniency: 0.7
Mode: 1
LetterboxInBreaks: 0
WidescreenStoryboard: 0

[Editor]
DistanceSpacing: 0.2
BeatDivisor: 8
GridSize: 32
TimelineZoom: 3.699994

[Metadata]
Title:Stealth-Dash
TitleUnicode:Σtealth-Δash
Artist:Camellia
ArtistUnicode:かめりあ
Creator:Rhytoly
Version:Over-Drive
Source:
Tags:High SV gimmick fa featured artist heart of android かめるかめりあ KamelCamellia cametek CTCD-018 hardcore drumstep electronic instrumental C95 Comiket 95
BeatmapID:1959522
BeatmapSetID:938080

[Difficulty]
HPDrainRate:4.5
CircleSize:7
OverallDifficulty:7.5
ApproachRate:10
SliderMultiplier:1.4
SliderTickRate:1

[Events]
//Background and Video events
0,0,"anime in camellia.jpg",0,75
//Break Periods
2,2544,6316
2,8061,11317
2,180992,183101
//Storyboard Layer 0 (Background)
//Storyboard Layer 1 (Fail)
//Storyboard Layer 2 (Pass)
//Storyboard Layer 3 (Foreground)
//Storyboard Sound Samples

[TimingPoints]
12517,344.827586206897,4,1,0,50,1,0
12517,-111.111111111111,4,1,0,50,0,0
17861,-105.263157894737,4,1,0,50,0,0
18034,-100,4,1,0,70,0,0
23551,-111.111111111111,4,1,0,60,0,0
23810,-110.535344781847,4,1,0,60,0,0
24068,-109.965635738832,4,1,0,60,0,0
24327,-109.401649558072,4,1,0,60,0,0
24585,-108.843537414966,4,1,0,60,0,0
24758,-108.474576271186,4,1,0,60,0,0
24930,-108.108108108108,4,1,0,60,0,0
25189,-107.562967361093,4,1,0,60,0,0
25275,-107.38255033557,4,1,0,60,0,0
25448,-107.023411371237,4,1,0,60,0,0
25706,-106.489127992478,4,1,0,60,0,0
25792,-106.312292358804,4,1,0,60,0,0
25965,-105.960264900662,4,1,0,60,0,0
26137,-105.610561056106,4,1,0,60,0,0
26310,-105.263157894737,4,1,0,60,0,0
26568,-104.746262653349,4,1,0,60,0,0
26654,-104.575163398693,4,1,0,60,0,0
26827,-104.234527687296,4,1,0,60,0,0
26999,-103.896103896104,4,1,0,60,0,0
27085,-103.727660951618,4,1,0,60,0,0
27172,-103.559870550162,4,1,0,60,0,0
27344,-103.225806451613,4,1,0,60,0,0
27517,-102.893890675241,4,1,0,60,0,0
27689,-102.564102564103,4,1,0,60,0,0
27948,-102.073313136427,4,1,0,60,0,0
28034,-101.910828025478,4,1,0,60,0,0
28206,-101.587301587302,4,1,0,60,0,0
28379,-101.26582278481,4,1,0,60,0,0
28465,-101.105794069741,4,1,0,60,0,0
28551,-100.946372239748,4,1,0,60,0,0
28723,-100.62893081761,4,1,0,60,0,0
28896,-100.313479623824,4,1,0,60,0,0
29068,-100,4,1,0,65,0,0
29154,-99.379968377294,4,1,0,65,0,0
29241,-98.767578159723,4,1,0,65,0,0
29327,-98.1625925918655,4,1,0,65,0,0
29413,-97.565068583365,4,1,0,65,0,0
29499,-96.9747749215474,4,1,0,65,0,0
29585,-96.3915811593015,4,1,0,65,0,0
29672,-95.8153599687259,4,1,0,65,0,0
29758,-95.2459870484507,4,1,0,70,0,0
29844,-94.6832513849793,4,1,0,70,0,0
29930,-94.1272148133646,4,1,0,70,0,0
30017,-93.5776708704876,4,1,0,70,0,0
30103,-93.0345064984603,4,1,0,70,0,0
30189,-92.4976112491895,4,1,0,70,0,0
30275,-91.9668772095042,4,1,0,70,0,0
30361,-91.4421153121651,4,1,0,70,0,0
30448,-90.9233906787158,4,1,0,75,0,0
30534,-90.4105179980218,4,1,0,75,0,0
30620,-89.9033987979916,4,1,0,75,0,0
30706,-89.4019368035589,4,1,0,75,0,0
30792,-88.9060378757502,4,1,0,75,0,0
30879,-88.4155317796367,4,1,0,75,0,0
30965,-87.9304856752446,4,1,0,75,0,0
31051,-87.4507324436096,4,1,0,75,0,0
31137,-86.976185920295,4,1,0,80,0,0
31223,-86.5067618010362,4,1,0,80,0,0
31310,-86.0423775918115,4,1,0,80,0,0
31396,-85.5828793161586,4,1,0,80,0,0
31482,-85.1283352217636,4,1,0,80,0,0
31568,-84.6785939288835,4,1,0,80,0,0
31654,-84.233579716554,4,1,0,80,0,0
31741,-83.7932184472446,4,1,0,80,0,0
31827,-83.3574375256845,4,1,0,85,0,0
31884,-83.0693803771848,4,1,0,85,0,0
31942,-82.7833757736106,4,1,0,85,0,0
31999,-82.4992657565348,4,1,0,85,0,0
32085,-82.0768058333627,4,1,0,85,0,0
32172,-81.6586505091417,4,1,0,85,0,0
32229,-81.3822614340043,4,1,0,85,0,0
32287,-81.107671244654,4,1,0,85,0,0
32344,-80.8349931451926,4,1,0,85,0,0
32430,-80.4292994286303,4,1,0,85,0,0
32517,-80.0277216027632,4,1,0,90,0,0
32574,-79.7622447009953,4,1,0,90,0,0
32631,-79.4984601148276,4,1,0,90,0,0
32689,-79.236477304692,4,1,0,90,0,0
32775,-78.8466936427488,4,1,0,90,0,0
32861,-78.4607260912514,4,1,0,90,0,0
32919,-78.2054660928471,4,1,0,90,0,0
32976,-77.9519223723576,4,1,0,90,0,0
33034,-77.6999569542239,4,1,0,90,0,0
33120,-77.3251080038446,4,1,0,90,0,0
33206,-76.9538584664635,4,1,0,90,0,0
34241,-66.6666666666667,4,1,0,80,0,0
34327,-61.5384615384615,4,1,0,80,0,0
34413,-57.1428571428571,4,1,0,80,0,0
34499,-54.7945205479452,4,1,0,80,0,0
34585,-50,4,1,0,80,0,0
35448,-66.6666666666667,4,1,0,80,0,0
35965,-50,4,1,0,80,0,0
36827,-66.6666666666667,4,1,0,80,0,0
37172,-57.1428571428571,4,1,0,80,0,0
37258,-53.3333333333333,4,1,0,80,0,0
37344,-50,4,1,0,80,0,0
38379,-58.8235294117647,4,1,0,80,0,0
38465,-60.6060606060606,4,1,0,80,0,0
38551,-62.5,4,1,0,80,0,0
38637,-64.5161290322581,4,1,0,80,0,0
38723,-66.6666666666667,4,1,0,80,0,0
39758,-66.6666666666667,4,1,0,80,0,0
39844,-61.6352193505004,4,1,0,80,0,0
39930,-57.3099401798844,4,1,0,80,0,0
40017,-53.5519108125057,4,1,0,80,0,0
40103,-50,4,1,0,80,0,0
41137,-66.6666666666667,4,1,0,80,0,0
41223,-61.6666522777811,4,1,0,80,0,0
41310,-57.3643490895991,4,1,0,80,0,0
41396,-53.6231845200591,4,1,0,80,0,0
41482,-50,4,1,0,80,0,0
42344,-61.5384615384615,4,1,0,80,0,0
42430,-57.3065902578797,4,1,0,80,0,0
42517,-53.6193029490617,4,1,0,80,0,0
42603,-50,4,1,0,80,0,0
45275,-66.6666666666667,4,1,0,80,0,0
45361,-61.5384615384615,4,1,0,80,0,0
45447,-57.1428571428571,4,1,0,80,0,0
45533,-53.3333333333333,4,1,0,80,0,0
45619,-50,4,1,0,80,0,0
45620,-50,4,1,0,80,0,0
46482,-66.6666666666667,4,1,0,80,0,0
46999,-50,4,1,0,80,0,0
47861,-66.6666666666667,4,1,0,80,0,0
48206,-57.1428571428571,4,1,0,80,0,0
48292,-53.3333333333333,4,1,0,80,0,0
48379,-50,4,1,0,80,0,0
49413,-58.8235294117647,4,1,0,80,0,0
49499,-60.6060606060606,4,1,0,80,0,0
49585,-62.5,4,1,0,80,0,0
49672,-64.5161290322581,4,1,0,80,0,0
49758,-66.6666666666667,4,1,0,80,0,0
50792,-66.6666666666667,4,1,0,80,0,0
50878,-61.6352193505004,4,1,0,80,0,0
50964,-57.3099401798844,4,1,0,80,0,0
51051,-53.5519108125057,4,1,0,80,0,0
51137,-50,4,1,0,80,0,0
52172,-66.6666666666667,4,1,0,80,0,0
52517,-50,4,1,0,80,0,0
53379,-61.5384615384615,4,1,0,80,0,0
53465,-57.1428571428571,4,1,0,80,0,0
53551,-53.3333333333333,4,1,0,80,0,0
53637,-50,4,1,0,80,0,0
53896,-47.6190476190476,4,1,0,80,0,0
54154,-45.4545454545455,4,1,0,80,0,0
54413,-43.4782608695652,4,1,0,80,0,0
54672,-41.6666666666667,4,1,0,80,0,0
54930,-40,4,1,0,80,0,0
56654,-80,4,1,0,50,0,0
56913,-81.1143818232404,4,1,0,50,0,0
57172,-82.2601807256171,4,1,0,50,0,0
57430,-83.4388835209874,4,1,0,50,0,0
57689,-84.6517848828842,4,1,0,50,0,0
57861,-85.4802408149344,4,1,0,50,0,0
58034,-86.3249980792688,4,1,0,50,0,0
58292,-87.6239879429393,4,1,0,50,0,0
58551,-88.9625894518837,4,1,0,50,0,0
58810,-90.342805776519,4,1,0,50,0,0
59068,-91.7665239391331,4,1,0,50,0,0
59241,-92.7408061401833,4,1,0,50,0,0
59413,-93.7359981852711,4,1,0,50,0,0
59672,-95.2695795658184,4,1,0,50,0,0
59930,-96.8541763520843,4,1,0,50,0,0
60189,-98.4922801750799,4,1,0,50,0,0
60448,-100.186848472401,4,1,0,50,0,0
60620,-101.349262734788,4,1,0,50,0,0
60792,-102.538967371075,4,1,0,50,0,0
61051,-104.376942715846,4,1,0,50,0,0
61310,-106.282010813132,4,1,0,50,0,0
61568,-108.257796455856,4,1,0,50,0,0
61827,-110.308555090299,4,1,0,50,0,0
61999,-111.719360965255,4,1,0,50,0,0
62172,-113.166849808352,4,1,0,50,0,0
62430,-115.409606003146,4,1,0,50,0,0
62689,-117.743192677315,4,1,0,50,0,0
62948,-120.172952913834,4,1,0,50,0,0
63206,-122.705258288433,4,1,0,50,0,0
63379,-124.453493596245,4,1,0,50,0,0
63551,-126.252424046542,4,1,0,50,0,0
63810,-129.050241840153,4,1,0,50,0,0
64068,-131.975046158272,4,1,0,50,0,0
64327,-135.035500833169,4,1,0,50,0,0
64585,-138.241075847349,4,1,0,50,0,0
64758,-140.464234294343,4,1,0,50,0,0
64930,-142.857142857143,4,1,0,50,0,0
65189,-132.282306315554,4,1,0,50,0,0
65448,-123.165298916022,4,1,0,50,0,0
65706,-115.223833819578,4,1,0,50,0,0
65965,-108.244554757673,4,1,0,50,0,0
66137,-104.04311546705,4,1,0,50,0,0
66310,-100.155641867462,4,1,0,50,0,0
67689,-83.3333333333333,4,1,0,80,0,0
70275,-81.9672131147541,4,1,0,80,0,0
70333,-81.3008130081301,4,1,0,80,0,0
70390,-80.6451612903226,4,1,0,80,0,0
70448,-80,4,1,0,80,0,0
73034,-78.7401574803149,4,1,0,80,0,0
73091,-78.125,4,1,0,80,0,0
73149,-77.5193798449612,4,1,0,80,0,0
73206,-76.9230769230769,4,1,0,80,0,0
73292,-76.6777670514101,4,1,0,80,0,0
73379,-76.433958384767,4,1,0,80,0,0
73465,-76.1917533093888,4,1,0,80,0,0
73551,-75.9510207057673,4,1,0,80,0,0
73637,-75.7118618531084,4,1,0,80,0,0
73723,-75.4741474628988,4,1,0,80,0,0
73810,-75.2379777235396,4,1,0,80,0,0
73896,-75.003225138681,4,1,0,80,0,0
73982,-74.7699888218867,4,1,0,80,0,0
74068,-74.5381985906317,4,1,0,80,0,0
74154,-74.3077858211828,4,1,0,80,0,0
74241,-74.0788480442814,4,1,0,80,0,0
74327,-73.8512620811433,4,1,0,80,0,0
74413,-73.6251244264603,4,1,0,80,0,0
74499,-73.4003135661396,4,1,0,80,0,0
74585,-73.1769249738941,4,1,0,80,0,0
74672,-72.9548387661586,4,1,0,80,0,0
74758,-72.7341494104897,4,1,0,80,0,0
74844,-72.5147912045359,4,1,0,80,0,0
74930,-72.2966998725409,4,1,0,80,0,0
75017,-72.0799684001419,4,1,0,80,0,0
75103,-71.8644808366175,4,1,0,80,0,0
75189,-71.6503291974375,4,1,0,80,0,0
75275,-71.4373990500255,4,1,0,80,0,0
75361,-71.2257814536612,4,1,0,80,0,0
75448,-71.0153634637317,4,1,0,80,0,0
75534,-70.8062351970715,4,1,0,80,0,0
75620,-70.5983350088672,4,1,0,80,0,0
75706,-70.3916025633806,4,1,0,80,0,0
75792,-70.1861265891016,4,1,0,80,0,0
75879,-69.9817977344093,4,1,0,80,0,0
75965,-69.7787038187093,4,1,0,80,0,0
76022,-69.6439453295029,4,1,0,80,0,0
76080,-69.5097063353927,4,1,0,80,0,0
76137,-69.3759838381708,4,1,0,80,0,0
76223,-69.1763380952019,4,1,0,80,0,0
76310,-68.9778856898478,4,1,0,80,0,0
76367,-68.8461996553559,4,1,0,80,0,0
76425,-68.71501546775,4,1,0,80,0,0
76482,-68.5843302637273,4,1,0,80,0,0
76568,-68.3892552273327,4,1,0,80,0,0
76654,-68.1952402450119,4,1,0,80,0,0
76712,-68.0665227740375,4,1,0,80,0,0
76769,-67.9382902921618,4,1,0,80,0,0
76827,-67.8105400634842,4,1,0,80,0,0
76913,-67.6198358731344,4,1,0,80,0,0
76999,-67.4301558445762,4,1,0,80,0,0
77057,-67.3043076776043,4,1,0,80,0,0
77114,-67.1789283886059,4,1,0,80,0,0
77172,-67.0540603245148,4,1,0,80,0,0
77258,-66.8675367470548,4,1,0,80,0,0
77344,-66.6820924573885,4,1,0,80,0,0
77517,-71.4285714285714,4,1,0,80,0,0
77689,-76.9230769230769,4,1,0,80,0,0
78034,-90.9090909090909,4,1,0,80,0,0
78379,-76.9230769230769,4,1,0,80,0,0
78465,-74.0740740740741,4,1,0,80,0,0
78551,-71.4285714285714,4,1,0,80,0,0
78637,-68.9655172413793,4,1,0,80,0,0
78723,-66.6666666666667,4,1,0,85,0,1
79068,-83.3333333333333,4,1,0,85,0,1
79240,-81.0962263492993,4,1,0,85,0,1
79283,-80.5555756944495,4,1,0,85,0,1
79412,-78.9760284060979,4,1,0,85,0,1
79456,-78.4631886027511,4,1,0,85,0,1
79586,-76.9639270074116,4,1,0,85,0,1
79672,-75.9958111108916,4,1,0,85,0,1
79758,-75.0517481803704,4,1,0,85,0,1
79930,-73.2323361774332,4,1,0,85,0,1
79988,-72.6452760229908,4,1,0,85,0,1
80045,-72.0676051790664,4,1,0,85,0,1
80103,-71.4285714285714,4,1,0,85,0,1
80275,-72.7272727272727,4,1,0,85,0,1
80361,-73.394495412844,4,1,0,85,0,1
80448,-74.0740740740741,4,1,0,85,0,1
80620,-75.4716981132076,4,1,0,85,0,1
80663,-75.8293838862559,4,1,0,85,0,1
80792,-76.9230769230769,4,1,0,85,0,1
80835,-77.2946859903382,4,1,0,85,0,1
80965,-78.4313725490196,4,1,0,85,0,1
81051,-79.2079207920792,4,1,0,85,0,1
81137,-80,4,1,0,85,0,1
81310,-81.6326530612245,4,1,0,85,0,1
81482,-83.3333333333333,4,1,0,85,0,1
81568,-82.4742268041237,4,1,0,85,0,1
81654,-81.6326530612245,4,1,0,85,0,1
81741,-80.8080808080808,4,1,0,85,0,1
81827,-80,4,1,0,85,0,1
81999,-78.4313725490196,4,1,0,85,0,1
82172,-76.9230769230769,4,1,0,85,0,1
82258,-76.1904761904762,4,1,0,85,0,1
82344,-75.4716981132076,4,1,0,85,0,1
82430,-74.7663551401869,4,1,0,85,0,1
82517,-74.0740740740741,4,1,0,85,0,1
82574,-73.6196499680123,4,1,0,85,0,1
82631,-73.1707138608015,4,1,0,85,0,1
82689,-72.7272727272727,4,1,0,85,0,1
82861,-71.4285714285714,4,1,0,85,0,1
82919,-71.8540500535313,4,1,0,85,0,1
82976,-72.2846279510199,4,1,0,85,0,1
83034,-72.7203973442511,4,1,0,85,0,1
83120,-73.384046601805,4,1,0,85,0,1
83206,-74.0598655517201,4,1,0,85,0,1
83249,-74.4024921858783,4,1,0,85,0,1
83379,-75.4495472649916,4,1,0,85,0,1
83422,-75.8051837100725,4,1,0,85,0,1
83551,-76.8924382438382,4,1,0,85,0,1
83594,-77.2617806831641,4,1,0,85,0,1
83723,-78.3915312061008,4,1,0,85,0,1
83810,-79.1632758396849,4,1,0,85,0,1
83896,-79.9503028917225,4,1,0,85,0,1
84068,-78.4313725490196,4,1,0,85,0,1
84241,-76.9230769230769,4,1,0,85,0,1
84327,-74.0740740740741,4,1,0,85,0,1
84413,-71.4285714285714,4,1,0,85,0,1
84499,-68.9655172413793,4,1,0,85,0,1
84585,-66.6666666666667,4,1,0,85,0,1
84930,-76.9230769230769,4,1,0,85,0,1
84988,-76.4381649642613,4,1,0,85,0,1
85045,-75.9592706390833,4,1,0,85,0,1
85103,-75.4863965964693,4,1,0,85,0,1
85275,-74.1023427455659,4,1,0,85,0,1
85448,-72.7681816759531,4,1,0,85,0,1
85534,-72.1189558906042,4,1,0,85,0,1
85620,-71.4812122355821,4,1,0,85,0,1
85792,-72.7272727272727,4,1,0,85,0,1
85879,-73.394495412844,4,1,0,85,0,1
85965,-74.0740740740741,4,1,0,85,0,1
86137,-75.4716981132076,4,1,0,85,0,1
86223,-76.1904761904762,4,1,0,85,0,1
86310,-76.9230769230769,4,1,0,85,0,1
86396,-77.6699029126214,4,1,0,85,0,1
86568,-79.2079207920792,4,1,0,85,0,1
86654,-80,4,1,0,85,0,1
86827,-81.6326530612245,4,1,0,85,0,1
86913,-82.4742268041237,4,1,0,85,0,1
86999,-83.3333333333333,4,1,0,85,0,1
87085,-82.478648339911,4,1,0,85,0,1
87172,-81.6413170377265,4,1,0,85,0,1
87344,-80.016579435259,4,1,0,85,0,1
87517,-78.4553091099951,4,1,0,85,0,1
87603,-77.6972402717228,4,1,0,85,0,1
87689,-76.9537400287191,4,1,0,85,0,1
87775,-76.2243343138324,4,1,0,85,0,1
87861,-75.5086261054463,4,1,0,85,0,1
87948,-74.806177194888,4,1,0,85,0,1
88034,-74.1167323711499,4,1,0,85,0,1
88206,-72.7752779469803,4,1,0,85,0,1
88292,-72.1225968750721,4,1,0,85,0,1
88379,-71.4814677146803,4,1,0,85,0,1
88436,-71.856270214067,4,1,0,85,0,1
88494,-72.2891740455841,4,1,0,85,0,1
88551,-72.7272727272727,4,1,0,85,0,1
88723,-74.0740740740741,4,1,0,85,0,1
88810,-74.7663551401869,4,1,0,85,0,1
88896,-75.4716981132076,4,1,0,85,0,1
88982,-76.1904761904762,4,1,0,85,0,1
89068,-76.9230769230769,4,1,0,85,0,1
89241,-74.1023427455659,4,1,0,85,0,1
89327,-72.7681816759531,4,1,0,85,0,1
89499,-70.2389740614493,4,1,0,85,0,1
89585,-69.0391272349692,4,1,0,85,0,1
89643,-68.2618086102715,4,1,0,85,0,1
89700,-67.5017533580435,4,1,0,85,0,1
89758,-66.7584372650937,4,1,0,85,0,1
90103,-83.3333333333333,4,1,0,85,0,1
90275,-81.0811029948927,4,1,0,85,0,1
90318,-80.5368911310359,4,1,0,85,0,1
90448,-78.9473476454348,4,1,0,85,0,1
90491,-78.4313725490196,4,1,0,85,0,1
90620,-76.9230769230769,4,1,0,85,0,1
90706,-75.9493478609246,4,1,0,85,0,1
90792,-75.0000187500047,4,1,0,85,0,1
90965,-73.1707138608015,4,1,0,85,0,1
91022,-72.5806334547365,4,1,0,85,0,1
91080,-71.9999942400005,4,1,0,85,0,1
91137,-71.4285714285714,4,1,0,85,0,1
91310,-72.7203973442511,4,1,0,85,0,1
91396,-73.384046601805,4,1,0,85,0,1
91482,-74.0598655517201,4,1,0,85,0,1
91654,-75.4495472649916,4,1,0,85,0,1
91698,-75.8051837100725,4,1,0,85,0,1
91827,-76.8924382438382,4,1,0,85,0,1
91870,-77.2617806831641,4,1,0,85,0,1
91999,-78.3915312061008,4,1,0,85,0,1
92085,-79.1632758396849,4,1,0,85,0,1
92258,-80.7531360480384,4,1,0,85,0,1
92344,-81.5722562967664,4,1,0,85,0,1
92430,-82.4081643416577,4,1,0,85,0,1
92517,-83.2614509473488,4,1,0,85,0,1
92689,-81.6326530612245,4,1,0,85,0,1
92775,-80.8080808080808,4,1,0,85,0,1
92861,-80,4,1,0,85,0,1
93034,-78.4313725490196,4,1,0,85,0,1
93206,-76.9230769230769,4,1,0,85,0,1
93292,-76.1904761904762,4,1,0,85,0,1
93465,-74.7663551401869,4,1,0,85,0,1
93551,-74.0740740740741,4,1,0,85,0,1
93608,-73.6196499680123,4,1,0,85,0,1
93666,-73.1707138608015,4,1,0,85,0,1
93723,-72.7272727272727,4,1,0,85,0,1
93810,-72.0720720720721,4,1,0,85,0,1
93896,-71.4285714285714,4,1,0,85,0,1
94068,-73.1707138608015,4,1,0,85,0,1
94154,-74.0740740740741,4,1,0,85,0,1
94327,-75.9493478609246,4,1,0,85,0,1
94413,-76.9230769230769,4,1,0,85,0,1
94585,-78.9473476454348,4,1,0,85,0,1
94672,-80,4,1,0,85,0,1
94758,-81.0811029948927,4,1,0,85,0,1
94844,-82.1917583036279,4,1,0,85,0,1
94930,-83.3333333333333,4,1,0,85,0,1
95189,-52.6315789473684,4,1,0,85,0,1
95275,-50,4,1,0,85,0,1
95620,-50,4,1,0,85,0,1
95706,-51.7241468489908,4,1,0,85,0,1
95965,-57.6923187869844,4,1,0,85,0,1
96051,-59.9999880000024,4,1,0,85,0,1
96137,-62.5,4,1,0,85,0,1
96223,-65.2174054820447,4,1,0,85,0,1
96310,-68.1818026859539,4,1,0,85,0,1
96396,-71.4285714285714,4,1,0,85,0,1
96482,-75.0000187500047,4,1,0,85,0,1
96568,-78.9473476454348,4,1,0,85,0,1
96654,-83.3333333333333,4,1,0,85,0,1
96999,-50,4,1,0,85,0,1
97085,-51.7118429945708,4,1,0,85,0,1
97344,-57.6311743158603,4,1,0,85,0,1
97430,-59.9173380404394,4,1,0,85,0,1
97517,-62.3924120844119,4,1,0,85,0,1
97603,-65.0807782619788,4,1,0,85,0,1
97689,-68.0112490605946,4,1,0,85,0,1
97775,-71.218071158248,4,1,0,85,0,1
97861,-74.7422699675843,4,1,0,85,0,1
97948,-78.6334141684831,4,1,0,85,0,1
98034,-83.3333333333333,4,1,0,85,0,1
98206,-76.9230769230769,4,1,0,85,0,1
98379,-71.4285714285714,4,1,0,85,0,1
98465,-68.9655172413793,4,1,0,85,0,1
98551,-66.6666666666667,4,1,0,85,0,1
98723,-62.5,4,1,0,85,0,1
98810,-60.6060606060606,4,1,0,85,0,1
98896,-58.8235294117647,4,1,0,85,0,1
98982,-57.1428571428571,4,1,0,85,0,1
99068,-55.5555555555556,4,1,0,85,0,1
99154,-54.054054054054,4,1,0,85,0,1
99241,-52.6315789473684,4,1,0,85,0,1
99327,-51.2820512820513,4,1,0,85,0,1
99413,-50,4,1,0,85,0,1
99643,-46.1904858684828,4,1,0,85,0,1
99873,-42.9203522730833,4,1,0,85,0,1
100103,-40,4,1,0,85,0,0
100448,-58.8235294117647,4,1,0,75,0,0
100534,-60.6060606060606,4,1,0,75,0,0
100620,-62.5,4,1,0,75,0,0
100706,-64.5161290322581,4,1,0,75,0,0
100792,-66.6666666666667,4,1,0,85,0,1
100965,-68.9491121078088,4,1,0,85,0,1
101137,-71.3933846889747,4,1,0,85,0,1
101195,-72.2471314276467,4,1,0,85,0,1
101252,-73.1215440930223,4,1,0,85,0,1
101310,-74.0173822420457,4,1,0,85,0,1
101396,-75.4030102389748,4,1,0,85,0,1
101482,-76.8415657544804,4,1,0,85,0,1
101568,-78.3360176475381,4,1,0,85,0,1
101654,-79.8898159658199,4,1,0,85,0,1
101741,-81.5064345254736,4,1,0,85,0,1
101827,-83.189900080611,4,1,0,85,0,1
101999,-76.9230769230769,4,1,0,85,0,1
102085,-74.1839762611276,4,1,0,85,0,1
102172,-71.6332378223496,4,1,0,85,0,1
103206,-71.4285714285714,4,1,0,85,0,1
103292,-74.0181492501961,4,1,0,85,0,1
103379,-76.8024970027826,4,1,0,85,0,1
103465,-79.8045745578228,4,1,0,85,0,1
103551,-83.3333333333333,4,1,0,85,0,1
103723,-81.6326530612245,4,1,0,85,0,1
103810,-80.8080808080808,4,1,0,85,0,1
103896,-80,4,1,0,85,0,1
103982,-79.2079207920792,4,1,0,85,0,1
104068,-78.4313725490196,4,1,0,85,0,1
104154,-77.6699029126214,4,1,0,85,0,1
104241,-76.9230769230769,4,1,0,85,0,1
104327,-76.1904761904762,4,1,0,85,0,1
104413,-75.4716981132076,4,1,0,85,0,1
104585,-74.0740740740741,4,1,0,85,0,1
104629,-73.7327188940092,4,1,0,85,0,1
104758,-72.7272727272727,4,1,0,85,0,1
104801,-72.3981900452489,4,1,0,85,0,1
104930,-71.4285714285714,4,1,0,85,0,1
105017,-72.7203973442511,4,1,0,85,0,1
105103,-74.0598655517201,4,1,0,85,0,1
105189,-75.4495472649916,4,1,0,85,0,1
105275,-76.8924382438382,4,1,0,85,0,1
105333,-77.8853807582609,4,1,0,85,0,1
105390,-78.9043032828924,4,1,0,85,0,1
105448,-79.9503028917225,4,1,0,85,0,1
105534,-81.6326530612245,4,1,0,85,0,1
105620,-83.2614509473488,4,1,0,85,0,1
105792,-86.8587112773008,4,1,0,85,0,1
105879,-88.7764387331602,4,1,0,85,0,1
105965,-90.7808423372799,4,1,0,85,0,1
106137,-95.0739342449656,4,1,0,85,0,1
106310,-99.7931288439066,4,1,0,85,0,0
106654,-66.6666666666667,4,1,0,85,0,1
106827,-70.1373921374581,4,1,0,85,0,1
106913,-72.0118675557732,4,1,0,85,0,1
106999,-73.9893425750955,4,1,0,85,0,1
107085,-76.0784307758555,4,1,0,85,0,1
107172,-78.2889174208499,4,1,0,85,0,1
107258,-80.6317660130656,4,1,0,85,0,1
107344,-83.1190938688863,4,1,0,85,0,1
107517,-76.9230769230769,4,1,0,85,0,1
107574,-75.0000187500047,4,1,0,85,0,1
107631,-73.1707138608015,4,1,0,85,0,1
107689,-71.4285714285714,4,1,0,85,0,1
108723,-71.4285714285714,4,1,0,85,0,1
108810,-74.0181492501961,4,1,0,85,0,1
108896,-76.8024970027826,4,1,0,85,0,1
108982,-79.8045745578228,4,1,0,85,0,1
109068,-83.0508221200882,4,1,0,85,0,1
110879,-83.3333333333333,4,1,0,85,0,1
110965,-81.4814633744896,4,1,0,85,0,1
111137,-78.0141954630065,4,1,0,85,0,1
111310,-74.8299116109084,4,1,0,85,0,1
111396,-73.3333528888941,4,1,0,85,0,1
111568,-70.5128114727165,4,1,0,85,0,1
111654,-69.1823681816452,4,1,0,85,0,1
111712,-68.3229983411176,4,1,0,85,0,1
111769,-67.4846708570148,4,1,0,85,0,1
111827,-66.6666666666667,4,1,0,65,0,0
111999,-75.0000187500047,4,1,0,65,0,0
112085,-76.9230769230769,4,1,0,65,0,0
112258,-81.0811029948927,4,1,0,65,0,0
112344,-83.3333333333333,4,1,0,65,0,0
112517,-76.9230769230769,4,1,0,65,0,0
112603,-75.7575757575758,4,1,0,65,0,0
112689,-74.6268656716418,4,1,0,85,0,1
112861,-72.463768115942,4,1,0,85,0,1
112976,-71.0900305473861,4,1,0,85,0,1
113091,-69.7674580854554,4,1,0,85,0,1
113206,-68.9655172413793,4,1,0,85,0,1
113292,-69.5652173913043,4,1,0,85,0,1
113379,-70.1754385964912,4,1,0,85,0,1
113465,-70.7964601769911,4,1,0,85,0,1
113551,-71.4285714285714,4,1,0,85,0,1
114241,-71.4285714285714,4,1,0,85,0,1
114327,-74.0740740740741,4,1,0,85,0,1
114413,-76.9230769230769,4,1,0,85,0,1
114499,-80,4,1,0,85,0,1
114585,-83.3333333333333,4,1,0,85,0,1
117344,-90.9090909090909,4,1,0,85,0,0
117517,-100,4,1,0,85,0,0
117689,-80,4,1,0,85,0,1
117861,-79.2792564239981,4,1,0,85,0,1
117919,-79.0418858761635,4,1,0,85,0,1
117976,-78.8059946143983,4,1,0,85,0,1
118034,-78.5714454081669,4,1,0,85,0,1
118120,-78.2222277846918,4,1,0,85,0,1
118206,-77.876100681338,4,1,0,85,0,1
118292,-77.533023252929,4,1,0,85,0,1
118379,-77.1929553708928,4,1,0,85,0,1
118465,-76.8559166758894,4,1,0,85,0,1
118551,-76.5217497769391,4,1,0,85,0,1
118637,-76.1904761904762,4,1,0,85,0,1
118723,-75.862058501785,4,1,0,85,0,1
118810,-75.5364599384831,4,1,0,85,0,1
118896,-75.213700927761,4,1,0,85,0,1
118982,-74.8936323186994,4,1,0,85,0,1
119068,-74.5762762424594,4,1,0,85,0,1
119154,-74.2615983620862,4,1,0,85,0,1
119241,-73.9495649177348,4,1,0,85,0,1
119298,-73.7429953372304,4,1,0,85,0,1
119356,-73.5376306763697,4,1,0,85,0,1
119413,-73.3333528888941,4,1,0,85,0,1
119499,-73.0290553399576,4,1,0,85,0,1
119585,-72.7272727272727,4,1,0,85,0,1
119672,-72.4279740012545,4,1,0,85,0,1
119758,-72.1311286213433,4,1,0,85,0,1
119844,-71.8367581507782,4,1,0,85,0,1
119930,-71.5447294071017,4,1,0,85,0,1
120017,-71.2550653444577,4,1,0,85,0,1
120103,-70.9677373569202,4,1,0,85,0,1
120160,-70.7774692666534,4,1,0,85,0,1
120218,-70.588218685125,4,1,0,85,0,1
120275,-70.3999774720072,4,1,0,85,0,1
120361,-70.1195397914364,4,1,0,85,0,1
120448,-69.8412787100037,4,1,0,85,0,1
120505,-69.6569950250974,4,1,0,85,0,1
120562,-69.4736812853187,4,1,0,85,0,1
120620,-69.2913298530608,4,1,0,85,0,1
120706,-69.0195905205734,4,1,0,85,0,1
120792,-68.7500214843817,4,1,0,85,0,1
120850,-68.5714442449015,4,1,0,85,0,1
120907,-68.3937923058351,4,1,0,85,0,1
120965,-68.2170584940812,4,1,0,85,0,1
121051,-67.9536637557582,4,1,0,85,0,1
121137,-67.6922951952686,4,1,0,85,0,1
121195,-67.5191636266163,4,1,0,85,0,1
121252,-67.3469607663545,4,1,0,85,0,1
121310,-67.1755889283881,4,1,0,85,0,1
121396,-66.9201602336317,4,1,0,85,0,1
121482,-66.6666666666667,4,1,0,85,0,0
121654,-68.9491121078088,4,1,0,85,0,0
121827,-71.3933846889747,4,1,0,85,0,0
121999,-74.0173822420457,4,1,0,85,0,0
122085,-75.4030102389748,4,1,0,85,0,0
122172,-76.8415657544804,4,1,0,85,0,0
122258,-78.3360176475381,4,1,0,85,0,0
122344,-79.8898159658199,4,1,0,85,0,0
122430,-81.5064345254736,4,1,0,85,0,0
122517,-83.189900080611,4,1,0,80,0,0
122861,-90.9090909090909,4,1,0,80,0,0
125448,-89.2857142857143,4,1,0,80,0,0
125505,-88.4955752212389,4,1,0,80,0,0
125562,-87.719298245614,4,1,0,80,0,0
125620,-86.9565217391304,4,1,0,80,0,0
128206,-85.4700854700855,4,1,0,80,0,0
128264,-84.7457627118644,4,1,0,80,0,0
128321,-84.0336134453781,4,1,0,80,0,0
128379,-83.3333333333333,4,1,0,80,0,0
128465,-82.9023104044887,4,1,0,80,0,0
128551,-82.4757232708552,4,1,0,80,0,0
128637,-82.0534364799732,4,1,0,80,0,0
128723,-81.6355186345317,4,1,0,80,0,0
128810,-81.2218363282532,4,1,0,80,0,0
128896,-80.8123254958846,4,1,0,80,0,0
128982,-80.4069233577288,4,1,0,80,0,0
129068,-80.0055683875598,4,1,0,80,0,0
129154,-79.6081369068895,4,1,0,80,0,0
129241,-79.2146971780556,4,1,0,80,0,0
129327,-78.8251272434617,4,1,0,80,0,0
129413,-78.4393702887353,4,1,0,80,0,0
129499,-78.0573706062482,4,1,0,80,0,0
129585,-77.679073568297,4,1,0,80,0,0
129672,-77.3043658413653,4,1,0,80,0,0
129758,-76.9333149719155,4,1,0,80,0,0
129844,-76.5658090785611,4,1,0,80,0,0
129930,-76.2017976004054,4,1,0,80,0,0
130017,-75.8412309335146,4,1,0,80,0,0
130103,-75.4840604083839,4,1,0,80,0,0
130189,-75.130181822553,4,1,0,80,0,0
130275,-74.7796617267222,4,1,0,80,0,0
130361,-74.4323971474528,4,1,0,80,0,0
130448,-74.0883429401218,4,1,0,80,0,0
130534,-73.7474547909665,4,1,0,80,0,0
130620,-73.4096891980579,4,1,0,80,0,0
130706,-73.0749500532716,4,1,0,80,0,0
130792,-72.7433027059781,4,1,0,80,0,0
130879,-72.4146520910455,4,1,0,80,0,0
130965,-72.088957773893,4,1,0,80,0,0
131051,-71.7661800441219,4,1,0,80,0,0
131137,-71.4462798993751,4,1,0,80,0,0
131195,-71.2345590189007,4,1,0,80,0,0
131252,-71.024139684596,4,1,0,80,0,0
131310,-70.8149096543383,4,1,0,80,0,0
131396,-70.5034155379657,4,1,0,80,0,0
131482,-70.194649763795,4,1,0,80,0,0
131539,-69.9903203386972,4,1,0,80,0,0
131597,-69.787128322478,4,1,0,80,0,0
131654,-69.585161103565,4,1,0,80,0,0
131741,-69.2843206810926,4,1,0,80,0,0
131827,-68.9861179234903,4,1,0,80,0,0
131884,-68.7887538642082,4,1,0,80,0,0
131942,-68.5924688212933,4,1,0,80,0,0
131999,-68.397347550862,4,1,0,80,0,0
132085,-68.106715049677,4,1,0,80,0,0
132172,-67.818541996293,4,1,0,80,0,0
132229,-67.6277471236229,4,1,0,80,0,0
132287,-67.4380682500226,4,1,0,80,0,0
132344,-67.2494051790112,4,1,0,80,0,0
132430,-66.9684263960071,4,1,0,80,0,0
132517,-66.689785792408,4,1,0,80,0,0
132689,-71.4285714285714,4,1,0,80,0,0
132861,-76.9230769230769,4,1,0,80,0,0
133206,-90.9090909090909,4,1,0,80,0,0
133551,-66.6666666666667,4,1,0,80,0,0
133637,-61.5384615384615,4,1,0,80,0,0
133723,-57.1428571428571,4,1,0,80,0,0
133810,-53.3333333333333,4,1,0,80,0,0
133896,-50,4,1,0,90,0,1
134241,-57.1428571428571,4,1,0,90,0,1
134298,-57.7933460208992,4,1,0,90,0,1
134356,-58.4588151801175,4,1,0,90,0,1
134413,-59.1397881257951,4,1,0,90,0,1
134585,-61.2813438753587,4,1,0,90,0,1
134758,-63.5838260549987,4,1,0,90,0,1
134801,-64.18670629126,4,1,0,90,0,1
134930,-66.0660819377975,4,1,0,90,0,1
134973,-66.7171938214541,4,1,0,90,0,1
135103,-68.7500214843817,4,1,0,90,0,1
135146,-69.455393315474,4,1,0,90,0,1
135275,-71.6612144426012,4,1,0,90,0,1
135448,-74.8299116109084,4,1,0,90,0,1
135491,-75.666374846681,4,1,0,90,0,1
135620,-78.2917982295093,4,1,0,90,0,1
135663,-79.2079207920792,4,1,0,90,0,1
135792,-82.0895399866358,4,1,0,90,0,1
135835,-83.0972678449305,4,1,0,90,0,1
135965,-86.2745030372939,4,1,0,90,0,1
136022,-87.7659527784068,4,1,0,90,0,1
136080,-89.3098757967557,4,1,0,90,0,1
136137,-90.9090909090909,4,1,0,90,0,1
136310,-86.9565217391304,4,1,0,90,0,1
136367,-85.1063829787234,4,1,0,90,0,1
136425,-83.3333333333333,4,1,0,90,0,1
136482,-81.6326530612245,4,1,0,90,0,1
136539,-80,4,1,0,90,0,1
136597,-78.4313725490196,4,1,0,90,0,1
136654,-76.9230769230769,4,1,0,90,0,1
138379,-76.9230769230769,4,1,0,90,0,1
138436,-76.1421513051145,4,1,0,90,0,1
138494,-75.3768654831996,4,1,0,90,0,1
138551,-74.6268656716418,4,1,0,90,0,1
138608,-73.8916438156758,4,1,0,90,0,1
138666,-73.1707138608015,4,1,0,90,0,1
138723,-72.463768115942,4,1,0,90,0,1
138896,-70.4225352112676,4,1,0,90,0,1
138953,-69.7674580854554,4,1,0,90,0,1
139011,-69.1244080358507,4,1,0,90,0,1
139068,-68.4931506849315,4,1,0,90,0,1
139126,-67.8733185233752,4,1,0,90,0,1
139183,-67.2645589092917,4,1,0,90,0,1
139241,-66.6666666666667,4,1,0,90,0,1
139413,-50,4,1,0,90,0,1
139758,-57.1428571428571,4,1,0,90,0,1
139815,-57.7933460208992,4,1,0,90,0,1
139873,-58.4588151801175,4,1,0,90,0,1
139930,-59.1397881257951,4,1,0,90,0,1
140103,-61.2813438753587,4,1,0,90,0,1
140189,-62.4113368945242,4,1,0,90,0,1
140275,-63.5838260549987,4,1,0,90,0,1
140361,-64.8011705683451,4,1,0,90,0,1
140448,-66.0660819377975,4,1,0,90,0,1
140620,-68.7500214843817,4,1,0,90,0,1
140792,-71.6612144426012,4,1,0,90,0,1
140965,-74.8299116109084,4,1,0,90,0,1
141051,-76.5217497769391,4,1,0,90,0,1
141137,-78.2917982295093,4,1,0,90,0,1
141310,-82.0895399866358,4,1,0,90,0,1
141482,-86.2745030372939,4,1,0,90,0,1
141539,-87.7659527784068,4,1,0,90,0,1
141597,-89.3098757967557,4,1,0,90,0,1
141654,-90.9090909090909,4,1,0,90,0,1
141827,-86.9565217391304,4,1,0,90,0,1
141884,-85.1433388108881,4,1,0,90,0,1
141942,-83.4042269262206,4,1,0,90,0,1
141999,-81.7348048867605,4,1,0,90,0,1
142057,-80.130837631685,4,1,0,90,0,1
142114,-78.5886114099661,4,1,0,90,0,1
142172,-77.1046286679636,4,1,0,90,0,1
142517,-66.6666666666667,4,1,0,90,0,1
142574,-67.6691627565169,4,1,0,90,0,1
142631,-68.7022690985438,4,1,0,90,0,1
142689,-69.7674580854554,4,1,0,90,0,1
142746,-70.8661473122951,4,1,0,90,0,1
142804,-71.9999942400005,4,1,0,90,0,1
142861,-73.1707138608015,4,1,0,90,0,1
142948,-75.0000187500047,4,1,0,90,0,1
143034,-76.9230769230769,4,1,0,90,0,1
143120,-78.9473476454348,4,1,0,90,0,1
143206,-81.0811029948927,4,1,0,90,0,1
143292,-83.3333333333333,4,1,0,90,0,1
143379,-85.7142612244968,4,1,0,90,0,1
143465,-88.2353200692118,4,1,0,90,0,1
143551,-90.9090909090909,4,1,0,90,0,1
143723,-86.4449928898993,4,1,0,90,0,1
143767,-85.3966589411156,4,1,0,90,0,1
143896,-82.3988615773284,4,1,0,90,0,1
143939,-81.4457599744586,4,1,0,90,0,1
144068,-78.7144977936326,4,1,0,90,0,1
144111,-77.8443346839325,4,1,0,90,0,1
144241,-75.3455156986149,4,1,0,90,0,1
144284,-74.5478671855198,4,1,0,90,0,1
144413,-72.2530823164916,4,1,0,90,0,1
144456,-71.5192476175151,4,1,0,90,0,1
144585,-69.4045368357639,4,1,0,90,0,1
144643,-68.5042708987692,4,1,0,90,0,1
144700,-67.6270611037548,4,1,0,90,0,1
144758,-66.7720329346375,4,1,0,90,0,1
144930,-50,4,1,0,90,0,1
145275,-57.1428571428571,4,1,0,90,0,1
145333,-57.7908744741753,4,1,0,90,0,1
145390,-58.4537236483307,4,1,0,90,0,1
145448,-59.1319896968421,4,1,0,90,0,1
145620,-61.2645993540261,4,1,0,90,0,1
145792,-63.5567905346143,4,1,0,90,0,1
145835,-64.1568918295557,4,1,0,90,0,1
145965,-66.0271715016163,4,1,0,90,0,1
146008,-66.6750677252,4,1,0,90,0,1
146137,-68.6973606474039,4,1,0,90,0,1
146180,-69.3989977396746,4,1,0,90,0,1
146310,-71.5926208053884,4,1,0,90,0,1
146482,-74.7426051535026,4,1,0,90,0,1
146525,-75.5739082593213,4,1,0,90,0,1
146654,-78.1825985863022,4,1,0,90,0,1
146698,-79.0926491291899,4,1,0,90,0,1
146827,-81.9545168822207,4,1,0,90,0,1
146870,-82.9550582676329,4,1,0,90,0,1
146999,-86.1088364026828,4,1,0,90,0,1
147057,-87.5888369779048,4,1,0,90,0,1
147114,-89.1206024552726,4,1,0,90,0,1
147172,-90.7068147122825,4,1,0,90,0,1
147344,-86.9565217391304,4,1,0,90,0,1
147402,-85.1433388108881,4,1,0,90,0,1
147459,-83.4042269262206,4,1,0,90,0,1
147517,-81.7348048867605,4,1,0,90,0,1
147574,-80.130837631685,4,1,0,90,0,1
147631,-78.5886114099661,4,1,0,90,0,1
147689,-77.1046286679636,4,1,0,90,0,1
149413,-76.9230769230769,4,1,0,90,0,1
149471,-76.1421513051145,4,1,0,90,0,1
149528,-75.3768654831996,4,1,0,90,0,1
149585,-74.6268656716418,4,1,0,90,0,1
149643,-73.8916438156758,4,1,0,90,0,1
149700,-73.1707138608015,4,1,0,90,0,1
149758,-72.463768115942,4,1,0,90,0,1
149930,-70.4225352112676,4,1,0,90,0,1
149988,-69.7674580854554,4,1,0,90,0,1
150045,-69.1244080358507,4,1,0,90,0,1
150103,-68.4931506849315,4,1,0,90,0,1
150160,-67.8733185233752,4,1,0,90,0,1
150218,-67.2645589092917,4,1,0,90,0,1
150275,-66.6666666666667,4,1,0,90,0,1
150448,-50,4,1,0,90,0,1
150792,-50,4,1,0,90,0,1
150879,-51.7118429945708,4,1,0,90,0,1
150965,-53.5450576305455,4,1,0,90,0,1
151051,-55.5130264092121,4,1,0,90,0,1
151137,-57.6311743158603,4,1,0,90,0,1
151223,-59.9173380404394,4,1,0,90,0,1
151310,-62.3924120844119,4,1,0,90,0,1
151396,-65.0807782619788,4,1,0,90,0,1
151482,-68.0112490605946,4,1,0,90,0,1
151568,-71.218071158248,4,1,0,90,0,1
151654,-74.7422699675843,4,1,0,90,0,1
151741,-78.6334141684831,4,1,0,90,0,1
151827,-82.951961689466,4,1,0,90,0,1
152172,-50,4,1,0,90,0,1
152258,-51.7241468489908,4,1,0,90,0,1
152344,-53.5714190051037,4,1,0,90,0,1
152430,-55.5555555555556,4,1,0,90,0,1
152517,-57.6923187869844,4,1,0,90,0,1
152603,-59.9999880000024,4,1,0,90,0,1
152689,-62.5,4,1,0,90,0,1
152775,-65.2174054820447,4,1,0,90,0,1
152861,-68.1818026859539,4,1,0,90,0,1
152948,-71.4285714285714,4,1,0,90,0,1
153034,-75.0000187500047,4,1,0,90,0,1
153120,-78.9473476454348,4,1,0,90,0,1
153206,-83.3333333333333,4,1,0,90,0,1
153379,-76.9230769230769,4,1,0,90,0,1
153551,-71.4285714285714,4,1,0,90,0,1
153637,-68.9655172413793,4,1,0,90,0,1
153723,-66.6666666666667,4,1,0,90,0,1
153896,-62.5,4,1,0,90,0,1
153982,-60.6060606060606,4,1,0,90,0,1
154068,-58.8235294117647,4,1,0,90,0,1
154154,-57.1428571428571,4,1,0,90,0,1
154241,-55.5555555555556,4,1,0,90,0,1
154327,-54.054054054054,4,1,0,90,0,1
154413,-52.6315789473684,4,1,0,90,0,1
154499,-51.2820512820513,4,1,0,90,0,1
154585,-50,4,1,0,90,0,1
154815,-46.1904858684828,4,1,0,90,0,1
155045,-42.9203522730833,4,1,0,90,0,1
155275,-40,4,1,0,90,0,0
155620,-58.8235294117647,4,1,0,80,0,0
155706,-60.5686181875447,4,1,0,80,0,0
155792,-62.420375009129,4,1,0,80,0,0
155879,-64.3889711994571,4,1,0,80,0,0
155965,-66.4857368148811,4,1,0,90,0,1
156310,-76.9230769230769,4,1,0,90,0,1
156397,-75.4716981132076,4,1,0,90,0,1
156568,-72.7272727272727,4,1,0,90,0,1
156654,-71.4285714285714,4,1,0,90,0,1
156999,-83.3333333333333,4,1,0,90,0,1
157085,-81.6666530555578,4,1,0,90,0,1
157258,-78.5256649356993,4,1,0,90,0,1
157344,-77.0440360596906,4,1,0,90,0,1
157689,-90.9090909090909,4,1,0,90,0,1
157775,-88.9292034611246,4,1,0,90,0,1
157948,-85.2174194631473,4,1,0,90,0,1
158034,-83.4753109246644,4,1,0,90,0,1
159241,-83.3333333333333,4,1,0,90,0,1
159327,-81.6326530612245,4,1,0,90,0,1
159413,-80,4,1,0,90,0,1
159499,-78.4313725490196,4,1,0,90,0,1
159585,-76.9230769230769,4,1,0,90,0,1
159930,-76.9230769230769,4,1,0,90,0,1
160017,-78.400012544002,4,1,0,90,0,1
160103,-79.9347732250484,4,1,0,90,0,1
160189,-81.5307562548358,4,1,0,90,0,1
160275,-83.1918378824017,4,1,0,90,0,1
160965,-80,4,1,0,90,0,1
161022,-78.2608559546337,4,1,0,90,0,1
161080,-76.5957186057128,4,1,0,90,0,1
161137,-75.0000187500047,4,1,0,90,0,1
161195,-73.4693937526036,4,1,0,90,0,1
161252,-71.9999942400005,4,1,0,90,0,1
161310,-70.588218685125,4,1,0,90,0,1
161482,-66.6666666666667,4,1,0,90,0,1
161827,-76.9230769230769,4,1,0,90,0,1
161913,-75.5007587826258,4,1,0,90,0,1
162085,-72.8083415060697,4,1,0,90,0,1
162172,-71.5328561138059,4,1,0,90,0,1
162517,-83.3333333333333,4,1,0,90,0,1
162603,-81.6326530612245,4,1,0,90,0,1
162775,-78.4313725490196,4,1,0,90,0,1
162861,-76.9230769230769,4,1,0,90,0,1
163120,-90.9090909090909,4,1,0,90,0,1
163206,-87.719298245614,4,1,0,90,0,1
163264,-85.7142612244968,4,1,0,90,0,1
163321,-83.7989060890799,4,1,0,90,0,1
163379,-81.9672131147541,4,1,0,90,0,1
163436,-80.2138822957534,4,1,0,90,0,1
163494,-78.5340519722649,4,1,0,90,0,1
163551,-76.9230769230769,4,1,0,90,0,1
163723,-79.9670535739275,4,1,0,90,0,1
163896,-83.2617975722525,4,1,0,90,0,1
163982,-85.013121775346,4,1,0,90,0,1
164068,-86.8397788711871,4,1,0,90,0,1
164154,-88.7465788193865,4,1,0,90,0,1
164241,-90.7389965355851,4,1,0,90,0,1
164585,-66.6666666666667,4,1,0,90,0,1
164643,-67.6621574349547,4,1,0,90,0,1
164700,-68.6878289288408,4,1,0,90,0,1
164758,-69.7450747771819,4,1,0,90,0,1
164815,-70.8353757533342,4,1,0,90,0,1
164873,-71.9603066948271,4,1,0,90,0,1
164930,-73.1215440930223,4,1,0,90,0,1
165017,-74.9353869625915,4,1,0,90,0,1
165103,-76.8415657544804,4,1,0,90,0,1
165189,-78.8471909899738,4,1,0,90,0,1
165275,-80.9603844646738,4,1,0,90,0,1
165361,-83.189900080611,4,1,0,90,0,1
165448,-85.5456873852619,4,1,0,90,0,1
165534,-88.0388638760695,4,1,0,90,0,1
165620,-90.9090909090909,4,1,0,90,0,1
165792,-85.7142612244968,4,1,0,90,0,1
165835,-84.5070660583285,4,1,0,90,0,1
165965,-81.0811029948927,4,1,0,90,0,1
166008,-80,4,1,0,90,0,1
166137,-76.9230769230769,4,1,0,90,0,1
166310,-57.1428571428571,4,1,0,80,0,0
166482,-59.2592592592593,4,1,0,80,0,0
166568,-60.377358490566,4,1,0,80,0,0
166741,-62.7450980392157,4,1,0,80,0,0
166827,-64,4,1,0,80,0,0
166884,-64.8648508400323,4,1,0,80,0,0
166942,-65.7534390692469,4,1,0,80,0,0
166999,-66.6666666666667,4,1,0,90,0,1
167172,-68.9655172413793,4,1,0,90,0,1
167344,-71.4285714285714,4,1,0,90,0,1
167430,-70.2005630085153,4,1,0,90,0,1
167517,-69.0140650664605,4,1,0,90,0,1
167603,-67.8670538708314,4,1,0,90,0,1
167689,-66.7575013735356,4,1,0,90,0,1
167861,-71.4285714285714,4,1,0,90,0,1
168034,-76.9230769230769,4,1,0,90,0,1
168120,-75.5007587826258,4,1,0,90,0,1
168206,-74.130083470474,4,1,0,90,0,1
168292,-72.8083415060697,4,1,0,90,0,1
168379,-71.5328561138059,4,1,0,90,0,1
168551,-76.9230769230769,4,1,0,90,0,1
168723,-83.3333333333333,4,1,0,90,0,1
168810,-81.6666530555578,4,1,0,90,0,1
168896,-80.0653333119826,4,1,0,90,0,1
168982,-78.5256649356993,4,1,0,90,0,1
169068,-77.0440360596906,4,1,0,90,0,1
169241,-83.3333333333333,4,1,0,90,0,1
169413,-90.9090909090909,4,1,0,90,0,1
169499,-88.9292034611246,4,1,0,90,0,1
169585,-87.0337168619123,4,1,0,90,0,1
169672,-85.2174194631473,4,1,0,90,0,1
169758,-83.3333333333333,4,1,0,90,0,1
169930,-82.8729052837278,4,1,0,90,0,1
170017,-82.6446280991736,4,1,0,90,0,1
170075,-82.4931406953512,4,1,0,90,0,1
170132,-82.3422076275234,4,1,0,90,0,1
170190,-82.1917583036279,4,1,0,90,0,1
170275,-81.9672131147541,4,1,0,90,0,1
170361,-81.7438914833492,4,1,0,90,0,1
170448,-81.5217169777943,4,1,0,90,0,1
170534,-81.3008130081301,4,1,0,90,0,1
170620,-81.0811029948927,4,1,0,90,0,1
170792,-80.6451612903226,4,1,0,90,0,1
170879,-80.4289759863206,4,1,0,90,0,1
170965,-80.2138822957534,4,1,0,90,0,1
171051,-80,4,1,0,90,0,1
171137,-79.7872552625679,4,1,0,90,0,1
171223,-79.5755757093964,4,1,0,90,0,1
171310,-79.3650793650794,4,1,0,90,0,1
171482,-78.9473476454348,4,1,0,90,0,1
171568,-78.740157480315,4,1,0,90,0,1
171654,-78.5340519722649,4,1,0,90,0,1
171741,-78.3289612718117,4,1,0,90,0,1
171827,-78.125,4,1,0,90,0,1
171999,-77.7201871191225,4,1,0,90,0,1
172057,-77.5862002080862,4,1,0,90,0,1
172114,-77.4526744795761,4,1,0,90,0,1
172172,-77.3196075565999,4,1,0,90,0,1
172229,-77.186937500193,4,1,0,90,0,1
172287,-77.0547813262361,4,1,0,90,0,1
172344,-76.9230769230769,4,1,0,90,0,1
172517,-83.3333333333333,4,1,0,90,0,0
172689,-90.9090909090909,4,1,0,90,0,0
172861,-76.9230769230769,4,1,0,90,0,1
173034,-75.7314713488911,4,1,0,90,0,1
173091,-75.3424502720993,4,1,0,90,0,1
173149,-74.9574054543506,4,1,0,90,0,1
173206,-74.5762762424594,4,1,0,90,0,1
173292,-74.0117945195747,4,1,0,90,0,1
173379,-73.4557399784334,4,1,0,90,0,1
173465,-72.9080316216715,4,1,0,90,0,1
173551,-72.3684305747935,4,1,0,90,0,1
173637,-71.8367581507782,4,1,0,90,0,1
173723,-71.3127900202029,4,1,0,90,0,1
173810,-70.7964601769911,4,1,0,90,0,1
173896,-70.2875534097547,4,1,0,90,0,1
173982,-69.7858620822008,4,1,0,90,0,1
174068,-69.2913298530608,4,1,0,90,0,1
174154,-68.8037572355751,4,1,0,90,0,1
174241,-68.3229983411176,4,1,0,90,0,1
174327,-67.8488652955768,4,1,0,90,0,1
174413,-67.3813128709762,4,1,0,90,0,1
174471,-67.073174821535,4,1,0,90,0,1
174528,-66.7678422035524,4,1,0,90,0,1
174586,-66.4652768777271,4,1,0,90,0,1
174672,-66.0164922400914,4,1,0,90,0,1
174758,-65.5737704918033,4,1,0,90,0,1
174844,-65.1369471745872,4,1,0,90,0,1
174930,-64.7058633218049,4,1,0,90,0,1
175017,-64.280489200235,4,1,0,90,0,1
175103,-63.8606713416935,4,1,0,90,0,1
175189,-63.4463015881878,4,1,0,90,0,1
175275,-63.0372348338717,4,1,0,90,0,1
175333,-62.7674678724716,4,1,0,90,0,1
175390,-62.5,4,1,0,90,0,1
175448,-62.2348019501897,4,1,0,90,0,1
175534,-61.8411979876874,4,1,0,90,0,1
175620,-61.4525036671782,4,1,0,90,0,1
175677,-61.1961022978524,4,1,0,90,0,1
175735,-60.9418316311264,4,1,0,90,0,1
175792,-60.6896652175998,4,1,0,90,0,1
175879,-60.3152679053412,4,1,0,90,0,1
175965,-59.9454975536242,4,1,0,90,0,1
176022,-59.7014925373134,4,1,0,90,0,1
176080,-59.4594658875098,4,1,0,90,0,1
176137,-59.2193936407846,4,1,0,90,0,1
176223,-58.8628636547717,4,1,0,90,0,1
176310,-58.5106351856045,4,1,0,90,0,1
176367,-58.2781487829483,4,1,0,90,0,1
176425,-58.0475025932722,4,1,0,90,0,1
176482,-57.818674853791,4,1,0,90,0,1
176568,-57.478763034028,4,1,0,90,0,1
176654,-57.1428571428571,4,1,0,90,0,0
176999,-80,4,1,0,70,0,0
177085,-76.2155039102364,4,1,0,70,0,0
177172,-72.7728947165423,4,1,0,70,0,0
177258,-69.6278461252452,4,1,0,70,0,0
177344,-66.7433770546949,4,1,0,70,0,0
177430,-64.0883907084651,4,1,0,70,0,0
177517,-61.6365489942764,4,1,0,70,0,0
177603,-59.365395792062,4,1,0,70,0,0
177689,-57.2556671659361,4,1,0,80,0,0
177775,-55.2907436107399,4,1,0,80,0,0
177861,-53.4562113444772,4,1,0,80,0,0
177948,-51.739508133192,4,1,0,80,0,0
178034,-50,4,1,0,80,0,0
178723,-50,4,1,0,75,0,0
179413,-68.9655172413793,4,1,0,70,0,0
180103,-68.9655172413793,4,1,0,65,0,0
180792,-111.111111111111,4,1,0,60,0,0
183551,-100,4,1,0,70,0,0
189068,-111.111111111111,4,1,0,60,0,0
194413,-105.263157894737,4,1,0,60,0,0
194585,-100,4,1,0,70,0,0
194930,-97.565068583365,4,1,0,70,0,0
195102,-96.3915811593015,4,1,0,70,0,0
195275,-95.2459870484507,4,1,0,70,0,0
195361,-94.6832513849793,4,1,0,70,0,0
195447,-94.1272148133646,4,1,0,70,0,0
195534,-93.5776708704876,4,1,0,70,0,0
195620,-93.0345064984603,4,1,0,70,0,0
195706,-92.4976112491895,4,1,0,70,0,0
195792,-91.9668772095042,4,1,0,70,0,0
195878,-91.4421153121651,4,1,0,70,0,0
195965,-90.9233906787158,4,1,0,75,0,0
196051,-90.4105179980218,4,1,0,75,0,0
196137,-89.9033987979916,4,1,0,75,0,0
196223,-89.4019368035589,4,1,0,75,0,0
196309,-88.9060378757502,4,1,0,75,0,0
196396,-88.4155317796367,4,1,0,75,0,0
196482,-87.9304856752446,4,1,0,75,0,0
196568,-87.4507324436096,4,1,0,75,0,0
196654,-86.976185920295,4,1,0,75,0,0
196740,-86.5067618010362,4,1,0,75,0,0
196827,-86.0423775918115,4,1,0,75,0,0
196913,-85.5828793161586,4,1,0,75,0,0
196999,-85.1283352217636,4,1,0,75,0,0
197085,-84.6785939288835,4,1,0,75,0,0
197171,-84.233579716554,4,1,0,75,0,0
197258,-83.7932184472446,4,1,0,75,0,0
197344,-83.3574375256845,4,1,0,80,0,0
197401,-83.0693803771848,4,1,0,80,0,0
197459,-82.7833757736106,4,1,0,80,0,0
197516,-82.4992657565348,4,1,0,80,0,0
197602,-82.0768058333627,4,1,0,80,0,0
197689,-81.6586505091417,4,1,0,80,0,0
197746,-81.3822614340043,4,1,0,80,0,0
197804,-81.107671244654,4,1,0,80,0,0
197861,-80.8349931451926,4,1,0,80,0,0
197947,-80.4292994286303,4,1,0,80,0,0
198034,-80.0277216027632,4,1,0,80,0,0
198091,-79.7622447009953,4,1,0,80,0,0
198148,-79.4984601148276,4,1,0,80,0,0
198206,-79.236477304692,4,1,0,80,0,0
198292,-78.8466936427488,4,1,0,80,0,0
198378,-78.4607260912514,4,1,0,80,0,0
198436,-78.2054660928471,4,1,0,80,0,0
198493,-77.9519223723576,4,1,0,80,0,0
198551,-77.6999569542239,4,1,0,80,0,0
198637,-77.3251080038446,4,1,0,80,0,0
198723,-76.9538584664635,4,1,0,80,0,0
199758,-66.6666666666667,4,1,0,85,0,0
199844,-61.5384615384615,4,1,0,85,0,0
199930,-57.1428571428571,4,1,0,85,0,0
200016,-53.3333333333333,4,1,0,85,0,0
200102,-50,4,1,0,85,0,0
200965,-66.6666666666667,4,1,0,85,0,0
201482,-50,4,1,0,85,0,0
202344,-66.6666666666667,4,1,0,85,0,0
202689,-57.1428571428571,4,1,0,85,0,0
202775,-53.3333333333333,4,1,0,85,0,0
202861,-50,4,1,0,85,0,0
203723,-57.1428571428571,4,1,0,85,0,0
203896,-58.3875461699521,4,1,0,85,0,0
203982,-59.0304484956385,4,1,0,85,0,0
204068,-59.6876307532161,4,1,0,85,0,0
204154,-60.3596469202094,4,1,0,85,0,0
204240,-61.0469677055436,4,1,0,85,0,0
204413,-62.4696631698232,4,1,0,85,0,0
204499,-63.2061709448817,4,1,0,85,0,0
204672,-64.7325026427044,4,1,0,85,0,0
204758,-65.5236717368884,4,1,0,85,0,0
204844,-66.3344196700128,4,1,0,85,0,0
204930,-67.1654823153285,4,1,0,85,0,0
205103,-68.8916843603476,4,1,0,85,0,0
205275,-66.6666666666667,4,1,0,85,0,0
205361,-61.6352193505004,4,1,0,85,0,0
205447,-57.3099401798844,4,1,0,85,0,0
205534,-53.5519108125057,4,1,0,85,0,0
205620,-50.2564081946089,4,1,0,85,0,0
206482,-66.6666666666667,4,1,0,85,0,0
206654,-65.2174054820447,4,1,0,85,0,0
206740,-60.6060606060606,4,1,0,85,0,0
206827,-56.6037629049504,4,1,0,85,0,0
206913,-53.0973545305052,4,1,0,85,0,0
206999,-50,4,1,0,85,0,0
207861,-61.5384615384615,4,1,0,85,0,0
207947,-57.2533725099077,4,1,0,85,0,0
208034,-53.526227583885,4,1,0,85,0,0
208120,-50.25466551751,4,1,0,85,0,0
209241,-57.1428571428571,4,1,0,85,0,0
209413,-58.3941605839416,4,1,0,85,0,0
209585,-59.7014925373134,4,1,0,85,0,0
209672,-60.377358490566,4,1,0,85,0,0
209758,-61.0687022900763,4,1,0,85,0,0
209930,-62.5,4,1,0,85,0,0
210103,-64,4,1,0,85,0,0
210275,-65.5737704918033,4,1,0,85,0,0
210361,-66.3900414937759,4,1,0,85,0,0
210448,-67.2268907563025,4,1,0,85,0,0
210620,-68.9655172413793,4,1,0,85,0,0
210792,-66.6666666666667,4,1,0,85,0,0
210878,-61.5384615384615,4,1,0,85,0,0
210964,-57.1428571428571,4,1,0,85,0,0
211050,-53.3333333333333,4,1,0,85,0,0
211136,-50,4,1,0,85,0,0
211999,-66.6666666666667,4,1,0,85,0,0
212517,-50,4,1,0,85,0,0
213379,-66.6666666666667,4,1,0,85,0,0
213723,-57.1428571428571,4,1,0,85,0,0
213810,-53.3333333333333,4,1,0,85,0,0
213896,-50,4,1,0,85,0,0
214758,-57.1428571428571,4,1,0,85,0,0
214930,-58.3941605839416,4,1,0,85,0,0
215017,-59.0405904059041,4,1,0,85,0,0
215103,-59.7014925373134,4,1,0,85,0,0
215189,-60.377358490566,4,1,0,85,0,0
215275,-61.0687022900763,4,1,0,85,0,0
215361,-61.7760617760618,4,1,0,85,0,0
215448,-62.5,4,1,0,85,0,0
215534,-63.2411067193676,4,1,0,85,0,0
215620,-64,4,1,0,85,0,0
215792,-65.5737704918033,4,1,0,85,0,0
215879,-66.3900414937759,4,1,0,85,0,0
215965,-67.2268907563025,4,1,0,85,0,0
216137,-68.9655172413793,4,1,0,85,0,0
216310,-66.6666666666667,4,1,0,85,0,0
216396,-61.5384615384615,4,1,0,85,0,0
216482,-57.1428571428571,4,1,0,85,0,0
216568,-53.3333333333333,4,1,0,85,0,0
216654,-50,4,1,0,85,0,0
217517,-66.6666666666667,4,1,0,85,0,0
218034,-50,4,1,0,85,0,0
218896,-61.5384615384615,4,1,0,85,0,0
218982,-57.1428571428571,4,1,0,85,0,0
219068,-53.3333333333333,4,1,0,85,0,0
219154,-50,4,1,0,85,0,0
219413,-47.6190476190476,4,1,0,85,0,0
219672,-45.4545454545455,4,1,0,85,0,0
219930,-43.4782608695652,4,1,0,85,0,0
220189,-41.6666666666667,4,1,0,85,0,0
220448,-40,4,1,0,85,0,0
222172,-90.9090909090909,4,1,0,75,0,0
224758,-89.2857142857143,4,1,0,75,0,0
224815,-88.4955752212389,4,1,0,75,0,0
224873,-87.719298245614,4,1,0,75,0,0
224930,-86.9565217391304,4,1,0,75,0,0
227517,-85.4700854700855,4,1,0,75,0,0
227574,-84.7457627118644,4,1,0,75,0,0
227631,-84.0336134453781,4,1,0,75,0,0
227689,-83.3333333333333,4,1,0,75,0,0
230275,-81.9672131147541,4,1,0,75,0,0
230333,-81.3008130081301,4,1,0,75,0,0
230390,-80.6451612903226,4,1,0,75,0,0
230448,-80,4,1,0,75,0,0
230620,-80,4,1,0,80,0,0
230706,-79.3240952492006,4,1,0,80,0,0
230792,-78.6595159922662,4,1,0,80,0,0
230879,-78.0059799384221,4,1,0,80,0,0
230965,-77.3632141011478,4,1,0,80,0,0
231051,-76.7310132944154,4,1,0,80,0,0
231137,-76.1090033145471,4,1,0,85,0,0
231195,-75.69988327078,4,1,0,85,0,0
231252,-75.2951381176366,4,1,0,85,0,0
231310,-74.8947541467353,4,1,0,85,0,0
231396,-74.3020437520154,4,1,0,85,0,0
231482,-73.7186410115967,4,1,0,90,0,0
231539,-73.3348049184187,4,1,0,90,0,0
231597,-72.9548919902824,4,1,0,90,0,0
231655,-72.5788950734172,4,1,0,90,0,0
231741,-72.0221367239435,4,1,0,90,0,0
231827,-71.4285714285714,4,1,0,90,0,0
231999,-73.6704690451423,4,1,0,85,0,0
232086,-74.8449773406831,4,1,0,85,0,0
232258,-77.3101629620925,4,1,0,85,0,0
232344,-78.6046727333753,4,1,0,85,0,0
232517,-81.3281868856672,4,1,0,85,0,0
232603,-82.7619996623311,4,1,0,85,0,0
232689,-84.2472758643349,4,1,0,85,0,0
232775,-85.786836867751,4,1,0,85,0,0
232861,-87.3836377633634,4,1,0,85,0,0
232948,-89.0410897917062,4,1,0,85,0,0
233034,-90.762633023984,4,1,0,85,0,0
233206,-80,4,1,0,90,0,0
235792,-78.7401574803149,4,1,0,90,0,0
235850,-78.125,4,1,0,90,0,0
235907,-77.5193798449612,4,1,0,90,0,0
235965,-76.9230769230769,4,1,0,90,0,0
238551,-75.7575757575758,4,1,0,90,0,0
238608,-75.187969924812,4,1,0,90,0,0
238666,-74.6268656716418,4,1,0,90,0,0
238723,-74.0740740740741,4,1,0,90,0,0
238810,-73.5640842485318,4,1,0,90,0,0
238896,-73.0610688249881,4,1,0,90,0,0
238982,-72.5649383633414,4,1,0,90,0,0
239068,-72.0754485795731,4,1,0,90,0,0
239154,-71.592518295468,4,1,0,90,0,0
239241,-71.1160165358962,4,1,0,90,0,0
239327,-70.6458656979706,4,1,0,90,0,0
239413,-70.1818411504207,4,1,0,90,0,0
239499,-69.7238725475499,4,1,0,90,0,0
239585,-69.271842104534,4,1,0,90,0,0
239672,-68.8256824410542,4,1,0,90,0,0
239758,-68.3851864009218,4,1,0,90,0,0
239844,-67.9502930016634,4,1,0,90,0,0
239930,-67.5208960292987,4,1,0,90,0,0
240017,-67.0969369577309,4,1,0,90,0,0
240103,-66.6782242255324,4,1,0,90,0,0
240189,-66.2647049663408,4,1,0,90,0,0
240275,-65.8562831504065,4,1,0,90,0,0
240361,-65.452907941794,4,1,0,90,0,0
240448,-65.054401743458,4,1,0,90,0,0
240534,-64.6607187426852,4,1,0,90,0,0
240620,-64.2717719020524,4,1,0,90,0,0
240706,-63.8875170819249,4,1,0,90,0,0
240792,-63.5077892303491,4,1,0,90,0,0
240879,-63.13254867993,4,1,0,90,0,0
240965,-62.7617163572096,4,1,0,90,0,0
241051,-62.3952539674022,4,1,0,90,0,0
241137,-62.0330077634309,4,1,0,90,0,0
241223,-61.6749434440769,4,1,0,90,0,0
241310,-61.3209890094391,4,1,0,90,0,0
241396,-60.9711112777655,4,1,0,90,0,0
241482,-60.6251667192085,4,1,0,90,0,0
241539,-60.3967219075218,4,1,0,90,0,0
241597,-60.169992262139,4,1,0,90,0,0
241654,-59.9449226051104,4,1,0,90,0,0
241741,-59.6105286500123,4,1,0,90,0,0
241827,-59.2798095932516,4,1,0,90,0,0
241884,-59.0613730351758,4,1,0,90,0,0
241942,-58.8445403741218,4,1,0,90,0,0
241999,-58.6292596355722,4,1,0,90,0,0
242085,-58.3093438974315,4,1,0,90,0,0
242172,-57.9928668773741,4,1,0,90,0,0
242229,-57.7837949969635,4,1,0,90,0,0
242287,-57.5762251644953,4,1,0,90,0,0
242344,-57.3701083377126,4,1,0,90,0,0
242430,-57.0637504807621,4,1,0,90,0,0
242517,-56.7606149445023,4,1,0,90,0,0
242574,-56.560318185726,4,1,0,90,0,0
242631,-56.3614300698375,4,1,0,90,0,0
242689,-56.1639042450364,4,1,0,90,0,0
242775,-55.8702603163039,4,1,0,90,0,0
242861,-55.5796400662509,4,1,0,90,0,0
243034,-62.5,4,1,0,90,0,0
243206,-71.4285714285714,4,1,0,90,0,0
243551,-90.9090909090909,4,1,0,90,0,0
243896,-76.9230769230769,4,1,0,90,0,0
243982,-71.4285714285714,4,1,0,90,0,0
244068,-66.6666666666667,4,1,0,90,0,0
244154,-62.5,4,1,0,90,0,0
244241,-58.8235294117647,4,1,0,95,0,1
244413,-59.1497227356747,4,1,0,95,0,1
244499,-59.3141622052531,4,1,0,95,0,1
244672,-59.6458349611676,4,1,0,95,0,1
244758,-59.8130841121495,4,1,0,95,0,1
244930,-60.1503759398496,4,1,0,95,0,1
245017,-60.3204342106136,4,1,0,95,0,1
245103,-60.4914933837429,4,1,0,95,0,1
245275,-60.8365019011407,4,1,0,95,0,1
245361,-61.0104675659203,4,1,0,95,0,1
245448,-61.1854684512428,4,1,0,95,0,1
245534,-61.3614385084752,4,1,0,95,0,1
245620,-61.5384615384615,4,1,0,95,0,1
245792,-61.8955512572534,4,1,0,95,0,1
245879,-62.0756354372422,4,1,0,95,0,1
245965,-62.2568093385214,4,1,0,95,0,1
246137,-62.6223091976517,4,1,0,95,0,1
246223,-62.8066534856437,4,1,0,95,0,1
246310,-62.992125984252,4,1,0,95,0,1
246396,-63.1786572387262,4,1,0,95,0,1
246482,-63.3663366336634,4,1,0,95,0,1
246654,-63.7450199203187,4,1,0,95,0,1
246741,-63.9360434969691,4,1,0,95,0,1
246827,-64.1282565130261,4,1,0,95,0,1
246913,-64.3215873538613,4,1,0,95,0,1
246999,-64.5161290322581,4,1,0,95,0,1
247172,-64.9087221095335,4,1,0,95,0,1
247258,-65.1067946753059,4,1,0,95,0,1
247430,-65.5066315638464,4,1,0,95,0,1
247517,-65.7084188911704,4,1,0,95,0,1
247603,-65.9114097923263,4,1,0,95,0,1
247775,-66.3212215307866,4,1,0,95,0,1
247861,-66.5280665280665,4,1,0,95,0,1
247948,-66.7361612559212,4,1,0,95,0,1
248034,-66.9456066945607,4,1,0,95,0,1
248120,-67.1563258236891,4,1,0,95,0,1
248206,-67.3684210526316,4,1,0,95,0,1
248379,-67.7966101694915,4,1,0,95,0,1
248465,-68.0127292624088,4,1,0,95,0,1
248551,-68.2302771855011,4,1,0,95,0,1
248637,-68.4491744345071,4,1,0,95,0,1
248810,-68.8912572172203,4,1,0,95,0,1
248896,-69.1144708423326,4,1,0,95,0,1
248982,-69.3390875530791,4,1,0,95,0,1
249068,-69.5652173913043,4,1,0,95,0,1
249154,-69.7927782620621,4,1,0,95,0,1
249327,-70.252445136353,4,1,0,95,0,1
249413,-70.4845814977974,4,1,0,95,0,1
249499,-70.718207038866,4,1,0,95,0,1
249585,-70.9534368070953,4,1,0,95,0,1
249672,-71.190186005718,4,1,0,95,0,1
249758,-71.4285714285714,4,1,0,80,0,1
253896,-71.4285714285714,4,1,0,80,0,1
253982,-70.4845814977974,4,1,0,80,0,1
254068,-69.5652173913043,4,1,0,80,0,1
254154,-68.6695278969957,4,1,0,80,0,1
254241,-67.7966101694915,4,1,0,80,0,1
254413,-66.1157024793389,4,1,0,80,0,1
254499,-65.3061224489796,4,1,0,80,0,1
254585,-64.5161290322581,4,1,0,80,0,1
254758,-62.992125984252,4,1,0,80,0,1
254844,-62.2568093385214,4,1,0,80,0,1
255017,-60.8365019011407,4,1,0,80,0,1
255103,-60.1503759398496,4,1,0,80,0,1
255160,-59.7014925373134,4,1,0,80,0,1
255218,-59.2592592592593,4,1,0,80,0,1
255275,-58.8235294117647,4,1,0,95,0,1
255448,-59.1497227356747,4,1,0,95,0,1
255534,-59.3141622052531,4,1,0,95,0,1
255620,-59.4795539033457,4,1,0,95,0,1
255792,-59.8130841121495,4,1,0,95,0,1
255879,-59.9812378687946,4,1,0,95,0,1
256051,-60.3204342106136,4,1,0,95,0,1
256137,-60.4914933837429,4,1,0,95,0,1
256223,-60.6634887087048,4,1,0,95,0,1
256310,-60.8365019011407,4,1,0,95,0,1
256396,-61.0104675659203,4,1,0,95,0,1
256482,-61.1854684512428,4,1,0,95,0,1
256654,-61.5384615384615,4,1,0,95,0,1
256741,-61.7164708300187,4,1,0,95,0,1
256827,-61.8955512572534,4,1,0,95,0,1
256913,-62.0756354372422,4,1,0,95,0,1
257085,-62.4390048970912,4,1,0,95,0,1
257172,-62.6223091976517,4,1,0,95,0,1
257258,-62.8066534856437,4,1,0,95,0,1
257430,-63.1786572387262,4,1,0,95,0,1
257517,-63.3663366336634,4,1,0,95,0,1
257603,-63.5550940043395,4,1,0,95,0,1
257689,-63.7450199203187,4,1,0,95,0,1
257775,-63.9360434969691,4,1,0,95,0,1
257861,-64.1282565130261,4,1,0,95,0,1
258034,-64.5161290322581,4,1,0,95,0,1
258120,-64.7118091933479,4,1,0,95,0,1
258206,-64.9087221095335,4,1,0,95,0,1
258292,-65.1067946753059,4,1,0,95,0,1
258465,-65.5066315638464,4,1,0,95,0,1
258551,-65.7084188911704,4,1,0,95,0,1
258723,-66.1157024793389,4,1,0,95,0,1
258810,-66.3212215307866,4,1,0,95,0,1
258896,-66.5280665280665,4,1,0,95,0,1
258982,-66.7361612559212,4,1,0,95,0,1
259068,-66.9456066945607,4,1,0,95,0,1
259154,-67.1563258236891,4,1,0,95,0,1
259241,-67.3684210526316,4,1,0,95,0,1
259413,-67.7966101694915,4,1,0,95,0,1
259499,-68.0127292624088,4,1,0,95,0,1
259585,-68.2302771855011,4,1,0,95,0,1
259672,-68.4491744345071,4,1,0,95,0,1
259758,-68.6695278969957,4,1,0,95,0,1
259844,-68.8912572172203,4,1,0,95,0,1
259930,-69.1144708423326,4,1,0,95,0,1
260103,-69.5652173913043,4,1,0,95,0,1
260189,-69.7927782620621,4,1,0,95,0,1
260275,-70.0218818380744,4,1,0,95,0,1
260361,-70.252445136353,4,1,0,95,0,1
260448,-70.4845814977974,4,1,0,95,0,1
260534,-70.718207038866,4,1,0,95,0,1
260620,-70.9534368070953,4,1,0,95,0,1
260706,-71.190186005718,4,1,0,95,0,1
260792,-71.4285714285714,4,1,0,95,0,1
261137,-50,4,1,0,95,0,1
261223,-51.7118429945708,4,1,0,95,0,1
261482,-57.6311743158603,4,1,0,95,0,1
261568,-59.9173380404394,4,1,0,95,0,1
261654,-62.3924120844119,4,1,0,95,0,1
261741,-65.0807782619788,4,1,0,95,0,1
261827,-68.0112490605946,4,1,0,95,0,1
261913,-71.218071158248,4,1,0,95,0,1
261999,-74.7422699675843,4,1,0,95,0,1
262085,-78.6334141684831,4,1,0,95,0,1
262172,-83.3333333333333,4,1,0,95,0,1
262517,-50,4,1,0,95,0,1
262603,-51.7241468489908,4,1,0,95,0,1
262861,-57.6923187869844,4,1,0,95,0,1
262948,-59.9999880000024,4,1,0,95,0,1
263034,-62.5,4,1,0,95,0,1
263120,-65.2174054820447,4,1,0,95,0,1
263206,-68.1818026859539,4,1,0,95,0,1
263292,-71.4285714285714,4,1,0,95,0,1
263379,-75.0000187500047,4,1,0,95,0,1
263465,-78.9473476454348,4,1,0,95,0,1
263551,-83.3333333333333,4,1,0,95,0,1
263723,-76.9230769230769,4,1,0,95,0,1
263896,-71.4285714285714,4,1,0,95,0,1
263982,-68.9655172413793,4,1,0,95,0,1
264068,-66.6666666666667,4,1,0,95,0,1
264241,-62.5,4,1,0,95,0,1
264327,-60.6060606060606,4,1,0,95,0,1
264413,-58.8235294117647,4,1,0,95,0,1
264499,-57.1428571428571,4,1,0,95,0,1
264585,-55.5555555555556,4,1,0,95,0,1
264672,-54.054054054054,4,1,0,95,0,1
264758,-52.6315789473684,4,1,0,95,0,1
264844,-51.2820512820513,4,1,0,95,0,1
264930,-50,4,1,0,95,0,1
264988,-48.9899017115602,4,1,0,95,0,1
265045,-48.019807210078,4,1,0,95,0,1
265160,-46.1904858684828,4,1,0,95,0,1
265218,-45.3270939077666,4,1,0,95,0,1
265275,-44.4954065167083,4,1,0,95,0,1
265390,-42.9203522730833,4,1,0,95,0,1
265448,-42.1739134102079,4,1,0,95,0,1
265505,-41.4529937559356,4,1,0,95,0,1
265562,-40.7563066308881,4,1,0,95,0,1
265620,-40,4,1,0,95,0,0
265965,-55.5555555555556,4,1,0,85,0,0
266051,-57.1428571428571,4,1,0,85,0,0
266137,-58.8235294117647,4,1,0,85,0,0
266223,-60.6060606060606,4,1,0,85,0,0
266310,-62.5,4,1,0,85,0,0
266482,-66.6666666666667,4,1,0,85,0,0
266539,-68.1818026859539,4,1,0,85,0,0
266597,-69.7674580854554,4,1,0,85,0,0
266654,-71.4285714285714,4,1,0,95,0,1
271827,-71.4285714285714,4,1,0,95,0,0
272172,-71.4285714285714,4,1,0,95,0,1
277344,-70.4225352112676,4,1,0,95,0,0
277430,-69.4444444444444,4,1,0,95,0,0
277517,-68.4931506849315,4,1,0,95,0,0
277603,-67.5675675675676,4,1,0,95,0,0
277689,-66.6666666666667,4,1,0,100,0,1
282172,-66.6666666666667,4,1,0,100,0,0
282517,-76.9230769230769,4,1,0,100,0,0
282603,-74.0740740740741,4,1,0,100,0,0
282689,-71.4285714285714,4,1,0,100,0,0
282775,-68.9655172413793,4,1,0,100,0,0
282861,-66.6666666666667,4,1,0,100,0,1
283034,-65.7549955714011,4,1,0,100,0,1
283120,-65.3084255705997,4,1,0,100,0,1
283206,-64.8679224231542,4,1,0,100,0,1
283292,-64.4332803047436,4,1,0,100,0,1
283379,-64.0044239857859,4,1,0,100,0,1
283436,-63.7217043771713,4,1,0,100,0,1
283494,-63.4414714361119,4,1,0,100,0,1
283551,-63.1636526024372,4,1,0,100,0,1
283637,-62.751476542243,4,1,0,100,0,1
283723,-62.3446838064671,4,1,0,100,0,1
283810,-61.9430928805706,4,1,0,100,0,1
283896,-61.5466803874733,4,1,0,100,0,1
283982,-61.1552720125344,4,1,0,100,0,1
284068,-60.7688105295333,4,1,0,100,0,1
284154,-60.3872392101591,4,1,0,100,0,1
284241,-60.0103938002062,4,1,0,100,0,1
284327,-59.6382581811763,4,1,0,100,0,1
284413,-59.2706743520974,4,1,0,100,0,1
284499,-58.9075940135747,4,1,0,100,0,1
284585,-58.5489691868485,4,1,0,100,0,1
284672,-58.1946506313247,4,1,0,100,0,1
284758,-57.8446281718379,4,1,0,100,0,1
284816,-57.6135765240807,4,1,0,100,0,1
284873,-57.3843962645053,4,1,0,100,0,1
284930,-57.1569994175702,4,1,0,100,0,1
285017,-56.8193117476768,4,1,0,100,0,1
285103,-56.4855589020111,4,1,0,100,0,1
285189,-56.1557040437161,4,1,0,100,0,1
285275,-55.8297104503727,4,1,0,100,0,1
285361,-55.5074490996692,4,1,0,100,0,1
285448,-55.1889171824071,4,1,0,100,0,1
285534,-54.8739901128045,4,1,0,100,0,1
285620,-54.5626368158118,4,1,0,100,0,1
285677,-54.3570431507951,4,1,0,100,0,1
285735,-54.1529930359251,4,1,0,100,0,1
285792,-53.9504400467642,4,1,0,100,0,1
285879,-53.6494789830849,4,1,0,100,0,1
285965,-53.3518286339264,4,1,0,100,0,1
286022,-53.1552420105014,4,1,0,100,0,1
286080,-52.9600707546545,4,1,0,100,0,1
286137,-52.7663553275815,4,1,0,100,0,1
286223,-52.4783972677647,4,1,0,100,0,1
286310,-52.1935650553643,4,1,0,100,0,1
286367,-52.0054064820579,4,1,0,100,0,1
286425,-51.8185996645264,4,1,0,100,0,1
286482,-51.6331034283348,4,1,0,100,0,1
286539,-51.4489569752952,4,1,0,100,0,1
286597,-51.26609306744,4,1,0,100,0,1
286654,-51.0845505504616,4,1,0,100,0,1
286712,-50.9042892463162,4,1,0,100,0,1
286769,-50.7252699091612,4,1,0,100,0,1
286827,-50.5475308542128,4,1,0,100,0,1
286884,-50.3710076568969,4,1,0,100,0,1
286942,-50.1957382814284,4,1,0,100,0,1
286999,-50,4,1,0,100,0,0
287172,-52.6315789473684,4,1,0,95,0,0
287430,-57.1428571428571,4,1,0,90,0,0
287689,-62.5,4,1,0,85,0,0
287948,-68.9655172413793,4,1,0,80,0,0
288206,-76.9230769230769,4,1,0,80,0,0
288292,-80,4,1,0,80,0,0
288379,-83.3333333333333,4,1,0,80,0,1
290620,-83.3333333333333,4,1,0,80,0,0
290907,-85.7191839533688,4,1,0,70,0,0
291022,-88.2378893496868,4,1,0,60,0,0
291137,-90.9090909090909,4,1,0,50,0,0
291310,-95.2380952380952,4,1,0,50,0,0
291482,-83.3333333333333,4,1,0,80,0,1
293896,-86.9565217391304,4,1,0,80,0,1
293953,-88.8888888888889,4,1,0,80,0,1
294011,-90.9090909090909,4,1,0,80,0,1
294068,-93.0232558139535,4,1,0,80,0,1
294241,-83.3333333333333,4,1,0,80,0,1
298034,-83.3333333333333,4,1,0,80,0,0
298206,-76.9230769230769,4,1,0,80,0,0
298292,-74.0740740740741,4,1,0,80,0,0
298551,-66.6666666666667,4,1,0,80,0,0
298723,-62.5,4,1,0,80,0,0
298810,-60.6060606060606,4,1,0,80,0,0
299068,-68.9655172413793,4,1,0,80,0,0
299241,-74.0740740740741,4,1,0,80,0,0
299327,-76.9230769230769,4,1,0,80,0,0
299413,-80,4,1,0,80,0,1
301827,-80,4,1,0,80,0,0
301942,-81.5221821857727,4,1,0,70,0,0
302057,-84.507280302198,4,1,0,50,0,0
302172,-86.9565217391304,4,1,0,50,0,0
302689,-80,4,1,0,80,0,1
304930,-80,4,1,0,80,0,1
305275,-50,4,1,0,80,0,1
305361,-51.7118429945708,4,1,0,80,0,1
305620,-57.6311743158603,4,1,0,80,0,1
305706,-59.9173380404394,4,1,0,80,0,1
305792,-62.3924120844119,4,1,0,80,0,1
305879,-65.0807782619788,4,1,0,80,0,1
305965,-68.0112490605946,4,1,0,80,0,1
306051,-71.218071158248,4,1,0,80,0,1
306137,-74.7422699675843,4,1,0,80,0,1
306223,-78.6334141684831,4,1,0,80,0,1
306310,-82.951961689466,4,1,0,80,0,1
306654,-50,4,1,0,80,0,1
306741,-51.7118429945708,4,1,0,80,0,1
306999,-57.6311743158603,4,1,0,80,0,1
307085,-59.9173380404394,4,1,0,80,0,1
307172,-62.3924120844119,4,1,0,80,0,1
307258,-65.0807782619788,4,1,0,80,0,1
307344,-68.0112490605946,4,1,0,80,0,1
307430,-71.218071158248,4,1,0,80,0,1
307517,-74.7422699675843,4,1,0,80,0,1
307603,-78.6334141684831,4,1,0,80,0,1
307689,-83.3333333333333,4,1,0,80,0,1
307861,-76.9230769230769,4,1,0,80,0,1
308034,-71.4285714285714,4,1,0,80,0,1
308120,-68.9655172413793,4,1,0,80,0,1
308206,-66.6666666666667,4,1,0,80,0,1
308379,-62.5,4,1,0,80,0,1
308465,-60.6060606060606,4,1,0,80,0,1
308551,-58.8235294117647,4,1,0,80,0,1
308637,-57.1428571428571,4,1,0,80,0,1
308723,-55.5555555555556,4,1,0,80,0,1
308810,-54.054054054054,4,1,0,80,0,1
308896,-52.6315789473684,4,1,0,80,0,1
308982,-51.2820512820513,4,1,0,80,0,1
309068,-50,4,1,0,80,0,1
309298,-46.1904858684828,4,1,0,80,0,1
309528,-42.9203522730833,4,1,0,80,0,1
309758,-40,4,1,0,80,0,0
310103,-58.8235294117647,4,1,0,60,0,0
310189,-60.5686181875447,4,1,0,60,0,0
310275,-62.420375009129,4,1,0,60,0,0
310361,-64.3889711994571,4,1,0,60,0,0
310448,-66.6666666666667,4,1,0,60,0,0
311137,-67.7419573361153,4,1,0,60,0,0
311310,-68.0161987378914,4,1,0,60,0,0
311482,-68.2926696014303,4,1,0,60,0,0
311654,-68.5714442449015,4,1,0,60,0,0
313206,-71.1864358517671,4,1,0,60,0,0
314068,-72.7272727272727,4,1,0,60,0,0
314241,-73.0434579357334,4,1,0,60,0,0
314413,-73.3624582292504,4,1,0,60,0,0
314585,-73.6842027700839,4,1,0,60,0,0
315103,-74.6666507377812,4,1,0,60,0,0
315620,-75.6756511322213,4,1,0,60,0,0
315965,-76.3636252562,4,1,0,60,0,0
316827,-78.1395290686862,4,1,0,60,0,0
316999,-78.504643549666,4,1,0,60,0,0
317172,-78.8732483237463,4,1,0,60,0,0
317344,-79.2452680669305,4,1,0,60,0,0
318723,-82.3529217993125,4,1,0,60,0,0
319585,-84.4220969773512,4,1,0,60,0,0
320103,-85.7142612244968,4,1,0,60,0,0
320275,-86.153867360952,4,1,0,60,0,0
321482,-89.361671706665,4,1,0,50,0,0
322344,-91.8032546089824,4,1,0,50,0,0
322517,-92.3077207100679,4,1,0,50,0,0
322689,-92.8176754555724,4,1,0,50,0,0
324241,-97.6743731747101,4,1,0,50,0,0
325275,-101.204843663818,4,1,0,50,0,0
325448,-101.818167008267,4,1,0,50,0,0
325620,-102.439074360524,4,1,0,50,0,0
326137,-104.347862381865,4,1,0,50,0,0
326654,-106.329135459065,4,1,0,50,0,0
326999,-107.692357396473,4,1,0,50,0,0
327861,-111.258219200943,4,1,0,50,0,0
328034,-112.000017920003,4,1,0,50,0,0
328206,-112.75164758345,4,1,0,50,0,0
328379,-113.51356260046,4,1,0,50,0,0
329758,-120.000048000019,4,1,0,50,0,0
330620,-124.44451081485,4,1,0,50,0,0
330792,-125.373141813322,4,1,0,50,0,0
330965,-126.315736288111,4,1,0,50,0,0
331137,-127.272773553736,4,1,0,50,0,0
331654,-130.232582368853,4,1,0,50,0,0
332172,-133.333333333333,4,1,0,50,0,0
332861,-133.333333333333,4,1,0,45,0,0
333551,-133.333333333333,4,1,0,40,0,0
334241,-133.333333333333,4,1,0,35,0,0
334930,-133.333333333333,4,1,0,30,0,0
336654,-125,4,1,0,30,0,0
336999,-100,4,1,0,40,0,0
337344,-100,4,1,0,50,0,0
337689,-100,4,1,0,60,0,0
338034,-100,4,1,0,70,0,0

[HitObjects]
385,209,1999,5,0,0:0:0:0:
385,209,2172,1,8,0:0:0:0:
385,209,2344,1,0,0:0:0:0:
317,164,7516,5,0,0:0:0:0:
317,164,7689,1,8,0:0:0:0:
317,164,7861,1,0,0:0:0:0:
311,153,12517,5,8,0:0:0:0:
259,159,12775,1,0,0:0:0:0:
249,146,13034,1,8,0:0:0:0:
249,146,13292,1,0,0:0:0:0:
157,89,13551,1,8,0:0:0:0:
157,89,13723,1,8,0:0:0:0:
157,89,13896,1,0,0:0:0:0:
352,161,14154,1,0,0:0:0:0:
345,153,14413,1,8,0:0:0:0:
345,153,14672,1,0,0:0:0:0:
264,95,14930,1,0,0:0:0:0:
206,91,15103,1,8,0:0:0:0:
206,91,15275,1,8,0:0:0:0:
351,227,15534,1,0,0:0:0:0:
351,227,15792,1,8,0:0:0:0:
335,177,16051,1,0,0:0:0:0:
335,177,16310,1,8,0:0:0:0:
335,177,16482,1,0,0:0:0:0:
335,177,16654,1,0,0:0:0:0:
211,67,16913,1,8,0:0:0:0:
211,67,17172,1,8,0:0:0:0:
218,76,17430,1,0,0:0:0:0:
218,76,17689,1,8,0:0:0:0:
218,76,17861,1,0,0:0:0:0:
218,76,18034,1,8,0:0:0:0:
210,105,18379,1,0,0:0:0:0:
210,105,18551,1,8,0:0:0:0:
210,105,18723,1,0,0:0:0:0:
376,215,18896,1,8,0:0:0:0:
244,136,19068,1,8,0:0:0:0:
391,239,19241,1,0,0:0:0:0:
415,241,19585,1,0,0:0:0:0:
105,147,19758,1,0,0:0:0:0:
186,129,19930,1,0,0:0:0:0:
186,129,20103,1,0,0:0:0:0:
186,129,20275,1,8,0:0:0:0:
218,120,20620,1,0,0:0:0:0:
159,120,20792,1,8,0:0:0:0:
351,198,21137,1,0,0:0:0:0:
351,198,21310,1,8,0:0:0:0:
351,198,21482,1,8,0:0:0:0:
246,125,21654,1,8,0:0:0:0:
246,125,21827,1,0,0:0:0:0:
241,138,21999,1,8,0:0:0:0:
300,111,22344,1,8,0:0:0:0:
300,111,22517,1,0,0:0:0:0:
300,111,22689,1,8,0:0:0:0:
300,111,22861,1,8,0:0:0:0:
300,111,23034,1,0,0:0:0:0:
300,111,23206,1,8,0:0:0:0:
283,100,23551,1,8,0:0:0:0:
283,100,23810,1,0,0:0:0:0:
283,100,24068,1,8,0:0:0:0:
283,100,24327,1,0,0:0:0:0:
283,100,24585,1,8,0:0:0:0:
283,100,24758,1,8,0:0:0:0:
283,100,24930,1,0,0:0:0:0:
131,134,25189,1,0,0:0:0:0:
164,127,25275,1,8,0:0:0:0:
175,121,25448,1,8,0:0:0:0:
175,83,25706,1,0,0:0:0:0:
229,150,25792,1,8,0:0:0:0:
229,150,25965,1,0,0:0:0:0:
160,89,26137,1,8,0:0:0:0:
90,132,26310,1,8,0:0:0:0:
346,175,26568,1,0,0:0:0:0:
346,175,26654,1,8,0:0:0:0:
301,100,26827,1,8,0:0:0:0:
211,46,26999,1,0,0:0:0:0:
229,91,27085,1,0,0:0:0:0:
276,122,27172,1,8,0:0:0:0:
211,46,27344,1,8,0:0:0:0:
211,46,27517,1,0,0:0:0:0:
211,46,27689,1,0,0:0:0:0:
270,121,27948,1,8,0:0:0:0:
270,121,28034,1,0,0:0:0:0:
270,121,28206,1,8,0:0:0:0:
259,73,28379,1,0,0:0:0:0:
289,103,28465,1,0,0:0:0:0:
289,103,28551,1,8,0:0:0:0:
289,103,28723,1,8,0:0:0:0:
77,150,28896,1,0,0:0:0:0:
254,180,29068,1,8,0:0:0:0:
254,180,29154,1,8,0:0:0:0:
254,180,29241,1,0,0:0:0:0:
254,180,29327,1,0,0:0:0:0:
254,180,29413,1,0,0:0:0:0:
254,180,29499,1,0,0:0:0:0:
254,180,29585,1,8,0:0:0:0:
254,180,29672,1,0,0:0:0:0:
254,180,29758,1,8,0:0:0:0:
254,180,29844,1,8,0:0:0:0:
254,180,29930,1,0,0:0:0:0:
254,180,30017,1,8,0:0:0:0:
254,180,30103,1,0,0:0:0:0:
254,180,30189,1,0,0:0:0:0:
254,180,30275,1,8,0:0:0:0:
254,180,30361,1,8,0:0:0:0:
254,180,30448,1,0,0:0:0:0:
254,180,30534,1,0,0:0:0:0:
254,180,30620,1,8,0:0:0:0:
254,180,30706,1,0,0:0:0:0:
254,180,30792,1,8,0:0:0:0:
254,180,30879,1,0,0:0:0:0:
254,180,30965,1,0,0:0:0:0:
254,180,31051,1,8,0:0:0:0:
254,180,31137,1,0,0:0:0:0:
254,180,31223,1,0,0:0:0:0:
254,180,31310,1,8,0:0:0:0:
254,180,31396,1,8,0:0:0:0:
254,180,31482,1,0,0:0:0:0:
254,180,31568,1,0,0:0:0:0:
254,180,31654,1,8,0:0:0:0:
254,180,31741,1,0,0:0:0:0:
262,180,31827,1,8,0:0:0:0:
262,180,31884,1,8,0:0:0:0:
262,180,31942,1,8,0:0:0:0:
262,180,31999,1,0,0:0:0:0:
162,163,32085,1,0,0:0:0:0:
262,180,32172,1,8,0:0:0:0:
262,180,32229,1,8,0:0:0:0:
262,180,32287,1,8,0:0:0:0:
262,180,32344,1,0,0:0:0:0:
310,158,32430,1,0,0:0:0:0:
262,180,32517,1,8,0:0:0:0:
262,180,32574,1,0,0:0:0:0:
262,180,32631,1,0,0:0:0:0:
262,180,32689,1,8,0:0:0:0:
310,158,32775,1,0,0:0:0:0:
262,180,32861,1,8,0:0:0:0:
262,180,32919,1,0,0:0:0:0:
262,180,32976,1,0,0:0:0:0:
262,180,33034,1,8,0:0:0:0:
310,158,33120,1,8,0:0:0:0:
301,162,33206,1,0,0:0:0:0:
256,192,33379,12,0,34068,0:0:0:0:
316,166,34241,5,0,0:0:0:0:
316,166,34327,1,0,0:0:0:0:
316,166,34413,1,8,0:0:0:0:
316,166,34499,1,8,0:0:0:0:
316,166,34585,1,4,0:0:0:0:
166,167,35103,1,12,0:0:0:0:
271,133,35448,1,0,0:0:0:0:
271,133,35491,1,0,0:0:0:0:
271,133,35620,1,8,0:0:0:0:
271,133,35663,1,8,0:0:0:0:
271,133,35792,1,8,0:0:0:0:
251,133,35835,1,8,0:0:0:0:
191,151,35965,1,12,0:0:0:0:
243,109,36482,1,12,0:0:0:0:
256,152,36827,1,0,0:0:0:0:
256,152,36884,1,0,0:0:0:0:
256,152,36942,1,0,0:0:0:0:
256,152,36999,1,8,0:0:0:0:
139,116,37172,1,8,0:0:0:0:
139,116,37258,1,8,0:0:0:0:
139,116,37344,1,4,0:0:0:0:
167,109,37861,1,12,0:0:0:0:
228,94,38379,1,8,0:0:0:0:
228,94,38465,1,8,0:0:0:0:
228,94,38551,1,8,0:0:0:0:
228,94,38637,1,8,0:0:0:0:
228,94,38723,1,4,0:0:0:0:
256,192,38896,12,0,39585,0:0:0:0:
155,168,39758,5,0,0:0:0:0:
158,168,39844,1,0,0:0:0:0:
158,168,39930,1,0,0:0:0:0:
158,168,40017,1,0,0:0:0:0:
176,76,40103,1,12,0:0:0:0:
154,190,40620,1,4,0:0:0:0:
265,171,41137,1,8,0:0:0:0:
265,171,41223,1,0,0:0:0:0:
265,171,41310,1,8,0:0:0:0:
265,171,41396,1,0,0:0:0:0:
258,151,41482,1,12,0:0:0:0:
88,160,41999,1,12,0:0:0:0:
229,108,42344,1,0,0:0:0:0:
229,108,42430,1,8,0:0:0:0:
99,111,42517,1,8,0:0:0:0:
128,123,42603,1,4,0:0:0:0:
393,207,42861,1,12,0:0:0:0:
160,118,43120,1,12,0:0:0:0:
160,118,43379,1,4,0:0:0:0:
256,192,43551,12,0,45103,0:0:0:0:
316,166,45275,5,0,0:0:0:0:
316,166,45361,1,0,0:0:0:0:
316,166,45447,1,8,0:0:0:0:
316,166,45533,1,8,0:0:0:0:
316,166,45619,1,4,0:0:0:0:
166,167,46137,1,12,0:0:0:0:
271,133,46482,1,0,0:0:0:0:
271,133,46539,1,0,0:0:0:0:
271,133,46597,1,0,0:0:0:0:
271,133,46654,1,8,0:0:0:0:
271,133,46826,1,0,0:0:0:0:
251,133,46869,1,8,0:0:0:0:
191,151,46999,1,12,0:0:0:0:
243,109,47516,1,12,0:0:0:0:
256,152,47861,1,0,0:0:0:0:
256,152,47918,1,8,0:0:0:0:
256,152,47976,1,8,0:0:0:0:
256,152,48033,1,0,0:0:0:0:
139,116,48206,1,8,0:0:0:0:
139,116,48292,1,8,0:0:0:0:
139,116,48379,1,4,0:0:0:0:
167,109,48895,1,12,0:0:0:0:
228,94,49413,1,8,0:0:0:0:
228,94,49499,1,8,0:0:0:0:
228,94,49585,1,8,0:0:0:0:
228,94,49672,1,8,0:0:0:0:
228,94,49758,1,4,0:0:0:0:
256,192,49930,12,0,50619,0:0:0:0:
155,168,50792,5,0,0:0:0:0:
158,168,50878,1,0,0:0:0:0:
158,168,50964,1,0,0:0:0:0:
158,168,51051,1,0,0:0:0:0:
176,76,51137,1,12,0:0:0:0:
154,190,51654,1,4,0:0:0:0:
265,171,52172,1,8,0:0:0:0:
91,162,52229,1,0,0:0:0:0:
265,171,52287,1,0,0:0:0:0:
265,171,52344,1,8,0:0:0:0:
258,151,52517,1,12,0:0:0:0:
88,160,53033,1,12,0:0:0:0:
229,108,53379,1,0,0:0:0:0:
229,108,53465,1,8,0:0:0:0:
99,111,53551,1,8,0:0:0:0:
128,123,53637,1,4,0:0:0:0:
393,207,53896,1,12,0:0:0:0:
160,118,54154,1,12,0:0:0:0:
160,118,54413,1,4,0:0:0:0:
391,177,54672,1,4,0:0:0:0:
391,177,54930,1,12,0:0:0:0:
256,192,55103,12,0,56310,0:0:0:0:
205,182,56654,5,4,0:0:0:0:
237,143,56913,1,0,0:0:0:0:
160,74,57172,1,8,0:0:0:0:
189,130,57430,1,0,0:0:0:0:
273,124,57689,1,8,0:0:0:0:
273,124,57861,1,8,0:0:0:0:
157,89,58034,1,0,0:0:0:0:
352,161,58292,1,0,0:0:0:0:
345,153,58551,1,8,0:0:0:0:
345,153,58810,1,0,0:0:0:0:
264,95,59068,1,0,0:0:0:0:
206,91,59241,1,8,0:0:0:0:
206,91,59413,1,8,0:0:0:0:
351,227,59672,1,0,0:0:0:0:
351,227,59930,1,8,0:0:0:0:
335,177,60189,1,0,0:0:0:0:
335,177,60448,1,8,0:0:0:0:
335,177,60620,1,8,0:0:0:0:
335,177,60792,1,0,0:0:0:0:
211,67,61051,1,0,0:0:0:0:
211,67,61310,1,8,0:0:0:0:
218,76,61568,1,0,0:0:0:0:
218,76,61827,1,0,0:0:0:0:
218,76,61999,1,8,0:0:0:0:
218,76,62172,1,8,0:0:0:0:
96,160,62430,1,0,0:0:0:0:
192,160,62689,1,8,0:0:0:0:
192,160,62948,1,0,0:0:0:0:
192,128,63206,1,8,0:0:0:0:
192,128,63379,1,8,0:0:0:0:
192,128,63551,1,0,0:0:0:0:
128,96,63810,1,0,0:0:0:0:
128,96,64068,1,8,0:0:0:0:
128,96,64327,1,0,0:0:0:0:
128,96,64585,1,0,0:0:0:0:
128,96,64758,1,8,0:0:0:0:
128,96,64930,1,8,0:0:0:0:
256,128,65189,1,0,0:0:0:0:
256,128,65448,1,8,0:0:0:0:
256,128,65706,1,0,0:0:0:0:
224,96,65965,1,8,0:0:0:0:
224,96,66137,1,8,0:0:0:0:
224,96,66310,1,4,0:0:0:0:
256,192,66482,12,0,67344,0:0:0:0:
96,128,67689,5,4,0:0:0:0:
128,128,67861,1,8,0:0:0:0:
128,128,67948,1,0,0:0:0:0:
192,64,68120,1,0,0:0:0:0:
192,64,68206,1,8,0:0:0:0:
384,192,68379,1,0,0:0:0:0:
128,64,68465,1,0,0:0:0:0:
320,192,68551,1,8,0:0:0:0:
320,192,68723,1,8,0:0:0:0:
220,94,68896,1,0,0:0:0:0:
220,94,68982,1,8,0:0:0:0:
96,128,69068,1,0,0:0:0:0:
128,128,69241,1,8,0:0:0:0:
224,96,69413,1,8,0:0:0:0:
224,96,69500,1,8,0:0:0:0:
224,96,69586,1,0,0:0:0:0:
315,167,69672,1,0,0:0:0:0:
315,167,69758,1,8,0:0:0:0:
226,104,69930,1,0,0:0:0:0:
226,104,70017,1,0,0:0:0:0:
186,141,70103,1,8,0:0:0:0:
156,100,70275,1,8,0:0:0:0:
156,100,70333,1,8,0:0:0:0:
156,100,70390,1,8,0:0:0:0:
156,100,70448,1,0,0:0:0:0:
128,128,70620,1,8,0:0:0:0:
128,128,70707,1,0,0:0:0:0:
192,64,70879,1,0,0:0:0:0:
192,64,70965,1,8,0:0:0:0:
128,64,71051,1,8,0:0:0:0:
384,192,71138,1,0,0:0:0:0:
320,192,71310,1,8,0:0:0:0:
13,116,71396,1,0,0:0:0:0:
320,192,71482,1,8,0:0:0:0:
220,94,71655,1,0,0:0:0:0:
220,94,71741,1,8,0:0:0:0:
96,128,71827,1,0,0:0:0:0:
224,96,71999,1,8,0:0:0:0:
224,96,72086,1,0,0:0:0:0:
224,96,72172,1,8,0:0:0:0:
315,167,72258,1,8,0:0:0:0:
315,167,72344,1,0,0:0:0:0:
193,137,72430,1,8,0:0:0:0:
227,119,72603,1,0,0:0:0:0:
226,104,72689,1,0,0:0:0:0:
226,104,72776,1,0,0:0:0:0:
186,141,72862,1,8,0:0:0:0:
156,100,73034,1,8,0:0:0:0:
178,83,73091,1,0,0:0:0:0:
178,83,73149,1,0,0:0:0:0:
156,100,73206,1,8,0:0:0:0:
262,172,73292,1,0,0:0:0:0:
262,172,73379,1,0,0:0:0:0:
262,172,73465,1,8,0:0:0:0:
262,172,73551,1,0,0:0:0:0:
262,172,73637,1,0,0:0:0:0:
262,172,73723,1,8,0:0:0:0:
262,172,73810,1,0,0:0:0:0:
262,172,73896,1,0,0:0:0:0:
262,172,73982,1,8,0:0:0:0:
262,172,74068,1,0,0:0:0:0:
262,172,74154,1,0,0:0:0:0:
262,172,74241,1,8,0:0:0:0:
262,172,74327,1,0,0:0:0:0:
262,172,74413,1,0,0:0:0:0:
262,172,74499,1,8,0:0:0:0:
262,172,74585,1,8,0:0:0:0:
262,172,74672,1,0,0:0:0:0:
262,172,74758,1,8,0:0:0:0:
262,172,74844,1,8,0:0:0:0:
262,172,74930,1,0,0:0:0:0:
262,172,75017,1,8,0:0:0:0:
262,172,75103,1,8,0:0:0:0:
262,172,75189,1,0,0:0:0:0:
262,172,75275,1,8,0:0:0:0:
262,172,75361,1,8,0:0:0:0:
262,172,75448,1,0,0:0:0:0:
262,172,75534,1,8,0:0:0:0:
262,172,75620,1,8,0:0:0:0:
262,172,75706,1,0,0:0:0:0:
262,172,75792,1,8,0:0:0:0:
262,172,75879,1,8,0:0:0:0:
262,172,75965,1,0,0:0:0:0:
145,176,76022,1,0,0:0:0:0:
145,176,76080,1,0,0:0:0:0:
145,176,76137,1,8,0:0:0:0:
262,172,76223,1,0,0:0:0:0:
145,176,76310,1,8,0:0:0:0:
145,176,76367,1,8,0:0:0:0:
145,176,76425,1,8,0:0:0:0:
145,176,76482,1,0,0:0:0:0:
262,172,76568,1,0,0:0:0:0:
145,176,76654,1,8,0:0:0:0:
145,176,76712,1,0,0:0:0:0:
145,176,76769,1,0,0:0:0:0:
145,176,76827,1,8,0:0:0:0:
262,172,76913,1,0,0:0:0:0:
145,176,76999,1,8,0:0:0:0:
145,176,77057,1,8,0:0:0:0:
145,176,77114,1,8,0:0:0:0:
145,176,77172,1,8,0:0:0:0:
262,172,77258,1,8,0:0:0:0:
262,172,77344,1,0,0:0:0:0:
342,107,77517,1,8,0:0:0:0:
209,27,77689,1,0,0:0:0:0:
260,165,78034,1,8,0:0:0:0:
381,201,78379,1,0,0:0:0:0:
381,201,78465,1,0,0:0:0:0:
381,201,78551,1,0,0:0:0:0:
381,201,78637,1,0,0:0:0:0:
381,201,78723,1,12,0:0:0:0:
344,179,79068,1,8,0:0:0:0:
229,108,79240,1,0,0:0:0:0:
229,108,79283,1,0,0:0:0:0:
179,121,79412,1,8,0:0:0:0:
229,108,79456,1,8,0:0:0:0:
285,135,79586,1,0,0:0:0:0:
285,135,79672,1,0,0:0:0:0:
285,135,79758,1,8,0:0:0:0:
275,72,79930,1,0,0:0:0:0:
275,72,79988,1,0,0:0:0:0:
275,72,80045,1,0,0:0:0:0:
275,72,80103,1,8,0:0:0:0:
230,94,80275,1,0,0:0:0:0:
276,65,80361,1,8,0:0:0:0:
276,65,80448,1,0,0:0:0:0:
283,100,80620,1,8,0:0:0:0:
288,135,80663,1,0,0:0:0:0:
288,135,80792,1,8,0:0:0:0:
279,123,80835,1,0,0:0:0:0:
338,93,80965,1,8,0:0:0:0:
338,93,81051,1,8,0:0:0:0:
270,104,81137,1,0,0:0:0:0:
205,134,81310,1,8,0:0:0:0:
205,134,81482,1,0,0:0:0:0:
205,134,81568,1,8,0:0:0:0:
140,137,81654,1,0,0:0:0:0:
330,86,81741,1,0,0:0:0:0:
320,139,81827,1,8,0:0:0:0:
279,151,81999,1,0,0:0:0:0:
369,228,82172,1,0,0:0:0:0:
369,228,82258,1,0,0:0:0:0:
238,48,82344,1,8,0:0:0:0:
326,151,82430,1,8,0:0:0:0:
326,151,82517,1,0,0:0:0:0:
164,143,82574,1,0,0:0:0:0:
164,143,82631,1,0,0:0:0:0:
155,145,82689,1,0,0:0:0:0:
191,108,82861,1,8,0:0:0:0:
191,108,82919,1,8,0:0:0:0:
191,108,82976,1,8,0:0:0:0:
191,108,83034,1,0,0:0:0:0:
214,58,83120,1,0,0:0:0:0:
206,103,83206,1,8,0:0:0:0:
206,103,83249,1,8,0:0:0:0:
203,108,83379,1,8,0:0:0:0:
203,108,83422,1,8,0:0:0:0:
177,101,83551,1,8,0:0:0:0:
177,101,83594,1,8,0:0:0:0:
301,122,83723,1,0,0:0:0:0:
301,122,83810,1,0,0:0:0:0:
301,122,83896,1,8,0:0:0:0:
236,115,84068,1,8,0:0:0:0:
294,132,84241,1,0,0:0:0:0:
294,132,84327,1,0,0:0:0:0:
294,132,84413,1,0,0:0:0:0:
294,132,84499,1,0,0:0:0:0:
292,131,84585,1,12,0:0:0:0:
351,120,84930,1,8,0:0:0:0:
193,177,84988,1,0,0:0:0:0:
351,120,85045,1,0,0:0:0:0:
351,120,85103,1,8,0:0:0:0:
351,120,85275,1,0,0:0:0:0:
351,120,85448,1,8,0:0:0:0:
351,120,85534,1,0,0:0:0:0:
351,120,85620,1,8,0:0:0:0:
392,84,85792,1,0,0:0:0:0:
392,84,85879,1,0,0:0:0:0:
392,84,85965,1,8,0:0:0:0:
284,128,86137,1,8,0:0:0:0:
284,128,86223,1,8,0:0:0:0:
405,164,86310,1,0,0:0:0:0:
252,40,86396,1,8,0:0:0:0:
396,166,86568,1,8,0:0:0:0:
396,166,86654,1,0,0:0:0:0:
277,179,86827,1,8,0:0:0:0:
280,177,86913,1,8,0:0:0:0:
280,177,86999,1,8,0:0:0:0:
280,177,87085,1,8,0:0:0:0:
280,177,87172,1,0,0:0:0:0:
177,132,87344,1,8,0:0:0:0:
387,126,87517,1,0,0:0:0:0:
387,126,87603,1,0,0:0:0:0:
387,126,87689,1,8,0:0:0:0:
280,114,87775,1,0,0:0:0:0:
280,114,87861,1,8,0:0:0:0:
280,114,87948,1,8,0:0:0:0:
280,114,88034,1,0,0:0:0:0:
280,114,88206,1,0,0:0:0:0:
280,114,88292,1,0,0:0:0:0:
280,114,88379,1,8,0:0:0:0:
200,161,88436,1,8,0:0:0:0:
181,161,88494,1,8,0:0:0:0:
200,161,88551,1,0,0:0:0:0:
314,145,88723,1,8,0:0:0:0:
314,145,88810,1,8,0:0:0:0:
314,145,88896,1,0,0:0:0:0:
314,145,88982,1,0,0:0:0:0:
314,145,89068,1,8,0:0:0:0:
312,110,89241,1,0,0:0:0:0:
312,110,89327,1,8,0:0:0:0:
356,182,89499,1,0,0:0:0:0:
321,132,89585,1,8,0:0:0:0:
321,132,89643,1,8,0:0:0:0:
321,132,89700,1,8,0:0:0:0:
321,132,89758,1,4,0:0:0:0:
343,150,90103,1,8,0:0:0:0:
203,151,90275,1,0,0:0:0:0:
203,151,90318,1,0,0:0:0:0:
203,151,90448,1,8,0:0:0:0:
203,151,90491,1,8,0:0:0:0:
337,126,90620,1,0,0:0:0:0:
427,145,90706,1,8,0:0:0:0:
427,145,90792,1,8,0:0:0:0:
252,151,90965,1,0,0:0:0:0:
252,151,91022,1,8,0:0:0:0:
252,151,91080,1,8,0:0:0:0:
252,151,91137,1,0,0:0:0:0:
191,108,91310,1,0,0:0:0:0:
388,134,91396,1,8,0:0:0:0:
388,134,91482,1,0,0:0:0:0:
319,99,91654,1,8,0:0:0:0:
319,99,91698,1,0,0:0:0:0:
319,99,91827,1,8,0:0:0:0:
319,99,91870,1,0,0:0:0:0:
316,109,91999,1,0,0:0:0:0:
316,109,92085,1,8,0:0:0:0:
316,109,92258,1,0,0:0:0:0:
316,109,92344,1,8,0:0:0:0:
213,120,92430,1,8,0:0:0:0:
316,109,92517,1,0,0:0:0:0:
307,110,92689,1,0,0:0:0:0:
307,110,92775,1,0,0:0:0:0:
236,118,92861,1,8,0:0:0:0:
252,155,93034,1,0,0:0:0:0:
359,158,93206,1,8,0:0:0:0:
161,120,93292,1,0,0:0:0:0:
285,98,93465,1,0,0:0:0:0:
285,98,93551,1,8,0:0:0:0:
216,141,93608,1,0,0:0:0:0:
285,98,93666,1,0,0:0:0:0:
285,98,93723,1,8,0:0:0:0:
285,98,93810,1,8,0:0:0:0:
285,98,93896,1,0,0:0:0:0:
307,78,94068,1,0,0:0:0:0:
307,78,94154,1,8,0:0:0:0:
306,73,94327,1,8,0:0:0:0:
306,73,94413,1,0,0:0:0:0:
188,73,94585,1,0,0:0:0:0:
188,73,94672,1,8,0:0:0:0:
188,73,94758,1,8,0:0:0:0:
183,76,94844,1,8,0:0:0:0:
177,77,94930,1,0,0:0:0:0:
295,173,95189,1,0,0:0:0:0:
295,173,95275,1,12,0:0:0:0:
359,188,95620,1,0,0:0:0:0:
359,188,95706,1,8,0:0:0:0:
229,218,95965,1,0,0:0:0:0:
229,218,96051,1,8,0:0:0:0:
229,218,96137,1,8,0:0:0:0:
229,218,96223,1,8,0:0:0:0:
224,218,96310,1,0,0:0:0:0:
224,218,96396,1,8,0:0:0:0:
224,218,96482,1,8,0:0:0:0:
224,218,96568,1,8,0:0:0:0:
219,218,96654,1,0,0:0:0:0:
133,137,96999,1,0,0:0:0:0:
141,137,97085,1,8,0:0:0:0:
148,134,97344,1,0,0:0:0:0:
148,134,97430,1,8,0:0:0:0:
148,134,97517,1,8,0:0:0:0:
148,134,97603,1,8,0:0:0:0:
148,134,97689,1,0,0:0:0:0:
148,134,97775,1,8,0:0:0:0:
148,134,97861,1,8,0:0:0:0:
148,134,97948,1,8,0:0:0:0:
148,134,98034,1,4,0:0:0:0:
186,138,98206,1,0,0:0:0:0:
172,166,98379,1,0,0:0:0:0:
206,112,98465,1,8,0:0:0:0:
206,112,98551,1,0,0:0:0:0:
311,174,98723,1,0,0:0:0:0:
311,174,98810,1,8,0:0:0:0:
311,174,98896,1,0,0:0:0:0:
311,174,98982,1,8,0:0:0:0:
311,174,99068,1,0,0:0:0:0:
311,174,99154,1,8,0:0:0:0:
311,174,99241,1,0,0:0:0:0:
311,174,99327,1,0,0:0:0:0:
258,168,99413,1,12,0:0:0:0:
177,128,99643,1,12,0:0:0:0:
229,107,99873,1,12,0:0:0:0:
229,107,100103,1,4,0:0:0:0:
279,180,100448,1,8,0:0:0:0:
279,180,100534,1,8,0:0:0:0:
279,180,100620,1,0,0:0:0:0:
279,180,100706,1,0,0:0:0:0:
273,183,100792,1,12,0:0:0:0:
381,178,100965,1,0,0:0:0:0:
381,178,101137,1,8,0:0:0:0:
125,131,101195,1,8,0:0:0:0:
160,151,101252,1,8,0:0:0:0:
42,152,101310,1,0,0:0:0:0:
51,148,101396,1,0,0:0:0:0:
431,283,101482,1,8,0:0:0:0:
225,84,101568,1,8,0:0:0:0:
431,283,101654,1,8,0:0:0:0:
431,283,101741,1,8,0:0:0:0:
431,283,101827,1,0,0:0:0:0:
304,134,101999,1,0,0:0:0:0:
304,134,102085,1,0,0:0:0:0:
304,134,102172,1,8,0:0:0:0:
365,170,102258,1,0,0:0:0:0:
365,170,102344,1,8,0:0:0:0:
365,170,102430,1,8,0:0:0:0:
365,170,102517,1,0,0:0:0:0:
365,170,102603,1,8,0:0:0:0:
365,170,102689,1,8,0:0:0:0:
365,170,102775,1,8,0:0:0:0:
365,170,102861,1,0,0:0:0:0:
276,152,102948,1,8,0:0:0:0:
276,152,103034,1,8,0:0:0:0:
276,152,103120,1,0,0:0:0:0:
276,152,103206,1,8,0:0:0:0:
276,152,103292,1,8,0:0:0:0:
276,152,103379,1,8,0:0:0:0:
276,152,103465,1,8,0:0:0:0:
245,152,103551,1,0,0:0:0:0:
422,163,103723,1,0,0:0:0:0:
283,127,103810,1,0,0:0:0:0:
459,83,103896,1,8,0:0:0:0:
149,156,103982,1,0,0:0:0:0:
411,76,104068,1,8,0:0:0:0:
438,157,104154,1,8,0:0:0:0:
438,157,104241,1,0,0:0:0:0:
374,183,104327,1,8,0:0:0:0:
374,183,104413,1,0,0:0:0:0:
328,48,104585,1,8,0:0:0:0:
328,48,104629,1,0,0:0:0:0:
328,48,104758,1,8,0:0:0:0:
328,48,104801,1,0,0:0:0:0:
279,147,104930,1,8,0:0:0:0:
390,142,105017,1,8,0:0:0:0:
390,142,105103,1,0,0:0:0:0:
390,142,105189,1,0,0:0:0:0:
390,142,105275,1,8,0:0:0:0:
213,124,105333,1,8,0:0:0:0:
221,124,105390,1,8,0:0:0:0:
221,124,105448,1,0,0:0:0:0:
82,132,105534,1,0,0:0:0:0:
286,134,105620,1,8,0:0:0:0:
370,150,105792,1,0,0:0:0:0:
370,150,105879,1,0,0:0:0:0:
370,150,105965,1,8,0:0:0:0:
370,150,106137,1,8,0:0:0:0:
118,133,106310,1,0,0:0:0:0:
212,140,106654,1,12,0:0:0:0:
371,159,106827,1,0,0:0:0:0:
371,159,106913,1,0,0:0:0:0:
358,143,106999,1,8,0:0:0:0:
358,143,107085,1,0,0:0:0:0:
342,127,107172,1,8,0:0:0:0:
342,127,107258,1,8,0:0:0:0:
342,127,107344,1,0,0:0:0:0:
373,87,107517,1,0,0:0:0:0:
373,87,107574,1,0,0:0:0:0:
373,87,107631,1,0,0:0:0:0:
373,87,107689,1,8,0:0:0:0:
231,152,107775,1,8,0:0:0:0:
231,152,107861,1,0,0:0:0:0:
231,152,107948,1,0,0:0:0:0:
231,152,108034,1,8,0:0:0:0:
231,152,108120,1,0,0:0:0:0:
231,152,108206,1,8,0:0:0:0:
231,152,108292,1,8,0:0:0:0:
231,152,108379,1,0,0:0:0:0:
231,152,108465,1,8,0:0:0:0:
231,152,108551,1,8,0:0:0:0:
231,152,108637,1,0,0:0:0:0:
231,152,108723,1,8,0:0:0:0:
231,152,108810,1,8,0:0:0:0:
231,152,108896,1,8,0:0:0:0:
231,152,108982,1,8,0:0:0:0:
231,152,109068,1,0,0:0:0:0:
318,116,109241,1,0,0:0:0:0:
318,116,109413,1,12,0:0:0:0:
138,128,109585,1,0,0:0:0:0:
138,128,109643,1,0,0:0:0:0:
138,128,109700,1,0,0:0:0:0:
133,128,109758,1,8,0:0:0:0:
272,103,109930,1,0,0:0:0:0:
255,172,110017,1,8,0:0:0:0:
126,143,110103,1,8,0:0:0:0:
255,172,110189,1,8,0:0:0:0:
244,171,110275,1,0,0:0:0:0:
176,143,110448,1,8,0:0:0:0:
401,177,110534,1,8,0:0:0:0:
401,177,110620,1,0,0:0:0:0:
351,126,110706,1,8,0:0:0:0:
200,92,110879,1,0,0:0:0:0:
200,92,110965,1,8,0:0:0:0:
272,80,111137,1,8,0:0:0:0:
424,223,111310,1,0,0:0:0:0:
370,167,111396,1,8,0:0:0:0:
177,153,111568,1,0,0:0:0:0:
370,167,111654,1,8,0:0:0:0:
273,106,111712,1,8,0:0:0:0:
273,106,111769,1,8,0:0:0:0:
273,106,111827,1,4,0:0:0:0:
372,110,111999,1,0,0:0:0:0:
372,110,112085,1,0,0:0:0:0:
372,110,112258,1,0,0:0:0:0:
372,110,112344,1,8,0:0:0:0:
122,170,112517,1,0,0:0:0:0:
122,170,112603,1,0,0:0:0:0:
122,170,112689,1,12,0:0:0:0:
330,148,112861,1,0,0:0:0:0:
330,148,112976,1,0,0:0:0:0:
192,79,113091,1,0,0:0:0:0:
192,79,113206,1,8,0:0:0:0:
192,79,113292,1,8,0:0:0:0:
321,146,113379,1,0,0:0:0:0:
221,119,113465,1,0,0:0:0:0:
363,241,113551,1,8,0:0:0:0:
363,241,113637,1,8,0:0:0:0:
363,241,113723,1,0,0:0:0:0:
360,239,113810,1,8,0:0:0:0:
360,239,113896,1,8,0:0:0:0:
360,239,113982,1,8,0:0:0:0:
360,239,114068,1,0,0:0:0:0:
360,239,114154,1,0,0:0:0:0:
360,239,114241,1,8,0:0:0:0:
360,239,114327,1,8,0:0:0:0:
360,239,114413,1,8,0:0:0:0:
353,237,114499,1,8,0:0:0:0:
353,237,114585,1,0,0:0:0:0:
268,102,114758,1,0,0:0:0:0:
83,149,114844,1,0,0:0:0:0:
268,102,114930,1,8,0:0:0:0:
221,150,115017,1,8,0:0:0:0:
411,239,115103,1,0,0:0:0:0:
411,239,115189,1,0,0:0:0:0:
375,192,115361,1,8,0:0:0:0:
375,192,115448,1,0,0:0:0:0:
39,144,115620,1,8,0:0:0:0:
231,138,115706,1,0,0:0:0:0:
46,148,115792,1,8,0:0:0:0:
94,147,115879,1,8,0:0:0:0:
287,134,115965,1,0,0:0:0:0:
187,144,116051,1,8,0:0:0:0:
168,132,116223,1,0,0:0:0:0:
310,111,116310,1,8,0:0:0:0:
310,111,116367,1,8,0:0:0:0:
310,111,116425,1,8,0:0:0:0:
310,111,116482,1,0,0:0:0:0:
284,146,116568,1,0,0:0:0:0:
344,150,116654,1,8,0:0:0:0:
249,166,116827,1,0,0:0:0:0:
249,166,116913,1,0,0:0:0:0:
242,166,116999,1,8,0:0:0:0:
375,132,117172,1,8,0:0:0:0:
375,132,117344,1,0,0:0:0:0:
345,144,117517,1,0,0:0:0:0:
345,144,117689,1,12,0:0:0:0:
401,159,117861,1,0,0:0:0:0:
427,161,117919,1,0,0:0:0:0:
427,161,117976,1,0,0:0:0:0:
427,161,118034,1,8,0:0:0:0:
270,113,118120,1,8,0:0:0:0:
270,113,118206,1,0,0:0:0:0:
270,113,118292,1,0,0:0:0:0:
270,113,118379,1,8,0:0:0:0:
291,169,118465,1,8,0:0:0:0:
270,113,118551,1,0,0:0:0:0:
270,113,118637,1,0,0:0:0:0:
270,113,118723,1,8,0:0:0:0:
291,169,118810,1,8,0:0:0:0:
270,113,118896,1,0,0:0:0:0:
270,113,118982,1,0,0:0:0:0:
270,113,119068,1,8,0:0:0:0:
291,169,119154,1,8,0:0:0:0:
453,187,119241,1,0,0:0:0:0:
375,172,119298,1,0,0:0:0:0:
375,172,119356,1,0,0:0:0:0:
375,172,119413,1,8,0:0:0:0:
270,113,119499,1,8,0:0:0:0:
270,113,119585,1,0,0:0:0:0:
270,113,119672,1,0,0:0:0:0:
270,113,119758,1,8,0:0:0:0:
270,113,119844,1,8,0:0:0:0:
270,113,119930,1,0,0:0:0:0:
177,106,120017,1,0,0:0:0:0:
268,113,120103,1,8,0:0:0:0:
268,113,120160,1,0,0:0:0:0:
268,113,120218,1,0,0:0:0:0:
268,113,120275,1,8,0:0:0:0:
151,120,120361,1,8,0:0:0:0:
268,113,120448,1,0,0:0:0:0:
268,113,120505,1,0,0:0:0:0:
268,113,120562,1,0,0:0:0:0:
268,113,120620,1,8,0:0:0:0:
241,100,120706,1,8,0:0:0:0:
268,113,120792,1,0,0:0:0:0:
268,113,120850,1,8,0:0:0:0:
268,113,120907,1,8,0:0:0:0:
268,113,120965,1,0,0:0:0:0:
241,100,121051,1,0,0:0:0:0:
268,113,121137,1,8,0:0:0:0:
268,113,121195,1,8,0:0:0:0:
268,113,121252,1,8,0:0:0:0:
268,113,121310,1,8,0:0:0:0:
241,100,121396,1,8,0:0:0:0:
241,100,121482,1,0,0:0:0:0:
261,82,121654,1,8,0:0:0:0:
261,82,121827,1,8,0:0:0:0:
181,132,121999,1,8,0:0:0:0:
181,132,122085,1,8,0:0:0:0:
181,132,122172,1,8,0:0:0:0:
181,132,122258,1,8,0:0:0:0:
181,132,122344,1,8,0:0:0:0:
181,132,122430,1,8,0:0:0:0:
181,132,122517,1,0,0:0:0:0:
232,123,122861,1,12,0:0:0:0:
299,109,123034,1,0,0:0:0:0:
299,109,123120,1,0,0:0:0:0:
299,109,123292,1,0,0:0:0:0:
299,109,123379,1,8,0:0:0:0:
299,109,123551,1,0,0:0:0:0:
299,109,123637,1,0,0:0:0:0:
299,109,123810,1,0,0:0:0:0:
299,109,123896,1,8,0:0:0:0:
215,78,124068,1,8,0:0:0:0:
215,78,124154,1,8,0:0:0:0:
215,78,124241,1,0,0:0:0:0:
100,160,124413,1,8,0:0:0:0:
100,160,124499,1,0,0:0:0:0:
100,160,124672,1,0,0:0:0:0:
100,160,124758,1,8,0:0:0:0:
100,160,124930,1,8,0:0:0:0:
100,160,125017,1,0,0:0:0:0:
100,160,125189,1,0,0:0:0:0:
100,160,125275,1,8,0:0:0:0:
100,160,125448,1,8,0:0:0:0:
128,142,125505,1,0,0:0:0:0:
100,160,125562,1,0,0:0:0:0:
100,160,125620,1,8,0:0:0:0:
325,176,125792,1,0,0:0:0:0:
325,176,125879,1,0,0:0:0:0:
325,176,126051,1,0,0:0:0:0:
325,176,126137,1,8,0:0:0:0:
325,176,126310,1,0,0:0:0:0:
325,176,126396,1,0,0:0:0:0:
325,176,126568,1,0,0:0:0:0:
325,176,126654,1,8,0:0:0:0:
345,181,126827,1,8,0:0:0:0:
345,181,126913,1,8,0:0:0:0:
345,181,126999,1,0,0:0:0:0:
102,108,127172,1,8,0:0:0:0:
117,171,127258,1,0,0:0:0:0:
196,119,127430,1,0,0:0:0:0:
196,119,127517,1,8,0:0:0:0:
159,137,127689,1,8,0:0:0:0:
125,135,127775,1,0,0:0:0:0:
432,237,127948,1,0,0:0:0:0:
432,237,128034,1,8,0:0:0:0:
248,111,128206,1,8,0:0:0:0:
248,111,128264,1,0,0:0:0:0:
248,111,128321,1,0,0:0:0:0:
248,111,128379,1,8,0:0:0:0:
229,133,128465,1,0,0:0:0:0:
229,133,128551,1,0,0:0:0:0:
229,133,128637,1,8,0:0:0:0:
229,133,128723,1,0,0:0:0:0:
229,133,128810,1,0,0:0:0:0:
229,133,128896,1,8,0:0:0:0:
229,133,128982,1,8,0:0:0:0:
229,133,129068,1,0,0:0:0:0:
229,133,129154,1,8,0:0:0:0:
229,133,129241,1,8,0:0:0:0:
229,133,129327,1,0,0:0:0:0:
229,133,129413,1,8,0:0:0:0:
229,133,129499,1,8,0:0:0:0:
229,133,129585,1,0,0:0:0:0:
229,133,129672,1,8,0:0:0:0:
229,133,129758,1,0,0:0:0:0:
229,133,129844,1,0,0:0:0:0:
229,133,129930,1,8,0:0:0:0:
229,133,130017,1,0,0:0:0:0:
229,133,130103,1,0,0:0:0:0:
229,133,130189,1,8,0:0:0:0:
229,133,130275,1,0,0:0:0:0:
229,133,130361,1,0,0:0:0:0:
229,133,130448,1,8,0:0:0:0:
229,133,130534,1,8,0:0:0:0:
229,133,130620,1,0,0:0:0:0:
229,133,130706,1,8,0:0:0:0:
229,133,130792,1,8,0:0:0:0:
229,133,130879,1,0,0:0:0:0:
229,133,130965,1,8,0:0:0:0:
229,133,131051,1,8,0:0:0:0:
229,133,131137,1,0,0:0:0:0:
92,119,131195,1,0,0:0:0:0:
100,118,131252,1,0,0:0:0:0:
100,118,131310,1,8,0:0:0:0:
230,110,131396,1,8,0:0:0:0:
232,60,131482,1,0,0:0:0:0:
232,60,131539,1,0,0:0:0:0:
232,60,131597,1,0,0:0:0:0:
232,60,131654,1,8,0:0:0:0:
230,110,131741,1,8,0:0:0:0:
232,60,131827,1,0,0:0:0:0:
232,60,131884,1,8,0:0:0:0:
232,60,131942,1,8,0:0:0:0:
232,60,131999,1,0,0:0:0:0:
230,110,132085,1,0,0:0:0:0:
232,60,132172,1,8,0:0:0:0:
232,60,132229,1,8,0:0:0:0:
232,60,132287,1,8,0:0:0:0:
232,60,132344,1,8,0:0:0:0:
225,115,132430,1,8,0:0:0:0:
225,115,132517,1,0,0:0:0:0:
335,123,132689,1,8,0:0:0:0:
335,123,132861,1,0,0:0:0:0:
335,123,133206,1,8,0:0:0:0:
206,137,133551,1,0,0:0:0:0:
206,137,133637,1,0,0:0:0:0:
206,137,133723,1,0,0:0:0:0:
206,137,133810,1,0,0:0:0:0:
181,137,133896,1,12,0:0:0:0:
250,155,134241,1,8,0:0:0:0:
250,155,134298,1,8,0:0:0:0:
250,155,134356,1,8,0:0:0:0:
250,155,134413,1,8,0:0:0:0:
217,144,134585,1,8,0:0:0:0:
346,113,134758,1,8,0:0:0:0:
346,113,134801,1,8,0:0:0:0:
346,113,134930,1,8,0:0:0:0:
346,113,134973,1,8,0:0:0:0:
346,113,135103,1,8,0:0:0:0:
346,113,135146,1,8,0:0:0:0:
291,138,135275,1,0,0:0:0:0:
209,36,135448,1,0,0:0:0:0:
209,36,135491,1,0,0:0:0:0:
209,36,135620,1,0,0:0:0:0:
13,135,135663,1,0,0:0:0:0:
118,107,135792,1,0,0:0:0:0:
118,107,135835,1,0,0:0:0:0:
187,146,135965,1,8,0:0:0:0:
187,146,136022,1,8,0:0:0:0:
187,146,136080,1,8,0:0:0:0:
187,146,136137,1,0,0:0:0:0:
187,146,136310,1,0,0:0:0:0:
187,146,136367,1,0,0:0:0:0:
187,146,136425,1,0,0:0:0:0:
187,146,136482,1,8,0:0:0:0:
187,146,136539,1,8,0:0:0:0:
187,146,136597,1,8,0:0:0:0:
152,147,136654,1,0,0:0:0:0:
206,90,136827,1,0,0:0:0:0:
206,90,136884,1,8,0:0:0:0:
206,90,136942,1,8,0:0:0:0:
206,90,136999,1,0,0:0:0:0:
206,90,137057,1,8,0:0:0:0:
206,90,137114,1,8,0:0:0:0:
206,90,137172,1,0,0:0:0:0:
229,77,137344,1,8,0:0:0:0:
229,77,137387,1,0,0:0:0:0:
229,77,137517,1,8,0:0:0:0:
229,77,137560,1,8,0:0:0:0:
89,138,137689,1,0,0:0:0:0:
331,183,137732,1,0,0:0:0:0:
254,112,137861,1,8,0:0:0:0:
254,112,137948,1,8,0:0:0:0:
254,112,138034,1,0,0:0:0:0:
254,112,138120,1,8,0:0:0:0:
254,112,138206,1,8,0:0:0:0:
233,115,138379,1,0,0:0:0:0:
233,115,138436,1,8,0:0:0:0:
233,115,138494,1,8,0:0:0:0:
233,115,138551,1,0,0:0:0:0:
233,115,138608,1,8,0:0:0:0:
233,115,138666,1,8,0:0:0:0:
203,118,138723,1,0,0:0:0:0:
291,129,138896,1,8,0:0:0:0:
291,129,138953,1,8,0:0:0:0:
291,129,139011,1,0,0:0:0:0:
291,129,139068,1,8,0:0:0:0:
291,129,139126,1,8,0:0:0:0:
291,129,139183,1,0,0:0:0:0:
261,129,139241,1,8,0:0:0:0:
363,157,139413,1,4,0:0:0:0:
168,120,139758,1,8,0:0:0:0:
168,120,139815,1,8,0:0:0:0:
168,120,139873,1,8,0:0:0:0:
168,120,139930,1,8,0:0:0:0:
320,133,140103,1,0,0:0:0:0:
320,133,140189,1,8,0:0:0:0:
320,133,140275,1,8,0:0:0:0:
320,133,140361,1,8,0:0:0:0:
320,133,140448,1,0,0:0:0:0:
212,151,140620,1,0,0:0:0:0:
397,206,140792,1,8,0:0:0:0:
397,206,140965,1,0,0:0:0:0:
397,206,141051,1,0,0:0:0:0:
397,206,141137,1,8,0:0:0:0:
189,149,141310,1,8,0:0:0:0:
167,156,141482,1,0,0:0:0:0:
186,156,141539,1,0,0:0:0:0:
186,156,141597,1,0,0:0:0:0:
191,156,141654,1,8,0:0:0:0:
202,113,141827,1,8,0:0:0:0:
202,113,141884,1,8,0:0:0:0:
202,113,141942,1,8,0:0:0:0:
202,113,141999,1,8,0:0:0:0:
202,113,142057,1,8,0:0:0:0:
202,113,142114,1,8,0:0:0:0:
202,113,142172,1,0,0:0:0:0:
296,100,142517,1,8,0:0:0:0:
296,100,142574,1,0,0:0:0:0:
296,100,142631,1,0,0:0:0:0:
296,100,142689,1,8,0:0:0:0:
296,100,142746,1,0,0:0:0:0:
296,100,142804,1,0,0:0:0:0:
296,100,142861,1,8,0:0:0:0:
254,157,142948,1,8,0:0:0:0:
254,157,143034,1,0,0:0:0:0:
254,157,143120,1,0,0:0:0:0:
254,157,143206,1,8,0:0:0:0:
221,137,143292,1,0,0:0:0:0:
221,137,143379,1,8,0:0:0:0:
221,137,143465,1,8,0:0:0:0:
155,133,143551,1,0,0:0:0:0:
401,218,143723,1,0,0:0:0:0:
244,121,143767,1,0,0:0:0:0:
401,218,143896,1,8,0:0:0:0:
244,121,143939,1,8,0:0:0:0:
244,121,144068,1,0,0:0:0:0:
244,121,144111,1,0,0:0:0:0:
244,121,144241,1,8,0:0:0:0:
244,121,144284,1,8,0:0:0:0:
229,77,144413,1,0,0:0:0:0:
229,77,144456,1,0,0:0:0:0:
229,77,144585,1,8,0:0:0:0:
229,77,144643,1,8,0:0:0:0:
229,77,144700,1,8,0:0:0:0:
229,77,144758,1,8,0:0:0:0:
197,65,144930,1,4,0:0:0:0:
271,89,145275,1,8,0:0:0:0:
291,144,145333,1,8,0:0:0:0:
291,144,145390,1,8,0:0:0:0:
291,144,145448,1,8,0:0:0:0:
217,144,145620,1,8,0:0:0:0:
346,113,145792,1,8,0:0:0:0:
346,113,145835,1,8,0:0:0:0:
346,113,145965,1,8,0:0:0:0:
346,113,146008,1,8,0:0:0:0:
346,113,146137,1,8,0:0:0:0:
346,113,146180,1,8,0:0:0:0:
291,138,146310,1,0,0:0:0:0:
209,36,146482,1,0,0:0:0:0:
209,36,146525,1,0,0:0:0:0:
209,36,146654,1,0,0:0:0:0:
13,135,146698,1,0,0:0:0:0:
118,107,146827,1,0,0:0:0:0:
118,107,146870,1,0,0:0:0:0:
187,146,146999,1,8,0:0:0:0:
187,146,147057,1,8,0:0:0:0:
187,146,147114,1,8,0:0:0:0:
187,146,147172,1,0,0:0:0:0:
187,146,147344,1,0,0:0:0:0:
187,146,147402,1,0,0:0:0:0:
187,146,147459,1,0,0:0:0:0:
187,146,147517,1,8,0:0:0:0:
187,146,147574,1,8,0:0:0:0:
187,146,147631,1,8,0:0:0:0:
152,147,147689,1,0,0:0:0:0:
206,90,147861,1,0,0:0:0:0:
206,90,147919,1,8,0:0:0:0:
206,90,147976,1,8,0:0:0:0:
206,90,148034,1,0,0:0:0:0:
206,90,148091,1,8,0:0:0:0:
206,90,148149,1,8,0:0:0:0:
206,90,148206,1,0,0:0:0:0:
229,77,148379,1,8,0:0:0:0:
229,77,148422,1,0,0:0:0:0:
229,77,148551,1,8,0:0:0:0:
229,77,148594,1,8,0:0:0:0:
89,138,148723,1,0,0:0:0:0:
331,183,148767,1,0,0:0:0:0:
254,112,148896,1,8,0:0:0:0:
254,112,148982,1,8,0:0:0:0:
254,112,149068,1,0,0:0:0:0:
254,112,149154,1,8,0:0:0:0:
254,112,149241,1,8,0:0:0:0:
233,115,149413,1,0,0:0:0:0:
233,115,149471,1,8,0:0:0:0:
233,115,149528,1,8,0:0:0:0:
233,115,149585,1,0,0:0:0:0:
233,115,149643,1,8,0:0:0:0:
233,115,149700,1,8,0:0:0:0:
203,118,149758,1,0,0:0:0:0:
291,129,149930,1,8,0:0:0:0:
291,129,149988,1,8,0:0:0:0:
291,129,150045,1,0,0:0:0:0:
291,129,150103,1,8,0:0:0:0:
291,129,150160,1,8,0:0:0:0:
291,129,150218,1,0,0:0:0:0:
261,129,150275,1,8,0:0:0:0:
363,157,150448,1,4,0:0:0:0:
215,141,150792,1,0,0:0:0:0:
168,120,150879,1,8,0:0:0:0:
343,168,150965,1,8,0:0:0:0:
343,168,151051,1,0,0:0:0:0:
320,133,151137,1,0,0:0:0:0:
320,133,151223,1,8,0:0:0:0:
320,133,151310,1,8,0:0:0:0:
320,133,151396,1,0,0:0:0:0:
320,133,151482,1,0,0:0:0:0:
250,123,151568,1,8,0:0:0:0:
212,151,151654,1,8,0:0:0:0:
157,125,151741,1,8,0:0:0:0:
397,206,151827,1,0,0:0:0:0:
252,70,152172,1,0,0:0:0:0:
97,105,152258,1,8,0:0:0:0:
128,122,152344,1,8,0:0:0:0:
136,122,152430,1,0,0:0:0:0:
167,156,152517,1,0,0:0:0:0:
186,156,152603,1,8,0:0:0:0:
191,156,152689,1,8,0:0:0:0:
202,113,152775,1,8,0:0:0:0:
202,113,152861,1,0,0:0:0:0:
202,113,152948,1,8,0:0:0:0:
202,113,153034,1,8,0:0:0:0:
202,113,153120,1,8,0:0:0:0:
202,113,153206,1,4,0:0:0:0:
131,130,153379,1,0,0:0:0:0:
296,100,153551,1,0,0:0:0:0:
296,100,153637,1,8,0:0:0:0:
296,100,153723,1,0,0:0:0:0:
296,100,153896,1,0,0:0:0:0:
254,157,153982,1,8,0:0:0:0:
254,157,154068,1,0,0:0:0:0:
254,157,154154,1,8,0:0:0:0:
254,157,154241,1,0,0:0:0:0:
221,137,154327,1,8,0:0:0:0:
221,137,154413,1,0,0:0:0:0:
221,137,154499,1,0,0:0:0:0:
155,133,154585,1,12,0:0:0:0:
401,218,154815,1,12,0:0:0:0:
244,121,155045,1,12,0:0:0:0:
244,121,155275,1,4,0:0:0:0:
131,123,155620,1,8,0:0:0:0:
354,85,155706,1,8,0:0:0:0:
354,85,155792,1,0,0:0:0:0:
354,85,155879,1,0,0:0:0:0:
197,65,155965,1,12,0:0:0:0:
225,133,156310,1,0,0:0:0:0:
257,133,156397,1,8,0:0:0:0:
333,78,156568,1,8,0:0:0:0:
333,78,156654,1,4,0:0:0:0:
297,95,156999,1,0,0:0:0:0:
297,95,157085,1,0,0:0:0:0:
297,95,157258,1,8,0:0:0:0:
297,95,157344,1,4,0:0:0:0:
297,95,157689,1,0,0:0:0:0:
297,95,157775,1,8,0:0:0:0:
297,95,157948,1,8,0:0:0:0:
297,95,158034,1,4,0:0:0:0:
298,135,158206,1,0,0:0:0:0:
240,124,158379,1,8,0:0:0:0:
240,124,158465,1,8,0:0:0:0:
240,124,158551,1,8,0:0:0:0:
240,124,158637,1,8,0:0:0:0:
240,124,158723,1,0,0:0:0:0:
214,145,158896,1,8,0:0:0:0:
425,92,158953,1,0,0:0:0:0:
425,92,159011,1,0,0:0:0:0:
425,92,159068,1,8,0:0:0:0:
351,174,159241,1,0,0:0:0:0:
295,195,159327,1,0,0:0:0:0:
295,195,159413,1,0,0:0:0:0:
295,195,159499,1,0,0:0:0:0:
295,195,159585,1,8,0:0:0:0:
295,195,159758,1,8,0:0:0:0:
271,145,159930,1,8,0:0:0:0:
271,145,160017,1,8,0:0:0:0:
271,145,160103,1,0,0:0:0:0:
271,145,160189,1,0,0:0:0:0:
271,145,160275,1,0,0:0:0:0:
74,116,160448,1,8,0:0:0:0:
206,114,160534,1,8,0:0:0:0:
341,141,160706,1,8,0:0:0:0:
341,141,160792,1,0,0:0:0:0:
336,70,160965,1,8,0:0:0:0:
336,70,161022,1,0,0:0:0:0:
336,70,161080,1,0,0:0:0:0:
336,70,161137,1,8,0:0:0:0:
336,70,161195,1,0,0:0:0:0:
336,70,161252,1,0,0:0:0:0:
336,70,161310,1,8,0:0:0:0:
104,157,161482,1,12,0:0:0:0:
266,107,161827,1,0,0:0:0:0:
266,107,161913,1,8,0:0:0:0:
266,107,162085,1,8,0:0:0:0:
266,107,162172,1,4,0:0:0:0:
266,107,162517,1,0,0:0:0:0:
266,107,162603,1,0,0:0:0:0:
266,107,162775,1,8,0:0:0:0:
266,107,162861,1,4,0:0:0:0:
266,107,163120,1,0,0:0:0:0:
279,151,163206,1,8,0:0:0:0:
279,151,163264,1,8,0:0:0:0:
279,151,163321,1,8,0:0:0:0:
279,151,163379,1,8,0:0:0:0:
279,151,163436,1,8,0:0:0:0:
279,151,163494,1,8,0:0:0:0:
276,150,163551,1,0,0:0:0:0:
138,142,163723,1,8,0:0:0:0:
365,159,163896,1,0,0:0:0:0:
365,159,163982,1,8,0:0:0:0:
365,159,164068,1,8,0:0:0:0:
365,159,164154,1,8,0:0:0:0:
126,144,164241,1,0,0:0:0:0:
212,147,164585,1,8,0:0:0:0:
212,147,164643,1,0,0:0:0:0:
212,147,164700,1,0,0:0:0:0:
212,147,164758,1,8,0:0:0:0:
212,147,164815,1,0,0:0:0:0:
212,147,164873,1,0,0:0:0:0:
212,147,164930,1,8,0:0:0:0:
366,236,165017,1,8,0:0:0:0:
364,187,165103,1,0,0:0:0:0:
364,187,165189,1,8,0:0:0:0:
364,187,165275,1,0,0:0:0:0:
364,187,165361,1,0,0:0:0:0:
364,187,165448,1,8,0:0:0:0:
364,187,165534,1,8,0:0:0:0:
364,187,165620,1,0,0:0:0:0:
192,80,165792,1,8,0:0:0:0:
192,80,165835,1,0,0:0:0:0:
192,80,165965,1,8,0:0:0:0:
192,80,166008,1,0,0:0:0:0:
192,80,166137,1,8,0:0:0:0:
192,80,166180,1,0,0:0:0:0:
207,134,166310,1,8,0:0:0:0:
207,134,166482,1,0,0:0:0:0:
207,134,166568,1,8,0:0:0:0:
207,134,166741,1,0,0:0:0:0:
207,134,166827,1,8,0:0:0:0:
261,140,166884,1,8,0:0:0:0:
261,140,166942,1,8,0:0:0:0:
201,140,166999,1,4,0:0:0:0:
224,126,167172,1,8,0:0:0:0:
181,130,167344,1,0,0:0:0:0:
181,130,167430,1,0,0:0:0:0:
181,130,167517,1,8,0:0:0:0:
181,130,167603,1,8,0:0:0:0:
155,130,167689,1,4,0:0:0:0:
363,176,167861,1,8,0:0:0:0:
351,156,168034,1,0,0:0:0:0:
351,156,168120,1,8,0:0:0:0:
351,156,168206,1,8,0:0:0:0:
351,156,168292,1,8,0:0:0:0:
351,156,168379,1,4,0:0:0:0:
153,133,168551,1,8,0:0:0:0:
151,134,168723,1,0,0:0:0:0:
151,134,168810,1,0,0:0:0:0:
151,134,168896,1,8,0:0:0:0:
151,134,168982,1,8,0:0:0:0:
151,134,169068,1,4,0:0:0:0:
223,140,169241,1,8,0:0:0:0:
223,140,169413,1,8,0:0:0:0:
223,140,169499,1,8,0:0:0:0:
223,140,169585,1,8,0:0:0:0:
223,140,169672,1,8,0:0:0:0:
204,140,169758,1,0,0:0:0:0:
136,166,169930,1,0,0:0:0:0:
97,132,170017,1,8,0:0:0:0:
106,130,170075,1,8,0:0:0:0:
106,130,170132,1,8,0:0:0:0:
106,130,170190,1,8,0:0:0:0:
271,206,170275,1,0,0:0:0:0:
271,206,170361,1,0,0:0:0:0:
271,206,170448,1,8,0:0:0:0:
271,206,170534,1,0,0:0:0:0:
271,206,170620,1,8,0:0:0:0:
221,141,170792,1,8,0:0:0:0:
211,90,170879,1,8,0:0:0:0:
211,90,170965,1,0,0:0:0:0:
211,90,171051,1,0,0:0:0:0:
211,90,171137,1,8,0:0:0:0:
211,90,171223,1,0,0:0:0:0:
211,90,171310,1,8,0:0:0:0:
228,159,171482,1,0,0:0:0:0:
228,159,171568,1,8,0:0:0:0:
228,159,171654,1,0,0:0:0:0:
228,159,171741,1,0,0:0:0:0:
228,159,171827,1,8,0:0:0:0:
228,159,171999,1,8,0:0:0:0:
261,150,172057,1,8,0:0:0:0:
261,150,172114,1,0,0:0:0:0:
261,150,172172,1,8,0:0:0:0:
261,150,172229,1,8,0:0:0:0:
261,150,172287,1,0,0:0:0:0:
261,150,172344,1,8,0:0:0:0:
190,144,172517,1,0,0:0:0:0:
215,142,172689,1,0,0:0:0:0:
215,142,172861,1,12,0:0:0:0:
319,133,173034,1,0,0:0:0:0:
319,133,173091,1,0,0:0:0:0:
319,133,173149,1,0,0:0:0:0:
319,133,173206,1,8,0:0:0:0:
246,114,173292,1,8,0:0:0:0:
246,114,173379,1,0,0:0:0:0:
246,114,173465,1,0,0:0:0:0:
246,114,173551,1,8,0:0:0:0:
274,109,173637,1,8,0:0:0:0:
246,114,173723,1,0,0:0:0:0:
246,114,173810,1,0,0:0:0:0:
246,114,173896,1,8,0:0:0:0:
274,109,173982,1,8,0:0:0:0:
201,182,174068,1,0,0:0:0:0:
140,141,174154,1,0,0:0:0:0:
140,141,174241,1,8,0:0:0:0:
270,108,174327,1,8,0:0:0:0:
366,193,174413,1,0,0:0:0:0:
366,193,174471,1,0,0:0:0:0:
366,193,174528,1,0,0:0:0:0:
366,193,174586,1,8,0:0:0:0:
246,114,174672,1,8,0:0:0:0:
216,51,174758,1,0,0:0:0:0:
216,51,174844,1,0,0:0:0:0:
216,51,174930,1,8,0:0:0:0:
261,99,175017,1,8,0:0:0:0:
261,99,175103,1,0,0:0:0:0:
261,99,175189,1,0,0:0:0:0:
261,99,175275,1,8,0:0:0:0:
322,141,175333,1,8,0:0:0:0:
322,141,175390,1,8,0:0:0:0:
322,141,175448,1,0,0:0:0:0:
280,136,175534,1,0,0:0:0:0:
280,136,175620,1,8,0:0:0:0:
301,119,175677,1,0,0:0:0:0:
301,119,175735,1,0,0:0:0:0:
301,119,175792,1,8,0:0:0:0:
280,136,175879,1,8,0:0:0:0:
280,136,175965,1,0,0:0:0:0:
301,119,176022,1,8,0:0:0:0:
301,119,176080,1,8,0:0:0:0:
301,119,176137,1,0,0:0:0:0:
280,136,176223,1,0,0:0:0:0:
280,136,176310,1,8,0:0:0:0:
301,119,176367,1,8,0:0:0:0:
301,119,176425,1,8,0:0:0:0:
301,119,176482,1,8,0:0:0:0:
276,138,176568,1,8,0:0:0:0:
264,138,176654,1,0,0:0:0:0:
401,196,176999,1,8,0:0:0:0:
401,196,177085,1,8,0:0:0:0:
401,196,177172,1,8,0:0:0:0:
401,196,177258,1,8,0:0:0:0:
401,196,177344,1,8,0:0:0:0:
401,196,177430,1,8,0:0:0:0:
401,196,177517,1,8,0:0:0:0:
401,196,177603,1,8,0:0:0:0:
401,196,177689,1,0,0:0:0:0:
364,193,177775,1,0,0:0:0:0:
272,125,177861,1,0,0:0:0:0:
364,193,177948,1,0,0:0:0:0:
364,193,178034,1,12,0:0:0:0:
256,192,178206,12,0,180792,0:0:0:0:
218,76,183551,5,8,0:0:0:0:
210,105,183896,1,0,0:0:0:0:
210,105,184068,1,8,0:0:0:0:
210,105,184240,1,0,0:0:0:0:
376,215,184413,1,8,0:0:0:0:
221,88,184585,1,8,0:0:0:0:
391,239,184758,1,0,0:0:0:0:
415,241,185102,1,0,0:0:0:0:
105,147,185275,1,0,0:0:0:0:
186,129,185447,1,0,0:0:0:0:
186,129,185620,1,0,0:0:0:0:
186,129,185792,1,8,0:0:0:0:
218,120,186137,1,0,0:0:0:0:
159,120,186309,1,8,0:0:0:0:
351,198,186654,1,0,0:0:0:0:
351,198,186827,1,8,0:0:0:0:
351,198,186999,1,8,0:0:0:0:
246,125,187171,1,8,0:0:0:0:
246,125,187344,1,0,0:0:0:0:
241,138,187516,1,8,0:0:0:0:
300,111,187861,1,8,0:0:0:0:
300,111,188034,1,0,0:0:0:0:
300,111,188206,1,8,0:0:0:0:
300,111,188378,1,8,0:0:0:0:
300,111,188551,1,0,0:0:0:0:
300,111,188723,1,8,0:0:0:0:
283,100,189068,1,8,0:0:0:0:
283,100,189327,1,0,0:0:0:0:
283,100,189585,1,8,0:0:0:0:
283,100,189844,1,0,0:0:0:0:
283,100,190102,1,8,0:0:0:0:
283,100,190275,1,8,0:0:0:0:
283,100,190447,1,0,0:0:0:0:
131,134,190706,1,0,0:0:0:0:
175,121,190965,1,8,0:0:0:0:
175,83,191223,1,0,0:0:0:0:
229,150,191482,1,0,0:0:0:0:
160,89,191654,1,8,0:0:0:0:
90,132,191827,1,8,0:0:0:0:
346,175,192085,1,0,0:0:0:0:
301,100,192344,1,8,0:0:0:0:
229,91,192602,1,0,0:0:0:0:
211,46,192861,1,8,0:0:0:0:
211,46,193034,1,0,0:0:0:0:
211,46,193206,1,0,0:0:0:0:
270,121,193465,1,8,0:0:0:0:
270,121,193723,1,8,0:0:0:0:
259,73,193982,1,0,0:0:0:0:
289,103,194240,1,8,0:0:0:0:
77,150,194413,1,0,0:0:0:0:
254,180,194585,1,8,0:0:0:0:
254,180,194930,1,0,0:0:0:0:
254,180,195102,1,8,0:0:0:0:
106,144,195275,1,0,0:0:0:0:
112,145,195361,1,0,0:0:0:0:
254,180,195447,1,8,0:0:0:0:
254,180,195534,1,8,0:0:0:0:
254,180,195620,1,0,0:0:0:0:
361,185,195706,1,0,0:0:0:0:
254,180,195792,1,8,0:0:0:0:
254,180,195878,1,8,0:0:0:0:
254,180,195965,1,0,0:0:0:0:
356,181,196051,1,0,0:0:0:0:
254,180,196137,1,8,0:0:0:0:
254,180,196223,1,0,0:0:0:0:
254,180,196309,1,8,0:0:0:0:
356,181,196396,1,8,0:0:0:0:
254,180,196482,1,0,0:0:0:0:
254,180,196568,1,8,0:0:0:0:
254,180,196654,1,0,0:0:0:0:
254,180,196740,1,0,0:0:0:0:
254,180,196827,1,8,0:0:0:0:
254,180,196913,1,8,0:0:0:0:
254,180,196999,1,0,0:0:0:0:
254,180,197085,1,0,0:0:0:0:
254,180,197171,1,8,0:0:0:0:
254,180,197258,1,0,0:0:0:0:
262,180,197344,1,8,0:0:0:0:
262,180,197401,1,8,0:0:0:0:
262,180,197459,1,8,0:0:0:0:
262,180,197516,1,0,0:0:0:0:
162,163,197602,1,0,0:0:0:0:
262,180,197689,1,8,0:0:0:0:
262,180,197746,1,8,0:0:0:0:
262,180,197804,1,8,0:0:0:0:
262,180,197861,1,0,0:0:0:0:
310,158,197947,1,0,0:0:0:0:
262,180,198034,1,8,0:0:0:0:
262,180,198091,1,0,0:0:0:0:
262,180,198148,1,0,0:0:0:0:
262,180,198206,1,8,0:0:0:0:
310,158,198292,1,0,0:0:0:0:
262,180,198378,1,8,0:0:0:0:
262,180,198436,1,0,0:0:0:0:
262,180,198493,1,0,0:0:0:0:
262,180,198551,1,8,0:0:0:0:
310,158,198637,1,8,0:0:0:0:
301,162,198723,1,0,0:0:0:0:
256,192,198896,12,0,199585,0:0:0:0:
316,166,199758,5,0,0:0:0:0:
316,166,199844,1,0,0:0:0:0:
316,166,199930,1,8,0:0:0:0:
316,166,200016,1,8,0:0:0:0:
316,166,200102,1,4,0:0:0:0:
115,122,200448,1,0,0:0:0:0:
166,167,200620,1,12,0:0:0:0:
271,133,200965,1,0,0:0:0:0:
271,133,201008,1,0,0:0:0:0:
271,133,201137,1,8,0:0:0:0:
271,133,201180,1,8,0:0:0:0:
271,133,201309,1,8,0:0:0:0:
251,133,201352,1,8,0:0:0:0:
191,151,201482,1,12,0:0:0:0:
116,137,201827,1,0,0:0:0:0:
243,109,201999,1,12,0:0:0:0:
256,152,202344,1,0,0:0:0:0:
256,152,202516,1,8,0:0:0:0:
139,116,202689,1,8,0:0:0:0:
139,116,202775,1,8,0:0:0:0:
139,116,202861,1,4,0:0:0:0:
386,199,203206,1,0,0:0:0:0:
167,109,203378,1,12,0:0:0:0:
413,197,203723,1,0,0:0:0:0:
228,94,203896,1,8,0:0:0:0:
228,94,203982,1,8,0:0:0:0:
228,94,204068,1,0,0:0:0:0:
228,94,204154,1,0,0:0:0:0:
228,94,204240,1,8,0:0:0:0:
161,157,204413,1,0,0:0:0:0:
195,157,204499,1,8,0:0:0:0:
426,212,204672,1,0,0:0:0:0:
426,212,204758,1,0,0:0:0:0:
426,212,204844,1,0,0:0:0:0:
426,212,204930,1,8,0:0:0:0:
218,147,205103,1,8,0:0:0:0:
155,168,205275,5,0,0:0:0:0:
158,168,205361,1,0,0:0:0:0:
158,168,205448,1,0,0:0:0:0:
158,168,205534,1,0,0:0:0:0:
176,76,205620,1,12,0:0:0:0:
160,117,205965,1,8,0:0:0:0:
154,190,206137,1,4,0:0:0:0:
44,128,206482,1,8,0:0:0:0:
265,171,206654,1,8,0:0:0:0:
265,171,206740,1,0,0:0:0:0:
265,171,206827,1,8,0:0:0:0:
265,171,206913,1,0,0:0:0:0:
258,151,206999,1,12,0:0:0:0:
104,130,207344,1,8,0:0:0:0:
88,160,207517,1,12,0:0:0:0:
229,108,207861,1,8,0:0:0:0:
229,108,207948,1,8,0:0:0:0:
99,111,208034,1,8,0:0:0:0:
128,123,208120,1,4,0:0:0:0:
393,207,208379,1,12,0:0:0:0:
160,118,208637,1,12,0:0:0:0:
160,118,208896,1,4,0:0:0:0:
331,195,209241,1,8,0:0:0:0:
334,157,209413,1,0,0:0:0:0:
301,149,209585,1,0,0:0:0:0:
301,149,209672,1,8,0:0:0:0:
301,149,209758,1,0,0:0:0:0:
201,107,209930,1,0,0:0:0:0:
201,107,210103,1,8,0:0:0:0:
358,152,210275,1,0,0:0:0:0:
358,152,210361,1,0,0:0:0:0:
358,152,210448,1,0,0:0:0:0:
308,178,210620,1,8,0:0:0:0:
316,166,210792,5,0,0:0:0:0:
316,166,210878,1,0,0:0:0:0:
316,166,210964,1,8,0:0:0:0:
316,166,211050,1,8,0:0:0:0:
316,166,211136,1,4,0:0:0:0:
268,198,211482,1,0,0:0:0:0:
166,167,211654,1,12,0:0:0:0:
271,133,211999,1,0,0:0:0:0:
271,133,212057,1,0,0:0:0:0:
271,133,212114,1,0,0:0:0:0:
271,133,212172,1,8,0:0:0:0:
271,133,212344,1,0,0:0:0:0:
251,133,212387,1,8,0:0:0:0:
191,151,212517,1,12,0:0:0:0:
321,194,212861,1,0,0:0:0:0:
243,109,213034,1,12,0:0:0:0:
256,152,213379,1,0,0:0:0:0:
256,152,213436,1,8,0:0:0:0:
256,152,213494,1,8,0:0:0:0:
256,152,213551,1,0,0:0:0:0:
139,116,213723,1,8,0:0:0:0:
139,116,213810,1,8,0:0:0:0:
139,116,213896,1,4,0:0:0:0:
259,180,214241,1,0,0:0:0:0:
167,109,214413,1,12,0:0:0:0:
402,273,214758,1,0,0:0:0:0:
228,94,214930,1,8,0:0:0:0:
228,94,215017,1,8,0:0:0:0:
228,94,215103,1,0,0:0:0:0:
228,94,215189,1,0,0:0:0:0:
228,94,215275,1,8,0:0:0:0:
263,87,215361,1,0,0:0:0:0:
263,87,215448,1,8,0:0:0:0:
263,87,215534,1,0,0:0:0:0:
263,87,215620,1,8,0:0:0:0:
187,143,215792,1,0,0:0:0:0:
182,143,215879,1,8,0:0:0:0:
213,135,215965,1,8,0:0:0:0:
273,96,216137,1,8,0:0:0:0:
155,168,216310,5,0,0:0:0:0:
158,168,216396,1,0,0:0:0:0:
158,168,216482,1,0,0:0:0:0:
158,168,216568,1,0,0:0:0:0:
176,76,216654,1,12,0:0:0:0:
333,175,216999,1,8,0:0:0:0:
154,190,217171,1,4,0:0:0:0:
187,113,217517,1,8,0:0:0:0:
265,171,217688,1,8,0:0:0:0:
91,162,217746,1,0,0:0:0:0:
265,171,217804,1,0,0:0:0:0:
265,171,217861,1,8,0:0:0:0:
258,151,218034,1,12,0:0:0:0:
115,146,218379,1,8,0:0:0:0:
88,160,218550,1,12,0:0:0:0:
229,108,218896,1,8,0:0:0:0:
229,108,218982,1,8,0:0:0:0:
99,111,219068,1,8,0:0:0:0:
128,123,219154,1,4,0:0:0:0:
393,207,219413,1,12,0:0:0:0:
160,118,219672,1,12,0:0:0:0:
160,118,219930,1,4,0:0:0:0:
391,177,220189,1,4,0:0:0:0:
391,177,220448,1,12,0:0:0:0:
256,192,220620,12,0,221999,0:0:0:0:
295,151,222172,5,4,0:0:0:0:
293,147,222344,1,0,0:0:0:0:
293,147,222430,1,8,0:0:0:0:
293,147,222603,1,8,0:0:0:0:
293,147,222689,1,0,0:0:0:0:
293,147,222861,1,8,0:0:0:0:
293,147,222948,1,8,0:0:0:0:
370,137,223120,1,8,0:0:0:0:
370,137,223206,1,0,0:0:0:0:
423,202,223379,1,0,0:0:0:0:
423,202,223465,1,0,0:0:0:0:
423,202,223551,1,8,0:0:0:0:
160,128,223723,1,0,0:0:0:0:
160,128,223810,1,8,0:0:0:0:
288,160,223982,1,8,0:0:0:0:
288,160,224068,1,8,0:0:0:0:
288,160,224241,1,0,0:0:0:0:
288,160,224327,1,0,0:0:0:0:
256,128,224499,1,8,0:0:0:0:
224,128,224585,1,0,0:0:0:0:
64,128,224758,1,8,0:0:0:0:
96,128,224815,1,8,0:0:0:0:
96,128,224873,1,8,0:0:0:0:
96,128,224930,1,0,0:0:0:0:
293,147,225103,1,0,0:0:0:0:
293,147,225189,1,8,0:0:0:0:
293,147,225362,1,8,0:0:0:0:
293,147,225448,1,0,0:0:0:0:
293,147,225620,1,8,0:0:0:0:
293,147,225707,1,8,0:0:0:0:
370,137,225879,1,8,0:0:0:0:
370,137,225965,1,0,0:0:0:0:
423,202,226138,1,0,0:0:0:0:
423,202,226224,1,0,0:0:0:0:
423,202,226310,1,8,0:0:0:0:
160,128,226482,1,0,0:0:0:0:
160,128,226569,1,8,0:0:0:0:
288,160,226741,1,8,0:0:0:0:
288,160,226827,1,8,0:0:0:0:
288,160,227000,1,0,0:0:0:0:
288,160,227086,1,0,0:0:0:0:
256,128,227258,1,8,0:0:0:0:
224,128,227344,1,0,0:0:0:0:
64,128,227517,1,8,0:0:0:0:
96,128,227574,1,8,0:0:0:0:
96,128,227631,1,8,0:0:0:0:
96,128,227689,1,0,0:0:0:0:
293,147,227861,1,0,0:0:0:0:
293,147,227947,1,8,0:0:0:0:
293,147,228120,1,8,0:0:0:0:
293,147,228206,1,0,0:0:0:0:
293,147,228378,1,8,0:0:0:0:
293,147,228465,1,8,0:0:0:0:
370,137,228637,1,8,0:0:0:0:
370,137,228723,1,0,0:0:0:0:
423,202,228896,1,0,0:0:0:0:
423,202,228982,1,0,0:0:0:0:
423,202,229068,1,8,0:0:0:0:
160,128,229240,1,0,0:0:0:0:
160,128,229327,1,8,0:0:0:0:
288,160,229499,1,8,0:0:0:0:
288,160,229585,1,8,0:0:0:0:
288,160,229758,1,0,0:0:0:0:
288,160,229844,1,0,0:0:0:0:
256,128,230016,1,8,0:0:0:0:
224,128,230102,1,0,0:0:0:0:
64,128,230275,1,8,0:0:0:0:
96,128,230333,1,8,0:0:0:0:
96,128,230390,1,8,0:0:0:0:
96,128,230448,1,0,0:0:0:0:
293,147,230620,1,0,0:0:0:0:
293,147,230706,1,8,0:0:0:0:
256,128,230792,1,0,0:0:0:0:
293,147,230879,1,0,0:0:0:0:
293,147,230965,1,8,0:0:0:0:
320,128,231051,1,0,0:0:0:0:
293,147,231137,1,8,0:0:0:0:
192,96,231195,1,8,0:0:0:0:
192,96,231252,1,8,0:0:0:0:
192,96,231310,1,0,0:0:0:0:
224,96,231396,1,0,0:0:0:0:
370,137,231482,1,8,0:0:0:0:
256,64,231539,1,0,0:0:0:0:
256,64,231597,1,0,0:0:0:0:
423,202,231654,1,8,0:0:0:0:
423,202,231741,1,8,0:0:0:0:
256,64,231827,1,0,0:0:0:0:
160,128,231999,1,8,0:0:0:0:
160,128,232086,1,0,0:0:0:0:
288,160,232258,1,8,0:0:0:0:
288,160,232344,1,0,0:0:0:0:
288,160,232517,1,8,0:0:0:0:
288,160,232603,1,8,0:0:0:0:
160,96,232689,1,8,0:0:0:0:
256,128,232775,1,8,0:0:0:0:
224,128,232861,1,0,0:0:0:0:
192,128,232948,1,0,0:0:0:0:
64,128,233034,1,8,0:0:0:0:
96,128,233206,1,4,0:0:0:0:
384,224,233379,1,0,0:0:0:0:
320,192,233465,1,8,0:0:0:0:
320,192,233551,1,0,0:0:0:0:
320,192,233637,1,0,0:0:0:0:
320,192,233723,1,8,0:0:0:0:
288,192,233896,1,8,0:0:0:0:
288,192,233982,1,0,0:0:0:0:
288,192,234068,1,0,0:0:0:0:
288,192,234154,1,8,0:0:0:0:
224,128,234327,1,0,0:0:0:0:
224,128,234413,1,8,0:0:0:0:
352,128,234499,1,0,0:0:0:0:
224,96,234585,1,8,0:0:0:0:
160,128,234758,1,0,0:0:0:0:
160,128,234844,1,8,0:0:0:0:
160,128,235017,1,0,0:0:0:0:
160,128,235103,1,8,0:0:0:0:
160,128,235275,1,0,0:0:0:0:
160,128,235361,1,8,0:0:0:0:
288,128,235448,1,0,0:0:0:0:
288,128,235534,1,0,0:0:0:0:
288,128,235620,1,8,0:0:0:0:
288,128,235792,1,0,0:0:0:0:
96,160,235850,1,0,0:0:0:0:
288,128,235907,1,0,0:0:0:0:
288,128,235965,1,8,0:0:0:0:
46,137,236137,1,8,0:0:0:0:
53,138,236223,1,0,0:0:0:0:
155,94,236396,1,0,0:0:0:0:
155,94,236482,1,8,0:0:0:0:
155,94,236568,1,8,0:0:0:0:
142,147,236654,1,0,0:0:0:0:
86,119,236827,1,8,0:0:0:0:
151,113,236913,1,8,0:0:0:0:
163,94,236999,1,0,0:0:0:0:
163,94,237085,1,8,0:0:0:0:
205,109,237258,1,8,0:0:0:0:
260,108,237344,1,0,0:0:0:0:
280,203,237517,1,0,0:0:0:0:
287,204,237603,1,8,0:0:0:0:
287,204,237689,1,0,0:0:0:0:
287,204,237775,1,0,0:0:0:0:
287,204,237861,1,8,0:0:0:0:
287,204,238034,1,0,0:0:0:0:
287,204,238120,1,8,0:0:0:0:
287,204,238206,1,0,0:0:0:0:
287,204,238292,1,8,0:0:0:0:
287,204,238379,1,8,0:0:0:0:
224,132,238551,1,0,0:0:0:0:
160,160,238608,1,0,0:0:0:0:
332,225,238666,1,0,0:0:0:0:
332,225,238723,1,8,0:0:0:0:
332,225,238810,1,8,0:0:0:0:
332,225,238896,1,0,0:0:0:0:
332,225,238982,1,8,0:0:0:0:
332,225,239068,1,8,0:0:0:0:
332,225,239154,1,0,0:0:0:0:
332,225,239241,1,8,0:0:0:0:
332,225,239327,1,8,0:0:0:0:
332,225,239413,1,0,0:0:0:0:
332,225,239499,1,8,0:0:0:0:
332,225,239585,1,8,0:0:0:0:
332,225,239672,1,0,0:0:0:0:
332,225,239758,1,8,0:0:0:0:
332,225,239844,1,8,0:0:0:0:
332,225,239930,1,0,0:0:0:0:
332,225,240017,1,8,0:0:0:0:
332,225,240103,1,8,0:0:0:0:
332,225,240189,1,0,0:0:0:0:
332,225,240275,1,8,0:0:0:0:
332,225,240361,1,8,0:0:0:0:
332,225,240448,1,0,0:0:0:0:
332,225,240534,1,8,0:0:0:0:
332,225,240620,1,8,0:0:0:0:
332,225,240706,1,0,0:0:0:0:
332,225,240792,1,8,0:0:0:0:
332,225,240879,1,8,0:0:0:0:
332,225,240965,1,0,0:0:0:0:
332,225,241051,1,0,0:0:0:0:
332,225,241137,1,8,0:0:0:0:
332,225,241223,1,8,0:0:0:0:
332,225,241310,1,8,0:0:0:0:
332,225,241396,1,8,0:0:0:0:
332,225,241482,1,0,0:0:0:0:
406,138,241539,1,0,0:0:0:0:
406,138,241597,1,0,0:0:0:0:
406,138,241654,1,8,0:0:0:0:
310,94,241741,1,8,0:0:0:0:
310,94,241827,1,0,0:0:0:0:
406,138,241884,1,8,0:0:0:0:
406,138,241942,1,8,0:0:0:0:
406,138,241999,1,0,0:0:0:0:
310,94,242085,1,0,0:0:0:0:
310,94,242172,1,8,0:0:0:0:
406,138,242229,1,0,0:0:0:0:
406,138,242287,1,0,0:0:0:0:
406,138,242344,1,8,0:0:0:0:
406,138,242430,1,0,0:0:0:0:
310,94,242517,1,8,0:0:0:0:
151,152,242574,1,8,0:0:0:0:
151,152,242631,1,8,0:0:0:0:
106,152,242689,1,8,0:0:0:0:
168,116,242775,1,8,0:0:0:0:
352,185,242861,1,0,0:0:0:0:
345,171,243034,1,8,0:0:0:0:
345,171,243206,1,0,0:0:0:0:
345,171,243551,1,8,0:0:0:0:
250,129,243896,1,0,0:0:0:0:
250,129,243982,1,0,0:0:0:0:
250,129,244068,1,0,0:0:0:0:
250,129,244154,1,0,0:0:0:0:
358,212,244241,5,12,0:0:0:0:
381,213,244413,1,0,0:0:0:0:
381,213,244499,1,0,0:0:0:0:
381,213,244672,1,0,0:0:0:0:
381,213,244758,1,8,0:0:0:0:
115,136,244930,1,0,0:0:0:0:
319,170,245017,1,8,0:0:0:0:
208,126,245103,1,0,0:0:0:0:
381,213,245275,1,8,0:0:0:0:
381,213,245361,1,0,0:0:0:0:
381,213,245448,1,8,0:0:0:0:
381,213,245534,1,8,0:0:0:0:
203,142,245620,1,0,0:0:0:0:
186,123,245792,1,8,0:0:0:0:
208,142,245879,1,8,0:0:0:0:
214,137,245965,1,0,0:0:0:0:
214,137,246137,1,8,0:0:0:0:
138,144,246223,1,0,0:0:0:0:
204,151,246310,1,0,0:0:0:0:
214,137,246396,1,8,0:0:0:0:
218,134,246482,1,8,0:0:0:0:
218,134,246654,1,0,0:0:0:0:
218,134,246741,1,0,0:0:0:0:
218,134,246827,1,8,0:0:0:0:
218,134,246913,1,0,0:0:0:0:
224,96,246999,1,8,0:0:0:0:
224,96,247172,1,0,0:0:0:0:
224,160,247258,5,8,0:0:0:0:
224,160,247430,1,0,0:0:0:0:
224,160,247517,1,8,0:0:0:0:
255,100,247603,1,0,0:0:0:0:
224,160,247775,1,8,0:0:0:0:
224,160,247861,1,0,0:0:0:0:
370,137,247948,1,0,0:0:0:0:
224,160,248034,1,8,0:0:0:0:
224,160,248120,1,0,0:0:0:0:
224,160,248206,1,8,0:0:0:0:
224,160,248379,1,0,0:0:0:0:
224,160,248465,1,0,0:0:0:0:
326,127,248551,1,0,0:0:0:0:
326,127,248637,1,8,0:0:0:0:
326,127,248810,1,0,0:0:0:0:
326,127,248896,1,8,0:0:0:0:
291,108,248982,1,0,0:0:0:0:
230,113,249068,1,0,0:0:0:0:
291,108,249154,1,8,0:0:0:0:
291,108,249327,1,0,0:0:0:0:
291,108,249413,1,8,0:0:0:0:
291,108,249499,1,0,0:0:0:0:
291,108,249585,1,8,0:0:0:0:
291,108,249672,1,8,0:0:0:0:
291,108,249758,1,0,0:0:0:0:
280,120,249930,1,0,0:0:0:0:
296,118,250103,1,8,0:0:0:0:
381,184,250275,1,0,0:0:0:0:
117,141,250361,1,8,0:0:0:0:
381,184,250448,1,8,0:0:0:0:
227,208,250534,1,0,0:0:0:0:
63,142,250706,1,8,0:0:0:0:
195,141,250792,1,0,0:0:0:0:
211,110,250965,1,8,0:0:0:0:
217,110,251051,1,8,0:0:0:0:
217,110,251137,1,0,0:0:0:0:
215,105,251223,1,0,0:0:0:0:
215,105,251310,1,8,0:0:0:0:
215,105,251482,1,0,0:0:0:0:
266,124,251568,1,0,0:0:0:0:
215,105,251654,1,8,0:0:0:0:
215,105,251741,1,0,0:0:0:0:
215,105,251827,1,8,0:0:0:0:
189,101,251999,1,8,0:0:0:0:
189,101,252172,1,0,0:0:0:0:
189,101,252344,1,8,0:0:0:0:
189,101,252430,1,8,0:0:0:0:
189,101,252517,1,8,0:0:0:0:
203,120,252689,1,0,0:0:0:0:
204,111,252775,1,0,0:0:0:0:
203,120,252861,1,8,0:0:0:0:
338,153,253034,1,8,0:0:0:0:
51,137,253120,1,0,0:0:0:0:
338,153,253206,1,8,0:0:0:0:
41,172,253292,1,8,0:0:0:0:
161,116,253465,1,0,0:0:0:0:
153,147,253551,1,8,0:0:0:0:
192,129,253723,1,8,0:0:0:0:
192,129,253810,1,8,0:0:0:0:
192,129,253896,1,0,0:0:0:0:
158,159,253982,1,0,0:0:0:0:
192,129,254068,1,0,0:0:0:0:
192,129,254154,1,0,0:0:0:0:
192,129,254241,1,8,0:0:0:0:
95,131,254413,1,0,0:0:0:0:
104,131,254499,1,0,0:0:0:0:
104,131,254585,1,8,0:0:0:0:
418,188,254758,1,0,0:0:0:0:
387,201,254844,1,8,0:0:0:0:
387,201,255017,1,0,0:0:0:0:
144,94,255103,1,8,0:0:0:0:
188,166,255160,1,8,0:0:0:0:
243,90,255218,1,8,0:0:0:0:
21,132,255275,1,4,0:0:0:0:
223,93,255448,1,0,0:0:0:0:
223,93,255534,1,8,0:0:0:0:
223,93,255620,1,0,0:0:0:0:
197,58,255792,1,8,0:0:0:0:
246,143,255879,1,0,0:0:0:0:
234,108,256051,1,8,0:0:0:0:
313,147,256137,1,0,0:0:0:0:
234,108,256223,1,0,0:0:0:0:
173,135,256310,1,8,0:0:0:0:
173,135,256396,1,8,0:0:0:0:
173,135,256482,1,0,0:0:0:0:
173,135,256654,1,8,0:0:0:0:
238,61,256741,1,0,0:0:0:0:
244,100,256827,1,0,0:0:0:0:
244,100,256913,1,8,0:0:0:0:
244,100,257085,1,0,0:0:0:0:
238,76,257172,1,8,0:0:0:0:
238,76,257258,1,0,0:0:0:0:
238,76,257430,1,8,0:0:0:0:
238,76,257517,1,0,0:0:0:0:
356,176,257603,1,0,0:0:0:0:
238,76,257689,1,8,0:0:0:0:
238,76,257775,1,0,0:0:0:0:
238,76,257861,1,8,0:0:0:0:
238,76,258034,1,8,0:0:0:0:
181,147,258120,1,0,0:0:0:0:
353,162,258206,1,0,0:0:0:0:
353,162,258292,1,8,0:0:0:0:
245,99,258465,1,0,0:0:0:0:
353,162,258551,1,8,0:0:0:0:
150,127,258723,1,0,0:0:0:0:
261,93,258810,1,8,0:0:0:0:
141,127,258896,1,0,0:0:0:0:
174,121,258982,1,0,0:0:0:0:
174,121,259068,1,8,0:0:0:0:
174,121,259154,1,0,0:0:0:0:
174,121,259241,1,8,0:0:0:0:
185,93,259413,1,0,0:0:0:0:
185,93,259499,1,0,0:0:0:0:
185,93,259585,1,0,0:0:0:0:
185,93,259672,1,8,0:0:0:0:
147,134,259758,1,0,0:0:0:0:
334,157,259844,1,0,0:0:0:0:
334,157,259930,1,8,0:0:0:0:
147,134,260103,1,0,0:0:0:0:
384,128,260189,1,8,0:0:0:0:
384,128,260275,1,0,0:0:0:0:
384,128,260361,1,0,0:0:0:0:
384,128,260448,1,8,0:0:0:0:
384,128,260534,1,0,0:0:0:0:
384,128,260620,1,8,0:0:0:0:
416,128,260706,1,8,0:0:0:0:
384,128,260792,1,4,0:0:0:0:
226,127,261137,1,0,0:0:0:0:
384,224,261223,1,8,0:0:0:0:
224,192,261482,1,0,0:0:0:0:
224,192,261568,1,8,0:0:0:0:
224,192,261654,1,8,0:0:0:0:
224,192,261741,1,8,0:0:0:0:
224,192,261827,1,0,0:0:0:0:
224,192,261913,1,8,0:0:0:0:
224,192,261999,1,8,0:0:0:0:
224,192,262085,1,8,0:0:0:0:
224,192,262172,1,0,0:0:0:0:
190,113,262517,1,0,0:0:0:0:
256,128,262603,1,8,0:0:0:0:
192,192,262861,1,0,0:0:0:0:
192,192,262948,1,8,0:0:0:0:
192,192,263034,1,8,0:0:0:0:
192,192,263120,1,8,0:0:0:0:
192,192,263206,1,0,0:0:0:0:
192,192,263292,1,8,0:0:0:0:
192,192,263379,1,8,0:0:0:0:
192,192,263465,1,8,0:0:0:0:
192,192,263551,1,4,0:0:0:0:
288,128,263723,1,0,0:0:0:0:
288,128,263896,1,0,0:0:0:0:
346,191,263982,1,8,0:0:0:0:
351,203,264068,1,0,0:0:0:0:
384,192,264241,1,0,0:0:0:0:
384,192,264327,1,8,0:0:0:0:
384,192,264413,1,0,0:0:0:0:
384,192,264499,1,8,0:0:0:0:
384,192,264585,1,0,0:0:0:0:
384,192,264672,1,8,0:0:0:0:
384,192,264758,1,0,0:0:0:0:
384,192,264844,1,0,0:0:0:0:
384,192,264930,1,8,0:0:0:0:
256,96,264988,1,8,0:0:0:0:
192,160,265045,1,0,0:0:0:0:
192,160,265160,1,8,0:0:0:0:
192,160,265218,1,8,0:0:0:0:
192,160,265275,1,0,0:0:0:0:
192,96,265390,1,8,0:0:0:0:
256,64,265448,1,8,0:0:0:0:
224,96,265505,1,0,0:0:0:0:
140,160,265562,1,0,0:0:0:0:
128,160,265620,1,8,0:0:0:0:
318,206,265965,1,0,0:0:0:0:
318,206,266051,1,0,0:0:0:0:
318,206,266137,1,0,0:0:0:0:
318,206,266223,1,0,0:0:0:0:
318,206,266310,1,8,0:0:0:0:
245,145,266482,1,8,0:0:0:0:
78,142,266539,1,8,0:0:0:0:
245,145,266597,1,8,0:0:0:0:
245,145,266654,1,4,0:0:0:0:
369,169,266827,1,8,0:0:0:0:
369,169,266913,1,8,0:0:0:0:
369,169,266999,1,0,0:0:0:0:
394,110,267085,1,8,0:0:0:0:
394,110,267172,1,0,0:0:0:0:
394,110,267258,1,0,0:0:0:0:
394,110,267344,1,8,0:0:0:0:
223,100,267517,1,0,0:0:0:0:
223,100,267603,1,0,0:0:0:0:
223,100,267689,1,8,0:0:0:0:
322,103,267775,1,0,0:0:0:0:
374,120,267948,1,8,0:0:0:0:
150,135,268034,1,0,0:0:0:0:
412,234,268120,1,0,0:0:0:0:
181,109,268206,1,8,0:0:0:0:
181,109,268292,1,8,0:0:0:0:
181,109,268465,1,0,0:0:0:0:
181,109,268551,1,8,0:0:0:0:
181,109,268637,1,0,0:0:0:0:
181,109,268723,1,8,0:0:0:0:
181,109,268810,1,8,0:0:0:0:
354,184,268896,1,0,0:0:0:0:
181,109,268982,1,0,0:0:0:0:
292,131,269068,1,8,0:0:0:0:
292,131,269241,1,0,0:0:0:0:
189,137,269327,1,8,0:0:0:0:
189,137,269499,1,0,0:0:0:0:
255,134,269585,1,8,0:0:0:0:
255,134,269672,1,0,0:0:0:0:
255,134,269844,1,8,0:0:0:0:
255,134,269930,1,0,0:0:0:0:
385,217,270017,1,0,0:0:0:0:
255,134,270103,1,8,0:0:0:0:
186,109,270189,1,8,0:0:0:0:
133,129,270275,1,0,0:0:0:0:
186,109,270448,1,8,0:0:0:0:
399,147,270534,1,0,0:0:0:0:
101,138,270706,1,8,0:0:0:0:
157,114,270792,1,0,0:0:0:0:
296,138,270879,1,0,0:0:0:0:
163,114,270965,1,8,0:0:0:0:
138,106,271137,1,0,0:0:0:0:
238,92,271223,1,8,0:0:0:0:
238,92,271309,1,0,0:0:0:0:
238,92,271396,1,0,0:0:0:0:
238,92,271482,1,8,0:0:0:0:
286,127,271568,1,0,0:0:0:0:
238,92,271654,1,8,0:0:0:0:
238,92,271740,1,8,0:0:0:0:
238,92,271827,1,0,0:0:0:0:
90,137,271999,1,0,0:0:0:0:
208,137,272172,1,12,0:0:0:0:
341,166,272344,1,0,0:0:0:0:
341,166,272430,1,0,0:0:0:0:
341,166,272517,1,8,0:0:0:0:
186,152,272603,1,0,0:0:0:0:
475,231,272689,1,0,0:0:0:0:
475,231,272775,1,8,0:0:0:0:
475,231,272861,1,8,0:0:0:0:
475,231,273034,1,0,0:0:0:0:
169,147,273120,1,0,0:0:0:0:
423,189,273206,1,8,0:0:0:0:
423,189,273379,1,0,0:0:0:0:
123,116,273465,1,8,0:0:0:0:
123,116,273551,1,0,0:0:0:0:
123,116,273723,1,8,0:0:0:0:
154,104,273810,1,0,0:0:0:0:
318,173,273982,1,0,0:0:0:0:
318,173,274068,1,8,0:0:0:0:
318,173,274154,1,0,0:0:0:0:
318,173,274241,1,0,0:0:0:0:
97,155,274327,1,8,0:0:0:0:
318,173,274413,1,8,0:0:0:0:
318,173,274499,1,0,0:0:0:0:
318,173,274585,1,8,0:0:0:0:
221,128,274758,1,0,0:0:0:0:
221,128,274844,1,8,0:0:0:0:
221,128,275017,1,0,0:0:0:0:
221,128,275103,1,8,0:0:0:0:
221,128,275189,1,0,0:0:0:0:
221,128,275361,1,8,0:0:0:0:
118,139,275448,1,8,0:0:0:0:
195,44,275620,1,0,0:0:0:0:
201,52,275706,1,0,0:0:0:0:
201,52,275792,1,8,0:0:0:0:
284,78,275965,1,0,0:0:0:0:
284,78,276051,1,0,0:0:0:0:
284,78,276137,1,0,0:0:0:0:
284,78,276223,1,0,0:0:0:0:
284,78,276310,1,8,0:0:0:0:
223,110,276482,1,0,0:0:0:0:
223,110,276568,1,0,0:0:0:0:
223,110,276654,1,8,0:0:0:0:
223,110,276741,1,0,0:0:0:0:
223,110,276913,1,8,0:0:0:0:
223,110,276999,1,0,0:0:0:0:
429,277,277085,1,0,0:0:0:0:
223,110,277172,1,8,0:0:0:0:
139,143,277258,1,8,0:0:0:0:
105,127,277344,1,0,0:0:0:0:
109,126,277430,1,0,0:0:0:0:
109,126,277517,1,0,0:0:0:0:
109,126,277603,1,0,0:0:0:0:
109,126,277689,1,12,0:0:0:0:
283,117,277861,1,0,0:0:0:0:
283,117,277948,1,0,0:0:0:0:
283,117,278034,1,8,0:0:0:0:
283,117,278120,1,8,0:0:0:0:
283,117,278206,1,0,0:0:0:0:
238,88,278379,1,8,0:0:0:0:
238,88,278465,1,8,0:0:0:0:
369,165,278637,1,0,0:0:0:0:
270,70,278723,1,8,0:0:0:0:
357,241,278810,1,0,0:0:0:0:
270,70,278896,1,0,0:0:0:0:
270,70,278982,1,8,0:0:0:0:
270,70,279068,1,0,0:0:0:0:
294,62,279241,1,8,0:0:0:0:
294,62,279327,1,0,0:0:0:0:
294,62,279413,1,0,0:0:0:0:
294,62,279499,1,8,0:0:0:0:
294,62,279672,1,0,0:0:0:0:
294,62,279758,1,8,0:0:0:0:
294,62,279844,1,8,0:0:0:0:
294,62,279930,1,0,0:0:0:0:
320,74,280017,1,0,0:0:0:0:
169,143,280103,1,8,0:0:0:0:
218,119,280189,1,0,0:0:0:0:
218,119,280361,1,8,0:0:0:0:
218,119,280448,1,0,0:0:0:0:
291,50,280534,1,0,0:0:0:0:
159,143,280620,1,8,0:0:0:0:
180,143,280706,1,8,0:0:0:0:
206,151,280879,1,8,0:0:0:0:
220,151,280965,1,0,0:0:0:0:
220,151,281051,1,0,0:0:0:0:
161,139,281137,1,8,0:0:0:0:
378,233,281310,1,0,0:0:0:0:
378,233,281396,1,8,0:0:0:0:
378,233,281482,1,0,0:0:0:0:
426,171,281654,1,8,0:0:0:0:
426,171,281741,1,0,0:0:0:0:
426,171,281827,1,0,0:0:0:0:
192,132,281913,1,0,0:0:0:0:
176,139,281999,1,8,0:0:0:0:
176,139,282085,1,8,0:0:0:0:
227,132,282172,1,0,0:0:0:0:
242,148,282517,1,0,0:0:0:0:
242,148,282603,1,0,0:0:0:0:
242,148,282689,1,0,0:0:0:0:
242,148,282775,1,0,0:0:0:0:
242,148,282861,1,12,0:0:0:0:
243,163,283034,1,0,0:0:0:0:
261,165,283120,1,0,0:0:0:0:
261,165,283206,1,8,0:0:0:0:
182,138,283292,1,0,0:0:0:0:
182,138,283379,1,0,0:0:0:0:
23,149,283436,1,0,0:0:0:0:
182,138,283494,1,0,0:0:0:0:
182,138,283551,1,8,0:0:0:0:
293,112,283637,1,8,0:0:0:0:
269,155,283723,1,0,0:0:0:0:
269,155,283810,1,0,0:0:0:0:
269,155,283896,1,8,0:0:0:0:
269,155,283982,1,0,0:0:0:0:
269,155,284068,1,0,0:0:0:0:
269,155,284154,1,0,0:0:0:0:
231,69,284241,1,8,0:0:0:0:
294,113,284327,1,8,0:0:0:0:
156,121,284413,1,0,0:0:0:0:
156,121,284499,1,0,0:0:0:0:
156,121,284585,1,8,0:0:0:0:
156,121,284672,1,0,0:0:0:0:
246,91,284758,1,0,0:0:0:0:
246,91,284816,1,0,0:0:0:0:
246,91,284873,1,0,0:0:0:0:
246,91,284930,1,8,0:0:0:0:
210,107,285017,1,8,0:0:0:0:
210,107,285103,1,0,0:0:0:0:
210,107,285189,1,0,0:0:0:0:
210,107,285275,1,8,0:0:0:0:
210,107,285361,1,0,0:0:0:0:
210,107,285448,1,0,0:0:0:0:
210,107,285534,1,0,0:0:0:0:
270,88,285620,1,8,0:0:0:0:
270,88,285677,1,8,0:0:0:0:
270,88,285735,1,8,0:0:0:0:
270,88,285792,1,0,0:0:0:0:
228,84,285879,1,0,0:0:0:0:
270,88,285965,1,8,0:0:0:0:
270,88,286022,1,0,0:0:0:0:
270,88,286080,1,0,0:0:0:0:
270,88,286137,1,8,0:0:0:0:
228,84,286223,1,0,0:0:0:0:
270,88,286310,1,8,0:0:0:0:
270,88,286367,1,0,0:0:0:0:
270,88,286425,1,0,0:0:0:0:
270,88,286482,1,8,0:0:0:0:
70,141,286539,1,0,0:0:0:0:
270,88,286597,1,0,0:0:0:0:
270,88,286654,1,8,0:0:0:0:
270,88,286712,1,0,0:0:0:0:
270,88,286769,1,0,0:0:0:0:
270,88,286827,1,8,0:0:0:0:
107,141,286884,1,8,0:0:0:0:
270,88,286942,1,8,0:0:0:0:
270,88,286999,1,0,0:0:0:0:
371,189,287172,1,8,0:0:0:0:
371,189,287430,1,8,0:0:0:0:
371,189,287689,1,8,0:0:0:0:
371,189,287948,1,8,0:0:0:0:
108,151,288206,1,8,0:0:0:0:
128,150,288292,1,8,0:0:0:0:
347,176,288379,1,4,0:0:0:0:
345,141,288551,1,0,0:0:0:0:
358,164,288637,1,0,0:0:0:0:
358,164,288723,1,8,0:0:0:0:
232,137,288896,1,0,0:0:0:0:
232,137,288982,1,0,0:0:0:0:
236,134,289068,1,8,0:0:0:0:
218,138,289126,1,0,0:0:0:0:
236,134,289183,1,0,0:0:0:0:
238,133,289241,1,8,0:0:0:0:
242,134,289413,1,8,0:0:0:0:
196,134,289585,1,0,0:0:0:0:
131,91,289643,1,0,0:0:0:0:
162,141,289700,1,0,0:0:0:0:
246,123,289758,1,8,0:0:0:0:
310,174,289930,1,8,0:0:0:0:
157,133,289988,1,8,0:0:0:0:
157,133,290045,1,8,0:0:0:0:
176,122,290103,1,0,0:0:0:0:
344,137,290275,1,0,0:0:0:0:
438,175,290448,1,8,0:0:0:0:
438,175,290534,1,0,0:0:0:0:
438,175,290620,1,8,0:0:0:0:
438,175,290706,1,8,0:0:0:0:
438,175,290792,1,0,0:0:0:0:
319,130,290907,1,8,0:0:0:0:
319,130,291022,1,8,0:0:0:0:
429,138,291137,1,0,0:0:0:0:
270,110,291310,1,0,0:0:0:0:
257,133,291482,1,12,0:0:0:0:
355,121,291654,1,0,0:0:0:0:
427,221,291741,1,0,0:0:0:0:
427,221,291827,1,8,0:0:0:0:
236,145,291999,1,0,0:0:0:0:
427,221,292172,1,8,0:0:0:0:
217,113,292229,1,8,0:0:0:0:
217,113,292287,1,8,0:0:0:0:
427,221,292344,1,0,0:0:0:0:
427,221,292430,1,0,0:0:0:0:
427,221,292517,1,8,0:0:0:0:
264,117,292574,1,0,0:0:0:0:
264,117,292631,1,0,0:0:0:0:
264,117,292689,1,8,0:0:0:0:
171,144,292775,1,0,0:0:0:0:
392,137,292861,1,8,0:0:0:0:
392,137,292904,1,8,0:0:0:0:
392,137,293034,1,8,0:0:0:0:
392,137,293077,1,8,0:0:0:0:
266,125,293206,1,8,0:0:0:0:
266,125,293249,1,8,0:0:0:0:
246,159,293379,1,0,0:0:0:0:
264,84,293551,1,8,0:0:0:0:
81,126,293608,1,8,0:0:0:0:
151,151,293666,1,8,0:0:0:0:
195,50,293723,1,8,0:0:0:0:
249,162,293896,1,0,0:0:0:0:
279,137,293953,1,0,0:0:0:0:
279,137,294011,1,0,0:0:0:0:
268,138,294068,1,0,0:0:0:0:
351,152,294241,1,12,0:0:0:0:
251,163,294413,1,0,0:0:0:0:
251,163,294499,1,0,0:0:0:0:
251,163,294585,1,8,0:0:0:0:
214,182,294643,1,0,0:0:0:0:
251,163,294700,1,0,0:0:0:0:
251,163,294758,1,8,0:0:0:0:
428,237,294930,1,0,0:0:0:0:
343,147,295103,1,8,0:0:0:0:
343,147,295189,1,8,0:0:0:0:
343,147,295275,1,8,0:0:0:0:
153,143,295448,1,0,0:0:0:0:
153,143,295620,1,0,0:0:0:0:
185,4,295706,1,0,0:0:0:0:
190,92,295792,1,8,0:0:0:0:
384,187,295879,1,8,0:0:0:0:
384,187,295965,1,0,0:0:0:0:
117,135,296051,1,8,0:0:0:0:
230,140,296223,1,8,0:0:0:0:
230,140,296310,1,0,0:0:0:0:
248,159,296396,1,0,0:0:0:0:
180,116,296482,1,8,0:0:0:0:
180,116,296654,1,12,0:0:0:0:
96,128,296827,1,0,0:0:0:0:
328,109,296999,1,8,0:0:0:0:
339,121,297057,1,8,0:0:0:0:
32,160,297114,1,8,0:0:0:0:
64,160,297172,1,0,0:0:0:0:
160,96,297344,1,8,0:0:0:0:
160,96,297430,1,8,0:0:0:0:
160,96,297517,1,0,0:0:0:0:
64,128,297689,1,8,0:0:0:0:
128,128,297732,1,8,0:0:0:0:
192,96,297861,1,0,0:0:0:0:
192,96,297948,1,8,0:0:0:0:
192,96,298034,1,4,0:0:0:0:
352,128,298206,1,8,0:0:0:0:
352,128,298292,1,4,0:0:0:0:
352,160,298551,1,4,0:0:0:0:
256,96,298723,1,8,0:0:0:0:
320,160,298810,1,4,0:0:0:0:
192,128,299068,1,0,0:0:0:0:
448,192,299241,1,8,0:0:0:0:
448,192,299327,1,8,0:0:0:0:
448,192,299413,1,4,0:0:0:0:
448,256,299585,1,0,0:0:0:0:
448,256,299672,1,0,0:0:0:0:
192,160,299758,1,8,0:0:0:0:
352,192,299930,1,0,0:0:0:0:
352,192,300017,1,0,0:0:0:0:
352,192,300103,1,8,0:0:0:0:
56,147,300160,1,0,0:0:0:0:
352,192,300218,1,0,0:0:0:0:
352,192,300275,1,8,0:0:0:0:
352,192,300361,1,8,0:0:0:0:
352,192,300448,1,0,0:0:0:0:
448,64,300620,1,0,0:0:0:0:
448,64,300677,1,0,0:0:0:0:
448,64,300735,1,0,0:0:0:0:
448,64,300792,1,8,0:0:0:0:
352,128,300965,1,8,0:0:0:0:
352,128,301022,1,8,0:0:0:0:
352,128,301080,1,8,0:0:0:0:
352,128,301137,1,0,0:0:0:0:
160,128,301310,1,8,0:0:0:0:
196,155,301396,1,8,0:0:0:0:
128,128,301482,1,0,0:0:0:0:
128,128,301525,1,0,0:0:0:0:
160,128,301654,1,8,0:0:0:0:
224,128,301741,1,8,0:0:0:0:
64,128,301827,1,0,0:0:0:0:
416,192,301942,1,8,0:0:0:0:
416,192,302057,1,8,0:0:0:0:
416,192,302172,1,0,0:0:0:0:
256,128,302258,1,0,0:0:0:0:
160,160,302344,1,0,0:0:0:0:
192,160,302689,1,12,0:0:0:0:
256,128,302948,1,0,0:0:0:0:
288,128,303034,1,8,0:0:0:0:
448,288,303120,1,0,0:0:0:0:
416,288,303206,1,8,0:0:0:0:
384,96,303264,1,8,0:0:0:0:
384,96,303321,1,8,0:0:0:0:
384,96,303379,1,0,0:0:0:0:
192,160,303551,1,0,0:0:0:0:
192,160,303637,1,0,0:0:0:0:
192,160,303723,1,0,0:0:0:0:
192,160,303810,1,8,0:0:0:0:
160,128,303982,1,0,0:0:0:0:
160,32,304068,1,8,0:0:0:0:
256,128,304241,1,0,0:0:0:0:
256,128,304327,1,8,0:0:0:0:
192,160,304413,1,0,0:0:0:0:
320,128,304585,1,8,0:0:0:0:
320,128,304715,1,8,0:0:0:0:
224,128,304844,1,8,0:0:0:0:
320,128,304930,1,4,0:0:0:0:
256,96,305275,1,0,0:0:0:0:
352,128,305361,1,8,0:0:0:0:
192,128,305620,1,0,0:0:0:0:
192,128,305706,1,8,0:0:0:0:
192,128,305792,1,8,0:0:0:0:
192,128,305879,1,8,0:0:0:0:
192,128,305965,1,0,0:0:0:0:
192,128,306051,1,8,0:0:0:0:
192,128,306137,1,8,0:0:0:0:
192,128,306223,1,8,0:0:0:0:
192,128,306310,1,0,0:0:0:0:
192,160,306654,1,0,0:0:0:0:
192,160,306741,1,8,0:0:0:0:
224,160,306999,1,0,0:0:0:0:
224,160,307085,1,8,0:0:0:0:
224,160,307172,1,8,0:0:0:0:
224,160,307258,1,8,0:0:0:0:
224,160,307344,1,0,0:0:0:0:
224,160,307430,1,8,0:0:0:0:
224,160,307517,1,8,0:0:0:0:
224,160,307603,1,8,0:0:0:0:
224,160,307689,1,4,0:0:0:0:
128,160,307861,1,0,0:0:0:0:
224,128,308034,1,0,0:0:0:0:
224,128,308120,1,8,0:0:0:0:
224,128,308206,1,0,0:0:0:0:
224,128,308379,1,0,0:0:0:0:
224,128,308465,1,8,0:0:0:0:
224,128,308551,1,0,0:0:0:0:
224,128,308637,1,8,0:0:0:0:
224,128,308723,1,0,0:0:0:0:
224,128,308810,1,8,0:0:0:0:
224,128,308896,1,0,0:0:0:0:
224,128,308982,1,0,0:0:0:0:
224,128,309068,1,12,0:0:0:0:
288,128,309298,1,12,0:0:0:0:
288,128,309528,1,12,0:0:0:0:
288,128,309758,1,4,0:0:0:0:
320,64,310103,1,8,0:0:0:0:
320,64,310189,1,8,0:0:0:0:
320,64,310275,1,0,0:0:0:0:
320,64,310361,1,0,0:0:0:0:
320,64,310448,1,12,0:0:0:0:
224,128,311137,1,0,0:0:0:0:
224,128,311310,1,0,0:0:0:0:
224,128,311482,1,0,0:0:0:0:
192,128,311654,1,8,0:0:0:0:
224,128,313206,1,0,0:0:0:0:
416,224,314068,1,0,0:0:0:0:
416,224,314241,1,8,0:0:0:0:
416,224,314413,1,8,0:0:0:0:
416,224,314585,1,0,0:0:0:0:
384,128,315103,1,8,0:0:0:0:
384,128,315620,1,8,0:0:0:0:
256,128,315965,1,0,0:0:0:0:
256,96,316827,1,8,0:0:0:0:
256,96,316999,1,0,0:0:0:0:
256,96,317172,1,0,0:0:0:0:
160,128,317344,1,8,0:0:0:0:
384,192,318723,1,0,0:0:0:0:
384,192,319585,1,8,0:0:0:0:
384,192,320103,1,0,0:0:0:0:
256,192,320275,12,0,321310,0:0:0:0:
160,96,321482,5,4,0:0:0:0:
384,192,322344,1,0,0:0:0:0:
384,192,322517,1,8,0:0:0:0:
384,192,322689,1,0,0:0:0:0:
128,128,324241,1,0,0:0:0:0:
448,256,325275,1,0,0:0:0:0:
448,256,325448,1,0,0:0:0:0:
448,256,325620,1,8,0:0:0:0:
288,96,326137,1,8,0:0:0:0:
288,96,326654,1,0,0:0:0:0:
224,160,326999,1,0,0:0:0:0:
192,128,327861,1,8,0:0:0:0:
192,128,328034,1,8,0:0:0:0:
192,128,328206,1,0,0:0:0:0:
192,128,328379,1,8,0:0:0:0:
96,160,329758,1,0,0:0:0:0:
352,192,330620,1,8,0:0:0:0:
256,128,330792,1,0,0:0:0:0:
192,160,330965,1,0,0:0:0:0:
416,192,331137,1,8,0:0:0:0:
320,128,331654,1,8,0:0:0:0:
320,128,332172,1,0,0:0:0:0:
256,192,332344,12,0,338034,0:0:0:0:
