osu file format v14

[General]
AudioFilename: audio.mp3
AudioLeadIn: 0
PreviewTime: 244732
Countdown: 0
SampleSet: Normal
StackLeniency: 0.7
Mode: 3
LetterboxInBreaks: 0
SpecialStyle: 0
WidescreenStoryboard: 0

[Editor]
Bookmarks: 1974,13008,24042,35077,57146,68180,79215,90249,97491,101284,112318,123353,134387,145422,156456,167491,178525,200594,211629,222663,233698,244732,255767,266801,277836,288870,299905,310939,321974,333008,338525
DistanceSpacing: 1.3
BeatDivisor: 4
GridSize: 8
TimelineZoom: 2.1

[Metadata]
Title:Stealth-Dash
TitleUnicode:Σtealth-Δash
Artist:Camellia
ArtistUnicode:かめりあ
Creator:Nimis
Version:Breakthrough
Source:
Tags:heart of android かめるかめりあ KamelCamellia cametek CTCD-018 drumstep electronic instrumental C95 Comiket 95 大箭 将也 masaya oya Comic Market mappers' guild
BeatmapID:3055698
BeatmapSetID:1490725

[Difficulty]
HPDrainRate:8.5
CircleSize:4
OverallDifficulty:7.8
ApproachRate:5
SliderMultiplier:1.4
SliderTickRate:1

[Events]
//Background and Video events
0,0,"planet-1702788_1920.jpg",0,0
//Break Periods
2,57346,65601
//Storyboard Layer 0 (Background)
//Storyboard Layer 1 (Fail)
//Storyboard Layer 2 (Pass)
//Storyboard Layer 3 (Foreground)
//Storyboard Layer 4 (Overlay)
//Storyboard Sound Samples

[TimingPoints]
1974,344.827586206897,4,1,1,30,1,0
35077,-100,4,1,1,75,0,0
66801,-100,4,1,1,60,0,0
79215,-100,4,1,1,80,0,0
123353,-100,4,1,1,60,0,0
134387,-100,4,1,1,80,0,0
177146,-100,4,1,1,50,0,0
178784,-100,4,1,1,30,0,0
200594,-100,4,1,1,75,0,0
222663,-100,4,1,1,60,0,0
244732,-100,4,1,1,80,0,0
287663,-100,4,1,1,60,0,0
288870,-100,4,1,1,80,0,0
311801,-100,4,1,1,30,0,0

[HitObjects]
64,192,2491,5,0,0:0:0:0:
320,192,2663,1,0,0:0:0:0:
192,192,2836,1,0,0:0:0:0:
448,192,3353,1,0,0:0:0:0:
448,192,5594,5,0,0:0:0:0:
448,192,7836,5,0,0:0:0:0:
64,192,8008,5,0,0:0:0:0:
320,192,8180,1,0,0:0:0:0:
192,192,8353,1,0,0:0:0:0:
448,192,10077,1,0,0:0:0:0:
448,192,12318,128,0,12922:0:0:0:0:
448,192,13008,5,0,0:0:0:0:
320,192,13008,1,0,0:0:0:0:
192,192,13267,1,0,0:0:0:0:
320,192,13525,1,0,0:0:0:0:
64,192,13784,1,0,0:0:0:0:
448,192,14042,1,0,0:0:0:0:
320,192,14215,1,0,0:0:0:0:
192,192,14387,1,0,0:0:0:0:
64,192,14646,1,0,0:0:0:0:
448,192,14905,1,0,0:0:0:0:
320,192,15163,1,0,0:0:0:0:
64,192,15422,1,0,0:0:0:0:
192,192,15594,1,0,0:0:0:0:
64,192,15767,1,0,0:0:0:0:
320,192,15767,1,0,0:0:0:0:
192,192,16025,1,0,0:0:0:0:
320,192,16284,1,0,0:0:0:0:
64,192,16542,1,0,0:0:0:0:
448,192,16801,1,0,0:0:0:0:
320,192,16974,1,0,0:0:0:0:
192,192,17146,1,0,0:0:0:0:
320,192,17405,1,0,0:0:0:0:
448,192,17663,1,0,0:0:0:0:
192,192,17922,1,0,0:0:0:0:
448,192,18180,1,0,0:0:0:0:
320,192,18353,1,0,0:0:0:0:
64,192,18525,1,0,0:0:0:0:
448,192,18525,1,0,0:0:0:0:
64,192,19042,1,0,0:0:0:0:
320,192,19215,1,0,0:0:0:0:
192,192,19387,1,0,0:0:0:0:
320,192,19732,1,0,0:0:0:0:
448,192,19905,1,0,0:0:0:0:
192,192,21284,1,0,0:0:0:0:
448,192,21284,1,0,0:0:0:0:
448,192,22146,1,0,0:0:0:0:
64,192,22318,1,0,0:0:0:0:
320,192,22491,1,0,0:0:0:0:
448,192,22663,1,0,0:0:0:0:
192,192,23180,5,0,0:0:0:0:
64,192,23698,1,0,0:0:0:0:
448,192,24042,5,0,0:0:0:0:
320,192,24042,1,0,0:0:0:0:
192,192,24301,1,0,0:0:0:0:
320,192,24560,1,0,0:0:0:0:
64,192,24818,1,0,0:0:0:0:
448,192,25077,1,0,0:0:0:0:
320,192,25249,1,0,0:0:0:0:
192,192,25422,1,0,0:0:0:0:
64,192,25680,1,0,0:0:0:0:
448,192,25939,1,0,0:0:0:0:
320,192,26198,1,0,0:0:0:0:
64,192,26456,1,0,0:0:0:0:
192,192,26629,1,0,0:0:0:0:
448,192,26801,1,0,0:0:0:0:
64,192,26801,1,0,0:0:0:0:
192,192,27060,1,0,0:0:0:0:
320,192,27146,1,0,0:0:0:0:
320,192,27318,1,0,0:0:0:0:
192,192,27491,1,0,0:0:0:0:
64,192,27577,1,0,0:0:0:0:
448,192,27836,1,0,0:0:0:0:
320,192,28008,1,0,0:0:0:0:
192,192,28180,1,0,0:0:0:0:
64,192,28180,1,0,0:0:0:0:
320,192,28439,1,0,0:0:0:0:
192,192,28525,1,0,0:0:0:0:
64,192,28525,1,0,0:0:0:0:
448,192,28698,1,0,0:0:0:0:
320,192,28870,1,0,0:0:0:0:
64,192,28870,1,0,0:0:0:0:
192,192,28956,1,0,0:0:0:0:
448,192,29215,1,0,0:0:0:0:
64,192,29215,1,0,0:0:0:0:
320,192,29387,1,0,0:0:0:0:
64,192,29560,1,0,0:0:0:0:
192,192,29560,1,0,0:0:0:0:
320,192,29732,1,0,0:0:0:0:
192,192,29905,1,0,0:0:0:0:
64,192,30077,1,0,0:0:0:0:
320,192,30249,1,0,0:0:0:0:
192,192,30422,1,0,0:0:0:0:
192,192,30594,1,0,0:0:0:0:
320,192,30767,1,0,0:0:0:0:
448,192,30939,1,0,0:0:0:0:
192,192,31025,1,0,0:0:0:0:
320,192,31111,1,0,0:0:0:0:
192,192,31198,1,0,0:0:0:0:
448,192,31284,1,0,0:0:0:0:
64,192,31370,1,0,0:0:0:0:
192,192,31456,1,0,0:0:0:0:
320,192,31542,1,0,0:0:0:0:
448,192,31629,1,0,0:0:0:0:
64,192,31715,1,0,0:0:0:0:
448,192,31801,1,0,0:0:0:0:
192,192,31887,1,0,0:0:0:0:
320,192,31974,1,0,0:0:0:0:
64,192,32060,1,0,0:0:0:0:
448,192,32146,1,0,0:0:0:0:
320,192,32232,1,0,0:0:0:0:
64,192,32318,1,0,0:0:0:0:
192,192,32376,1,0,0:0:0:0:
320,192,32433,1,0,0:0:0:0:
448,192,32491,1,0,0:0:0:0:
64,192,32577,1,0,0:0:0:0:
320,192,32663,1,0,0:0:0:0:
192,192,32749,1,0,0:0:0:0:
448,192,32836,1,0,0:0:0:0:
64,192,32893,1,0,0:0:0:0:
192,192,32951,1,0,0:0:0:0:
320,192,33008,1,0,0:0:0:0:
64,192,33051,1,0,0:0:0:0:
448,192,33094,1,0,0:0:0:0:
320,192,33137,1,0,0:0:0:0:
192,192,33180,1,0,0:0:0:0:
64,192,33224,1,0,0:0:0:0:
320,192,33267,1,0,0:0:0:0:
448,192,33310,1,0,0:0:0:0:
192,192,33353,1,0,0:0:0:0:
64,192,33396,1,0,0:0:0:0:
448,192,33439,1,0,0:0:0:0:
192,192,33482,1,0,0:0:0:0:
320,192,33525,1,0,0:0:0:0:
64,192,33568,1,0,0:0:0:0:
192,192,33611,1,0,0:0:0:0:
320,192,33655,1,0,0:0:0:0:
448,192,33698,1,0,0:0:0:0:
64,192,34732,128,0,34818:0:0:0:0:
192,192,34818,128,0,34905:0:0:0:0:
320,192,34905,128,0,34991:0:0:0:0:
448,192,34991,128,0,35077:0:0:0:0:
192,192,35077,128,0,35594:0:0:0:0:
64,192,35077,128,0,35422:0:0:0:0:
320,192,35077,128,0,35422:0:0:0:0:
320,192,35594,128,0,36111:0:0:0:0:
448,192,35594,128,0,35939:0:0:0:0:
64,192,35594,128,0,35939:0:0:0:0:
192,192,35939,128,0,36025:0:0:0:0:
448,192,36111,128,0,36456:0:0:0:0:
64,192,36140,128,0,36198:0:0:0:0:
320,192,36284,128,0,36370:0:0:0:0:
192,192,36313,128,0,36370:0:0:0:0:
320,192,36456,128,0,36974:0:0:0:0:
64,192,36456,128,0,36801:0:0:0:0:
192,192,36456,128,0,36801:0:0:0:0:
448,192,36974,128,0,37491:0:0:0:0:
192,192,36974,128,0,37318:0:0:0:0:
64,192,36974,128,0,37318:0:0:0:0:
64,192,37491,128,0,37836:0:0:0:0:
192,192,37663,1,0,0:0:0:0:
448,192,37663,1,0,0:0:0:0:
448,192,37749,1,0,0:0:0:0:
320,192,37749,1,0,0:0:0:0:
192,192,37836,128,0,38353:0:0:0:0:
320,192,37836,128,0,38180:0:0:0:0:
448,192,37836,128,0,38180:0:0:0:0:
320,192,38353,128,0,39215:0:0:0:0:
448,192,38353,128,0,38698:0:0:0:0:
64,192,38353,128,0,38698:0:0:0:0:
192,192,38870,1,0,0:0:0:0:
64,192,38928,1,0,0:0:0:0:
448,192,38985,1,0,0:0:0:0:
192,192,39042,1,0,0:0:0:0:
64,192,39100,1,0,0:0:0:0:
448,192,39157,1,0,0:0:0:0:
192,192,39215,1,0,0:0:0:0:
320,192,39301,1,0,0:0:0:0:
448,192,39387,1,0,0:0:0:0:
320,192,39474,1,0,0:0:0:0:
192,192,39560,1,0,0:0:0:0:
64,192,39646,1,0,0:0:0:0:
192,192,39732,1,0,0:0:0:0:
320,192,39790,1,0,0:0:0:0:
64,192,39847,1,0,0:0:0:0:
448,192,39962,1,0,0:0:0:0:
320,192,40019,1,0,0:0:0:0:
448,192,40134,1,0,0:0:0:0:
192,192,40206,1,0,0:0:0:0:
64,192,40249,128,0,40336:0:0:0:0:
320,192,40336,128,0,40422:0:0:0:0:
192,192,40422,128,0,40508:0:0:0:0:
320,192,40508,128,0,40594:0:0:0:0:
448,192,40594,128,0,41111:0:0:0:0:
192,192,40594,128,0,40939:0:0:0:0:
64,192,40594,128,0,40939:0:0:0:0:
192,192,41111,128,0,41629:0:0:0:0:
320,192,41111,128,0,41456:0:0:0:0:
64,192,41111,128,0,41456:0:0:0:0:
448,192,41629,128,0,41974:0:0:0:0:
64,192,41715,1,0,0:0:0:0:
320,192,41801,1,0,0:0:0:0:
192,192,41887,1,0,0:0:0:0:
320,192,41974,128,0,42491:0:0:0:0:
192,192,41974,128,0,42318:0:0:0:0:
64,192,41974,128,0,42318:0:0:0:0:
192,192,42491,128,0,43008:0:0:0:0:
64,192,42491,128,0,42836:0:0:0:0:
448,192,42491,128,0,42836:0:0:0:0:
320,192,42836,1,0,0:0:0:0:
64,192,43008,128,0,43353:0:0:0:0:
192,192,43094,128,0,43267:0:0:0:0:
448,192,43094,128,0,43267:0:0:0:0:
192,192,43353,128,0,43611:0:0:0:0:
320,192,43353,128,0,43525:0:0:0:0:
448,192,43353,128,0,43525:0:0:0:0:
448,192,43611,128,0,43870:0:0:0:0:
320,192,43611,128,0,43784:0:0:0:0:
64,192,43611,128,0,43784:0:0:0:0:
320,192,43870,128,0,44732:0:0:0:0:
192,192,43870,128,0,44215:0:0:0:0:
64,192,43870,128,0,44215:0:0:0:0:
448,192,44215,1,0,0:0:0:0:
64,192,44301,1,0,0:0:0:0:
448,192,44387,1,0,0:0:0:0:
192,192,44445,1,0,0:0:0:0:
64,192,44502,1,0,0:0:0:0:
192,192,44560,1,0,0:0:0:0:
448,192,44617,1,0,0:0:0:0:
64,192,44675,1,0,0:0:0:0:
192,192,44732,1,0,0:0:0:0:
448,192,44801,1,0,0:0:0:0:
320,192,44870,1,0,0:0:0:0:
192,192,44939,1,0,0:0:0:0:
64,192,45008,1,0,0:0:0:0:
320,192,45077,1,0,0:0:0:0:
192,192,45134,1,0,0:0:0:0:
448,192,45192,1,0,0:0:0:0:
64,192,45249,1,0,0:0:0:0:
320,192,45336,1,0,0:0:0:0:
192,192,45422,1,0,0:0:0:0:
64,192,45479,1,0,0:0:0:0:
448,192,45537,1,0,0:0:0:0:
192,192,45594,1,0,0:0:0:0:
320,192,45680,1,0,0:0:0:0:
64,192,45767,128,0,45853:0:0:0:0:
192,192,45853,128,0,45939:0:0:0:0:
320,192,45939,128,0,46025:0:0:0:0:
448,192,46025,128,0,46111:0:0:0:0:
192,192,46111,128,0,46629:0:0:0:0:
64,192,46111,128,0,46456:0:0:0:0:
320,192,46111,128,0,46456:0:0:0:0:
320,192,46629,128,0,47146:0:0:0:0:
448,192,46629,128,0,46974:0:0:0:0:
64,192,46629,128,0,46974:0:0:0:0:
192,192,46974,1,0,0:0:0:0:
192,192,47060,1,0,0:0:0:0:
448,192,47146,128,0,47491:0:0:0:0:
64,192,47146,128,0,47318:0:0:0:0:
320,192,47232,128,0,47318:0:0:0:0:
192,192,47318,128,0,47405:0:0:0:0:
320,192,47491,128,0,48008:0:0:0:0:
64,192,47491,128,0,47836:0:0:0:0:
192,192,47491,128,0,47836:0:0:0:0:
448,192,48008,128,0,48525:0:0:0:0:
192,192,48008,128,0,48353:0:0:0:0:
64,192,48008,128,0,48353:0:0:0:0:
64,192,48525,128,0,48870:0:0:0:0:
192,192,48698,1,0,0:0:0:0:
448,192,48698,1,0,0:0:0:0:
448,192,48784,1,0,0:0:0:0:
320,192,48784,1,0,0:0:0:0:
192,192,48870,128,0,49387:0:0:0:0:
320,192,48870,128,0,49215:0:0:0:0:
448,192,48870,128,0,49215:0:0:0:0:
320,192,49387,128,0,50249:0:0:0:0:
448,192,49387,128,0,49732:0:0:0:0:
64,192,49387,128,0,49732:0:0:0:0:
64,192,49905,1,0,0:0:0:0:
192,192,49962,1,0,0:0:0:0:
64,192,50019,1,0,0:0:0:0:
448,192,50077,1,0,0:0:0:0:
192,192,50134,1,0,0:0:0:0:
64,192,50192,1,0,0:0:0:0:
448,192,50249,1,0,0:0:0:0:
192,192,50336,1,0,0:0:0:0:
448,192,50422,1,0,0:0:0:0:
320,192,50508,1,0,0:0:0:0:
192,192,50594,1,0,0:0:0:0:
64,192,50637,1,0,0:0:0:0:
320,192,50680,1,0,0:0:0:0:
448,192,50724,1,0,0:0:0:0:
192,192,50767,1,0,0:0:0:0:
320,192,50824,1,0,0:0:0:0:
64,192,50882,1,0,0:0:0:0:
448,192,50939,1,0,0:0:0:0:
192,192,50996,1,0,0:0:0:0:
320,192,51054,1,0,0:0:0:0:
64,192,51111,1,0,0:0:0:0:
448,192,51169,1,0,0:0:0:0:
192,192,51226,1,0,0:0:0:0:
64,192,51284,128,0,51370:0:0:0:0:
320,192,51370,128,0,51456:0:0:0:0:
192,192,51456,128,0,51542:0:0:0:0:
320,192,51542,128,0,51629:0:0:0:0:
448,192,51629,128,0,52146:0:0:0:0:
192,192,51629,128,0,51974:0:0:0:0:
64,192,51629,128,0,51974:0:0:0:0:
192,192,52146,128,0,52663:0:0:0:0:
320,192,52146,128,0,52491:0:0:0:0:
64,192,52146,128,0,52491:0:0:0:0:
448,192,52663,128,0,53008:0:0:0:0:
320,192,52663,128,0,52836:0:0:0:0:
192,192,52836,1,0,0:0:0:0:
64,192,52922,1,0,0:0:0:0:
320,192,53008,128,0,53525:0:0:0:0:
192,192,53008,128,0,53353:0:0:0:0:
64,192,53008,128,0,53353:0:0:0:0:
192,192,53525,128,0,54042:0:0:0:0:
64,192,53525,128,0,53870:0:0:0:0:
448,192,53525,128,0,53870:0:0:0:0:
320,192,53870,1,0,0:0:0:0:
64,192,54042,128,0,54387:0:0:0:0:
320,192,54129,128,0,54301:0:0:0:0:
448,192,54129,128,0,54301:0:0:0:0:
192,192,54387,128,0,54646:0:0:0:0:
320,192,54387,128,0,54560:0:0:0:0:
448,192,54387,128,0,54560:0:0:0:0:
448,192,54646,128,0,54905:0:0:0:0:
320,192,54646,128,0,54818:0:0:0:0:
64,192,54646,128,0,54818:0:0:0:0:
192,192,54905,128,0,55163:0:0:0:0:
64,192,54905,128,0,55077:0:0:0:0:
320,192,54905,128,0,55077:0:0:0:0:
320,192,55163,128,0,55422:0:0:0:0:
64,192,55163,128,0,55336:0:0:0:0:
448,192,55163,128,0,55336:0:0:0:0:
448,192,55422,128,0,57146:0:0:0:0:
192,192,55422,1,0,0:0:0:0:
64,192,55422,1,0,0:0:0:0:
64,192,56456,128,0,57146:0:0:0:0:
320,192,57146,1,0,0:0:0:0:
192,192,57146,1,0,0:0:0:0:
192,192,66801,132,0,67836:0:0:0:0:
320,192,66801,128,0,67836:0:0:0:0:
64,192,67836,128,0,68180:0:0:0:0:
448,192,68180,5,0,0:0:0:0:
320,192,68180,1,0,0:0:0:0:
192,192,68180,1,0,0:0:0:0:
64,192,68353,1,0,0:0:0:0:
192,192,68439,1,0,0:0:0:0:
448,192,68439,1,0,0:0:0:0:
64,192,68525,1,0,0:0:0:0:
320,192,68698,1,0,0:0:0:0:
64,192,68698,1,0,0:0:0:0:
448,192,68870,1,0,0:0:0:0:
64,192,68956,1,0,0:0:0:0:
192,192,68956,1,0,0:0:0:0:
448,192,69042,1,0,0:0:0:0:
192,192,69129,1,0,0:0:0:0:
448,192,69215,1,0,0:0:0:0:
320,192,69215,1,0,0:0:0:0:
320,192,69387,1,0,0:0:0:0:
64,192,69387,1,0,0:0:0:0:
64,192,69474,1,0,0:0:0:0:
448,192,69474,1,0,0:0:0:0:
192,192,69560,1,0,0:0:0:0:
448,192,69560,1,0,0:0:0:0:
448,192,69732,1,0,0:0:0:0:
64,192,69818,1,0,0:0:0:0:
192,192,69818,1,0,0:0:0:0:
448,192,69905,1,0,0:0:0:0:
192,192,69991,1,0,0:0:0:0:
448,192,70077,1,0,0:0:0:0:
320,192,70077,1,0,0:0:0:0:
192,192,70249,1,0,0:0:0:0:
320,192,70336,1,0,0:0:0:0:
64,192,70336,1,0,0:0:0:0:
448,192,70422,1,0,0:0:0:0:
320,192,70508,1,0,0:0:0:0:
64,192,70594,1,0,0:0:0:0:
192,192,70594,1,0,0:0:0:0:
192,192,70767,1,0,0:0:0:0:
448,192,70767,1,0,0:0:0:0:
320,192,70810,1,0,0:0:0:0:
64,192,70853,1,0,0:0:0:0:
192,192,70896,1,0,0:0:0:0:
448,192,70939,5,0,0:0:0:0:
320,192,70939,1,0,0:0:0:0:
64,192,71111,1,0,0:0:0:0:
192,192,71198,1,0,0:0:0:0:
448,192,71198,1,0,0:0:0:0:
64,192,71284,1,0,0:0:0:0:
320,192,71456,1,0,0:0:0:0:
64,192,71456,1,0,0:0:0:0:
448,192,71629,1,0,0:0:0:0:
64,192,71715,1,0,0:0:0:0:
192,192,71715,1,0,0:0:0:0:
448,192,71801,1,0,0:0:0:0:
192,192,71887,1,0,0:0:0:0:
448,192,71974,1,0,0:0:0:0:
320,192,71974,1,0,0:0:0:0:
320,192,72146,1,0,0:0:0:0:
64,192,72146,1,0,0:0:0:0:
448,192,72232,1,0,0:0:0:0:
64,192,72232,1,0,0:0:0:0:
192,192,72318,1,0,0:0:0:0:
448,192,72318,1,0,0:0:0:0:
448,192,72491,1,0,0:0:0:0:
64,192,72577,1,0,0:0:0:0:
192,192,72577,1,0,0:0:0:0:
448,192,72663,1,0,0:0:0:0:
192,192,72749,1,0,0:0:0:0:
448,192,72836,1,0,0:0:0:0:
320,192,72836,1,0,0:0:0:0:
192,192,73008,1,0,0:0:0:0:
320,192,73094,1,0,0:0:0:0:
64,192,73094,1,0,0:0:0:0:
448,192,73180,1,0,0:0:0:0:
320,192,73267,1,0,0:0:0:0:
64,192,73353,1,0,0:0:0:0:
192,192,73353,1,0,0:0:0:0:
192,192,73525,1,0,0:0:0:0:
448,192,73525,1,0,0:0:0:0:
320,192,73568,1,0,0:0:0:0:
64,192,73611,1,0,0:0:0:0:
192,192,73655,1,0,0:0:0:0:
448,192,73698,1,0,0:0:0:0:
320,192,73698,1,0,0:0:0:0:
64,192,73784,1,0,0:0:0:0:
192,192,73870,1,0,0:0:0:0:
320,192,73956,1,0,0:0:0:0:
64,192,74042,1,0,0:0:0:0:
192,192,74042,1,0,0:0:0:0:
448,192,74129,1,0,0:0:0:0:
320,192,74215,1,0,0:0:0:0:
192,192,74301,1,0,0:0:0:0:
320,192,74387,1,0,0:0:0:0:
448,192,74387,1,0,0:0:0:0:
64,192,74474,1,0,0:0:0:0:
192,192,74560,1,0,0:0:0:0:
320,192,74646,1,0,0:0:0:0:
192,192,74732,1,0,0:0:0:0:
64,192,74732,1,0,0:0:0:0:
448,192,74818,1,0,0:0:0:0:
320,192,74905,1,0,0:0:0:0:
192,192,74991,1,0,0:0:0:0:
320,192,75077,1,0,0:0:0:0:
448,192,75077,1,0,0:0:0:0:
64,192,75163,1,0,0:0:0:0:
192,192,75249,1,0,0:0:0:0:
64,192,75336,1,0,0:0:0:0:
448,192,75422,1,0,0:0:0:0:
320,192,75422,1,0,0:0:0:0:
192,192,75508,1,0,0:0:0:0:
320,192,75594,1,0,0:0:0:0:
192,192,75680,1,0,0:0:0:0:
448,192,75767,1,0,0:0:0:0:
64,192,75767,1,0,0:0:0:0:
320,192,75853,1,0,0:0:0:0:
192,192,75939,1,0,0:0:0:0:
320,192,76025,1,0,0:0:0:0:
192,192,76111,1,0,0:0:0:0:
64,192,76111,1,0,0:0:0:0:
448,192,76198,1,0,0:0:0:0:
320,192,76284,1,0,0:0:0:0:
448,192,76370,1,0,0:0:0:0:
192,192,76456,1,0,0:0:0:0:
64,192,76456,1,0,0:0:0:0:
320,192,76542,1,0,0:0:0:0:
192,192,76629,1,0,0:0:0:0:
448,192,76629,1,0,0:0:0:0:
64,192,76715,1,0,0:0:0:0:
448,192,76801,1,0,0:0:0:0:
320,192,76801,1,0,0:0:0:0:
192,192,76887,1,0,0:0:0:0:
320,192,76974,1,0,0:0:0:0:
64,192,76974,1,0,0:0:0:0:
448,192,77060,1,0,0:0:0:0:
192,192,77146,1,0,0:0:0:0:
64,192,77146,1,0,0:0:0:0:
320,192,77189,1,0,0:0:0:0:
448,192,77232,1,0,0:0:0:0:
192,192,77275,1,0,0:0:0:0:
64,192,77318,1,0,0:0:0:0:
320,192,77361,1,0,0:0:0:0:
192,192,77405,1,0,0:0:0:0:
448,192,77448,1,0,0:0:0:0:
64,192,77491,1,0,0:0:0:0:
320,192,77534,1,0,0:0:0:0:
448,192,77577,1,0,0:0:0:0:
64,192,77620,1,0,0:0:0:0:
320,192,77663,1,0,0:0:0:0:
192,192,77706,1,0,0:0:0:0:
448,192,77749,1,0,0:0:0:0:
320,192,77792,1,0,0:0:0:0:
64,192,77836,1,0,0:0:0:0:
192,192,77836,1,0,0:0:0:0:
448,192,78870,1,0,0:0:0:0:
448,192,78956,1,0,0:0:0:0:
320,192,79042,1,0,0:0:0:0:
192,192,79129,1,0,0:0:0:0:
64,192,79215,128,0,79474:0:0:0:0:
320,192,79215,128,0,79474:0:0:0:0:
448,192,79215,128,0,79474:0:0:0:0:
64,192,79560,1,0,0:0:0:0:
320,192,79560,1,0,0:0:0:0:
448,192,79560,1,0,0:0:0:0:
64,192,79732,128,0,79818:0:0:0:0:
192,192,79761,1,0,0:0:0:0:
448,192,79818,1,0,0:0:0:0:
320,192,79905,128,0,79991:0:0:0:0:
192,192,79933,128,0,79991:0:0:0:0:
64,192,79962,128,0,79991:0:0:0:0:
448,192,79991,1,0,0:0:0:0:
192,192,80077,128,0,80163:0:0:0:0:
320,192,80077,1,0,0:0:0:0:
64,192,80249,1,0,0:0:0:0:
320,192,80249,1,0,0:0:0:0:
448,192,80249,1,0,0:0:0:0:
64,192,80422,128,0,80508:0:0:0:0:
192,192,80451,1,0,0:0:0:0:
448,192,80508,128,0,80594:0:0:0:0:
320,192,80537,1,0,0:0:0:0:
64,192,80594,1,0,0:0:0:0:
448,192,80680,1,0,0:0:0:0:
192,192,80767,1,0,0:0:0:0:
64,192,80767,1,0,0:0:0:0:
192,192,80853,128,0,80939:0:0:0:0:
64,192,80939,1,0,0:0:0:0:
320,192,80939,1,0,0:0:0:0:
448,192,80939,1,0,0:0:0:0:
320,192,81111,128,0,81198:0:0:0:0:
448,192,81198,1,0,0:0:0:0:
320,192,81284,128,0,81370:0:0:0:0:
192,192,81370,1,0,0:0:0:0:
320,192,81456,1,0,0:0:0:0:
448,192,81456,1,0,0:0:0:0:
448,192,81542,128,0,81715:0:0:0:0:
320,192,81629,128,0,81715:0:0:0:0:
64,192,81629,128,0,81715:0:0:0:0:
192,192,81629,1,0,0:0:0:0:
448,192,81801,128,0,81974:0:0:0:0:
64,192,81801,128,0,81887:0:0:0:0:
192,192,81887,1,0,0:0:0:0:
64,192,81974,1,0,0:0:0:0:
192,192,82060,1,0,0:0:0:0:
320,192,82146,1,0,0:0:0:0:
448,192,82146,1,0,0:0:0:0:
320,192,82232,128,0,82318:0:0:0:0:
64,192,82318,1,0,0:0:0:0:
448,192,82318,128,0,82491:0:0:0:0:
192,192,82318,128,0,82491:0:0:0:0:
64,192,82491,1,0,0:0:0:0:
320,192,82491,128,0,82663:0:0:0:0:
64,192,82577,128,0,82663:0:0:0:0:
448,192,82663,1,0,0:0:0:0:
320,192,82749,1,0,0:0:0:0:
320,192,82836,1,0,0:0:0:0:
192,192,82836,128,0,83008:0:0:0:0:
448,192,83008,128,0,83353:0:0:0:0:
320,192,83008,1,0,0:0:0:0:
64,192,83008,1,0,0:0:0:0:
320,192,83180,128,0,83267:0:0:0:0:
192,192,83267,128,0,83353:0:0:0:0:
64,192,83353,128,0,83525:0:0:0:0:
192,192,83439,128,0,83525:0:0:0:0:
320,192,83525,128,0,83611:0:0:0:0:
448,192,83525,1,0,0:0:0:0:
64,192,83611,128,0,83698:0:0:0:0:
192,192,83698,128,0,83784:0:0:0:0:
320,192,83698,1,0,0:0:0:0:
448,192,83698,1,0,0:0:0:0:
64,192,83784,128,0,83870:0:0:0:0:
448,192,83870,128,0,84042:0:0:0:0:
320,192,83956,128,0,84042:0:0:0:0:
64,192,84042,128,0,84215:0:0:0:0:
192,192,84129,128,0,84215:0:0:0:0:
320,192,84215,1,0,0:0:0:0:
448,192,84215,1,0,0:0:0:0:
64,192,84387,1,0,0:0:0:0:
192,192,84387,128,0,84560:0:0:0:0:
448,192,84387,128,0,84560:0:0:0:0:
320,192,84474,1,0,0:0:0:0:
64,192,84560,1,0,0:0:0:0:
64,192,84646,1,0,0:0:0:0:
320,192,84732,128,0,85077:0:0:0:0:
448,192,84732,128,0,84991:0:0:0:0:
192,192,84905,128,0,84991:0:0:0:0:
64,192,85077,1,0,0:0:0:0:
448,192,85077,128,0,85249:0:0:0:0:
192,192,85077,128,0,85249:0:0:0:0:
64,192,85249,128,0,85336:0:0:0:0:
448,192,85336,1,0,0:0:0:0:
320,192,85422,128,0,85508:0:0:0:0:
192,192,85451,128,0,85508:0:0:0:0:
64,192,85479,128,0,85508:0:0:0:0:
192,192,85594,128,0,85680:0:0:0:0:
320,192,85594,1,0,0:0:0:0:
448,192,85767,128,0,85853:0:0:0:0:
320,192,85767,1,0,0:0:0:0:
64,192,85767,1,0,0:0:0:0:
320,192,85939,128,0,86025:0:0:0:0:
448,192,86025,1,0,0:0:0:0:
192,192,86111,128,0,86198:0:0:0:0:
64,192,86198,1,0,0:0:0:0:
320,192,86284,1,0,0:0:0:0:
192,192,86284,1,0,0:0:0:0:
320,192,86370,128,0,86542:0:0:0:0:
448,192,86456,128,0,86542:0:0:0:0:
64,192,86456,128,0,86542:0:0:0:0:
192,192,86456,1,0,0:0:0:0:
64,192,86629,128,0,86801:0:0:0:0:
448,192,86715,1,0,0:0:0:0:
192,192,86801,1,0,0:0:0:0:
448,192,86887,1,0,0:0:0:0:
320,192,86930,1,0,0:0:0:0:
64,192,86974,1,0,0:0:0:0:
192,192,86974,1,0,0:0:0:0:
64,192,87060,128,0,87232:0:0:0:0:
192,192,87146,1,0,0:0:0:0:
320,192,87146,1,0,0:0:0:0:
448,192,87146,128,0,87232:0:0:0:0:
448,192,87318,128,0,87577:0:0:0:0:
192,192,87405,1,0,0:0:0:0:
320,192,87491,1,0,0:0:0:0:
192,192,87577,1,0,0:0:0:0:
448,192,87663,1,0,0:0:0:0:
320,192,87663,128,0,87922:0:0:0:0:
448,192,87836,128,0,87922:0:0:0:0:
192,192,87836,128,0,87922:0:0:0:0:
64,192,87836,128,0,87922:0:0:0:0:
192,192,88008,1,0,0:0:0:0:
192,192,88094,1,0,0:0:0:0:
448,192,88180,128,0,88353:0:0:0:0:
64,192,88267,1,0,0:0:0:0:
320,192,88353,128,0,88525:0:0:0:0:
192,192,88353,1,0,0:0:0:0:
192,192,88525,128,0,88784:0:0:0:0:
64,192,88525,1,0,0:0:0:0:
448,192,88525,1,0,0:0:0:0:
448,192,88698,1,0,0:0:0:0:
320,192,88726,1,0,0:0:0:0:
64,192,88784,1,0,0:0:0:0:
320,192,88813,1,0,0:0:0:0:
192,192,88870,128,0,89042:0:0:0:0:
64,192,88956,128,0,89042:0:0:0:0:
320,192,89042,1,0,0:0:0:0:
448,192,89042,1,0,0:0:0:0:
192,192,89129,128,0,89215:0:0:0:0:
320,192,89215,1,0,0:0:0:0:
64,192,89215,1,0,0:0:0:0:
448,192,89215,128,0,89301:0:0:0:0:
192,192,89301,128,0,89387:0:0:0:0:
448,192,89387,128,0,89445:0:0:0:0:
320,192,89445,128,0,89502:0:0:0:0:
64,192,89502,128,0,89560:0:0:0:0:
192,192,89560,128,0,89617:0:0:0:0:
448,192,89617,128,0,89675:0:0:0:0:
320,192,89675,128,0,89732:0:0:0:0:
64,192,89732,1,0,0:0:0:0:
192,192,89732,128,0,89790:0:0:0:0:
448,192,89790,128,0,89847:0:0:0:0:
64,192,89847,128,0,89905:0:0:0:0:
448,192,89905,1,0,0:0:0:0:
192,192,89905,1,0,0:0:0:0:
320,192,89905,1,0,0:0:0:0:
64,192,90077,1,0,0:0:0:0:
192,192,90120,1,0,0:0:0:0:
320,192,90163,1,0,0:0:0:0:
192,192,90206,1,0,0:0:0:0:
64,192,90249,128,0,90508:0:0:0:0:
320,192,90249,128,0,90508:0:0:0:0:
448,192,90249,128,0,90508:0:0:0:0:
64,192,90594,1,0,0:0:0:0:
320,192,90594,1,0,0:0:0:0:
448,192,90594,1,0,0:0:0:0:
64,192,90767,128,0,90853:0:0:0:0:
192,192,90795,1,0,0:0:0:0:
448,192,90853,1,0,0:0:0:0:
320,192,90939,128,0,91025:0:0:0:0:
192,192,90968,128,0,91025:0:0:0:0:
64,192,90996,128,0,91025:0:0:0:0:
448,192,91025,1,0,0:0:0:0:
192,192,91111,128,0,91198:0:0:0:0:
320,192,91111,1,0,0:0:0:0:
64,192,91284,1,0,0:0:0:0:
320,192,91284,1,0,0:0:0:0:
448,192,91284,1,0,0:0:0:0:
64,192,91456,128,0,91542:0:0:0:0:
192,192,91485,1,0,0:0:0:0:
448,192,91542,128,0,91629:0:0:0:0:
320,192,91571,1,0,0:0:0:0:
64,192,91629,1,0,0:0:0:0:
448,192,91715,1,0,0:0:0:0:
192,192,91801,1,0,0:0:0:0:
64,192,91801,1,0,0:0:0:0:
192,192,91887,128,0,91974:0:0:0:0:
64,192,91974,1,0,0:0:0:0:
320,192,91974,1,0,0:0:0:0:
448,192,91974,1,0,0:0:0:0:
320,192,92146,128,0,92232:0:0:0:0:
448,192,92232,1,0,0:0:0:0:
320,192,92318,128,0,92405:0:0:0:0:
192,192,92405,1,0,0:0:0:0:
320,192,92491,1,0,0:0:0:0:
448,192,92491,1,0,0:0:0:0:
448,192,92577,128,0,92749:0:0:0:0:
320,192,92663,128,0,92749:0:0:0:0:
64,192,92663,128,0,92749:0:0:0:0:
192,192,92663,1,0,0:0:0:0:
448,192,92836,128,0,93008:0:0:0:0:
64,192,92836,128,0,92922:0:0:0:0:
192,192,92922,1,0,0:0:0:0:
64,192,93008,1,0,0:0:0:0:
192,192,93094,1,0,0:0:0:0:
320,192,93180,1,0,0:0:0:0:
448,192,93180,1,0,0:0:0:0:
320,192,93267,128,0,93353:0:0:0:0:
64,192,93353,1,0,0:0:0:0:
448,192,93353,128,0,93525:0:0:0:0:
192,192,93353,128,0,93525:0:0:0:0:
64,192,93525,1,0,0:0:0:0:
320,192,93525,128,0,93698:0:0:0:0:
64,192,93611,128,0,93698:0:0:0:0:
448,192,93698,1,0,0:0:0:0:
320,192,93784,1,0,0:0:0:0:
320,192,93870,1,0,0:0:0:0:
192,192,93870,128,0,94042:0:0:0:0:
448,192,94042,128,0,94387:0:0:0:0:
320,192,94042,1,0,0:0:0:0:
64,192,94042,1,0,0:0:0:0:
320,192,94215,128,0,94301:0:0:0:0:
192,192,94301,128,0,94387:0:0:0:0:
64,192,94387,128,0,94560:0:0:0:0:
448,192,94474,128,0,94560:0:0:0:0:
192,192,94560,1,0,0:0:0:0:
320,192,94560,128,0,94646:0:0:0:0:
448,192,94646,1,0,0:0:0:0:
192,192,94646,128,0,94732:0:0:0:0:
64,192,94732,128,0,94905:0:0:0:0:
320,192,94818,128,0,94905:0:0:0:0:
192,192,94905,1,0,0:0:0:0:
448,192,94905,128,0,94991:0:0:0:0:
320,192,94991,128,0,95077:0:0:0:0:
64,192,95077,128,0,95249:0:0:0:0:
448,192,95163,1,0,0:0:0:0:
192,192,95163,128,0,95249:0:0:0:0:
320,192,95249,1,0,0:0:0:0:
448,192,95249,1,0,0:0:0:0:
192,192,95336,128,0,95594:0:0:0:0:
64,192,95422,128,0,95680:0:0:0:0:
320,192,95422,128,0,95508:0:0:0:0:
448,192,95422,1,0,0:0:0:0:
448,192,95594,1,0,0:0:0:0:
320,192,95680,1,0,0:0:0:0:
192,192,95680,1,0,0:0:0:0:
64,192,95767,128,0,96025:0:0:0:0:
192,192,95767,128,0,96025:0:0:0:0:
448,192,95767,128,0,96025:0:0:0:0:
64,192,96111,128,0,96370:0:0:0:0:
320,192,96155,1,0,0:0:0:0:
448,192,96198,128,0,96370:0:0:0:0:
320,192,96370,1,0,0:0:0:0:
64,192,96456,1,0,0:0:0:0:
192,192,96456,1,0,0:0:0:0:
448,192,96456,1,0,0:0:0:0:
64,192,96542,1,0,0:0:0:0:
320,192,96629,1,0,0:0:0:0:
320,192,96715,1,0,0:0:0:0:
64,192,96801,1,0,0:0:0:0:
64,192,96887,1,0,0:0:0:0:
320,192,96974,1,0,0:0:0:0:
320,192,97060,1,0,0:0:0:0:
192,192,97146,1,0,0:0:0:0:
64,192,97146,1,0,0:0:0:0:
448,192,97232,1,0,0:0:0:0:
320,192,97275,1,0,0:0:0:0:
192,192,97318,1,0,0:0:0:0:
448,192,97491,128,0,97749:0:0:0:0:
192,192,97534,1,0,0:0:0:0:
64,192,97577,128,0,97749:0:0:0:0:
192,192,97749,1,0,0:0:0:0:
448,192,97836,1,0,0:0:0:0:
320,192,97836,1,0,0:0:0:0:
64,192,97836,1,0,0:0:0:0:
448,192,97922,1,0,0:0:0:0:
192,192,98008,1,0,0:0:0:0:
192,192,98094,1,0,0:0:0:0:
448,192,98180,1,0,0:0:0:0:
448,192,98267,1,0,0:0:0:0:
192,192,98353,1,0,0:0:0:0:
192,192,98439,1,0,0:0:0:0:
64,192,98525,128,0,98698:0:0:0:0:
320,192,98525,128,0,98611:0:0:0:0:
448,192,98525,128,0,98698:0:0:0:0:
320,192,98698,1,0,0:0:0:0:
192,192,98698,1,0,0:0:0:0:
448,192,98784,1,0,0:0:0:0:
192,192,98870,1,0,0:0:0:0:
64,192,98870,1,0,0:0:0:0:
448,192,98956,1,0,0:0:0:0:
320,192,99042,1,0,0:0:0:0:
192,192,99042,1,0,0:0:0:0:
448,192,99129,1,0,0:0:0:0:
64,192,99215,1,0,0:0:0:0:
192,192,99215,1,0,0:0:0:0:
64,192,99301,1,0,0:0:0:0:
320,192,99387,1,0,0:0:0:0:
448,192,99387,1,0,0:0:0:0:
320,192,99474,1,0,0:0:0:0:
64,192,99560,1,0,0:0:0:0:
192,192,99560,1,0,0:0:0:0:
64,192,99646,1,0,0:0:0:0:
320,192,99732,1,0,0:0:0:0:
448,192,99732,1,0,0:0:0:0:
320,192,99818,1,0,0:0:0:0:
64,192,99905,128,0,100048:0:0:0:0:
192,192,99905,128,0,100048:0:0:0:0:
448,192,99905,128,0,100048:0:0:0:0:
192,192,100134,128,0,100278:0:0:0:0:
448,192,100134,128,0,100278:0:0:0:0:
64,192,100134,128,0,100278:0:0:0:0:
448,192,100364,128,0,100594:0:0:0:0:
64,192,100364,128,0,100594:0:0:0:0:
192,192,100364,128,0,100508:0:0:0:0:
192,192,100594,1,0,0:0:0:0:
320,192,100594,1,0,0:0:0:0:
448,192,100939,1,0,0:0:0:0:
448,192,101025,1,0,0:0:0:0:
320,192,101111,1,0,0:0:0:0:
192,192,101198,1,0,0:0:0:0:
448,192,101284,128,0,101370:0:0:0:0:
64,192,101284,128,0,101542:0:0:0:0:
320,192,101284,128,0,101542:0:0:0:0:
192,192,101542,128,0,101629:0:0:0:0:
320,192,101629,1,0,0:0:0:0:
64,192,101629,1,0,0:0:0:0:
448,192,101629,128,0,101801:0:0:0:0:
192,192,101715,128,0,102060:0:0:0:0:
320,192,101801,128,0,101887:0:0:0:0:
64,192,101887,128,0,101974:0:0:0:0:
448,192,101974,1,0,0:0:0:0:
64,192,102060,128,0,102146:0:0:0:0:
320,192,102146,1,0,0:0:0:0:
448,192,102146,1,0,0:0:0:0:
192,192,102232,1,0,0:0:0:0:
448,192,102318,128,0,102405:0:0:0:0:
320,192,102318,1,0,0:0:0:0:
64,192,102318,128,0,102663:0:0:0:0:
192,192,102405,1,0,0:0:0:0:
320,192,102491,128,0,102577:0:0:0:0:
448,192,102577,1,0,0:0:0:0:
192,192,102663,128,0,102749:0:0:0:0:
64,192,102749,128,0,102836:0:0:0:0:
320,192,102836,1,0,0:0:0:0:
448,192,102836,1,0,0:0:0:0:
64,192,102922,128,0,103008:0:0:0:0:
192,192,103008,1,0,0:0:0:0:
320,192,103008,1,0,0:0:0:0:
448,192,103008,1,0,0:0:0:0:
192,192,103094,1,0,0:0:0:0:
448,192,103180,1,0,0:0:0:0:
448,192,103267,1,0,0:0:0:0:
320,192,103353,1,0,0:0:0:0:
320,192,103439,128,0,103525:0:0:0:0:
192,192,103525,1,0,0:0:0:0:
64,192,103525,1,0,0:0:0:0:
192,192,103611,1,0,0:0:0:0:
64,192,103698,128,0,103784:0:0:0:0:
448,192,103698,1,0,0:0:0:0:
320,192,103698,1,0,0:0:0:0:
448,192,103784,1,0,0:0:0:0:
192,192,103870,128,0,104042:0:0:0:0:
64,192,103956,128,0,104042:0:0:0:0:
448,192,104042,128,0,104129:0:0:0:0:
192,192,104215,1,0,0:0:0:0:
320,192,104215,1,0,0:0:0:0:
192,192,104301,128,0,104474:0:0:0:0:
320,192,104387,128,0,104474:0:0:0:0:
448,192,104387,128,0,104474:0:0:0:0:
64,192,104387,1,0,0:0:0:0:
320,192,104560,128,0,104646:0:0:0:0:
192,192,104646,1,0,0:0:0:0:
448,192,104732,1,0,0:0:0:0:
64,192,104818,128,0,104905:0:0:0:0:
192,192,104905,1,0,0:0:0:0:
320,192,104905,1,0,0:0:0:0:
320,192,104991,128,0,105163:0:0:0:0:
448,192,105077,128,0,105163:0:0:0:0:
64,192,105077,128,0,105163:0:0:0:0:
192,192,105077,1,0,0:0:0:0:
320,192,105249,128,0,105336:0:0:0:0:
192,192,105292,1,0,0:0:0:0:
64,192,105336,1,0,0:0:0:0:
192,192,105422,128,0,105508:0:0:0:0:
320,192,105422,1,0,0:0:0:0:
448,192,105508,1,0,0:0:0:0:
192,192,105594,1,0,0:0:0:0:
64,192,105594,1,0,0:0:0:0:
320,192,105680,128,0,105767:0:0:0:0:
64,192,105680,1,0,0:0:0:0:
448,192,105680,1,0,0:0:0:0:
192,192,105767,128,0,105939:0:0:0:0:
448,192,105939,128,0,106025:0:0:0:0:
320,192,105939,1,0,0:0:0:0:
192,192,106025,1,0,0:0:0:0:
64,192,106111,128,0,106284:0:0:0:0:
192,192,106198,128,0,106284:0:0:0:0:
320,192,106284,1,0,0:0:0:0:
448,192,106284,1,0,0:0:0:0:
320,192,106370,128,0,106542:0:0:0:0:
448,192,106456,128,0,106542:0:0:0:0:
64,192,106456,128,0,106542:0:0:0:0:
192,192,106456,1,0,0:0:0:0:
448,192,106629,128,0,106715:0:0:0:0:
320,192,106715,128,0,106801:0:0:0:0:
64,192,106801,1,0,0:0:0:0:
192,192,106801,128,0,106974:0:0:0:0:
64,192,106974,1,0,0:0:0:0:
192,192,107146,128,0,107405:0:0:0:0:
448,192,107146,128,0,107405:0:0:0:0:
320,192,107146,128,0,107405:0:0:0:0:
64,192,107318,128,0,107405:0:0:0:0:
320,192,107491,128,0,107577:0:0:0:0:
448,192,107577,1,0,0:0:0:0:
192,192,107663,128,0,107749:0:0:0:0:
64,192,107663,1,0,0:0:0:0:
320,192,107749,128,0,107922:0:0:0:0:
448,192,107836,128,0,107922:0:0:0:0:
192,192,107836,128,0,108008:0:0:0:0:
64,192,107836,128,0,108094:0:0:0:0:
320,192,108008,128,0,108094:0:0:0:0:
448,192,108094,128,0,108180:0:0:0:0:
192,192,108180,128,0,108267:0:0:0:0:
320,192,108267,128,0,108439:0:0:0:0:
192,192,108353,1,0,0:0:0:0:
64,192,108353,128,0,108439:0:0:0:0:
448,192,108439,128,0,108525:0:0:0:0:
320,192,108525,1,0,0:0:0:0:
192,192,108525,1,0,0:0:0:0:
64,192,108525,128,0,108870:0:0:0:0:
448,192,108611,128,0,108784:0:0:0:0:
192,192,108698,128,0,109042:0:0:0:0:
320,192,108784,128,0,108956:0:0:0:0:
448,192,108870,128,0,108956:0:0:0:0:
64,192,108956,128,0,109129:0:0:0:0:
448,192,109042,1,0,0:0:0:0:
320,192,109042,128,0,109129:0:0:0:0:
192,192,109129,128,0,109215:0:0:0:0:
448,192,109215,128,0,109560:0:0:0:0:
64,192,109215,1,0,0:0:0:0:
320,192,109215,1,0,0:0:0:0:
192,192,109301,128,0,109560:0:0:0:0:
320,192,109387,128,0,109474:0:0:0:0:
64,192,109474,128,0,109560:0:0:0:0:
320,192,109560,128,0,109732:0:0:0:0:
448,192,109646,128,0,109732:0:0:0:0:
64,192,109732,1,0,0:0:0:0:
192,192,109732,128,0,109818:0:0:0:0:
320,192,109818,128,0,109905:0:0:0:0:
192,192,109905,1,0,0:0:0:0:
448,192,109905,128,0,110077:0:0:0:0:
64,192,109905,128,0,110077:0:0:0:0:
192,192,110077,128,0,110249:0:0:0:0:
320,192,110163,1,0,0:0:0:0:
448,192,110249,128,0,110422:0:0:0:0:
64,192,110336,128,0,110422:0:0:0:0:
320,192,110422,1,0,0:0:0:0:
192,192,110422,1,0,0:0:0:0:
320,192,110508,128,0,110680:0:0:0:0:
64,192,110594,128,0,110680:0:0:0:0:
192,192,110594,128,0,110767:0:0:0:0:
448,192,110594,128,0,110939:0:0:0:0:
64,192,110767,1,0,0:0:0:0:
320,192,110853,1,0,0:0:0:0:
192,192,110939,1,0,0:0:0:0:
64,192,110939,1,0,0:0:0:0:
192,192,111025,128,0,111111:0:0:0:0:
320,192,111111,1,0,0:0:0:0:
448,192,111111,1,0,0:0:0:0:
448,192,111198,5,0,0:0:0:0:
192,192,111198,1,0,0:0:0:0:
64,192,111198,1,0,0:0:0:0:
320,192,111284,1,0,0:0:0:0:
192,192,111370,1,0,0:0:0:0:
64,192,111456,1,0,0:0:0:0:
448,192,111456,1,0,0:0:0:0:
320,192,111456,1,0,0:0:0:0:
192,192,111542,1,0,0:0:0:0:
448,192,111629,1,0,0:0:0:0:
320,192,111715,1,0,0:0:0:0:
192,192,111801,1,0,0:0:0:0:
64,192,111801,1,0,0:0:0:0:
320,192,111887,1,0,0:0:0:0:
448,192,111974,1,0,0:0:0:0:
64,192,111974,1,0,0:0:0:0:
192,192,111974,1,0,0:0:0:0:
448,192,112146,1,0,0:0:0:0:
320,192,112189,1,0,0:0:0:0:
192,192,112232,1,0,0:0:0:0:
320,192,112275,1,0,0:0:0:0:
64,192,112318,5,0,0:0:0:0:
192,192,112318,1,0,0:0:0:0:
64,192,112491,1,0,0:0:0:0:
192,192,112577,1,0,0:0:0:0:
448,192,112577,1,0,0:0:0:0:
448,192,112749,1,0,0:0:0:0:
320,192,112836,1,0,0:0:0:0:
64,192,112836,1,0,0:0:0:0:
192,192,112922,1,0,0:0:0:0:
320,192,113008,1,0,0:0:0:0:
64,192,113094,1,0,0:0:0:0:
448,192,113180,1,0,0:0:0:0:
320,192,113180,128,0,113353:0:0:0:0:
192,192,113180,128,0,113267:0:0:0:0:
448,192,113353,1,0,0:0:0:0:
192,192,113353,1,0,0:0:0:0:
64,192,113353,1,0,0:0:0:0:
64,192,113468,1,0,0:0:0:0:
192,192,113468,1,0,0:0:0:0:
448,192,113468,1,0,0:0:0:0:
448,192,113583,1,0,0:0:0:0:
192,192,113583,1,0,0:0:0:0:
64,192,113583,1,0,0:0:0:0:
320,192,113698,1,0,0:0:0:0:
64,192,113784,1,0,0:0:0:0:
320,192,113870,1,0,0:0:0:0:
192,192,113870,1,0,0:0:0:0:
64,192,113956,128,0,114042:0:0:0:0:
192,192,114042,1,0,0:0:0:0:
320,192,114042,1,0,0:0:0:0:
448,192,114042,1,0,0:0:0:0:
192,192,114129,1,0,0:0:0:0:
448,192,114215,1,0,0:0:0:0:
448,192,114301,1,0,0:0:0:0:
320,192,114387,1,0,0:0:0:0:
320,192,114474,128,0,114560:0:0:0:0:
192,192,114560,1,0,0:0:0:0:
64,192,114560,1,0,0:0:0:0:
192,192,114646,1,0,0:0:0:0:
64,192,114732,128,0,114818:0:0:0:0:
448,192,114732,1,0,0:0:0:0:
320,192,114732,1,0,0:0:0:0:
448,192,114818,1,0,0:0:0:0:
192,192,114905,128,0,115077:0:0:0:0:
64,192,114991,128,0,115077:0:0:0:0:
448,192,115077,128,0,115163:0:0:0:0:
192,192,115249,1,0,0:0:0:0:
320,192,115249,1,0,0:0:0:0:
192,192,115336,128,0,115508:0:0:0:0:
320,192,115422,128,0,115508:0:0:0:0:
448,192,115422,128,0,115508:0:0:0:0:
64,192,115422,1,0,0:0:0:0:
320,192,115594,128,0,115680:0:0:0:0:
192,192,115680,1,0,0:0:0:0:
448,192,115767,1,0,0:0:0:0:
64,192,115853,128,0,115939:0:0:0:0:
192,192,115939,1,0,0:0:0:0:
320,192,115939,1,0,0:0:0:0:
320,192,116025,128,0,116198:0:0:0:0:
448,192,116111,128,0,116198:0:0:0:0:
64,192,116111,128,0,116198:0:0:0:0:
192,192,116111,1,0,0:0:0:0:
320,192,116284,128,0,116370:0:0:0:0:
192,192,116327,1,0,0:0:0:0:
64,192,116370,1,0,0:0:0:0:
192,192,116456,128,0,116542:0:0:0:0:
320,192,116456,1,0,0:0:0:0:
448,192,116542,1,0,0:0:0:0:
192,192,116629,1,0,0:0:0:0:
64,192,116629,1,0,0:0:0:0:
320,192,116715,128,0,116801:0:0:0:0:
64,192,116715,1,0,0:0:0:0:
448,192,116715,1,0,0:0:0:0:
192,192,116801,128,0,116974:0:0:0:0:
448,192,116974,128,0,117060:0:0:0:0:
320,192,116974,1,0,0:0:0:0:
192,192,117060,1,0,0:0:0:0:
64,192,117146,128,0,117318:0:0:0:0:
192,192,117232,128,0,117318:0:0:0:0:
320,192,117318,1,0,0:0:0:0:
448,192,117318,1,0,0:0:0:0:
320,192,117405,128,0,117577:0:0:0:0:
448,192,117491,128,0,117577:0:0:0:0:
64,192,117491,128,0,117577:0:0:0:0:
192,192,117491,1,0,0:0:0:0:
448,192,117663,128,0,117836:0:0:0:0:
320,192,117749,128,0,117836:0:0:0:0:
192,192,117836,1,0,0:0:0:0:
64,192,117836,128,0,118008:0:0:0:0:
192,192,118008,1,0,0:0:0:0:
320,192,118008,1,0,0:0:0:0:
64,192,118180,1,0,0:0:0:0:
320,192,118180,1,0,0:0:0:0:
448,192,118180,1,0,0:0:0:0:
192,192,118267,1,0,0:0:0:0:
448,192,118353,1,0,0:0:0:0:
320,192,118410,1,0,0:0:0:0:
64,192,118468,1,0,0:0:0:0:
192,192,118525,1,0,0:0:0:0:
448,192,118525,1,0,0:0:0:0:
320,192,118611,1,0,0:0:0:0:
64,192,118698,1,0,0:0:0:0:
448,192,118784,1,0,0:0:0:0:
320,192,118870,1,0,0:0:0:0:
64,192,118870,1,0,0:0:0:0:
192,192,118956,1,0,0:0:0:0:
448,192,119042,1,0,0:0:0:0:
64,192,119129,1,0,0:0:0:0:
192,192,119215,1,0,0:0:0:0:
448,192,119215,1,0,0:0:0:0:
320,192,119301,1,0,0:0:0:0:
64,192,119387,1,0,0:0:0:0:
448,192,119474,1,0,0:0:0:0:
320,192,119560,1,0,0:0:0:0:
64,192,119560,1,0,0:0:0:0:
192,192,119646,1,0,0:0:0:0:
448,192,119732,1,0,0:0:0:0:
320,192,119790,1,0,0:0:0:0:
64,192,119847,1,0,0:0:0:0:
192,192,119905,1,0,0:0:0:0:
448,192,119905,1,0,0:0:0:0:
320,192,119991,1,0,0:0:0:0:
64,192,120077,1,0,0:0:0:0:
448,192,120163,1,0,0:0:0:0:
320,192,120249,1,0,0:0:0:0:
64,192,120249,1,0,0:0:0:0:
192,192,120336,1,0,0:0:0:0:
448,192,120422,1,0,0:0:0:0:
64,192,120508,1,0,0:0:0:0:
320,192,120594,1,0,0:0:0:0:
448,192,120594,1,0,0:0:0:0:
192,192,120680,1,0,0:0:0:0:
64,192,120767,1,0,0:0:0:0:
320,192,120767,1,0,0:0:0:0:
448,192,120853,1,0,0:0:0:0:
192,192,120939,1,0,0:0:0:0:
64,192,120939,1,0,0:0:0:0:
320,192,121025,1,0,0:0:0:0:
192,192,121111,1,0,0:0:0:0:
448,192,121111,1,0,0:0:0:0:
64,192,121198,1,0,0:0:0:0:
320,192,121284,1,0,0:0:0:0:
448,192,121284,1,0,0:0:0:0:
192,192,121327,1,0,0:0:0:0:
64,192,121370,1,0,0:0:0:0:
320,192,121413,1,0,0:0:0:0:
192,192,121456,1,0,0:0:0:0:
448,192,121499,1,0,0:0:0:0:
320,192,121542,1,0,0:0:0:0:
64,192,121586,1,0,0:0:0:0:
192,192,121629,1,0,0:0:0:0:
448,192,121672,1,0,0:0:0:0:
320,192,121715,1,0,0:0:0:0:
192,192,121758,1,0,0:0:0:0:
64,192,121801,1,0,0:0:0:0:
448,192,121844,1,0,0:0:0:0:
192,192,121887,1,0,0:0:0:0:
64,192,121930,1,0,0:0:0:0:
320,192,121974,1,0,0:0:0:0:
448,192,121974,1,0,0:0:0:0:
192,192,122146,128,0,122232:0:0:0:0:
448,192,122232,1,0,0:0:0:0:
192,192,122318,128,0,122405:0:0:0:0:
448,192,122405,1,0,0:0:0:0:
192,192,122491,128,0,122577:0:0:0:0:
448,192,122577,1,0,0:0:0:0:
192,192,122663,128,0,122749:0:0:0:0:
448,192,122749,1,0,0:0:0:0:
320,192,122836,1,0,0:0:0:0:
192,192,122922,1,0,0:0:0:0:
448,192,123008,1,0,0:0:0:0:
64,192,123065,1,0,0:0:0:0:
64,192,123152,1,0,0:0:0:0:
64,192,123267,1,0,0:0:0:0:
448,192,123353,5,0,0:0:0:0:
320,192,123353,1,0,0:0:0:0:
64,192,123525,1,0,0:0:0:0:
192,192,123611,1,0,0:0:0:0:
448,192,123611,1,0,0:0:0:0:
448,192,123784,1,0,0:0:0:0:
320,192,123870,1,0,0:0:0:0:
64,192,123870,1,0,0:0:0:0:
320,192,124042,1,0,0:0:0:0:
64,192,124129,1,0,0:0:0:0:
192,192,124129,1,0,0:0:0:0:
192,192,124301,1,0,0:0:0:0:
448,192,124387,1,0,0:0:0:0:
320,192,124387,1,0,0:0:0:0:
320,192,124560,1,0,0:0:0:0:
64,192,124560,1,0,0:0:0:0:
448,192,124646,1,0,0:0:0:0:
64,192,124646,1,0,0:0:0:0:
192,192,124732,1,0,0:0:0:0:
448,192,124732,1,0,0:0:0:0:
320,192,124905,1,0,0:0:0:0:
64,192,124991,1,0,0:0:0:0:
192,192,124991,1,0,0:0:0:0:
192,192,125163,1,0,0:0:0:0:
448,192,125249,1,0,0:0:0:0:
320,192,125249,1,0,0:0:0:0:
448,192,125422,1,0,0:0:0:0:
320,192,125508,1,0,0:0:0:0:
64,192,125508,1,0,0:0:0:0:
320,192,125680,1,0,0:0:0:0:
64,192,125767,1,0,0:0:0:0:
192,192,125767,1,0,0:0:0:0:
192,192,125939,1,0,0:0:0:0:
448,192,125939,1,0,0:0:0:0:
320,192,125982,1,0,0:0:0:0:
64,192,126025,1,0,0:0:0:0:
192,192,126068,1,0,0:0:0:0:
448,192,126111,1,0,0:0:0:0:
320,192,126111,1,0,0:0:0:0:
64,192,126284,1,0,0:0:0:0:
192,192,126370,1,0,0:0:0:0:
448,192,126370,1,0,0:0:0:0:
448,192,126542,1,0,0:0:0:0:
320,192,126629,1,0,0:0:0:0:
64,192,126629,1,0,0:0:0:0:
320,192,126801,1,0,0:0:0:0:
64,192,126887,1,0,0:0:0:0:
192,192,126887,1,0,0:0:0:0:
192,192,127060,1,0,0:0:0:0:
448,192,127146,1,0,0:0:0:0:
320,192,127146,1,0,0:0:0:0:
320,192,127318,1,0,0:0:0:0:
64,192,127318,1,0,0:0:0:0:
448,192,127405,1,0,0:0:0:0:
64,192,127405,1,0,0:0:0:0:
192,192,127491,1,0,0:0:0:0:
448,192,127491,1,0,0:0:0:0:
320,192,127663,1,0,0:0:0:0:
64,192,127749,1,0,0:0:0:0:
192,192,127749,1,0,0:0:0:0:
192,192,127922,1,0,0:0:0:0:
448,192,128008,1,0,0:0:0:0:
320,192,128008,1,0,0:0:0:0:
448,192,128180,1,0,0:0:0:0:
320,192,128267,1,0,0:0:0:0:
64,192,128267,1,0,0:0:0:0:
320,192,128439,1,0,0:0:0:0:
64,192,128525,1,0,0:0:0:0:
192,192,128525,1,0,0:0:0:0:
192,192,128698,1,0,0:0:0:0:
448,192,128698,1,0,0:0:0:0:
320,192,128741,1,0,0:0:0:0:
64,192,128784,1,0,0:0:0:0:
192,192,128827,1,0,0:0:0:0:
320,192,128870,1,0,0:0:0:0:
448,192,128870,1,0,0:0:0:0:
64,192,128956,1,0,0:0:0:0:
192,192,129042,1,0,0:0:0:0:
320,192,129129,1,0,0:0:0:0:
64,192,129215,1,0,0:0:0:0:
192,192,129215,1,0,0:0:0:0:
448,192,129301,1,0,0:0:0:0:
320,192,129387,1,0,0:0:0:0:
192,192,129474,1,0,0:0:0:0:
320,192,129560,1,0,0:0:0:0:
448,192,129560,1,0,0:0:0:0:
64,192,129646,1,0,0:0:0:0:
192,192,129732,1,0,0:0:0:0:
320,192,129818,1,0,0:0:0:0:
192,192,129905,1,0,0:0:0:0:
64,192,129905,1,0,0:0:0:0:
448,192,129991,1,0,0:0:0:0:
320,192,130077,1,0,0:0:0:0:
192,192,130163,1,0,0:0:0:0:
320,192,130249,1,0,0:0:0:0:
448,192,130249,1,0,0:0:0:0:
64,192,130336,1,0,0:0:0:0:
192,192,130422,1,0,0:0:0:0:
64,192,130508,1,0,0:0:0:0:
448,192,130594,1,0,0:0:0:0:
320,192,130594,1,0,0:0:0:0:
192,192,130680,1,0,0:0:0:0:
320,192,130767,1,0,0:0:0:0:
192,192,130853,1,0,0:0:0:0:
448,192,130939,1,0,0:0:0:0:
64,192,130939,1,0,0:0:0:0:
320,192,131025,1,0,0:0:0:0:
192,192,131111,1,0,0:0:0:0:
320,192,131198,1,0,0:0:0:0:
192,192,131284,1,0,0:0:0:0:
64,192,131284,1,0,0:0:0:0:
448,192,131370,1,0,0:0:0:0:
320,192,131456,1,0,0:0:0:0:
448,192,131542,1,0,0:0:0:0:
192,192,131629,1,0,0:0:0:0:
64,192,131629,1,0,0:0:0:0:
320,192,131715,1,0,0:0:0:0:
64,192,131801,1,0,0:0:0:0:
448,192,131801,1,0,0:0:0:0:
192,192,131887,1,0,0:0:0:0:
448,192,131974,1,0,0:0:0:0:
320,192,131974,1,0,0:0:0:0:
192,192,132060,1,0,0:0:0:0:
448,192,132146,1,0,0:0:0:0:
64,192,132146,1,0,0:0:0:0:
320,192,132232,1,0,0:0:0:0:
192,192,132318,1,0,0:0:0:0:
64,192,132318,1,0,0:0:0:0:
448,192,132361,1,0,0:0:0:0:
320,192,132405,1,0,0:0:0:0:
64,192,132448,1,0,0:0:0:0:
192,192,132491,1,0,0:0:0:0:
448,192,132534,1,0,0:0:0:0:
64,192,132577,1,0,0:0:0:0:
320,192,132620,1,0,0:0:0:0:
192,192,132663,1,0,0:0:0:0:
448,192,132706,1,0,0:0:0:0:
320,192,132749,1,0,0:0:0:0:
192,192,132792,1,0,0:0:0:0:
448,192,132836,1,0,0:0:0:0:
64,192,132879,1,0,0:0:0:0:
320,192,132922,1,0,0:0:0:0:
448,192,132965,1,0,0:0:0:0:
64,192,133008,1,0,0:0:0:0:
192,192,133008,1,0,0:0:0:0:
448,192,134042,1,0,0:0:0:0:
448,192,134129,1,0,0:0:0:0:
320,192,134215,1,0,0:0:0:0:
192,192,134301,1,0,0:0:0:0:
448,192,134387,128,0,134560:0:0:0:0:
320,192,134387,128,0,134603:0:0:0:0:
64,192,134387,128,0,134646:0:0:0:0:
448,192,134646,128,0,134905:0:0:0:0:
320,192,134689,128,0,134905:0:0:0:0:
64,192,134732,128,0,134905:0:0:0:0:
192,192,134818,128,0,134905:0:0:0:0:
64,192,134991,1,0,0:0:0:0:
320,192,135034,1,0,0:0:0:0:
192,192,135077,1,0,0:0:0:0:
64,192,135077,1,0,0:0:0:0:
448,192,135077,1,0,0:0:0:0:
320,192,135163,1,0,0:0:0:0:
192,192,135249,128,0,135336:0:0:0:0:
448,192,135292,1,0,0:0:0:0:
320,192,135336,1,0,0:0:0:0:
64,192,135422,128,0,135508:0:0:0:0:
192,192,135451,1,0,0:0:0:0:
448,192,135594,128,0,135680:0:0:0:0:
320,192,135623,1,0,0:0:0:0:
192,192,135767,1,0,0:0:0:0:
64,192,135767,1,0,0:0:0:0:
320,192,135853,1,0,0:0:0:0:
192,192,135939,128,0,136025:0:0:0:0:
448,192,135982,1,0,0:0:0:0:
320,192,136025,1,0,0:0:0:0:
192,192,136111,128,0,136198:0:0:0:0:
64,192,136140,1,0,0:0:0:0:
64,192,136284,128,0,136370:0:0:0:0:
448,192,136313,1,0,0:0:0:0:
192,192,136456,1,0,0:0:0:0:
320,192,136456,128,0,136801:0:0:0:0:
448,192,136456,128,0,136629:0:0:0:0:
192,192,136629,128,0,136801:0:0:0:0:
64,192,136801,128,0,136887:0:0:0:0:
448,192,136801,128,0,136887:0:0:0:0:
448,192,136974,128,0,137146:0:0:0:0:
64,192,136974,128,0,137146:0:0:0:0:
320,192,137146,1,0,0:0:0:0:
192,192,137146,1,0,0:0:0:0:
448,192,137318,128,0,137491:0:0:0:0:
320,192,137376,128,0,137491:0:0:0:0:
192,192,137433,128,0,137491:0:0:0:0:
64,192,137491,128,0,137577:0:0:0:0:
448,192,137577,1,0,0:0:0:0:
192,192,137663,128,0,137721:0:0:0:0:
64,192,137836,1,0,0:0:0:0:
320,192,137836,1,0,0:0:0:0:
448,192,137836,1,0,0:0:0:0:
192,192,138008,128,0,138065:0:0:0:0:
448,192,138180,128,0,138267:0:0:0:0:
320,192,138224,128,0,138267:0:0:0:0:
64,192,138267,128,0,138353:0:0:0:0:
192,192,138353,128,0,138410:0:0:0:0:
448,192,138439,128,0,138496:0:0:0:0:
64,192,138525,1,0,0:0:0:0:
192,192,138525,1,0,0:0:0:0:
448,192,138611,128,0,138669:0:0:0:0:
192,192,138698,128,0,138755:0:0:0:0:
64,192,138784,1,0,0:0:0:0:
448,192,138870,128,0,139129:0:0:0:0:
320,192,138956,128,0,139129:0:0:0:0:
192,192,139042,128,0,139129:0:0:0:0:
64,192,139129,128,0,139215:0:0:0:0:
192,192,139215,1,0,0:0:0:0:
320,192,139215,1,0,0:0:0:0:
448,192,139215,1,0,0:0:0:0:
448,192,139387,128,0,139560:0:0:0:0:
64,192,139474,1,0,0:0:0:0:
64,192,139560,128,0,139732:0:0:0:0:
192,192,139588,1,0,0:0:0:0:
320,192,139617,1,0,0:0:0:0:
448,192,139646,1,0,0:0:0:0:
448,192,139732,128,0,139818:0:0:0:0:
64,192,139818,128,0,139905:0:0:0:0:
192,192,139905,128,0,140077:0:0:0:0:
448,192,139905,128,0,140163:0:0:0:0:
320,192,139905,128,0,140120:0:0:0:0:
192,192,140163,128,0,140422:0:0:0:0:
320,192,140206,128,0,140422:0:0:0:0:
448,192,140249,128,0,140422:0:0:0:0:
64,192,140336,128,0,140422:0:0:0:0:
320,192,140508,1,0,0:0:0:0:
192,192,140551,1,0,0:0:0:0:
64,192,140594,1,0,0:0:0:0:
448,192,140594,1,0,0:0:0:0:
320,192,140594,1,0,0:0:0:0:
192,192,140767,1,0,0:0:0:0:
448,192,140810,1,0,0:0:0:0:
192,192,140853,128,0,140939:0:0:0:0:
64,192,140939,128,0,141025:0:0:0:0:
448,192,140968,1,0,0:0:0:0:
320,192,141111,128,0,141198:0:0:0:0:
192,192,141140,1,0,0:0:0:0:
320,192,141284,1,0,0:0:0:0:
448,192,141284,1,0,0:0:0:0:
448,192,141370,128,0,141456:0:0:0:0:
192,192,141456,128,0,141542:0:0:0:0:
320,192,141499,1,0,0:0:0:0:
64,192,141542,1,0,0:0:0:0:
448,192,141629,128,0,141715:0:0:0:0:
320,192,141657,1,0,0:0:0:0:
192,192,141801,128,0,141887:0:0:0:0:
64,192,141830,1,0,0:0:0:0:
448,192,141974,1,0,0:0:0:0:
64,192,141974,1,0,0:0:0:0:
320,192,141974,128,0,142318:0:0:0:0:
448,192,142318,128,0,142405:0:0:0:0:
64,192,142318,128,0,142405:0:0:0:0:
64,192,142491,128,0,142663:0:0:0:0:
448,192,142491,128,0,142663:0:0:0:0:
320,192,142663,1,0,0:0:0:0:
192,192,142663,1,0,0:0:0:0:
192,192,142749,1,0,0:0:0:0:
64,192,142792,1,0,0:0:0:0:
448,192,142836,1,0,0:0:0:0:
320,192,142879,1,0,0:0:0:0:
192,192,142922,1,0,0:0:0:0:
64,192,142965,1,0,0:0:0:0:
448,192,143008,1,0,0:0:0:0:
320,192,143065,1,0,0:0:0:0:
448,192,143123,1,0,0:0:0:0:
320,192,143180,1,0,0:0:0:0:
192,192,143238,1,0,0:0:0:0:
64,192,143295,1,0,0:0:0:0:
320,192,143353,1,0,0:0:0:0:
192,192,143353,1,0,0:0:0:0:
448,192,143353,1,0,0:0:0:0:
64,192,143525,1,0,0:0:0:0:
320,192,143611,1,0,0:0:0:0:
192,192,143698,1,0,0:0:0:0:
64,192,143784,1,0,0:0:0:0:
192,192,143870,1,0,0:0:0:0:
320,192,143956,1,0,0:0:0:0:
192,192,144042,1,0,0:0:0:0:
64,192,144042,1,0,0:0:0:0:
448,192,144215,128,0,144301:0:0:0:0:
320,192,144244,128,0,144301:0:0:0:0:
448,192,144387,128,0,144474:0:0:0:0:
192,192,144416,128,0,144474:0:0:0:0:
320,192,144560,128,0,144646:0:0:0:0:
192,192,144588,128,0,144646:0:0:0:0:
448,192,144732,1,0,0:0:0:0:
320,192,144732,128,0,144818:0:0:0:0:
64,192,144732,128,0,144818:0:0:0:0:
192,192,144905,128,0,144991:0:0:0:0:
64,192,144933,128,0,144991:0:0:0:0:
192,192,145077,128,0,145163:0:0:0:0:
320,192,145120,128,0,145249:0:0:0:0:
448,192,145163,128,0,145249:0:0:0:0:
192,192,145249,128,0,145422:0:0:0:0:
448,192,145422,128,0,145594:0:0:0:0:
320,192,145422,128,0,145637:0:0:0:0:
64,192,145422,128,0,145680:0:0:0:0:
448,192,145680,128,0,145939:0:0:0:0:
320,192,145724,128,0,145939:0:0:0:0:
64,192,145767,128,0,145939:0:0:0:0:
192,192,145853,128,0,145939:0:0:0:0:
64,192,146025,1,0,0:0:0:0:
320,192,146068,1,0,0:0:0:0:
192,192,146111,1,0,0:0:0:0:
64,192,146111,1,0,0:0:0:0:
448,192,146111,1,0,0:0:0:0:
320,192,146198,1,0,0:0:0:0:
192,192,146284,128,0,146370:0:0:0:0:
448,192,146327,1,0,0:0:0:0:
320,192,146370,1,0,0:0:0:0:
64,192,146456,128,0,146542:0:0:0:0:
192,192,146485,1,0,0:0:0:0:
448,192,146629,128,0,146715:0:0:0:0:
320,192,146657,1,0,0:0:0:0:
192,192,146801,1,0,0:0:0:0:
64,192,146801,1,0,0:0:0:0:
320,192,146887,1,0,0:0:0:0:
192,192,146974,128,0,147060:0:0:0:0:
448,192,147017,1,0,0:0:0:0:
320,192,147060,1,0,0:0:0:0:
192,192,147146,128,0,147232:0:0:0:0:
64,192,147175,1,0,0:0:0:0:
64,192,147318,128,0,147405:0:0:0:0:
448,192,147347,1,0,0:0:0:0:
192,192,147491,1,0,0:0:0:0:
320,192,147491,128,0,147836:0:0:0:0:
448,192,147491,128,0,147663:0:0:0:0:
192,192,147663,128,0,147836:0:0:0:0:
64,192,147836,128,0,147922:0:0:0:0:
448,192,147836,128,0,147922:0:0:0:0:
448,192,148008,128,0,148180:0:0:0:0:
64,192,148008,128,0,148180:0:0:0:0:
320,192,148180,1,0,0:0:0:0:
192,192,148180,1,0,0:0:0:0:
448,192,148353,128,0,148525:0:0:0:0:
320,192,148410,128,0,148525:0:0:0:0:
192,192,148468,128,0,148525:0:0:0:0:
64,192,148525,128,0,148611:0:0:0:0:
448,192,148611,1,0,0:0:0:0:
192,192,148698,128,0,148755:0:0:0:0:
64,192,148870,1,0,0:0:0:0:
320,192,148870,1,0,0:0:0:0:
448,192,148870,1,0,0:0:0:0:
192,192,149042,128,0,149100:0:0:0:0:
448,192,149215,128,0,149301:0:0:0:0:
320,192,149258,128,0,149301:0:0:0:0:
64,192,149301,128,0,149387:0:0:0:0:
192,192,149387,128,0,149445:0:0:0:0:
448,192,149474,128,0,149531:0:0:0:0:
64,192,149560,1,0,0:0:0:0:
192,192,149560,1,0,0:0:0:0:
448,192,149646,128,0,149703:0:0:0:0:
192,192,149732,128,0,149790:0:0:0:0:
64,192,149818,1,0,0:0:0:0:
448,192,149905,128,0,150163:0:0:0:0:
320,192,149991,128,0,150163:0:0:0:0:
192,192,150077,128,0,150163:0:0:0:0:
64,192,150163,128,0,150249:0:0:0:0:
192,192,150249,1,0,0:0:0:0:
320,192,150249,1,0,0:0:0:0:
448,192,150249,1,0,0:0:0:0:
448,192,150422,128,0,150594:0:0:0:0:
64,192,150465,1,0,0:0:0:0:
64,192,150551,128,0,150767:0:0:0:0:
192,192,150594,1,0,0:0:0:0:
320,192,150637,1,0,0:0:0:0:
448,192,150680,1,0,0:0:0:0:
448,192,150767,128,0,150853:0:0:0:0:
64,192,150853,128,0,150939:0:0:0:0:
192,192,150939,128,0,151198:0:0:0:0:
320,192,150939,128,0,151198:0:0:0:0:
448,192,150939,128,0,151198:0:0:0:0:
64,192,151284,128,0,151370:0:0:0:0:
320,192,151327,1,0,0:0:0:0:
448,192,151370,128,0,151629:0:0:0:0:
64,192,151456,1,0,0:0:0:0:
192,192,151456,1,0,0:0:0:0:
320,192,151456,1,0,0:0:0:0:
64,192,151629,1,0,0:0:0:0:
64,192,151715,1,0,0:0:0:0:
320,192,151801,1,0,0:0:0:0:
448,192,151801,1,0,0:0:0:0:
320,192,151887,1,0,0:0:0:0:
64,192,151974,1,0,0:0:0:0:
192,192,151974,1,0,0:0:0:0:
448,192,151974,1,0,0:0:0:0:
64,192,152060,1,0,0:0:0:0:
320,192,152146,1,0,0:0:0:0:
320,192,152232,1,0,0:0:0:0:
192,192,152318,1,0,0:0:0:0:
64,192,152318,1,0,0:0:0:0:
448,192,152405,1,0,0:0:0:0:
320,192,152448,1,0,0:0:0:0:
192,192,152491,1,0,0:0:0:0:
448,192,152663,128,0,152749:0:0:0:0:
192,192,152706,1,0,0:0:0:0:
64,192,152749,128,0,153008:0:0:0:0:
192,192,152836,1,0,0:0:0:0:
320,192,152836,1,0,0:0:0:0:
448,192,152836,1,0,0:0:0:0:
448,192,153008,1,0,0:0:0:0:
448,192,153094,1,0,0:0:0:0:
192,192,153180,1,0,0:0:0:0:
64,192,153180,1,0,0:0:0:0:
192,192,153267,1,0,0:0:0:0:
448,192,153353,1,0,0:0:0:0:
64,192,153353,1,0,0:0:0:0:
320,192,153353,1,0,0:0:0:0:
448,192,153439,1,0,0:0:0:0:
192,192,153525,1,0,0:0:0:0:
192,192,153611,1,0,0:0:0:0:
64,192,153698,128,0,153870:0:0:0:0:
320,192,153698,128,0,153784:0:0:0:0:
448,192,153698,128,0,153870:0:0:0:0:
320,192,153870,1,0,0:0:0:0:
192,192,153870,1,0,0:0:0:0:
448,192,153956,1,0,0:0:0:0:
192,192,154042,1,0,0:0:0:0:
64,192,154042,1,0,0:0:0:0:
448,192,154129,1,0,0:0:0:0:
320,192,154215,1,0,0:0:0:0:
192,192,154215,1,0,0:0:0:0:
448,192,154301,1,0,0:0:0:0:
64,192,154387,1,0,0:0:0:0:
192,192,154387,1,0,0:0:0:0:
64,192,154474,1,0,0:0:0:0:
320,192,154560,1,0,0:0:0:0:
448,192,154560,1,0,0:0:0:0:
320,192,154646,1,0,0:0:0:0:
64,192,154732,1,0,0:0:0:0:
192,192,154732,1,0,0:0:0:0:
64,192,154818,1,0,0:0:0:0:
320,192,154905,1,0,0:0:0:0:
448,192,154905,1,0,0:0:0:0:
320,192,154991,1,0,0:0:0:0:
64,192,155077,128,0,155221:0:0:0:0:
448,192,155077,128,0,155221:0:0:0:0:
192,192,155077,128,0,155221:0:0:0:0:
64,192,155307,128,0,155451:0:0:0:0:
192,192,155307,128,0,155451:0:0:0:0:
448,192,155307,128,0,155451:0:0:0:0:
192,192,155537,128,0,155680:0:0:0:0:
448,192,155537,128,0,155767:0:0:0:0:
64,192,155537,128,0,155767:0:0:0:0:
192,192,155767,1,0,0:0:0:0:
320,192,155767,1,0,0:0:0:0:
448,192,156111,1,0,0:0:0:0:
448,192,156198,1,0,0:0:0:0:
320,192,156284,1,0,0:0:0:0:
192,192,156370,1,0,0:0:0:0:
64,192,156456,128,0,156715:0:0:0:0:
320,192,156456,128,0,156715:0:0:0:0:
448,192,156456,128,0,156715:0:0:0:0:
64,192,156801,1,0,0:0:0:0:
448,192,156801,1,0,0:0:0:0:
64,192,156887,128,0,156974:0:0:0:0:
448,192,156887,128,0,156974:0:0:0:0:
64,192,157146,1,0,0:0:0:0:
192,192,157146,1,0,0:0:0:0:
448,192,157146,1,0,0:0:0:0:
320,192,157232,128,0,157318:0:0:0:0:
192,192,157232,128,0,157318:0:0:0:0:
64,192,157491,1,0,0:0:0:0:
448,192,157491,1,0,0:0:0:0:
448,192,157577,128,0,157663:0:0:0:0:
64,192,157577,128,0,157663:0:0:0:0:
320,192,157749,1,0,0:0:0:0:
192,192,157836,128,0,158008:0:0:0:0:
64,192,157836,128,0,158008:0:0:0:0:
320,192,158008,1,0,0:0:0:0:
448,192,158180,1,0,0:0:0:0:
64,192,158180,1,0,0:0:0:0:
448,192,158267,128,0,158353:0:0:0:0:
64,192,158267,128,0,158353:0:0:0:0:
320,192,158439,1,0,0:0:0:0:
448,192,158525,128,0,158611:0:0:0:0:
64,192,158525,1,0,0:0:0:0:
192,192,158525,128,0,158611:0:0:0:0:
192,192,158698,1,0,0:0:0:0:
448,192,158698,1,0,0:0:0:0:
320,192,158870,1,0,0:0:0:0:
64,192,158870,1,0,0:0:0:0:
448,192,158956,1,0,0:0:0:0:
448,192,159042,1,0,0:0:0:0:
192,192,159042,1,0,0:0:0:0:
64,192,159129,1,0,0:0:0:0:
192,192,159215,1,0,0:0:0:0:
64,192,159215,1,0,0:0:0:0:
448,192,159387,128,0,159560:0:0:0:0:
320,192,159430,128,0,159517:0:0:0:0:
192,192,159474,128,0,159732:0:0:0:0:
64,192,159560,128,0,159646:0:0:0:0:
320,192,159603,128,0,159732:0:0:0:0:
448,192,159646,128,0,159732:0:0:0:0:
64,192,159732,1,0,0:0:0:0:
320,192,159818,1,0,0:0:0:0:
192,192,159905,1,0,0:0:0:0:
64,192,159905,1,0,0:0:0:0:
448,192,159905,1,0,0:0:0:0:
320,192,159991,1,0,0:0:0:0:
448,192,160077,1,0,0:0:0:0:
448,192,160249,128,0,160422:0:0:0:0:
320,192,160292,128,0,160422:0:0:0:0:
64,192,160336,128,0,160422:0:0:0:0:
192,192,160422,1,0,0:0:0:0:
320,192,160508,1,0,0:0:0:0:
64,192,160594,1,0,0:0:0:0:
192,192,160594,1,0,0:0:0:0:
448,192,160680,1,0,0:0:0:0:
64,192,160767,1,0,0:0:0:0:
64,192,160939,128,0,161111:0:0:0:0:
192,192,160982,128,0,161111:0:0:0:0:
448,192,161025,128,0,161111:0:0:0:0:
320,192,161111,1,0,0:0:0:0:
192,192,161198,1,0,0:0:0:0:
320,192,161284,1,0,0:0:0:0:
448,192,161284,1,0,0:0:0:0:
64,192,161284,1,0,0:0:0:0:
448,192,161456,128,0,161629:0:0:0:0:
64,192,161542,1,0,0:0:0:0:
64,192,161629,128,0,161801:0:0:0:0:
192,192,161657,1,0,0:0:0:0:
320,192,161686,1,0,0:0:0:0:
448,192,161715,1,0,0:0:0:0:
448,192,161801,128,0,161887:0:0:0:0:
64,192,161887,128,0,161974:0:0:0:0:
192,192,161974,128,0,162232:0:0:0:0:
320,192,161974,128,0,162232:0:0:0:0:
448,192,161974,128,0,162232:0:0:0:0:
64,192,162318,1,0,0:0:0:0:
448,192,162318,1,0,0:0:0:0:
64,192,162405,128,0,162491:0:0:0:0:
448,192,162405,128,0,162491:0:0:0:0:
64,192,162663,1,0,0:0:0:0:
192,192,162663,1,0,0:0:0:0:
448,192,162663,1,0,0:0:0:0:
320,192,162749,128,0,162836:0:0:0:0:
192,192,162749,128,0,162836:0:0:0:0:
64,192,163008,1,0,0:0:0:0:
448,192,163008,1,0,0:0:0:0:
448,192,163094,128,0,163180:0:0:0:0:
64,192,163094,128,0,163180:0:0:0:0:
320,192,163267,1,0,0:0:0:0:
192,192,163353,128,0,163525:0:0:0:0:
64,192,163353,128,0,163525:0:0:0:0:
448,192,163525,1,0,0:0:0:0:
320,192,163611,1,0,0:0:0:0:
192,192,163698,1,0,0:0:0:0:
64,192,163755,1,0,0:0:0:0:
192,192,163813,1,0,0:0:0:0:
448,192,163870,1,0,0:0:0:0:
64,192,163913,1,0,0:0:0:0:
320,192,163956,1,0,0:0:0:0:
192,192,163999,1,0,0:0:0:0:
64,192,164042,1,0,0:0:0:0:
320,192,164042,1,0,0:0:0:0:
448,192,164042,1,0,0:0:0:0:
192,192,164215,128,0,164301:0:0:0:0:
448,192,164215,128,0,164301:0:0:0:0:
448,192,164387,1,0,0:0:0:0:
192,192,164387,1,0,0:0:0:0:
448,192,164474,1,0,0:0:0:0:
320,192,164560,1,0,0:0:0:0:
64,192,164560,1,0,0:0:0:0:
64,192,164646,1,0,0:0:0:0:
192,192,164732,1,0,0:0:0:0:
320,192,164732,1,0,0:0:0:0:
448,192,164790,1,0,0:0:0:0:
320,192,164847,1,0,0:0:0:0:
192,192,164905,1,0,0:0:0:0:
64,192,164962,1,0,0:0:0:0:
192,192,165019,1,0,0:0:0:0:
448,192,165077,1,0,0:0:0:0:
320,192,165134,1,0,0:0:0:0:
448,192,165192,1,0,0:0:0:0:
320,192,165249,1,0,0:0:0:0:
192,192,165307,1,0,0:0:0:0:
64,192,165364,1,0,0:0:0:0:
192,192,165422,1,0,0:0:0:0:
320,192,165422,1,0,0:0:0:0:
448,192,165422,1,0,0:0:0:0:
64,192,165594,1,0,0:0:0:0:
320,192,165680,1,0,0:0:0:0:
192,192,165767,1,0,0:0:0:0:
64,192,165853,1,0,0:0:0:0:
192,192,165939,1,0,0:0:0:0:
320,192,166025,1,0,0:0:0:0:
192,192,166111,1,0,0:0:0:0:
64,192,166111,1,0,0:0:0:0:
448,192,166284,128,0,166370:0:0:0:0:
320,192,166313,128,0,166370:0:0:0:0:
448,192,166456,128,0,166542:0:0:0:0:
192,192,166485,128,0,166542:0:0:0:0:
320,192,166629,128,0,166715:0:0:0:0:
192,192,166657,128,0,166715:0:0:0:0:
448,192,166801,1,0,0:0:0:0:
64,192,166801,1,0,0:0:0:0:
320,192,166801,128,0,166887:0:0:0:0:
64,192,166887,128,0,166974:0:0:0:0:
192,192,166974,128,0,167060:0:0:0:0:
64,192,167060,128,0,167146:0:0:0:0:
320,192,167146,128,0,167232:0:0:0:0:
64,192,167232,128,0,167318:0:0:0:0:
192,192,167318,128,0,167491:0:0:0:0:
64,192,167491,128,0,167749:0:0:0:0:
320,192,167491,128,0,167749:0:0:0:0:
448,192,167491,128,0,167749:0:0:0:0:
64,192,167836,1,0,0:0:0:0:
448,192,167836,1,0,0:0:0:0:
320,192,167836,1,0,0:0:0:0:
64,192,167922,128,0,168008:0:0:0:0:
448,192,167922,128,0,168008:0:0:0:0:
320,192,168180,1,0,0:0:0:0:
448,192,168180,1,0,0:0:0:0:
320,192,168267,128,0,168353:0:0:0:0:
448,192,168267,128,0,168353:0:0:0:0:
64,192,168353,1,0,0:0:0:0:
192,192,168353,1,0,0:0:0:0:
64,192,168525,1,0,0:0:0:0:
448,192,168525,1,0,0:0:0:0:
192,192,168525,1,0,0:0:0:0:
448,192,168611,128,0,168698:0:0:0:0:
64,192,168611,128,0,168698:0:0:0:0:
320,192,168784,1,0,0:0:0:0:
192,192,168870,1,0,0:0:0:0:
64,192,168870,1,0,0:0:0:0:
64,192,168956,128,0,169042:0:0:0:0:
192,192,168956,128,0,169042:0:0:0:0:
320,192,169042,1,0,0:0:0:0:
448,192,169042,1,0,0:0:0:0:
448,192,169215,1,0,0:0:0:0:
64,192,169215,1,0,0:0:0:0:
192,192,169215,1,0,0:0:0:0:
448,192,169301,128,0,169387:0:0:0:0:
64,192,169301,128,0,169387:0:0:0:0:
320,192,169474,1,0,0:0:0:0:
192,192,169560,1,0,0:0:0:0:
448,192,169560,1,0,0:0:0:0:
448,192,169646,128,0,169732:0:0:0:0:
192,192,169646,128,0,169732:0:0:0:0:
320,192,169732,1,0,0:0:0:0:
64,192,169732,1,0,0:0:0:0:
320,192,169905,1,0,0:0:0:0:
64,192,169905,1,0,0:0:0:0:
192,192,169905,1,0,0:0:0:0:
448,192,169991,1,0,0:0:0:0:
448,192,170077,1,0,0:0:0:0:
192,192,170077,1,0,0:0:0:0:
64,192,170163,1,0,0:0:0:0:
64,192,170249,1,0,0:0:0:0:
320,192,170249,1,0,0:0:0:0:
448,192,170422,128,0,170508:0:0:0:0:
320,192,170465,128,0,170508:0:0:0:0:
192,192,170508,128,0,170594:0:0:0:0:
64,192,170594,128,0,170680:0:0:0:0:
320,192,170594,128,0,170724:0:0:0:0:
448,192,170594,128,0,170767:0:0:0:0:
64,192,170767,1,0,0:0:0:0:
320,192,170853,1,0,0:0:0:0:
64,192,170939,1,0,0:0:0:0:
320,192,171025,1,0,0:0:0:0:
192,192,171111,1,0,0:0:0:0:
64,192,171111,1,0,0:0:0:0:
448,192,171284,128,0,171428:0:0:0:0:
192,192,171284,128,0,171370:0:0:0:0:
320,192,171284,128,0,171399:0:0:0:0:
64,192,171370,128,0,171456:0:0:0:0:
192,192,171456,1,0,0:0:0:0:
448,192,171542,1,0,0:0:0:0:
192,192,171629,1,0,0:0:0:0:
448,192,171715,1,0,0:0:0:0:
192,192,171801,1,0,0:0:0:0:
64,192,171801,1,0,0:0:0:0:
64,192,171974,128,0,172117:0:0:0:0:
320,192,171974,128,0,172060:0:0:0:0:
192,192,171974,128,0,172088:0:0:0:0:
448,192,172060,128,0,172146:0:0:0:0:
320,192,172146,1,0,0:0:0:0:
192,192,172232,1,0,0:0:0:0:
64,192,172318,1,0,0:0:0:0:
320,192,172491,1,0,0:0:0:0:
448,192,172491,128,0,172577:0:0:0:0:
64,192,172534,1,0,0:0:0:0:
64,192,172620,128,0,173008:0:0:0:0:
192,192,172663,128,0,172836:0:0:0:0:
320,192,172663,128,0,172749:0:0:0:0:
448,192,172663,128,0,172922:0:0:0:0:
320,192,172836,1,0,0:0:0:0:
192,192,172922,1,0,0:0:0:0:
448,192,173008,1,0,0:0:0:0:
320,192,173008,1,0,0:0:0:0:
320,192,173180,1,0,0:0:0:0:
448,192,173180,1,0,0:0:0:0:
448,192,173353,1,0,0:0:0:0:
192,192,173353,1,0,0:0:0:0:
64,192,173353,1,0,0:0:0:0:
320,192,173439,1,0,0:0:0:0:
64,192,173525,1,0,0:0:0:0:
192,192,173583,1,0,0:0:0:0:
448,192,173640,1,0,0:0:0:0:
320,192,173698,1,0,0:0:0:0:
64,192,173698,1,0,0:0:0:0:
192,192,173784,1,0,0:0:0:0:
320,192,173784,1,0,0:0:0:0:
448,192,173870,1,0,0:0:0:0:
64,192,173956,1,0,0:0:0:0:
192,192,174042,1,0,0:0:0:0:
448,192,174042,1,0,0:0:0:0:
320,192,174129,1,0,0:0:0:0:
192,192,174129,1,0,0:0:0:0:
64,192,174215,1,0,0:0:0:0:
448,192,174301,1,0,0:0:0:0:
320,192,174387,1,0,0:0:0:0:
64,192,174387,1,0,0:0:0:0:
192,192,174474,1,0,0:0:0:0:
320,192,174474,1,0,0:0:0:0:
448,192,174560,1,0,0:0:0:0:
64,192,174646,1,0,0:0:0:0:
192,192,174732,1,0,0:0:0:0:
448,192,174732,1,0,0:0:0:0:
320,192,174775,1,0,0:0:0:0:
64,192,174818,1,0,0:0:0:0:
192,192,174861,1,0,0:0:0:0:
448,192,174905,1,0,0:0:0:0:
320,192,174962,1,0,0:0:0:0:
64,192,175019,1,0,0:0:0:0:
192,192,175077,1,0,0:0:0:0:
448,192,175077,1,0,0:0:0:0:
320,192,175163,1,0,0:0:0:0:
192,192,175163,1,0,0:0:0:0:
64,192,175249,1,0,0:0:0:0:
448,192,175336,1,0,0:0:0:0:
320,192,175422,1,0,0:0:0:0:
64,192,175422,1,0,0:0:0:0:
320,192,175508,1,0,0:0:0:0:
192,192,175508,1,0,0:0:0:0:
64,192,175594,1,0,0:0:0:0:
448,192,175680,1,0,0:0:0:0:
192,192,175767,1,0,0:0:0:0:
64,192,175767,1,0,0:0:0:0:
320,192,175853,1,0,0:0:0:0:
448,192,175939,1,0,0:0:0:0:
192,192,175939,1,0,0:0:0:0:
64,192,176025,1,0,0:0:0:0:
320,192,176111,1,0,0:0:0:0:
448,192,176111,1,0,0:0:0:0:
192,192,176198,1,0,0:0:0:0:
320,192,176284,1,0,0:0:0:0:
64,192,176284,1,0,0:0:0:0:
448,192,176370,1,0,0:0:0:0:
192,192,176456,1,0,0:0:0:0:
64,192,176456,1,0,0:0:0:0:
320,192,176499,1,0,0:0:0:0:
448,192,176542,1,0,0:0:0:0:
192,192,176586,1,0,0:0:0:0:
320,192,176629,1,0,0:0:0:0:
64,192,176672,1,0,0:0:0:0:
192,192,176715,1,0,0:0:0:0:
448,192,176758,1,0,0:0:0:0:
320,192,176801,1,0,0:0:0:0:
64,192,176844,1,0,0:0:0:0:
192,192,176887,1,0,0:0:0:0:
320,192,176930,1,0,0:0:0:0:
448,192,176974,1,0,0:0:0:0:
64,192,177017,5,0,0:0:0:0:
320,192,177060,1,0,0:0:0:0:
448,192,177103,1,0,0:0:0:0:
192,192,177146,1,0,0:0:0:0:
64,192,177146,1,0,0:0:0:0:
320,192,177232,1,0,0:0:0:0:
192,192,177318,1,0,0:0:0:0:
64,192,177405,1,0,0:0:0:0:
320,192,177491,128,0,177577:0:0:0:0:
448,192,177577,1,0,0:0:0:0:
320,192,177663,128,0,177749:0:0:0:0:
192,192,177749,1,0,0:0:0:0:
320,192,177836,128,0,177922:0:0:0:0:
64,192,177922,1,0,0:0:0:0:
320,192,178008,128,0,178094:0:0:0:0:
448,192,178094,1,0,0:0:0:0:
192,192,178180,5,0,0:0:0:0:
192,192,178288,1,0,0:0:0:0:
64,192,178382,1,0,0:0:0:0:
64,192,178482,1,0,0:0:0:0:
448,192,178525,5,0,0:0:0:0:
320,192,178525,1,0,0:0:0:0:
192,192,178784,1,0,0:0:0:0:
320,192,179042,1,0,0:0:0:0:
64,192,179301,1,0,0:0:0:0:
448,192,179560,1,0,0:0:0:0:
320,192,179732,1,0,0:0:0:0:
192,192,179905,1,0,0:0:0:0:
64,192,180163,1,0,0:0:0:0:
448,192,180422,1,0,0:0:0:0:
320,192,180680,1,0,0:0:0:0:
64,192,180939,1,0,0:0:0:0:
192,192,181111,1,0,0:0:0:0:
448,192,181284,1,0,0:0:0:0:
192,192,181542,1,0,0:0:0:0:
320,192,181801,1,0,0:0:0:0:
64,192,182060,1,0,0:0:0:0:
448,192,182318,1,0,0:0:0:0:
320,192,182491,1,0,0:0:0:0:
192,192,182663,1,0,0:0:0:0:
320,192,182922,1,0,0:0:0:0:
448,192,183180,1,0,0:0:0:0:
192,192,183439,1,0,0:0:0:0:
448,192,183698,1,0,0:0:0:0:
320,192,183870,1,0,0:0:0:0:
64,192,184042,1,0,0:0:0:0:
448,192,184905,1,0,0:0:0:0:
192,192,185422,1,0,0:0:0:0:
448,192,186801,5,0,0:0:0:0:
320,192,187663,5,0,0:0:0:0:
64,192,188180,1,0,0:0:0:0:
448,192,189560,5,0,0:0:0:0:
192,192,189818,1,0,0:0:0:0:
320,192,190077,1,0,0:0:0:0:
64,192,190336,1,0,0:0:0:0:
448,192,190594,1,0,0:0:0:0:
320,192,190767,1,0,0:0:0:0:
192,192,190939,1,0,0:0:0:0:
64,192,191198,1,0,0:0:0:0:
448,192,191456,1,0,0:0:0:0:
320,192,191715,1,0,0:0:0:0:
64,192,191974,1,0,0:0:0:0:
192,192,192146,1,0,0:0:0:0:
448,192,192318,1,0,0:0:0:0:
192,192,192577,1,0,0:0:0:0:
320,192,192836,1,0,0:0:0:0:
64,192,193094,1,0,0:0:0:0:
448,192,193353,1,0,0:0:0:0:
320,192,193525,1,0,0:0:0:0:
192,192,193698,1,0,0:0:0:0:
320,192,193956,1,0,0:0:0:0:
448,192,194215,1,0,0:0:0:0:
192,192,194474,1,0,0:0:0:0:
448,192,194732,1,0,0:0:0:0:
320,192,194905,1,0,0:0:0:0:
64,192,195077,1,0,0:0:0:0:
448,192,195594,1,0,0:0:0:0:
320,192,195767,1,0,0:0:0:0:
192,192,195939,1,0,0:0:0:0:
192,192,196111,1,0,0:0:0:0:
320,192,196284,1,0,0:0:0:0:
448,192,196456,1,0,0:0:0:0:
192,192,196542,1,0,0:0:0:0:
320,192,196629,1,0,0:0:0:0:
192,192,196715,1,0,0:0:0:0:
448,192,196801,1,0,0:0:0:0:
64,192,196887,1,0,0:0:0:0:
192,192,196974,1,0,0:0:0:0:
320,192,197060,1,0,0:0:0:0:
448,192,197146,1,0,0:0:0:0:
64,192,197232,1,0,0:0:0:0:
448,192,197318,1,0,0:0:0:0:
192,192,197405,1,0,0:0:0:0:
320,192,197491,1,0,0:0:0:0:
64,192,197577,1,0,0:0:0:0:
448,192,197663,1,0,0:0:0:0:
320,192,197749,1,0,0:0:0:0:
192,192,197836,1,0,0:0:0:0:
64,192,197836,1,0,0:0:0:0:
448,192,197922,1,0,0:0:0:0:
64,192,198008,1,0,0:0:0:0:
320,192,198094,1,0,0:0:0:0:
192,192,198180,1,0,0:0:0:0:
64,192,198180,1,0,0:0:0:0:
448,192,198267,1,0,0:0:0:0:
64,192,198353,1,0,0:0:0:0:
192,192,198439,1,0,0:0:0:0:
320,192,198525,1,0,0:0:0:0:
64,192,198568,1,0,0:0:0:0:
448,192,198611,1,0,0:0:0:0:
320,192,198655,1,0,0:0:0:0:
192,192,198698,1,0,0:0:0:0:
64,192,198741,1,0,0:0:0:0:
320,192,198784,1,0,0:0:0:0:
448,192,198827,1,0,0:0:0:0:
192,192,198870,1,0,0:0:0:0:
64,192,198913,1,0,0:0:0:0:
448,192,198956,1,0,0:0:0:0:
192,192,198999,1,0,0:0:0:0:
320,192,199042,1,0,0:0:0:0:
64,192,199086,5,0,0:0:0:0:
192,192,199129,1,0,0:0:0:0:
320,192,199172,1,0,0:0:0:0:
448,192,199215,1,0,0:0:0:0:
64,192,200249,128,0,200336:0:0:0:0:
192,192,200336,128,0,200422:0:0:0:0:
320,192,200422,128,0,200508:0:0:0:0:
448,192,200508,128,0,200594:0:0:0:0:
192,192,200594,128,0,201111:0:0:0:0:
64,192,200594,128,0,200939:0:0:0:0:
320,192,200594,128,0,200939:0:0:0:0:
448,192,200939,1,0,0:0:0:0:
320,192,201111,128,0,201629:0:0:0:0:
448,192,201111,128,0,201456:0:0:0:0:
64,192,201111,128,0,201456:0:0:0:0:
192,192,201456,1,0,0:0:0:0:
448,192,201629,128,0,201974:0:0:0:0:
192,192,201715,1,0,0:0:0:0:
320,192,201801,128,0,201887:0:0:0:0:
64,192,201887,1,0,0:0:0:0:
320,192,201974,128,0,202491:0:0:0:0:
64,192,201974,128,0,202318:0:0:0:0:
192,192,201974,128,0,202318:0:0:0:0:
448,192,202318,1,0,0:0:0:0:
448,192,202491,128,0,203008:0:0:0:0:
192,192,202491,128,0,202836:0:0:0:0:
64,192,202491,128,0,202836:0:0:0:0:
320,192,202836,1,0,0:0:0:0:
64,192,203008,128,0,203353:0:0:0:0:
192,192,203008,1,0,0:0:0:0:
192,192,203180,1,0,0:0:0:0:
448,192,203180,1,0,0:0:0:0:
448,192,203267,1,0,0:0:0:0:
320,192,203267,1,0,0:0:0:0:
192,192,203353,128,0,203870:0:0:0:0:
320,192,203353,128,0,203698:0:0:0:0:
448,192,203353,128,0,203698:0:0:0:0:
64,192,203698,1,0,0:0:0:0:
320,192,203870,128,0,204732:0:0:0:0:
448,192,203870,128,0,204215:0:0:0:0:
64,192,203870,128,0,204215:0:0:0:0:
192,192,204215,1,0,0:0:0:0:
448,192,204387,1,0,0:0:0:0:
192,192,204445,1,0,0:0:0:0:
64,192,204502,1,0,0:0:0:0:
448,192,204560,1,0,0:0:0:0:
192,192,204617,1,0,0:0:0:0:
64,192,204675,1,0,0:0:0:0:
448,192,204732,1,0,0:0:0:0:
192,192,204732,1,0,0:0:0:0:
320,192,204818,1,0,0:0:0:0:
448,192,204905,1,0,0:0:0:0:
320,192,204991,1,0,0:0:0:0:
64,192,204991,1,0,0:0:0:0:
192,192,205077,1,0,0:0:0:0:
64,192,205163,1,0,0:0:0:0:
448,192,205249,1,0,0:0:0:0:
320,192,205307,1,0,0:0:0:0:
64,192,205364,1,0,0:0:0:0:
192,192,205422,1,0,0:0:0:0:
320,192,205422,1,0,0:0:0:0:
448,192,205479,1,0,0:0:0:0:
192,192,205537,1,0,0:0:0:0:
320,192,205594,1,0,0:0:0:0:
64,192,205594,1,0,0:0:0:0:
448,192,205652,1,0,0:0:0:0:
192,192,205724,1,0,0:0:0:0:
64,192,205767,128,0,205853:0:0:0:0:
320,192,205853,128,0,205939:0:0:0:0:
192,192,205939,128,0,206025:0:0:0:0:
320,192,206025,128,0,206111:0:0:0:0:
448,192,206111,128,0,206629:0:0:0:0:
192,192,206111,128,0,206456:0:0:0:0:
64,192,206111,128,0,206456:0:0:0:0:
320,192,206456,1,0,0:0:0:0:
192,192,206629,128,0,207146:0:0:0:0:
320,192,206629,128,0,206974:0:0:0:0:
64,192,206629,128,0,206974:0:0:0:0:
448,192,206974,1,0,0:0:0:0:
448,192,207146,128,0,207491:0:0:0:0:
64,192,207232,1,0,0:0:0:0:
320,192,207318,1,0,0:0:0:0:
192,192,207405,1,0,0:0:0:0:
320,192,207491,128,0,208008:0:0:0:0:
192,192,207491,128,0,207836:0:0:0:0:
64,192,207491,128,0,207836:0:0:0:0:
448,192,207836,1,0,0:0:0:0:
192,192,208008,128,0,208525:0:0:0:0:
64,192,208008,128,0,208353:0:0:0:0:
448,192,208008,128,0,208353:0:0:0:0:
320,192,208353,1,0,0:0:0:0:
64,192,208525,128,0,208870:0:0:0:0:
448,192,208525,1,0,0:0:0:0:
320,192,208611,128,0,208784:0:0:0:0:
448,192,208611,128,0,208784:0:0:0:0:
192,192,208870,128,0,209129:0:0:0:0:
320,192,208870,128,0,209042:0:0:0:0:
448,192,208870,128,0,209042:0:0:0:0:
448,192,209129,128,0,209387:0:0:0:0:
320,192,209129,128,0,209301:0:0:0:0:
64,192,209129,128,0,209301:0:0:0:0:
320,192,209387,128,0,210249:0:0:0:0:
192,192,209387,128,0,209732:0:0:0:0:
64,192,209387,128,0,209732:0:0:0:0:
448,192,209732,1,0,0:0:0:0:
64,192,209818,1,0,0:0:0:0:
448,192,209905,1,0,0:0:0:0:
192,192,209962,1,0,0:0:0:0:
64,192,210019,1,0,0:0:0:0:
192,192,210077,1,0,0:0:0:0:
448,192,210134,1,0,0:0:0:0:
64,192,210192,1,0,0:0:0:0:
192,192,210249,1,0,0:0:0:0:
448,192,210318,1,0,0:0:0:0:
320,192,210387,1,0,0:0:0:0:
192,192,210456,1,0,0:0:0:0:
64,192,210525,1,0,0:0:0:0:
320,192,210594,1,0,0:0:0:0:
448,192,210594,1,0,0:0:0:0:
192,192,210652,1,0,0:0:0:0:
448,192,210709,1,0,0:0:0:0:
64,192,210767,1,0,0:0:0:0:
320,192,210853,1,0,0:0:0:0:
192,192,210939,1,0,0:0:0:0:
64,192,210996,1,0,0:0:0:0:
448,192,211054,1,0,0:0:0:0:
192,192,211111,1,0,0:0:0:0:
64,192,211111,1,0,0:0:0:0:
320,192,211198,1,0,0:0:0:0:
64,192,211284,128,0,211370:0:0:0:0:
448,192,211284,1,0,0:0:0:0:
192,192,211370,128,0,211456:0:0:0:0:
320,192,211456,128,0,211542:0:0:0:0:
448,192,211542,128,0,211629:0:0:0:0:
192,192,211629,128,0,212146:0:0:0:0:
64,192,211629,128,0,211974:0:0:0:0:
320,192,211629,128,0,211974:0:0:0:0:
448,192,211974,1,0,0:0:0:0:
320,192,212146,128,0,212663:0:0:0:0:
448,192,212146,128,0,212491:0:0:0:0:
64,192,212146,128,0,212491:0:0:0:0:
192,192,212491,1,0,0:0:0:0:
192,192,212577,1,0,0:0:0:0:
448,192,212663,128,0,213008:0:0:0:0:
64,192,212663,128,0,212836:0:0:0:0:
320,192,212749,128,0,212836:0:0:0:0:
192,192,212836,128,0,212922:0:0:0:0:
320,192,213008,128,0,213525:0:0:0:0:
64,192,213008,128,0,213353:0:0:0:0:
192,192,213008,128,0,213353:0:0:0:0:
448,192,213353,1,0,0:0:0:0:
448,192,213525,128,0,214042:0:0:0:0:
192,192,213525,128,0,213870:0:0:0:0:
64,192,213525,128,0,213870:0:0:0:0:
320,192,213870,1,0,0:0:0:0:
64,192,214042,128,0,214387:0:0:0:0:
192,192,214042,1,0,0:0:0:0:
192,192,214215,1,0,0:0:0:0:
448,192,214215,1,0,0:0:0:0:
448,192,214301,1,0,0:0:0:0:
320,192,214301,1,0,0:0:0:0:
192,192,214387,128,0,214905:0:0:0:0:
320,192,214387,128,0,214732:0:0:0:0:
448,192,214387,128,0,214732:0:0:0:0:
64,192,214732,1,0,0:0:0:0:
320,192,214905,128,0,215767:0:0:0:0:
448,192,214905,128,0,215249:0:0:0:0:
64,192,214905,128,0,215249:0:0:0:0:
192,192,215249,1,0,0:0:0:0:
64,192,215422,1,0,0:0:0:0:
192,192,215479,1,0,0:0:0:0:
64,192,215537,1,0,0:0:0:0:
448,192,215594,1,0,0:0:0:0:
192,192,215652,1,0,0:0:0:0:
64,192,215709,1,0,0:0:0:0:
448,192,215767,1,0,0:0:0:0:
192,192,215767,1,0,0:0:0:0:
320,192,215853,1,0,0:0:0:0:
448,192,215939,1,0,0:0:0:0:
64,192,215939,1,0,0:0:0:0:
320,192,216025,1,0,0:0:0:0:
192,192,216111,1,0,0:0:0:0:
448,192,216111,1,0,0:0:0:0:
64,192,216155,1,0,0:0:0:0:
320,192,216198,1,0,0:0:0:0:
448,192,216241,1,0,0:0:0:0:
192,192,216284,1,0,0:0:0:0:
320,192,216341,1,0,0:0:0:0:
192,192,216399,1,0,0:0:0:0:
448,192,216456,1,0,0:0:0:0:
64,192,216456,1,0,0:0:0:0:
320,192,216514,1,0,0:0:0:0:
192,192,216571,1,0,0:0:0:0:
64,192,216629,1,0,0:0:0:0:
448,192,216686,1,0,0:0:0:0:
320,192,216715,1,0,0:0:0:0:
192,192,216744,1,0,0:0:0:0:
64,192,216801,128,0,216887:0:0:0:0:
320,192,216887,128,0,216974:0:0:0:0:
192,192,216974,128,0,217060:0:0:0:0:
448,192,216974,1,0,0:0:0:0:
320,192,217060,128,0,217146:0:0:0:0:
448,192,217146,128,0,217663:0:0:0:0:
192,192,217146,128,0,217491:0:0:0:0:
64,192,217146,128,0,217491:0:0:0:0:
320,192,217491,1,0,0:0:0:0:
192,192,217663,128,0,218180:0:0:0:0:
320,192,217663,128,0,218008:0:0:0:0:
64,192,217663,128,0,218008:0:0:0:0:
448,192,218008,1,0,0:0:0:0:
448,192,218180,128,0,218525:0:0:0:0:
320,192,218180,128,0,218353:0:0:0:0:
192,192,218353,1,0,0:0:0:0:
64,192,218439,1,0,0:0:0:0:
320,192,218525,128,0,219042:0:0:0:0:
192,192,218525,128,0,218870:0:0:0:0:
64,192,218525,128,0,218870:0:0:0:0:
448,192,218870,1,0,0:0:0:0:
192,192,219042,128,0,219560:0:0:0:0:
64,192,219042,128,0,219387:0:0:0:0:
448,192,219042,128,0,219387:0:0:0:0:
320,192,219387,1,0,0:0:0:0:
64,192,219560,128,0,219905:0:0:0:0:
448,192,219560,1,0,0:0:0:0:
320,192,219646,128,0,219818:0:0:0:0:
448,192,219646,128,0,219818:0:0:0:0:
192,192,219905,128,0,220163:0:0:0:0:
320,192,219905,128,0,220077:0:0:0:0:
448,192,219905,128,0,220077:0:0:0:0:
448,192,220163,128,0,220422:0:0:0:0:
320,192,220163,128,0,220336:0:0:0:0:
64,192,220163,128,0,220336:0:0:0:0:
192,192,220422,128,0,220680:0:0:0:0:
64,192,220422,128,0,220594:0:0:0:0:
320,192,220422,128,0,220594:0:0:0:0:
320,192,220680,128,0,220939:0:0:0:0:
64,192,220680,128,0,220853:0:0:0:0:
448,192,220680,128,0,220853:0:0:0:0:
448,192,220939,128,0,222663:0:0:0:0:
192,192,220939,1,0,0:0:0:0:
64,192,220939,1,0,0:0:0:0:
64,192,221974,128,0,222663:0:0:0:0:
320,192,222663,1,0,0:0:0:0:
192,192,222663,1,0,0:0:0:0:
320,192,222836,1,0,0:0:0:0:
192,192,222922,1,0,0:0:0:0:
448,192,223008,1,0,0:0:0:0:
320,192,223094,1,0,0:0:0:0:
192,192,223180,1,0,0:0:0:0:
64,192,223267,1,0,0:0:0:0:
320,192,223353,1,0,0:0:0:0:
192,192,223439,1,0,0:0:0:0:
320,192,223611,1,0,0:0:0:0:
192,192,223698,1,0,0:0:0:0:
320,192,223956,1,0,0:0:0:0:
192,192,224042,1,0,0:0:0:0:
64,192,224129,1,0,0:0:0:0:
320,192,224215,1,0,0:0:0:0:
192,192,224301,1,0,0:0:0:0:
448,192,224387,1,0,0:0:0:0:
320,192,224474,1,0,0:0:0:0:
192,192,224560,1,0,0:0:0:0:
64,192,224646,1,0,0:0:0:0:
320,192,224732,1,0,0:0:0:0:
192,192,224818,1,0,0:0:0:0:
64,192,224905,1,0,0:0:0:0:
320,192,224991,1,0,0:0:0:0:
192,192,225077,1,0,0:0:0:0:
448,192,225249,1,0,0:0:0:0:
192,192,225292,1,0,0:0:0:0:
64,192,225336,1,0,0:0:0:0:
320,192,225379,1,0,0:0:0:0:
192,192,225422,1,0,0:0:0:0:
320,192,225594,1,0,0:0:0:0:
192,192,225680,1,0,0:0:0:0:
448,192,225767,1,0,0:0:0:0:
320,192,225853,1,0,0:0:0:0:
192,192,225939,1,0,0:0:0:0:
64,192,226025,1,0,0:0:0:0:
320,192,226111,1,0,0:0:0:0:
192,192,226198,1,0,0:0:0:0:
320,192,226370,1,0,0:0:0:0:
192,192,226456,1,0,0:0:0:0:
448,192,226629,1,0,0:0:0:0:
320,192,226715,1,0,0:0:0:0:
192,192,226801,1,0,0:0:0:0:
64,192,226887,1,0,0:0:0:0:
320,192,226974,1,0,0:0:0:0:
192,192,227060,1,0,0:0:0:0:
448,192,227146,1,0,0:0:0:0:
320,192,227232,1,0,0:0:0:0:
192,192,227318,1,0,0:0:0:0:
64,192,227405,1,0,0:0:0:0:
320,192,227491,1,0,0:0:0:0:
192,192,227577,1,0,0:0:0:0:
64,192,227663,1,0,0:0:0:0:
320,192,227749,1,0,0:0:0:0:
192,192,227836,1,0,0:0:0:0:
64,192,227922,1,0,0:0:0:0:
192,192,228008,1,0,0:0:0:0:
448,192,228051,1,0,0:0:0:0:
64,192,228094,1,0,0:0:0:0:
320,192,228137,1,0,0:0:0:0:
192,192,228180,1,0,0:0:0:0:
320,192,228353,1,0,0:0:0:0:
192,192,228439,1,0,0:0:0:0:
448,192,228525,1,0,0:0:0:0:
320,192,228611,1,0,0:0:0:0:
192,192,228698,1,0,0:0:0:0:
64,192,228784,1,0,0:0:0:0:
320,192,228870,1,0,0:0:0:0:
192,192,228956,1,0,0:0:0:0:
320,192,229129,1,0,0:0:0:0:
192,192,229215,1,0,0:0:0:0:
448,192,229387,1,0,0:0:0:0:
320,192,229474,1,0,0:0:0:0:
192,192,229560,1,0,0:0:0:0:
64,192,229646,1,0,0:0:0:0:
320,192,229732,1,0,0:0:0:0:
192,192,229818,1,0,0:0:0:0:
448,192,229905,1,0,0:0:0:0:
320,192,229991,1,0,0:0:0:0:
192,192,230077,1,0,0:0:0:0:
64,192,230163,1,0,0:0:0:0:
320,192,230249,1,0,0:0:0:0:
192,192,230336,1,0,0:0:0:0:
64,192,230422,1,0,0:0:0:0:
320,192,230508,1,0,0:0:0:0:
192,192,230594,1,0,0:0:0:0:
448,192,230767,1,0,0:0:0:0:
192,192,230810,1,0,0:0:0:0:
64,192,230853,1,0,0:0:0:0:
320,192,230896,1,0,0:0:0:0:
192,192,230939,1,0,0:0:0:0:
320,192,231111,1,0,0:0:0:0:
192,192,231198,1,0,0:0:0:0:
448,192,231284,1,0,0:0:0:0:
320,192,231370,1,0,0:0:0:0:
192,192,231456,1,0,0:0:0:0:
64,192,231542,1,0,0:0:0:0:
320,192,231629,1,0,0:0:0:0:
192,192,231715,1,0,0:0:0:0:
448,192,231801,1,0,0:0:0:0:
320,192,231887,1,0,0:0:0:0:
192,192,231974,1,0,0:0:0:0:
448,192,232017,1,0,0:0:0:0:
64,192,232060,1,0,0:0:0:0:
320,192,232103,1,0,0:0:0:0:
192,192,232146,1,0,0:0:0:0:
64,192,232189,1,0,0:0:0:0:
320,192,232232,1,0,0:0:0:0:
448,192,232275,1,0,0:0:0:0:
192,192,232318,1,0,0:0:0:0:
64,192,232318,1,0,0:0:0:0:
448,192,232491,1,0,0:0:0:0:
64,192,232491,1,0,0:0:0:0:
192,192,232577,1,0,0:0:0:0:
320,192,232577,1,0,0:0:0:0:
448,192,232749,1,0,0:0:0:0:
64,192,232749,1,0,0:0:0:0:
320,192,232836,1,0,0:0:0:0:
192,192,232922,1,0,0:0:0:0:
64,192,233008,1,0,0:0:0:0:
448,192,233008,1,0,0:0:0:0:
320,192,233180,1,0,0:0:0:0:
448,192,233267,1,0,0:0:0:0:
64,192,233267,1,0,0:0:0:0:
192,192,233439,1,0,0:0:0:0:
320,192,233525,1,0,0:0:0:0:
64,192,233611,1,0,0:0:0:0:
448,192,233698,5,0,0:0:0:0:
320,192,233698,1,0,0:0:0:0:
192,192,233698,1,0,0:0:0:0:
64,192,233870,1,0,0:0:0:0:
192,192,233956,1,0,0:0:0:0:
448,192,233956,1,0,0:0:0:0:
64,192,234042,1,0,0:0:0:0:
320,192,234215,1,0,0:0:0:0:
64,192,234215,1,0,0:0:0:0:
448,192,234387,1,0,0:0:0:0:
64,192,234474,1,0,0:0:0:0:
192,192,234474,1,0,0:0:0:0:
448,192,234560,1,0,0:0:0:0:
448,192,234732,1,0,0:0:0:0:
320,192,234732,1,0,0:0:0:0:
320,192,234905,1,0,0:0:0:0:
64,192,234905,1,0,0:0:0:0:
320,192,234991,1,0,0:0:0:0:
192,192,234991,1,0,0:0:0:0:
192,192,235077,1,0,0:0:0:0:
448,192,235077,1,0,0:0:0:0:
320,192,235249,1,0,0:0:0:0:
64,192,235336,1,0,0:0:0:0:
192,192,235336,1,0,0:0:0:0:
320,192,235422,1,0,0:0:0:0:
64,192,235508,1,0,0:0:0:0:
448,192,235594,1,0,0:0:0:0:
320,192,235594,1,0,0:0:0:0:
192,192,235767,1,0,0:0:0:0:
320,192,235853,1,0,0:0:0:0:
64,192,235853,1,0,0:0:0:0:
448,192,235939,1,0,0:0:0:0:
320,192,236025,1,0,0:0:0:0:
64,192,236111,1,0,0:0:0:0:
192,192,236111,1,0,0:0:0:0:
192,192,236284,1,0,0:0:0:0:
448,192,236284,1,0,0:0:0:0:
320,192,236327,1,0,0:0:0:0:
64,192,236370,1,0,0:0:0:0:
192,192,236413,1,0,0:0:0:0:
448,192,236456,1,0,0:0:0:0:
320,192,236456,1,0,0:0:0:0:
64,192,236629,1,0,0:0:0:0:
192,192,236715,1,0,0:0:0:0:
448,192,236715,1,0,0:0:0:0:
64,192,236801,1,0,0:0:0:0:
320,192,236974,1,0,0:0:0:0:
64,192,236974,1,0,0:0:0:0:
448,192,237146,1,0,0:0:0:0:
64,192,237232,1,0,0:0:0:0:
192,192,237232,1,0,0:0:0:0:
448,192,237318,1,0,0:0:0:0:
448,192,237491,1,0,0:0:0:0:
320,192,237491,1,0,0:0:0:0:
320,192,237663,1,0,0:0:0:0:
64,192,237663,1,0,0:0:0:0:
192,192,237749,1,0,0:0:0:0:
320,192,237749,1,0,0:0:0:0:
192,192,237836,1,0,0:0:0:0:
448,192,237836,1,0,0:0:0:0:
320,192,238008,1,0,0:0:0:0:
64,192,238094,1,0,0:0:0:0:
192,192,238094,1,0,0:0:0:0:
320,192,238180,1,0,0:0:0:0:
64,192,238267,1,0,0:0:0:0:
448,192,238353,1,0,0:0:0:0:
320,192,238353,1,0,0:0:0:0:
192,192,238525,1,0,0:0:0:0:
320,192,238611,1,0,0:0:0:0:
64,192,238611,1,0,0:0:0:0:
448,192,238698,1,0,0:0:0:0:
320,192,238784,1,0,0:0:0:0:
64,192,238870,1,0,0:0:0:0:
192,192,238870,1,0,0:0:0:0:
192,192,239042,1,0,0:0:0:0:
448,192,239042,1,0,0:0:0:0:
64,192,239086,1,0,0:0:0:0:
320,192,239129,1,0,0:0:0:0:
192,192,239172,1,0,0:0:0:0:
448,192,239215,1,0,0:0:0:0:
64,192,239215,1,0,0:0:0:0:
320,192,239301,1,0,0:0:0:0:
192,192,239387,1,0,0:0:0:0:
64,192,239474,1,0,0:0:0:0:
448,192,239560,1,0,0:0:0:0:
320,192,239560,1,0,0:0:0:0:
192,192,239646,1,0,0:0:0:0:
320,192,239732,1,0,0:0:0:0:
448,192,239818,1,0,0:0:0:0:
192,192,239905,1,0,0:0:0:0:
64,192,239905,1,0,0:0:0:0:
320,192,239991,1,0,0:0:0:0:
192,192,240077,1,0,0:0:0:0:
64,192,240163,1,0,0:0:0:0:
320,192,240249,1,0,0:0:0:0:
448,192,240249,1,0,0:0:0:0:
192,192,240336,1,0,0:0:0:0:
320,192,240422,1,0,0:0:0:0:
448,192,240508,1,0,0:0:0:0:
192,192,240594,1,0,0:0:0:0:
64,192,240594,1,0,0:0:0:0:
320,192,240680,1,0,0:0:0:0:
448,192,240767,1,0,0:0:0:0:
320,192,240853,1,0,0:0:0:0:
64,192,240939,1,0,0:0:0:0:
192,192,240939,1,0,0:0:0:0:
448,192,241025,1,0,0:0:0:0:
64,192,241111,1,0,0:0:0:0:
448,192,241198,1,0,0:0:0:0:
320,192,241284,1,0,0:0:0:0:
192,192,241284,1,0,0:0:0:0:
64,192,241370,1,0,0:0:0:0:
448,192,241456,1,0,0:0:0:0:
64,192,241542,1,0,0:0:0:0:
320,192,241629,1,0,0:0:0:0:
448,192,241629,1,0,0:0:0:0:
192,192,241715,1,0,0:0:0:0:
64,192,241801,1,0,0:0:0:0:
192,192,241887,1,0,0:0:0:0:
320,192,241974,1,0,0:0:0:0:
448,192,241974,1,0,0:0:0:0:
64,192,242060,1,0,0:0:0:0:
320,192,242146,1,0,0:0:0:0:
192,192,242146,1,0,0:0:0:0:
448,192,242232,1,0,0:0:0:0:
64,192,242318,1,0,0:0:0:0:
192,192,242318,1,0,0:0:0:0:
448,192,242405,1,0,0:0:0:0:
192,192,242491,1,0,0:0:0:0:
320,192,242491,1,0,0:0:0:0:
64,192,242577,1,0,0:0:0:0:
320,192,242663,1,0,0:0:0:0:
448,192,242663,1,0,0:0:0:0:
192,192,242706,1,0,0:0:0:0:
64,192,242749,1,0,0:0:0:0:
320,192,242792,1,0,0:0:0:0:
448,192,242836,1,0,0:0:0:0:
192,192,242879,1,0,0:0:0:0:
320,192,242922,1,0,0:0:0:0:
64,192,242965,1,0,0:0:0:0:
448,192,243008,1,0,0:0:0:0:
192,192,243051,1,0,0:0:0:0:
64,192,243094,1,0,0:0:0:0:
448,192,243137,1,0,0:0:0:0:
192,192,243180,1,0,0:0:0:0:
320,192,243224,5,0,0:0:0:0:
64,192,243267,1,0,0:0:0:0:
192,192,243310,1,0,0:0:0:0:
448,192,243353,1,0,0:0:0:0:
320,192,243353,1,0,0:0:0:0:
448,192,244387,5,0,0:0:0:0:
448,192,244474,1,0,0:0:0:0:
320,192,244560,1,0,0:0:0:0:
192,192,244560,1,0,0:0:0:0:
448,192,244732,128,0,245508:0:0:0:0:
64,192,244732,128,0,244818:0:0:0:0:
192,192,244732,128,0,244905:0:0:0:0:
320,192,244732,128,0,244991:0:0:0:0:
64,192,244905,1,0,0:0:0:0:
192,192,244991,128,0,245680:0:0:0:0:
320,192,245077,1,0,0:0:0:0:
64,192,245077,1,0,0:0:0:0:
320,192,245249,128,0,245853:0:0:0:0:
64,192,245508,128,0,246284:0:0:0:0:
448,192,245594,1,0,0:0:0:0:
448,192,245767,128,0,246198:0:0:0:0:
192,192,245767,1,0,0:0:0:0:
320,192,245939,128,0,246370:0:0:0:0:
192,192,246111,128,0,246887:0:0:0:0:
448,192,246284,1,0,0:0:0:0:
64,192,246370,128,0,247060:0:0:0:0:
320,192,246456,1,0,0:0:0:0:
448,192,246456,1,0,0:0:0:0:
448,192,246629,128,0,247405:0:0:0:0:
320,192,246887,128,0,247749:0:0:0:0:
192,192,246974,1,0,0:0:0:0:
64,192,247146,128,0,247577:0:0:0:0:
192,192,247146,1,0,0:0:0:0:
192,192,247318,128,0,247663:0:0:0:0:
448,192,247491,128,0,248267:0:0:0:0:
64,192,247663,1,0,0:0:0:0:
192,192,247749,128,0,248439:0:0:0:0:
64,192,247836,1,0,0:0:0:0:
320,192,247836,1,0,0:0:0:0:
320,192,248008,128,0,248611:0:0:0:0:
64,192,248267,128,0,248956:0:0:0:0:
448,192,248353,1,0,0:0:0:0:
448,192,248525,128,0,248870:0:0:0:0:
192,192,248525,1,0,0:0:0:0:
320,192,248698,128,0,249042:0:0:0:0:
192,192,248870,128,0,249215:0:0:0:0:
448,192,248956,128,0,249129:0:0:0:0:
64,192,249042,128,0,249129:0:0:0:0:
320,192,249129,128,0,249474:0:0:0:0:
64,192,249215,128,0,249387:0:0:0:0:
448,192,249215,128,0,249301:0:0:0:0:
192,192,249301,128,0,249560:0:0:0:0:
448,192,249387,128,0,249818:0:0:0:0:
64,192,249474,128,0,249646:0:0:0:0:
320,192,249560,128,0,249991:0:0:0:0:
192,192,249646,128,0,250163:0:0:0:0:
64,192,249732,1,0,0:0:0:0:
448,192,249905,128,0,250249:0:0:0:0:
64,192,249905,1,0,0:0:0:0:
320,192,250077,128,0,250249:0:0:0:0:
64,192,250249,1,0,0:0:0:0:
192,192,250249,1,0,0:0:0:0:
64,192,250422,1,0,0:0:0:0:
320,192,250508,1,0,0:0:0:0:
64,192,250594,1,0,0:0:0:0:
448,192,250594,1,0,0:0:0:0:
320,192,250637,1,0,0:0:0:0:
192,192,250680,1,0,0:0:0:0:
192,192,250767,1,0,0:0:0:0:
320,192,250810,1,0,0:0:0:0:
448,192,250853,1,0,0:0:0:0:
64,192,250939,1,0,0:0:0:0:
192,192,250982,1,0,0:0:0:0:
320,192,251025,1,0,0:0:0:0:
448,192,251068,1,0,0:0:0:0:
192,192,251111,1,0,0:0:0:0:
64,192,251111,1,0,0:0:0:0:
64,192,251284,1,0,0:0:0:0:
320,192,251284,1,0,0:0:0:0:
448,192,251284,1,0,0:0:0:0:
192,192,251370,1,0,0:0:0:0:
448,192,251456,1,0,0:0:0:0:
192,192,251542,1,0,0:0:0:0:
320,192,251629,1,0,0:0:0:0:
64,192,251715,1,0,0:0:0:0:
192,192,251801,1,0,0:0:0:0:
320,192,251801,1,0,0:0:0:0:
448,192,251887,1,0,0:0:0:0:
320,192,251974,1,0,0:0:0:0:
192,192,251974,1,0,0:0:0:0:
64,192,251974,1,0,0:0:0:0:
448,192,252146,1,0,0:0:0:0:
64,192,252232,1,0,0:0:0:0:
448,192,252318,1,0,0:0:0:0:
192,192,252405,1,0,0:0:0:0:
320,192,252491,1,0,0:0:0:0:
448,192,252491,1,0,0:0:0:0:
320,192,252663,1,0,0:0:0:0:
192,192,252663,1,0,0:0:0:0:
64,192,252663,1,0,0:0:0:0:
64,192,252836,1,0,0:0:0:0:
192,192,252922,1,0,0:0:0:0:
320,192,253008,1,0,0:0:0:0:
192,192,253094,1,0,0:0:0:0:
320,192,253180,1,0,0:0:0:0:
448,192,253180,1,0,0:0:0:0:
64,192,253267,1,0,0:0:0:0:
192,192,253353,1,0,0:0:0:0:
448,192,253353,1,0,0:0:0:0:
64,192,253396,1,0,0:0:0:0:
320,192,253439,1,0,0:0:0:0:
320,192,253525,1,0,0:0:0:0:
64,192,253568,1,0,0:0:0:0:
192,192,253611,1,0,0:0:0:0:
448,192,253698,1,0,0:0:0:0:
320,192,253741,1,0,0:0:0:0:
192,192,253784,1,0,0:0:0:0:
64,192,253827,1,0,0:0:0:0:
320,192,253870,1,0,0:0:0:0:
448,192,253870,1,0,0:0:0:0:
448,192,254042,1,0,0:0:0:0:
64,192,254042,1,0,0:0:0:0:
192,192,254042,1,0,0:0:0:0:
320,192,254215,1,0,0:0:0:0:
192,192,254301,5,0,0:0:0:0:
64,192,254387,1,0,0:0:0:0:
448,192,254387,1,0,0:0:0:0:
192,192,254560,1,0,0:0:0:0:
320,192,254560,1,0,0:0:0:0:
448,192,254646,1,0,0:0:0:0:
192,192,254732,1,0,0:0:0:0:
320,192,254732,1,0,0:0:0:0:
64,192,254732,1,0,0:0:0:0:
320,192,254905,1,0,0:0:0:0:
192,192,254991,1,0,0:0:0:0:
64,192,255077,1,0,0:0:0:0:
192,192,255163,1,0,0:0:0:0:
320,192,255249,1,0,0:0:0:0:
448,192,255249,1,0,0:0:0:0:
64,192,255336,1,0,0:0:0:0:
64,192,255422,5,0,0:0:0:0:
192,192,255422,1,0,0:0:0:0:
448,192,255422,1,0,0:0:0:0:
448,192,255508,1,0,0:0:0:0:
192,192,255594,128,0,255680:0:0:0:0:
320,192,255594,128,0,255680:0:0:0:0:
192,192,255767,128,0,255939:0:0:0:0:
64,192,255767,128,0,255853:0:0:0:0:
448,192,255767,128,0,256542:0:0:0:0:
320,192,255767,128,0,256025:0:0:0:0:
64,192,255939,1,0,0:0:0:0:
192,192,256025,128,0,256715:0:0:0:0:
320,192,256111,1,0,0:0:0:0:
64,192,256111,1,0,0:0:0:0:
320,192,256284,128,0,256887:0:0:0:0:
64,192,256542,128,0,257318:0:0:0:0:
448,192,256629,1,0,0:0:0:0:
448,192,256801,128,0,257232:0:0:0:0:
192,192,256801,1,0,0:0:0:0:
320,192,256974,128,0,257405:0:0:0:0:
192,192,257146,128,0,257922:0:0:0:0:
448,192,257318,1,0,0:0:0:0:
64,192,257405,128,0,258094:0:0:0:0:
320,192,257491,1,0,0:0:0:0:
448,192,257491,1,0,0:0:0:0:
448,192,257663,128,0,258439:0:0:0:0:
320,192,257922,128,0,258784:0:0:0:0:
192,192,258008,1,0,0:0:0:0:
64,192,258180,128,0,258611:0:0:0:0:
192,192,258180,1,0,0:0:0:0:
192,192,258353,128,0,258698:0:0:0:0:
448,192,258525,128,0,259301:0:0:0:0:
64,192,258698,1,0,0:0:0:0:
192,192,258784,128,0,259474:0:0:0:0:
64,192,258870,1,0,0:0:0:0:
320,192,258870,1,0,0:0:0:0:
320,192,259042,128,0,259646:0:0:0:0:
64,192,259301,128,0,259991:0:0:0:0:
448,192,259387,1,0,0:0:0:0:
448,192,259560,128,0,259905:0:0:0:0:
192,192,259560,1,0,0:0:0:0:
320,192,259732,128,0,260077:0:0:0:0:
192,192,259905,128,0,260249:0:0:0:0:
448,192,259991,128,0,260163:0:0:0:0:
64,192,260077,128,0,260163:0:0:0:0:
320,192,260163,128,0,260508:0:0:0:0:
64,192,260249,128,0,260422:0:0:0:0:
448,192,260249,128,0,260336:0:0:0:0:
192,192,260336,128,0,260594:0:0:0:0:
448,192,260422,128,0,260853:0:0:0:0:
64,192,260508,128,0,260680:0:0:0:0:
320,192,260594,128,0,261025:0:0:0:0:
192,192,260680,128,0,261198:0:0:0:0:
64,192,260767,1,0,0:0:0:0:
448,192,260939,128,0,261284:0:0:0:0:
64,192,260939,1,0,0:0:0:0:
320,192,261111,128,0,261284:0:0:0:0:
64,192,261284,128,0,261542:0:0:0:0:
192,192,261284,128,0,261542:0:0:0:0:
320,192,261456,128,0,261542:0:0:0:0:
448,192,261456,128,0,261542:0:0:0:0:
64,192,261629,128,0,261887:0:0:0:0:
320,192,261672,1,0,0:0:0:0:
448,192,261715,128,0,261887:0:0:0:0:
320,192,261887,1,0,0:0:0:0:
64,192,261974,1,0,0:0:0:0:
192,192,261974,1,0,0:0:0:0:
448,192,261974,1,0,0:0:0:0:
64,192,262060,1,0,0:0:0:0:
320,192,262146,1,0,0:0:0:0:
320,192,262232,1,0,0:0:0:0:
64,192,262318,1,0,0:0:0:0:
64,192,262405,1,0,0:0:0:0:
320,192,262491,1,0,0:0:0:0:
320,192,262577,1,0,0:0:0:0:
192,192,262663,1,0,0:0:0:0:
64,192,262663,1,0,0:0:0:0:
448,192,262749,1,0,0:0:0:0:
320,192,262792,1,0,0:0:0:0:
192,192,262836,1,0,0:0:0:0:
448,192,263008,128,0,263267:0:0:0:0:
192,192,263051,1,0,0:0:0:0:
64,192,263094,128,0,263267:0:0:0:0:
192,192,263267,1,0,0:0:0:0:
448,192,263353,1,0,0:0:0:0:
320,192,263353,1,0,0:0:0:0:
64,192,263353,1,0,0:0:0:0:
448,192,263439,1,0,0:0:0:0:
192,192,263525,1,0,0:0:0:0:
192,192,263611,1,0,0:0:0:0:
448,192,263698,1,0,0:0:0:0:
448,192,263784,1,0,0:0:0:0:
192,192,263870,1,0,0:0:0:0:
192,192,263956,1,0,0:0:0:0:
64,192,264042,128,0,264215:0:0:0:0:
320,192,264042,128,0,264129:0:0:0:0:
448,192,264042,128,0,264215:0:0:0:0:
320,192,264215,1,0,0:0:0:0:
192,192,264215,1,0,0:0:0:0:
448,192,264301,1,0,0:0:0:0:
192,192,264387,1,0,0:0:0:0:
64,192,264387,1,0,0:0:0:0:
448,192,264474,1,0,0:0:0:0:
320,192,264560,1,0,0:0:0:0:
192,192,264560,1,0,0:0:0:0:
448,192,264646,1,0,0:0:0:0:
64,192,264732,1,0,0:0:0:0:
192,192,264732,1,0,0:0:0:0:
64,192,264818,1,0,0:0:0:0:
320,192,264905,1,0,0:0:0:0:
448,192,264905,1,0,0:0:0:0:
320,192,264991,1,0,0:0:0:0:
64,192,265077,1,0,0:0:0:0:
192,192,265077,1,0,0:0:0:0:
64,192,265163,1,0,0:0:0:0:
320,192,265249,1,0,0:0:0:0:
448,192,265249,1,0,0:0:0:0:
320,192,265336,1,0,0:0:0:0:
192,192,265422,128,0,265565:0:0:0:0:
448,192,265422,128,0,265565:0:0:0:0:
64,192,265422,128,0,265565:0:0:0:0:
448,192,265652,128,0,265795:0:0:0:0:
192,192,265652,128,0,265795:0:0:0:0:
64,192,265652,128,0,265795:0:0:0:0:
64,192,265882,128,0,266111:0:0:0:0:
448,192,265882,128,0,266111:0:0:0:0:
192,192,265882,128,0,266025:0:0:0:0:
320,192,266111,1,0,0:0:0:0:
192,192,266111,1,0,0:0:0:0:
64,192,266456,128,0,266542:0:0:0:0:
192,192,266542,128,0,266629:0:0:0:0:
320,192,266629,128,0,266715:0:0:0:0:
448,192,266715,128,0,266801:0:0:0:0:
192,192,266801,128,0,267060:0:0:0:0:
448,192,266974,1,0,0:0:0:0:
320,192,267017,1,0,0:0:0:0:
64,192,267060,1,0,0:0:0:0:
64,192,267146,128,0,267232:0:0:0:0:
320,192,267146,128,0,267232:0:0:0:0:
448,192,267146,128,0,267232:0:0:0:0:
192,192,267146,128,0,267318:0:0:0:0:
320,192,267318,128,0,267836:0:0:0:0:
64,192,267318,128,0,267405:0:0:0:0:
448,192,267491,128,0,267577:0:0:0:0:
64,192,267663,1,0,0:0:0:0:
192,192,267663,128,0,267749:0:0:0:0:
448,192,267836,128,0,268180:0:0:0:0:
192,192,267836,1,0,0:0:0:0:
64,192,267836,1,0,0:0:0:0:
320,192,268008,1,0,0:0:0:0:
64,192,268094,1,0,0:0:0:0:
320,192,268180,128,0,268698:0:0:0:0:
192,192,268180,1,0,0:0:0:0:
192,192,268353,1,0,0:0:0:0:
64,192,268353,1,0,0:0:0:0:
64,192,268525,1,0,0:0:0:0:
192,192,268525,1,0,0:0:0:0:
448,192,268525,1,0,0:0:0:0:
448,192,268698,128,0,269215:0:0:0:0:
192,192,268784,1,0,0:0:0:0:
64,192,268870,1,0,0:0:0:0:
320,192,268956,1,0,0:0:0:0:
192,192,269042,1,0,0:0:0:0:
64,192,269042,1,0,0:0:0:0:
64,192,269215,128,0,269560:0:0:0:0:
192,192,269215,1,0,0:0:0:0:
320,192,269215,1,0,0:0:0:0:
448,192,269387,1,0,0:0:0:0:
320,192,269474,1,0,0:0:0:0:
192,192,269560,128,0,270077:0:0:0:0:
320,192,269732,1,0,0:0:0:0:
448,192,269732,1,0,0:0:0:0:
320,192,269905,1,0,0:0:0:0:
448,192,269905,1,0,0:0:0:0:
64,192,269905,1,0,0:0:0:0:
320,192,270077,128,0,270939:0:0:0:0:
64,192,270163,1,0,0:0:0:0:
192,192,270249,1,0,0:0:0:0:
448,192,270336,1,0,0:0:0:0:
192,192,270422,1,0,0:0:0:0:
64,192,270422,1,0,0:0:0:0:
448,192,270594,1,0,0:0:0:0:
192,192,270594,1,0,0:0:0:0:
64,192,270594,1,0,0:0:0:0:
448,192,270767,1,0,0:0:0:0:
192,192,270853,1,0,0:0:0:0:
64,192,270939,1,0,0:0:0:0:
192,192,271025,1,0,0:0:0:0:
448,192,271111,1,0,0:0:0:0:
320,192,271111,1,0,0:0:0:0:
192,192,271198,1,0,0:0:0:0:
320,192,271284,1,0,0:0:0:0:
448,192,271284,1,0,0:0:0:0:
64,192,271284,1,0,0:0:0:0:
192,192,271370,1,0,0:0:0:0:
448,192,271456,1,0,0:0:0:0:
320,192,271542,1,0,0:0:0:0:
192,192,271629,1,0,0:0:0:0:
64,192,271715,1,0,0:0:0:0:
320,192,271801,1,0,0:0:0:0:
448,192,271801,1,0,0:0:0:0:
64,192,271974,128,0,272060:0:0:0:0:
192,192,271974,1,0,0:0:0:0:
448,192,271974,1,0,0:0:0:0:
320,192,272060,128,0,272146:0:0:0:0:
192,192,272146,128,0,272232:0:0:0:0:
320,192,272232,128,0,272318:0:0:0:0:
64,192,272318,1,0,0:0:0:0:
448,192,272318,128,0,272577:0:0:0:0:
64,192,272491,1,0,0:0:0:0:
320,192,272491,128,0,272577:0:0:0:0:
64,192,272663,128,0,272749:0:0:0:0:
192,192,272663,128,0,272749:0:0:0:0:
320,192,272663,128,0,272836:0:0:0:0:
448,192,272663,128,0,272836:0:0:0:0:
192,192,272836,128,0,273353:0:0:0:0:
64,192,272922,1,0,0:0:0:0:
320,192,273008,128,0,273094:0:0:0:0:
64,192,273094,1,0,0:0:0:0:
320,192,273180,1,0,0:0:0:0:
448,192,273180,128,0,273267:0:0:0:0:
448,192,273353,128,0,273698:0:0:0:0:
64,192,273353,1,0,0:0:0:0:
320,192,273353,128,0,273439:0:0:0:0:
192,192,273525,128,0,273611:0:0:0:0:
64,192,273611,1,0,0:0:0:0:
320,192,273698,128,0,274215:0:0:0:0:
192,192,273870,1,0,0:0:0:0:
64,192,273870,1,0,0:0:0:0:
64,192,274042,1,0,0:0:0:0:
192,192,274042,1,0,0:0:0:0:
448,192,274042,1,0,0:0:0:0:
192,192,274215,128,0,274732:0:0:0:0:
448,192,274301,1,0,0:0:0:0:
320,192,274387,1,0,0:0:0:0:
64,192,274474,1,0,0:0:0:0:
320,192,274560,1,0,0:0:0:0:
448,192,274560,1,0,0:0:0:0:
64,192,274732,128,0,275077:0:0:0:0:
320,192,274732,1,0,0:0:0:0:
448,192,274732,1,0,0:0:0:0:
192,192,274905,1,0,0:0:0:0:
448,192,274991,1,0,0:0:0:0:
192,192,275077,128,0,275336:0:0:0:0:
320,192,275249,1,0,0:0:0:0:
64,192,275249,1,0,0:0:0:0:
448,192,275336,128,0,275594:0:0:0:0:
320,192,275422,1,0,0:0:0:0:
192,192,275422,1,0,0:0:0:0:
64,192,275422,1,0,0:0:0:0:
320,192,275594,128,0,276456:0:0:0:0:
64,192,275680,1,0,0:0:0:0:
192,192,275767,1,0,0:0:0:0:
448,192,275853,1,0,0:0:0:0:
192,192,275939,1,0,0:0:0:0:
64,192,275939,1,0,0:0:0:0:
64,192,276111,1,0,0:0:0:0:
192,192,276111,1,0,0:0:0:0:
448,192,276111,1,0,0:0:0:0:
448,192,276284,1,0,0:0:0:0:
192,192,276370,1,0,0:0:0:0:
448,192,276456,1,0,0:0:0:0:
320,192,276542,1,0,0:0:0:0:
192,192,276629,1,0,0:0:0:0:
64,192,276629,1,0,0:0:0:0:
320,192,276715,1,0,0:0:0:0:
192,192,276801,1,0,0:0:0:0:
64,192,276801,1,0,0:0:0:0:
448,192,276801,1,0,0:0:0:0:
448,192,276974,1,0,0:0:0:0:
64,192,277060,1,0,0:0:0:0:
320,192,277146,1,0,0:0:0:0:
448,192,277232,1,0,0:0:0:0:
192,192,277318,1,0,0:0:0:0:
64,192,277318,1,0,0:0:0:0:
64,192,277491,128,0,277577:0:0:0:0:
320,192,277491,1,0,0:0:0:0:
448,192,277491,1,0,0:0:0:0:
192,192,277577,128,0,277663:0:0:0:0:
320,192,277663,128,0,277749:0:0:0:0:
448,192,277749,128,0,277836:0:0:0:0:
64,192,277836,1,0,0:0:0:0:
192,192,277836,128,0,278094:0:0:0:0:
320,192,277922,1,0,0:0:0:0:
448,192,277922,1,0,0:0:0:0:
64,192,278008,1,0,0:0:0:0:
448,192,278094,1,0,0:0:0:0:
448,192,278180,1,0,0:0:0:0:
320,192,278180,1,0,0:0:0:0:
64,192,278180,1,0,0:0:0:0:
192,192,278180,128,0,278439:0:0:0:0:
320,192,278353,128,0,278870:0:0:0:0:
64,192,278353,128,0,278439:0:0:0:0:
448,192,278525,128,0,278611:0:0:0:0:
192,192,278698,128,0,278784:0:0:0:0:
64,192,278698,1,0,0:0:0:0:
448,192,278870,128,0,279215:0:0:0:0:
192,192,278870,1,0,0:0:0:0:
64,192,278870,1,0,0:0:0:0:
320,192,279042,1,0,0:0:0:0:
64,192,279129,1,0,0:0:0:0:
320,192,279215,128,0,279732:0:0:0:0:
192,192,279387,1,0,0:0:0:0:
64,192,279387,1,0,0:0:0:0:
192,192,279560,1,0,0:0:0:0:
448,192,279560,1,0,0:0:0:0:
64,192,279560,1,0,0:0:0:0:
448,192,279732,128,0,280249:0:0:0:0:
64,192,279818,1,0,0:0:0:0:
192,192,279905,1,0,0:0:0:0:
320,192,279991,1,0,0:0:0:0:
192,192,280077,1,0,0:0:0:0:
64,192,280077,1,0,0:0:0:0:
64,192,280249,128,0,280594:0:0:0:0:
192,192,280249,1,0,0:0:0:0:
320,192,280249,1,0,0:0:0:0:
448,192,280422,1,0,0:0:0:0:
320,192,280508,1,0,0:0:0:0:
192,192,280594,128,0,281111:0:0:0:0:
320,192,280767,1,0,0:0:0:0:
448,192,280767,1,0,0:0:0:0:
320,192,280939,1,0,0:0:0:0:
448,192,280939,1,0,0:0:0:0:
64,192,280939,1,0,0:0:0:0:
320,192,281111,128,0,281974:0:0:0:0:
448,192,281198,1,0,0:0:0:0:
64,192,281284,1,0,0:0:0:0:
448,192,281370,1,0,0:0:0:0:
192,192,281456,1,0,0:0:0:0:
64,192,281456,1,0,0:0:0:0:
64,192,281629,1,0,0:0:0:0:
192,192,281629,1,0,0:0:0:0:
448,192,281629,1,0,0:0:0:0:
448,192,281801,1,0,0:0:0:0:
192,192,281887,1,0,0:0:0:0:
64,192,281974,1,0,0:0:0:0:
192,192,282060,1,0,0:0:0:0:
448,192,282146,1,0,0:0:0:0:
320,192,282146,1,0,0:0:0:0:
192,192,282232,1,0,0:0:0:0:
320,192,282318,1,0,0:0:0:0:
448,192,282318,1,0,0:0:0:0:
64,192,282318,1,0,0:0:0:0:
192,192,282405,1,0,0:0:0:0:
320,192,282491,1,0,0:0:0:0:
448,192,282491,1,0,0:0:0:0:
192,192,282577,1,0,0:0:0:0:
64,192,282577,1,0,0:0:0:0:
320,192,282663,128,0,283008:0:0:0:0:
448,192,282663,128,0,282749:0:0:0:0:
448,192,282836,128,0,283267:0:0:0:0:
64,192,283008,128,0,283267:0:0:0:0:
320,192,283094,128,0,283180:0:0:0:0:
192,192,283180,128,0,283267:0:0:0:0:
320,192,283267,128,0,283353:0:0:0:0:
448,192,283353,128,0,283870:0:0:0:0:
192,192,283353,1,0,0:0:0:0:
64,192,283353,1,0,0:0:0:0:
192,192,283525,1,0,0:0:0:0:
64,192,283525,1,0,0:0:0:0:
192,192,283698,1,0,0:0:0:0:
320,192,283698,1,0,0:0:0:0:
64,192,283784,1,0,0:0:0:0:
192,192,283870,128,0,284387:0:0:0:0:
320,192,283928,1,0,0:0:0:0:
448,192,283985,1,0,0:0:0:0:
64,192,284042,1,0,0:0:0:0:
448,192,284129,1,0,0:0:0:0:
64,192,284215,1,0,0:0:0:0:
320,192,284215,1,0,0:0:0:0:
448,192,284301,1,0,0:0:0:0:
320,192,284387,128,0,284732:0:0:0:0:
192,192,284474,1,0,0:0:0:0:
64,192,284560,1,0,0:0:0:0:
448,192,284560,1,0,0:0:0:0:
192,192,284646,1,0,0:0:0:0:
64,192,284732,128,0,285249:0:0:0:0:
448,192,284818,1,0,0:0:0:0:
320,192,284905,1,0,0:0:0:0:
192,192,284905,1,0,0:0:0:0:
448,192,284991,1,0,0:0:0:0:
192,192,285077,1,0,0:0:0:0:
320,192,285163,1,0,0:0:0:0:
448,192,285249,128,0,285767:0:0:0:0:
192,192,285307,1,0,0:0:0:0:
64,192,285364,1,0,0:0:0:0:
320,192,285422,1,0,0:0:0:0:
192,192,285508,1,0,0:0:0:0:
64,192,285594,1,0,0:0:0:0:
320,192,285594,1,0,0:0:0:0:
192,192,285680,1,0,0:0:0:0:
64,192,285767,128,0,286111:0:0:0:0:
448,192,285853,1,0,0:0:0:0:
320,192,285939,1,0,0:0:0:0:
192,192,285939,1,0,0:0:0:0:
448,192,286025,1,0,0:0:0:0:
192,192,286111,128,0,286542:0:0:0:0:
320,192,286198,128,0,286370:0:0:0:0:
64,192,286284,128,0,286456:0:0:0:0:
448,192,286370,128,0,286887:0:0:0:0:
320,192,286456,128,0,286629:0:0:0:0:
64,192,286542,128,0,286715:0:0:0:0:
192,192,286629,128,0,286974:0:0:0:0:
320,192,286715,128,0,286801:0:0:0:0:
64,192,286801,128,0,287146:0:0:0:0:
320,192,286887,128,0,287318:0:0:0:0:
448,192,286974,128,0,287060:0:0:0:0:
192,192,287060,128,0,287232:0:0:0:0:
448,192,287146,128,0,288525:0:0:0:0:
64,192,287232,128,0,287405:0:0:0:0:
192,192,287318,128,0,287405:0:0:0:0:
320,192,287405,128,0,287491:0:0:0:0:
192,192,287491,1,0,0:0:0:0:
64,192,287491,1,0,0:0:0:0:
64,192,287663,128,0,287749:0:0:0:0:
64,192,287922,128,0,288037:0:0:0:0:
64,192,288180,128,0,288324:0:0:0:0:
64,192,288439,128,0,288611:0:0:0:0:
320,192,288525,128,0,288698:0:0:0:0:
64,192,288698,1,0,0:0:0:0:
448,192,288755,1,0,0:0:0:0:
64,192,288827,1,0,0:0:0:0:
192,192,288870,128,0,289129:0:0:0:0:
320,192,288870,128,0,289129:0:0:0:0:
448,192,288870,128,0,289129:0:0:0:0:
192,192,289215,1,0,0:0:0:0:
320,192,289215,1,0,0:0:0:0:
448,192,289215,1,0,0:0:0:0:
64,192,289387,128,0,289474:0:0:0:0:
192,192,289387,1,0,0:0:0:0:
448,192,289474,1,0,0:0:0:0:
320,192,289560,128,0,289646:0:0:0:0:
192,192,289588,128,0,289646:0:0:0:0:
64,192,289617,128,0,289646:0:0:0:0:
448,192,289646,1,0,0:0:0:0:
192,192,289732,128,0,289818:0:0:0:0:
320,192,289732,1,0,0:0:0:0:
64,192,289732,1,0,0:0:0:0:
448,192,289905,1,0,0:0:0:0:
320,192,289991,1,0,0:0:0:0:
64,192,290077,128,0,290163:0:0:0:0:
192,192,290106,1,0,0:0:0:0:
448,192,290163,128,0,290249:0:0:0:0:
320,192,290192,1,0,0:0:0:0:
64,192,290249,1,0,0:0:0:0:
192,192,290249,1,0,0:0:0:0:
448,192,290336,1,0,0:0:0:0:
192,192,290422,1,0,0:0:0:0:
64,192,290422,128,0,290508:0:0:0:0:
192,192,290508,128,0,290594:0:0:0:0:
64,192,290594,1,0,0:0:0:0:
320,192,290594,1,0,0:0:0:0:
448,192,290594,1,0,0:0:0:0:
320,192,290767,128,0,290853:0:0:0:0:
192,192,290767,1,0,0:0:0:0:
448,192,290853,1,0,0:0:0:0:
320,192,290939,128,0,291025:0:0:0:0:
192,192,291025,1,0,0:0:0:0:
320,192,291111,1,0,0:0:0:0:
448,192,291111,1,0,0:0:0:0:
64,192,291111,1,0,0:0:0:0:
448,192,291198,128,0,291456:0:0:0:0:
320,192,291284,128,0,291715:0:0:0:0:
192,192,291370,128,0,291629:0:0:0:0:
64,192,291456,128,0,291542:0:0:0:0:
448,192,291542,128,0,291715:0:0:0:0:
64,192,291629,128,0,291801:0:0:0:0:
192,192,291715,128,0,291801:0:0:0:0:
320,192,291801,1,0,0:0:0:0:
448,192,291801,1,0,0:0:0:0:
320,192,291887,128,0,291974:0:0:0:0:
64,192,291974,1,0,0:0:0:0:
448,192,291974,128,0,292146:0:0:0:0:
192,192,291974,128,0,292146:0:0:0:0:
64,192,292146,1,0,0:0:0:0:
320,192,292146,128,0,292318:0:0:0:0:
64,192,292232,128,0,292318:0:0:0:0:
448,192,292318,1,0,0:0:0:0:
320,192,292405,1,0,0:0:0:0:
320,192,292491,1,0,0:0:0:0:
192,192,292491,128,0,292663:0:0:0:0:
448,192,292663,128,0,293008:0:0:0:0:
320,192,292663,1,0,0:0:0:0:
64,192,292663,1,0,0:0:0:0:
320,192,292836,128,0,292922:0:0:0:0:
192,192,292922,128,0,293008:0:0:0:0:
64,192,293008,128,0,293180:0:0:0:0:
192,192,293094,128,0,293180:0:0:0:0:
320,192,293180,128,0,293267:0:0:0:0:
448,192,293180,1,0,0:0:0:0:
64,192,293267,128,0,293353:0:0:0:0:
192,192,293353,128,0,293439:0:0:0:0:
320,192,293353,1,0,0:0:0:0:
448,192,293353,1,0,0:0:0:0:
64,192,293439,128,0,293525:0:0:0:0:
448,192,293525,128,0,293698:0:0:0:0:
320,192,293611,128,0,293698:0:0:0:0:
64,192,293698,128,0,293870:0:0:0:0:
192,192,293784,128,0,293870:0:0:0:0:
320,192,293870,1,0,0:0:0:0:
448,192,293870,1,0,0:0:0:0:
64,192,294042,1,0,0:0:0:0:
192,192,294042,128,0,294215:0:0:0:0:
448,192,294042,128,0,294215:0:0:0:0:
320,192,294129,1,0,0:0:0:0:
64,192,294215,1,0,0:0:0:0:
64,192,294301,1,0,0:0:0:0:
448,192,294387,128,0,294474:0:0:0:0:
320,192,294387,128,0,294646:0:0:0:0:
448,192,294560,1,0,0:0:0:0:
192,192,294646,1,0,0:0:0:0:
64,192,294646,1,0,0:0:0:0:
192,192,294732,128,0,294905:0:0:0:0:
320,192,294732,128,0,294818:0:0:0:0:
448,192,294732,128,0,294818:0:0:0:0:
320,192,294905,1,0,0:0:0:0:
448,192,294905,1,0,0:0:0:0:
64,192,294991,1,0,0:0:0:0:
320,192,295077,128,0,295163:0:0:0:0:
192,192,295106,128,0,295163:0:0:0:0:
64,192,295134,128,0,295163:0:0:0:0:
448,192,295163,1,0,0:0:0:0:
192,192,295249,128,0,295336:0:0:0:0:
320,192,295249,1,0,0:0:0:0:
448,192,295422,128,0,295508:0:0:0:0:
320,192,295422,1,0,0:0:0:0:
64,192,295422,1,0,0:0:0:0:
320,192,295594,128,0,295680:0:0:0:0:
448,192,295680,1,0,0:0:0:0:
192,192,295767,128,0,295853:0:0:0:0:
64,192,295853,1,0,0:0:0:0:
320,192,295939,1,0,0:0:0:0:
192,192,295939,1,0,0:0:0:0:
320,192,296025,128,0,296198:0:0:0:0:
448,192,296111,128,0,296198:0:0:0:0:
192,192,296111,128,0,296198:0:0:0:0:
64,192,296111,1,0,0:0:0:0:
64,192,296284,128,0,296456:0:0:0:0:
448,192,296370,1,0,0:0:0:0:
192,192,296456,1,0,0:0:0:0:
448,192,296542,1,0,0:0:0:0:
320,192,296586,1,0,0:0:0:0:
64,192,296629,1,0,0:0:0:0:
192,192,296629,1,0,0:0:0:0:
64,192,296715,128,0,296887:0:0:0:0:
192,192,296801,1,0,0:0:0:0:
320,192,296801,1,0,0:0:0:0:
448,192,296801,128,0,296887:0:0:0:0:
448,192,296974,128,0,297232:0:0:0:0:
320,192,297146,1,0,0:0:0:0:
192,192,297146,1,0,0:0:0:0:
64,192,297146,1,0,0:0:0:0:
192,192,297232,1,0,0:0:0:0:
448,192,297318,1,0,0:0:0:0:
320,192,297318,128,0,297577:0:0:0:0:
192,192,297491,128,0,297577:0:0:0:0:
64,192,297534,128,0,297577:0:0:0:0:
320,192,297663,1,0,0:0:0:0:
448,192,297663,1,0,0:0:0:0:
64,192,297749,1,0,0:0:0:0:
448,192,297836,128,0,298008:0:0:0:0:
320,192,297836,1,0,0:0:0:0:
192,192,297836,1,0,0:0:0:0:
64,192,297922,128,0,298008:0:0:0:0:
320,192,298008,128,0,298180:0:0:0:0:
192,192,298008,128,0,298094:0:0:0:0:
192,192,298180,128,0,298439:0:0:0:0:
320,192,298353,1,0,0:0:0:0:
448,192,298353,1,0,0:0:0:0:
448,192,298439,1,0,0:0:0:0:
64,192,298525,1,0,0:0:0:0:
192,192,298525,128,0,298611:0:0:0:0:
320,192,298611,128,0,298698:0:0:0:0:
448,192,298698,1,0,0:0:0:0:
192,192,298698,1,0,0:0:0:0:
64,192,298698,1,0,0:0:0:0:
192,192,298784,128,0,298870:0:0:0:0:
320,192,298784,1,0,0:0:0:0:
448,192,298870,128,0,298956:0:0:0:0:
64,192,298956,128,0,299042:0:0:0:0:
448,192,299042,128,0,299100:0:0:0:0:
320,192,299042,1,0,0:0:0:0:
192,192,299129,1,0,0:0:0:0:
448,192,299215,1,0,0:0:0:0:
320,192,299215,1,0,0:0:0:0:
64,192,299215,1,0,0:0:0:0:
320,192,299301,1,0,0:0:0:0:
192,192,299301,1,0,0:0:0:0:
448,192,299387,1,0,0:0:0:0:
64,192,299474,1,0,0:0:0:0:
448,192,299560,1,0,0:0:0:0:
320,192,299560,1,0,0:0:0:0:
192,192,299646,1,0,0:0:0:0:
64,192,299732,1,0,0:0:0:0:
320,192,299732,1,0,0:0:0:0:
448,192,299732,1,0,0:0:0:0:
448,192,299818,1,0,0:0:0:0:
320,192,299818,1,0,0:0:0:0:
64,192,299818,1,0,0:0:0:0:
448,192,299905,128,0,300163:0:0:0:0:
192,192,299905,128,0,300163:0:0:0:0:
64,192,299905,128,0,300163:0:0:0:0:
448,192,300249,1,0,0:0:0:0:
192,192,300249,1,0,0:0:0:0:
64,192,300249,1,0,0:0:0:0:
64,192,300422,128,0,300508:0:0:0:0:
192,192,300422,1,0,0:0:0:0:
448,192,300508,1,0,0:0:0:0:
320,192,300594,128,0,300680:0:0:0:0:
192,192,300623,128,0,300680:0:0:0:0:
64,192,300652,128,0,300680:0:0:0:0:
448,192,300680,1,0,0:0:0:0:
192,192,300767,128,0,300853:0:0:0:0:
320,192,300767,1,0,0:0:0:0:
64,192,300767,1,0,0:0:0:0:
448,192,300939,1,0,0:0:0:0:
320,192,301025,1,0,0:0:0:0:
64,192,301111,128,0,301198:0:0:0:0:
192,192,301140,1,0,0:0:0:0:
448,192,301198,128,0,301284:0:0:0:0:
320,192,301226,1,0,0:0:0:0:
64,192,301284,1,0,0:0:0:0:
192,192,301284,1,0,0:0:0:0:
448,192,301370,1,0,0:0:0:0:
192,192,301456,1,0,0:0:0:0:
64,192,301456,128,0,301542:0:0:0:0:
192,192,301542,128,0,301629:0:0:0:0:
64,192,301629,1,0,0:0:0:0:
320,192,301629,1,0,0:0:0:0:
448,192,301629,1,0,0:0:0:0:
320,192,301801,128,0,301887:0:0:0:0:
192,192,301801,1,0,0:0:0:0:
448,192,301887,1,0,0:0:0:0:
320,192,301974,128,0,302060:0:0:0:0:
192,192,302060,1,0,0:0:0:0:
320,192,302146,1,0,0:0:0:0:
448,192,302146,1,0,0:0:0:0:
64,192,302146,1,0,0:0:0:0:
448,192,302232,128,0,302749:0:0:0:0:
320,192,302318,128,0,302491:0:0:0:0:
192,192,302405,128,0,302577:0:0:0:0:
64,192,302491,128,0,302663:0:0:0:0:
320,192,302577,128,0,302749:0:0:0:0:
192,192,302663,128,0,302836:0:0:0:0:
64,192,302749,128,0,302836:0:0:0:0:
320,192,302836,1,0,0:0:0:0:
448,192,302836,128,0,303353:0:0:0:0:
192,192,303180,128,0,303353:0:0:0:0:
320,192,303180,128,0,303353:0:0:0:0:
64,192,303180,128,0,303267:0:0:0:0:
64,192,303353,1,0,0:0:0:0:
320,192,303439,1,0,0:0:0:0:
192,192,303525,1,0,0:0:0:0:
64,192,303525,1,0,0:0:0:0:
192,192,303611,1,0,0:0:0:0:
320,192,303611,1,0,0:0:0:0:
448,192,303611,1,0,0:0:0:0:
448,192,303698,128,0,303870:0:0:0:0:
192,192,303870,1,0,0:0:0:0:
64,192,303870,1,0,0:0:0:0:
320,192,303870,1,0,0:0:0:0:
320,192,303956,1,0,0:0:0:0:
448,192,303956,1,0,0:0:0:0:
64,192,304042,128,0,304215:0:0:0:0:
192,192,304042,1,0,0:0:0:0:
448,192,304129,128,0,304215:0:0:0:0:
192,192,304215,1,0,0:0:0:0:
320,192,304215,128,0,304301:0:0:0:0:
448,192,304301,1,0,0:0:0:0:
192,192,304301,128,0,304387:0:0:0:0:
64,192,304387,128,0,304560:0:0:0:0:
320,192,304474,128,0,304560:0:0:0:0:
192,192,304560,1,0,0:0:0:0:
448,192,304560,128,0,304646:0:0:0:0:
320,192,304646,128,0,304732:0:0:0:0:
64,192,304732,128,0,304905:0:0:0:0:
448,192,304818,1,0,0:0:0:0:
192,192,304818,128,0,304905:0:0:0:0:
320,192,304905,1,0,0:0:0:0:
448,192,304905,1,0,0:0:0:0:
192,192,304991,128,0,305077:0:0:0:0:
320,192,305077,1,0,0:0:0:0:
64,192,305077,128,0,305134:0:0:0:0:
64,192,305206,128,0,305263:0:0:0:0:
320,192,305206,1,0,0:0:0:0:
320,192,305336,1,0,0:0:0:0:
64,192,305336,128,0,305393:0:0:0:0:
320,192,305422,128,0,305680:0:0:0:0:
448,192,305422,128,0,305680:0:0:0:0:
192,192,305422,128,0,305680:0:0:0:0:
64,192,305767,128,0,306025:0:0:0:0:
320,192,305810,1,0,0:0:0:0:
448,192,305853,128,0,306025:0:0:0:0:
320,192,306025,1,0,0:0:0:0:
64,192,306111,1,0,0:0:0:0:
192,192,306111,1,0,0:0:0:0:
448,192,306111,1,0,0:0:0:0:
64,192,306198,1,0,0:0:0:0:
320,192,306284,1,0,0:0:0:0:
320,192,306370,1,0,0:0:0:0:
64,192,306456,1,0,0:0:0:0:
64,192,306542,1,0,0:0:0:0:
320,192,306629,1,0,0:0:0:0:
320,192,306715,1,0,0:0:0:0:
192,192,306801,1,0,0:0:0:0:
64,192,306801,1,0,0:0:0:0:
448,192,306887,1,0,0:0:0:0:
320,192,306930,1,0,0:0:0:0:
192,192,306974,1,0,0:0:0:0:
448,192,307146,128,0,307405:0:0:0:0:
192,192,307189,1,0,0:0:0:0:
64,192,307232,128,0,307405:0:0:0:0:
192,192,307405,1,0,0:0:0:0:
448,192,307491,1,0,0:0:0:0:
320,192,307491,1,0,0:0:0:0:
64,192,307491,1,0,0:0:0:0:
448,192,307577,1,0,0:0:0:0:
192,192,307663,1,0,0:0:0:0:
192,192,307749,1,0,0:0:0:0:
448,192,307836,1,0,0:0:0:0:
448,192,307922,1,0,0:0:0:0:
192,192,308008,1,0,0:0:0:0:
192,192,308094,1,0,0:0:0:0:
64,192,308180,128,0,308353:0:0:0:0:
320,192,308180,128,0,308267:0:0:0:0:
448,192,308180,128,0,308353:0:0:0:0:
320,192,308353,1,0,0:0:0:0:
192,192,308353,1,0,0:0:0:0:
448,192,308439,1,0,0:0:0:0:
192,192,308525,1,0,0:0:0:0:
64,192,308525,1,0,0:0:0:0:
448,192,308611,1,0,0:0:0:0:
320,192,308698,1,0,0:0:0:0:
192,192,308698,1,0,0:0:0:0:
448,192,308784,1,0,0:0:0:0:
64,192,308870,1,0,0:0:0:0:
192,192,308870,1,0,0:0:0:0:
64,192,308956,1,0,0:0:0:0:
320,192,309042,1,0,0:0:0:0:
448,192,309042,1,0,0:0:0:0:
320,192,309129,1,0,0:0:0:0:
64,192,309215,1,0,0:0:0:0:
192,192,309215,1,0,0:0:0:0:
64,192,309301,1,0,0:0:0:0:
320,192,309387,1,0,0:0:0:0:
448,192,309387,1,0,0:0:0:0:
320,192,309474,1,0,0:0:0:0:
64,192,309560,128,0,309703:0:0:0:0:
448,192,309560,128,0,309703:0:0:0:0:
192,192,309560,128,0,309703:0:0:0:0:
64,192,309790,128,0,309933:0:0:0:0:
192,192,309790,128,0,309933:0:0:0:0:
448,192,309790,128,0,309933:0:0:0:0:
192,192,310019,128,0,310163:0:0:0:0:
448,192,310019,128,0,310249:0:0:0:0:
64,192,310019,128,0,310249:0:0:0:0:
192,192,310249,1,0,0:0:0:0:
320,192,310249,1,0,0:0:0:0:
448,192,310594,1,0,0:0:0:0:
448,192,310680,1,0,0:0:0:0:
320,192,310767,1,0,0:0:0:0:
192,192,310853,1,0,0:0:0:0:
64,192,310939,5,0,0:0:0:0:
320,192,310939,1,0,0:0:0:0:
448,192,310939,1,0,0:0:0:0:
64,192,311801,1,0,0:0:0:0:
192,192,311974,1,0,0:0:0:0:
320,192,312146,1,0,0:0:0:0:
192,192,313698,1,0,0:0:0:0:
448,192,313698,1,0,0:0:0:0:
64,192,314560,1,0,0:0:0:0:
192,192,314732,1,0,0:0:0:0:
320,192,314905,1,0,0:0:0:0:
192,192,315077,1,0,0:0:0:0:
448,192,315594,1,0,0:0:0:0:
320,192,316111,1,0,0:0:0:0:
64,192,316456,1,0,0:0:0:0:
448,192,316456,1,0,0:0:0:0:
64,192,317318,1,0,0:0:0:0:
192,192,317491,1,0,0:0:0:0:
448,192,317663,1,0,0:0:0:0:
64,192,317836,1,0,0:0:0:0:
448,192,320077,1,0,0:0:0:0:
192,192,320594,1,0,0:0:0:0:
320,192,320594,128,0,321974:0:0:0:0:
192,192,321974,1,0,0:0:0:0:
64,192,321974,1,0,0:0:0:0:
64,192,323008,1,0,0:0:0:0:
320,192,323180,1,0,0:0:0:0:
192,192,324732,1,0,0:0:0:0:
448,192,324732,1,0,0:0:0:0:
192,192,325767,1,0,0:0:0:0:
320,192,325939,1,0,0:0:0:0:
448,192,326111,1,0,0:0:0:0:
320,192,326629,1,0,0:0:0:0:
192,192,327146,1,0,0:0:0:0:
64,192,327491,1,0,0:0:0:0:
448,192,327491,1,0,0:0:0:0:
64,192,328525,1,0,0:0:0:0:
320,192,328698,1,0,0:0:0:0:
448,192,328870,1,0,0:0:0:0:
320,192,330249,1,0,0:0:0:0:
64,192,330249,1,0,0:0:0:0:
448,192,331111,1,0,0:0:0:0:
64,192,331284,1,0,0:0:0:0:
320,192,331456,1,0,0:0:0:0:
448,192,331629,5,0,0:0:0:0:
320,192,332146,1,0,0:0:0:0:
192,192,332663,5,0,0:0:0:0:
