osu file format v14

[General]
AudioFilename: audio.mp3
AudioLeadIn: 0
PreviewTime: 244154
Countdown: 0
SampleSet: Normal
StackLeniency: 0.7
Mode: 1
LetterboxInBreaks: 0
WidescreenStoryboard: 0

[Editor]
DistanceSpacing: 0.2
BeatDivisor: 4
GridSize: 32
TimelineZoom: 2.2

[Metadata]
Title:Stealth-Dash
TitleUnicode:Σtealth-Δash
Artist:Camellia
ArtistUnicode:かめりあ
Creator:Cynplytholowazy
Version:Speed of Light
Source:
Tags:Electronic Instrumental Drumstep Hardcore Techno DnB Drum & Bass and Featured Artist FA osu! Heart of Android かめるかめりあ KamelCamellia Cametek Ooya Masaya 大箭将也 大箭マサヤ CTCD-018 C95 Comiket 95 コミックマーケット95 コミケ95 Comic Market
BeatmapID:3989822
BeatmapSetID:1931324

[Difficulty]
HPDrainRate:5
CircleSize:10
OverallDifficulty:7
ApproachRate:10
SliderMultiplier:1.4
SliderTickRate:1

[Events]
//Background and Video events
0,0,"6900272.jpg",0,-60
//Break Periods
2,2544,7066
2,8061,12066
2,56854,65859
//Storyboard Layer 0 (Background)
//Storyboard Layer 1 (Fail)
//Storyboard Layer 2 (Pass)
//Storyboard Layer 3 (Foreground)
//Storyboard Layer 4 (Overlay)
//Storyboard Sound Samples

[TimingPoints]
1482,344.827586206897,4,1,0,50,1,0
1482,-117.647058823529,4,1,0,50,0,0
12511,-100,4,1,0,50,0,0
12513,-100,4,1,0,50,0,0
12770,-100.70918101914,4,1,0,50,0,0
13028,-101.425695612608,4,1,0,50,0,0
13287,-102.155316075992,4,1,0,50,0,0
13545,-102.892631343367,4,1,0,50,0,0
13718,-103.39302279819,4,1,0,50,0,0
13890,-103.895370187283,4,1,0,50,0,0
14149,-104.661089294861,4,1,0,50,0,0
14408,-105.4381790557,4,1,0,50,0,0
14666,-106.223826714801,4,1,0,50,0,0
14925,-107.024384566141,4,1,0,50,0,0
15097,-107.562730303562,4,1,0,50,0,0
15270,-108.109696951883,4,1,0,50,0,0
15528,-108.935817314812,4,1,0,50,0,0
15787,-109.777936962751,4,1,0,50,0,0
16045,-110.629850207544,4,1,0,50,0,0
16304,-111.498469093885,4,1,0,50,0,0
16476,-112.082888922749,4,1,0,50,0,0
16649,-112.676919306415,4,1,0,50,0,0
16908,-113.578111972331,4,1,0,50,0,0
17166,-114.490272373541,4,1,0,50,0,0
17425,-115.420824703446,4,1,0,50,0,0
17683,-116.362946089598,4,1,0,50,0,0
17856,-117.003340225863,4,1,0,50,0,0
18028,-117.647058823529,4,1,0,70,0,0
23547,-117.647058823529,4,1,0,60,0,0
23804,-117.00097536152,4,1,0,60,0,0
24063,-116.361949347336,4,1,0,60,0,0
24321,-115.732293043059,4,1,0,60,0,0
24580,-115.107013225416,4,1,0,60,0,0
24752,-114.695489503222,4,1,0,60,0,0
24925,-114.284530787234,4,1,0,60,0,0
25183,-113.677097711213,4,1,0,60,0,0
25442,-113.073770491803,4,1,0,60,0,0
25701,-112.476813632565,4,1,0,60,0,0
25959,-111.888395482288,4,1,0,60,0,0
26132,-111.497272176197,4,1,0,60,0,0
26304,-111.111111111111,4,1,0,60,0,0
26563,-110.534644738687,4,1,0,60,0,0
26821,-109.966320572351,4,1,0,60,0,0
27080,-109.401641619414,4,1,0,60,0,0
27339,-108.842732311577,4,1,0,60,0,0
27511,-108.474709548055,4,1,0,60,0,0
27683,-108.109167140142,4,1,0,60,0,0
27942,-107.563352826511,4,1,0,60,0,0
28201,-107.023022168778,4,1,0,60,0,0
28459,-106.49014802092,4,1,0,60,0,0
28718,-105.960519241109,4,1,0,60,0,0
28890,-105.611698055428,4,1,0,60,0,0
29063,-105.263157894737,4,1,0,65,0,0
29149,-104.918781146574,4,1,0,65,0,0
29235,-104.576650362113,4,1,0,65,0,0
29321,-104.236743641105,4,1,0,65,0,0
29408,-103.895125442628,4,1,0,65,0,0
29494,-103.559627515771,4,1,0,65,0,0
29580,-103.226289392919,4,1,0,65,0,0
29666,-102.895090285032,4,1,0,65,0,0
29752,-102.566009669022,4,1,0,70,0,0
29839,-102.235237424473,4,1,0,70,0,0
29925,-101.910357314415,4,1,0,70,0,0
30011,-101.587535452503,4,1,0,70,0,0
30097,-101.266752340738,4,1,0,70,0,0
30183,-100.947988726621,4,1,0,70,0,0
30270,-100.627553998832,4,1,0,70,0,0
30356,-100.312795519022,4,1,0,70,0,0
30442,-100,4,1,0,75,0,0
30528,-99.6891491361238,4,1,0,75,0,0
30614,-99.3802248486596,4,1,0,75,0,0
30701,-99.0696504903193,4,1,0,75,0,0
30787,-98.7645478961504,4,1,0,75,0,0
30873,-98.461318767627,4,1,0,75,0,0
30959,-98.1599459016977,4,1,0,75,0,0
31045,-97.8604123052904,4,1,0,75,0,0
31132,-97.559250088433,4,1,0,80,0,0
31218,-97.2633657779659,4,1,0,80,0,0
31304,-96.9692707967091,4,1,0,80,0,0
31390,-96.6769489624229,4,1,0,80,0,0
31476,-96.3863842874118,4,1,0,80,0,0
31563,-96.0942127452005,4,1,0,80,0,0
31649,-95.8071351651787,4,1,0,80,0,0
31735,-95.5217677414886,4,1,0,80,0,0
31821,-95.2380952380952,4,1,0,85,0,0
31879,-94.8583997800385,4,1,0,85,0,0
31936,-94.488188976378,4,1,0,85,0,0
31994,-94.1144377003342,4,1,0,85,0,0
32080,-93.5656654688453,4,1,0,85,0,0
32166,-93.0232558139535,4,1,0,85,0,0
32224,-92.6609816692406,4,1,0,85,0,0
32281,-92.3076923076923,4,1,0,85,0,0
32339,-91.9509594882729,4,1,0,85,0,0
32425,-91.427057108785,4,1,0,85,0,0
32511,-90.9090909090909,4,1,0,90,0,0
32568,-90.5690096475684,4,1,0,90,0,0
32626,-90.2255639097744,4,1,0,90,0,0
32683,-89.8905680041688,4,1,0,90,0,0
32770,-89.3840274629186,4,1,0,90,0,0
32856,-88.8888888888889,4,1,0,90,0,0
32913,-88.5637273777436,4,1,0,90,0,0
32971,-88.2352941176471,4,1,0,90,0,0
33028,-87.9148881951966,4,1,0,90,0,0
33114,-87.4358486979662,4,1,0,90,0,0
33201,-86.9565217391304,4,1,0,90,0,0
34235,-100,4,1,0,80,0,0
34321,-98.7689665044374,4,1,0,80,0,0
34408,-97.5540788915595,4,1,0,80,0,0
34494,-96.3821762816036,4,1,0,80,0,0
34580,-80,4,1,0,80,0,0
35100,-71.4285714285714,4,1,0,80,0,0
35442,-90.9090909090909,4,1,0,80,0,0
35614,-92.3049455454383,4,1,0,80,0,0
35658,-92.6689370854992,4,1,0,80,0,0
35787,-93.7528334391151,4,1,0,80,0,0
35830,-94.1197888221373,4,1,0,80,0,0
35959,-80,4,1,0,80,0,0
36451,-71.4285714285714,4,1,0,80,0,0
36824,-95.2380952380952,4,1,0,80,0,0
37342,-80,4,1,0,80,0,0
37830,-71.4285714285714,4,1,0,80,0,0
38373,-90.9090909090909,4,1,0,80,0,0
38431,-91.3750441852245,4,1,0,80,0,0
38488,-91.8376409983125,4,1,0,80,0,0
38545,-92.3049455454383,4,1,0,80,0,0
38718,-93.7528334391151,4,1,0,80,0,0
38890,-95.2380952380952,4,1,0,80,0,0
39752,-100,4,1,0,80,0,0
39839,-98.754830399313,4,1,0,80,0,0
39925,-97.5540788915595,4,1,0,80,0,0
40011,-96.3821762816036,4,1,0,80,0,0
40097,-74.0740740740741,4,1,0,80,0,0
40589,-83.3333333333333,4,1,0,80,0,0
40934,-95.2380952380952,4,1,0,80,0,0
41451,-74.0740740740741,4,1,0,80,0,0
41943,-83.3333333333333,4,1,0,80,0,0
42313,-95.2380952380952,4,1,0,80,0,0
42571,-83.3333333333333,4,1,0,80,0,0
42830,-76.9230769230769,4,1,0,80,0,0
43089,-71.4285714285714,4,1,0,80,0,0
43347,-66.6666666666667,4,1,0,80,0,0
43520,-57.1428571428571,4,1,0,80,0,0
44209,-95.2380952380952,4,1,0,80,0,0
45270,-100,4,1,0,80,0,0
45356,-98.7689665044374,4,1,0,80,0,0
45443,-97.5540788915595,4,1,0,80,0,0
45529,-96.3821762816036,4,1,0,80,0,0
45615,-80,4,1,0,80,0,0
46135,-71.4285714285714,4,1,0,80,0,0
46476,-90.9090909090909,4,1,0,80,0,0
46534,-91.3741400599753,4,1,0,80,0,0
46591,-91.835830156901,4,1,0,80,0,0
46649,-92.3104339303217,4,1,0,80,0,0
46821,-93.7471722016107,4,1,0,80,0,0
46994,-80,4,1,0,80,0,0
47486,-71.4285714285714,4,1,0,80,0,0
47859,-95.2380952380952,4,1,0,80,0,0
48374,-80,4,1,0,80,0,0
48865,-71.4285714285714,4,1,0,80,0,0
49408,-90.9090909090909,4,1,0,80,0,0
49466,-91.3750441852245,4,1,0,80,0,0
49523,-91.8376409983125,4,1,0,80,0,0
49580,-92.3049455454383,4,1,0,80,0,0
49753,-93.7528334391151,4,1,0,80,0,0
49925,-95.2380952380952,4,1,0,80,0,0
50787,-100,4,1,0,80,0,0
50874,-98.754830399313,4,1,0,80,0,0
50960,-97.5540788915595,4,1,0,80,0,0
51046,-96.3821762816036,4,1,0,80,0,0
51132,-74.0740740740741,4,1,0,80,0,0
51624,-83.3333333333333,4,1,0,80,0,0
51969,-95.2380952380952,4,1,0,80,0,0
52486,-74.0740740740741,4,1,0,80,0,0
52978,-83.3333333333333,4,1,0,80,0,0
53348,-95.2380952380952,4,1,0,80,0,0
53606,-83.3333333333333,4,1,0,80,0,0
53865,-76.9230769230769,4,1,0,80,0,0
54124,-71.4285714285714,4,1,0,80,0,0
54382,-66.6666666666667,4,1,0,80,0,0
54555,-62.5,4,1,0,80,0,0
54870,-58.8235294117647,4,1,0,80,0,0
55043,-50,4,1,0,80,0,0
55244,-95.2380952380952,4,1,0,80,0,0
56650,-100,4,1,0,50,0,0
58031,-106.382978723404,4,1,0,50,0,0
59411,-112.359550561798,4,1,0,50,0,0
60790,-117.647058823529,4,1,0,50,0,0
62169,-121.951219512195,4,1,0,50,0,0
63548,-125,4,1,0,50,0,0
64928,-126.582278481013,4,1,0,50,0,0
66307,-100,4,1,0,50,0,0
67683,-90.9090909090909,4,1,0,80,0,0
67856,-91.1689384551838,4,1,0,80,0,0
67942,-91.2986647694369,4,1,0,80,0,0
68028,-91.4287607906815,4,1,0,80,0,0
68114,-91.5592281016145,4,1,0,80,0,0
68201,-91.6915918909937,4,1,0,80,0,0
68373,-91.9544060791894,4,1,0,80,0,0
68459,-92.0863789593138,4,1,0,80,0,0
68545,-92.2187311986095,4,1,0,80,0,0
68718,-92.4861304325964,4,1,0,80,0,0
68804,-92.6196350940799,4,1,0,80,0,0
68890,-92.7535257433898,4,1,0,80,0,0
68976,-92.8878040568976,4,1,0,80,0,0
69063,-93.0240399204289,4,1,0,80,0,0
69235,-93.2945592263213,4,1,0,80,0,0
69321,-93.4304097527938,4,1,0,80,0,0
69408,-93.5682430942974,4,1,0,80,0,0
69580,-93.8419414635806,4,1,0,80,0,0
69752,-94.1172457316345,4,1,0,80,0,0
69839,-94.2571145502374,4,1,0,80,0,0
69925,-94.3957848638292,4,1,0,80,0,0
70011,-94.5348637998972,4,1,0,80,0,0
70097,-94.67435316725,4,1,0,80,0,0
70270,-94.9562045051711,4,1,0,80,0,0
70327,-95.0494367313191,4,1,0,80,0,0
70385,-95.1444927236361,4,1,0,80,0,0
70442,-95.2380952380952,4,1,0,80,0,0
70614,-95.5216646182076,4,1,0,80,0,0
70701,-95.6657420249653,4,1,0,80,0,0
70787,-95.8085911726916,4,1,0,80,0,0
70873,-95.9518675662517,4,1,0,80,0,0
70959,-96.095573125283,4,1,0,80,0,0
71132,-96.3859630735908,4,1,0,80,0,0
71218,-96.5309728320767,4,1,0,80,0,0
71304,-96.6764195735585,4,1,0,80,0,0
71390,-96.8223052762717,4,1,0,80,0,0
71476,-96.9686319304103,4,1,0,80,0,0
71649,-97.2643305365579,4,1,0,80,0,0
71735,-97.4119973166684,4,1,0,80,0,0
71821,-97.5601131541726,4,1,0,80,0,0
71994,-97.8594356855303,4,1,0,80,0,0
72080,-98.0089163602778,4,1,0,80,0,0
72166,-98.1588543982923,4,1,0,80,0,0
72339,-98.4618678848007,4,1,0,80,0,0
72511,-98.7649901557186,4,1,0,80,0,0
72597,-98.9172522587122,4,1,0,80,0,0
72683,-99.0699845595892,4,1,0,80,0,0
72770,-99.2249734764705,4,1,0,80,0,0
72856,-99.3786582620441,4,1,0,80,0,0
73028,-99.6874604809134,4,1,0,80,0,0
73086,-99.7920245953522,4,1,0,80,0,0
73143,-99.8949998189652,4,1,0,80,0,0
73201,-100,4,1,0,80,0,0
73287,-99.7666805331983,4,1,0,80,0,0
73373,-99.5344472914937,4,1,0,80,0,0
73459,-99.3032927070769,4,1,0,80,0,0
73545,-99.073209282276,4,1,0,80,0,0
73632,-98.8415327963588,4,1,0,80,0,0
73718,-98.6135817146535,4,1,0,80,0,0
73804,-98.3866796279285,4,1,0,80,0,0
73890,-98.1608193118421,4,1,0,80,0,0
73976,-97.9359936082383,4,1,0,80,0,0
74063,-97.7095991355641,4,1,0,80,0,0
74149,-97.4868332685306,4,1,0,80,0,0
74235,-97.2650808485126,4,1,0,80,0,0
74321,-97.0443349753695,4,1,0,80,0,0
74408,-96.8220394765712,4,1,0,80,0,0
74494,-96.6032977521695,4,1,0,80,0,0
74580,-96.3855421686747,4,1,0,80,0,0
74666,-96.1687660724404,4,1,0,80,0,0
74752,-95.9529628695433,4,1,0,80,0,0
74839,-95.7356335803669,4,1,0,80,0,0
74925,-95.5217677414886,4,1,0,80,0,0
75011,-95.3088552915767,4,1,0,80,0,0
75097,-95.0968898696642,4,1,0,80,0,0
75183,-94.8858651712453,4,1,0,80,0,0
75270,-94.6733375097617,4,1,0,80,0,0
75356,-94.4641863252986,4,1,0,80,0,0
75442,-94.2559572123066,4,1,0,80,0,0
75528,-94.0486440865807,4,1,0,80,0,0
75614,-93.8422409173266,4,1,0,80,0,0
75701,-93.6343574944831,4,1,0,80,0,0
75787,-93.4297667643422,4,1,0,80,0,0
75873,-93.2260681449432,4,1,0,80,0,0
75959,-93.0232558139535,4,1,0,80,0,0
76017,-92.7512854118359,4,1,0,80,0,0
76074,-92.485549132948,4,1,0,80,0,0
76132,-92.2167092667769,4,1,0,80,0,0
76218,-91.8209491491591,4,1,0,80,0,0
76304,-91.4285714285714,4,1,0,80,0,0
76362,-91.1658326314225,4,1,0,80,0,0
76419,-90.9090909090909,4,1,0,80,0,0
76476,-90.6537912006701,4,1,0,80,0,0
76563,-90.2668759811617,4,1,0,80,0,0
76649,-89.8876404494382,4,1,0,80,0,0
76706,-89.6380377064354,4,1,0,80,0,0
76764,-89.3854748603352,4,1,0,80,0,0
76821,-89.1386493556826,4,1,0,80,0,0
76908,-88.7645327801631,4,1,0,80,0,0
76994,-88.3977900552486,4,1,0,80,0,0
77051,-88.1563817554619,4,1,0,80,0,0
77109,-87.9120879120879,4,1,0,80,0,0
77166,-87.6733215800257,4,1,0,80,0,0
77252,-87.3155222322403,4,1,0,80,0,0
77339,-86.9565217391304,4,1,0,80,0,0
78373,-95.2380952380952,4,1,0,80,0,0
78459,-94.1208566362024,4,1,0,80,0,0
78545,-93.0295267628421,4,1,0,80,0,0
78632,-91.9509594882729,4,1,0,80,0,0
78723,-80,4,1,0,85,0,1
79063,-90.9090909090909,4,1,0,85,0,1
79235,-91.5478573471138,4,1,0,85,0,1
79321,-91.8706186200959,4,1,0,85,0,1
79408,-92.1994569242162,4,1,0,85,0,1
79494,-92.5268373245252,4,1,0,85,0,1
79580,-92.8565509240076,4,1,0,85,0,1
79752,-93.5230782071613,4,1,0,85,0,1
79925,-94.2032031611249,4,1,0,85,0,1
80011,-94.5449943045184,4,1,0,85,0,1
80097,-94.8892746750222,4,1,0,85,0,1
80183,-95.2360715651693,4,1,0,85,0,1
80270,-95.5894898481488,4,1,0,85,0,1
80356,-95.9414333418957,4,1,0,85,0,1
80442,-96.2959779993125,4,1,0,85,0,1
80614,-97.012987012987,4,1,0,85,0,1
80701,-97.3797418850215,4,1,0,85,0,1
80787,-97.7450167924281,4,1,0,85,0,1
80873,-98.1130423361499,4,1,0,85,0,1
80959,-98.4838497033619,4,1,0,85,0,1
81132,-99.2383314144008,4,1,0,85,0,1
81304,-90.9090909090909,4,1,0,85,0,1
81390,-91.2044733262808,4,1,0,85,0,1
81476,-91.5017815177014,4,1,0,85,0,1
81563,-91.8045255752044,4,1,0,85,0,1
81649,-92.105765195162,4,1,0,85,0,1
81821,-92.7142143872182,4,1,0,85,0,1
81994,-93.3343643674606,4,1,0,85,0,1
82080,-93.6457444332376,4,1,0,85,0,1
82252,-94.2747793485902,4,1,0,85,0,1
82339,-94.5961832360202,4,1,0,85,0,1
82511,-90.9090909090909,4,1,0,85,0,1
82568,-91.1831596763104,4,1,0,85,0,1
82626,-91.4637381293437,4,1,0,85,0,1
82683,-91.7411664538101,4,1,0,85,0,1
82770,-92.1678695535953,4,1,0,85,0,1
82856,-92.5935871958752,4,1,0,85,0,1
83028,-93.456930666233,4,1,0,85,0,1
83201,-94.3416876436467,4,1,0,85,0,1
83287,-94.7877721574665,4,1,0,85,0,1
83373,-95.2380952380952,4,1,0,85,0,1
83459,-95.6927175843694,4,1,0,85,0,1
83545,-96.1517010596765,4,1,0,85,0,1
83632,-96.620523454576,4,1,0,85,0,1
83718,-97.0884721518274,4,1,0,85,0,1
83804,-97.5609756097561,4,1,0,85,0,1
83890,-98.0381006539665,4,1,0,85,0,1
83976,-98.5199154237385,4,1,0,85,0,1
84063,-99.0121755111417,4,1,0,85,0,1
84149,-99.5036361537574,4,1,0,85,0,1
84235,-100,4,1,0,85,0,1
84580,-90.9090909090909,4,1,0,85,0,1
84752,-91.3695120873944,4,1,0,85,0,1
84839,-91.6041801972014,4,1,0,85,0,1
84925,-91.8373387001302,4,1,0,85,0,1
85011,-92.0716871402291,4,1,0,85,0,1
85097,-92.3072346501666,4,1,0,85,0,1
85270,-92.7847382112849,4,1,0,85,0,1
85442,-93.2644044362959,4,1,0,85,0,1
85528,-93.5061021545879,4,1,0,85,0,1
85614,-93.7490558627149,4,1,0,85,0,1
85701,-93.9961226220768,4,1,0,85,0,1
85787,-94.2416327522323,4,1,0,85,0,1
85959,-94.7365207302925,4,1,0,85,0,1
86132,-95.2395567969062,4,1,0,85,0,1
86218,-95.4916140944761,4,1,0,85,0,1
86304,-95.7450091024098,4,1,0,85,0,1
86390,-95.9997524982211,4,1,0,85,0,1
86476,-96.2558550733629,4,1,0,85,0,1
86563,-96.5163297045101,4,1,0,85,0,1
86649,-96.7751996007984,4,1,0,85,0,1
86821,-97.2971278063464,4,1,0,85,0,1
86908,-97.5632762144317,4,1,0,85,0,1
86994,-97.8278003720168,4,1,0,85,0,1
87080,-98.0937628426011,4,1,0,85,0,1
87166,-98.361175389102,4,1,0,85,0,1
87252,-98.6300499030546,4,1,0,85,0,1
87339,-98.9035507107796,4,1,0,85,0,1
87425,-99.1754027103043,4,1,0,85,0,1
87511,-99.4487532850458,4,1,0,85,0,1
87597,-99.7236148605219,4,1,0,85,0,1
87683,-90.9090909090909,4,1,0,85,0,1
87770,-91.257939308398,4,1,0,85,0,1
87856,-91.6054192862835,4,1,0,85,0,1
88028,-92.308378691889,4,1,0,85,0,1
88201,-93.02639269817,4,1,0,85,0,1
88287,-93.3874971789664,4,1,0,85,0,1
88373,-93.7514160134125,4,1,0,85,0,1
88459,-94.1181822317245,4,1,0,85,0,1
88545,-94.4878293830205,4,1,0,85,0,1
88718,-95.240287239919,4,1,0,85,0,1
88890,-96.0003711952487,4,1,0,85,0,1
88948,-96.2594212338327,4,1,0,85,0,1
89005,-96.5153706208891,4,1,0,85,0,1
89063,-96.7772112820993,4,1,0,85,0,1
89149,-97.1680834076927,4,1,0,85,0,1
89235,-97.5621257132079,4,1,0,85,0,1
89293,-97.8296846186581,4,1,0,85,0,1
89350,-98.0940641001328,4,1,0,85,0,1
89408,-98.3645526290767,4,1,0,85,0,1
89580,-99.1755344645767,4,1,0,85,0,1
89666,-99.5860608394301,4,1,0,85,0,1
89752,-80,4,1,0,85,0,1
90097,-90.9090909090909,4,1,0,85,0,1
90270,-91.5513087508677,4,1,0,85,0,1
90356,-91.8739499241896,4,1,0,85,0,1
90442,-92.1988732162684,4,1,0,85,0,1
90528,-92.5261029260039,4,1,0,85,0,1
90614,-92.8556636984883,4,1,0,85,0,1
90787,-93.5257800767562,4,1,0,85,0,1
90959,-94.2016806722689,4,1,0,85,0,1
91045,-94.5433077506958,4,1,0,85,0,1
91132,-94.8914377618826,4,1,0,85,0,1
91218,-95.2380952380952,4,1,0,85,0,1
91304,-95.5872948198678,4,1,0,85,0,1
91390,-95.9390645727245,4,1,0,85,0,1
91476,-96.2934329768501,4,1,0,85,0,1
91649,-97.0142795326698,4,1,0,85,0,1
91735,-97.3766504517026,4,1,0,85,0,1
91821,-97.7417385997035,4,1,0,85,0,1
91908,-98.1138681020524,4,1,0,85,0,1
91994,-98.4845157039315,4,1,0,85,0,1
92166,-99.2342761032178,4,1,0,85,0,1
92339,-90.9090909090909,4,1,0,85,0,1
92425,-91.2047190501399,4,1,0,85,0,1
92511,-91.5022761760243,4,1,0,85,0,1
92597,-91.801781228591,4,1,0,85,0,1
92683,-92.1032533985031,4,1,0,85,0,1
92770,-92.4102524807479,4,1,0,85,0,1
92856,-92.7157409187007,4,1,0,85,0,1
93028,-93.332817397361,4,1,0,85,0,1
93114,-93.6444461699732,4,1,0,85,0,1
93287,-94.2776735459662,4,1,0,85,0,1
93373,-94.595654561142,4,1,0,85,0,1
93545,-90.9090909090909,4,1,0,85,0,1
93603,-91.1878204789343,4,1,0,85,0,1
93660,-91.4634146341463,4,1,0,85,0,1
93718,-91.7455589830869,4,1,0,85,0,1
93804,-92.1671297285745,4,1,0,85,0,1
93890,-92.5925925925926,4,1,0,85,0,1
94063,-93.4604757002763,4,1,0,85,0,1
94149,-93.8979913994883,4,1,0,85,0,1
94321,-94.7854277707566,4,1,0,85,0,1
94408,-95.2407243816254,4,1,0,85,0,1
94580,-96.1538461538461,4,1,0,85,0,1
94666,-96.6170045928083,4,1,0,85,0,1
94752,-97.0846465556056,4,1,0,85,0,1
94925,-98.0392156862745,4,1,0,85,0,1
95097,-99.0070596338174,4,1,0,85,0,1
95183,-99.4981830766569,4,1,0,85,0,1
95270,-80,4,1,0,85,0,1
95614,-100,4,1,0,85,0,1
95701,-99.3735147980125,4,1,0,85,0,1
95959,-97.5609756097561,4,1,0,85,0,1
96045,-96.9714004637763,4,1,0,85,0,1
96132,-96.3821762816036,4,1,0,85,0,1
96218,-95.8067203554568,4,1,0,85,0,1
96304,-95.2380952380952,4,1,0,85,0,1
96390,-94.6761800219539,4,1,0,85,0,1
96476,-94.1208566362024,4,1,0,85,0,1
96563,-93.5656654688453,4,1,0,85,0,1
96649,-93.0232558139535,4,1,0,85,0,1
96994,-100,4,1,0,85,0,1
97080,-99.3800759286847,4,1,0,85,0,1
97339,-97.5586743719778,4,1,0,85,0,1
97425,-96.9685602419525,4,1,0,85,0,1
97511,-96.3855421686747,4,1,0,85,0,1
97597,-95.8094929231625,4,1,0,85,0,1
97683,-95.2402882999056,4,1,0,85,0,1
97770,-94.671305621681,4,1,0,85,0,1
97856,-94.1155053929823,4,1,0,85,0,1
97942,-93.5661931046964,4,1,0,85,0,1
98028,-93.0232558139535,4,1,0,85,0,1
98201,-92.2167092667769,4,1,0,85,0,1
98287,-91.8209491491591,4,1,0,85,0,1
98373,-91.4285714285714,4,1,0,85,0,1
98459,-91.0395329276137,4,1,0,85,0,1
98545,-90.6537912006701,4,1,0,85,0,1
98718,-89.8876404494382,4,1,0,85,0,1
98804,-89.5115781280405,4,1,0,85,0,1
98890,-89.1386493556826,4,1,0,85,0,1
98976,-88.7688151292937,4,1,0,85,0,1
99063,-88.3977900552486,4,1,0,85,0,1
99149,-88.0340653557246,4,1,0,85,0,1
99235,-87.6733215800257,4,1,0,85,0,1
99321,-87.3155222322403,4,1,0,85,0,1
99408,-80,4,1,0,85,0,1
99640,-74.0740740740741,4,1,0,85,0,1
99870,-68.9655172413793,4,1,0,85,0,1
100102,-64.5161290322581,4,1,0,85,0,0
100442,-90.9090909090909,4,1,0,75,0,0
100528,-91.9509594882729,4,1,0,75,0,0
100614,-93.0169857104341,4,1,0,75,0,0
100701,-94.1208566362024,4,1,0,75,0,0
100792,-80,4,1,0,85,0,1
101132,-90.9090909090909,4,1,0,85,0,1
101304,-91.6017009213324,4,1,0,85,0,1
101390,-91.951978657181,4,1,0,85,0,1
101476,-92.3049455454383,4,1,0,85,0,1
101563,-92.6647846932832,4,1,0,85,0,1
101649,-93.0232558139535,4,1,0,85,0,1
101735,-93.3845111763378,4,1,0,85,0,1
101821,-93.7485833446666,4,1,0,85,0,1
101994,-94.4896280727406,4,1,0,85,0,1
102080,-94.8623853211009,4,1,0,85,0,1
102166,-95.2380952380952,4,1,0,85,0,1
102252,-94.6757749476503,4,1,0,85,0,1
102339,-94.1136324859239,4,1,0,85,0,1
102425,-93.5644739966754,4,1,0,85,0,1
102511,-93.0216870720766,4,1,0,85,0,1
102597,-92.4851614633983,4,1,0,85,0,1
102683,-91.9547894508719,4,1,0,85,0,1
102770,-91.4244041502304,4,1,0,85,0,1
102856,-90.906094465869,4,1,0,85,0,1
102942,-90.3936285274163,4,1,0,85,0,1
103028,-89.8869080598377,4,1,0,85,0,1
103114,-89.3858369794199,4,1,0,85,0,1
103201,-88.8845918334461,4,1,0,85,0,1
103287,-88.3946027370918,4,1,0,85,0,1
103373,-87.909986293947,4,1,0,85,0,1
103459,-87.4306546203836,4,1,0,85,0,1
103545,-86.9565217391304,4,1,0,85,0,1
103718,-87.6735835266453,4,1,0,85,0,1
103804,-88.0344607530313,4,1,0,85,0,1
103890,-88.3983211047387,4,1,0,85,0,1
103976,-88.7652017244708,4,1,0,85,0,1
104063,-89.1394601230958,4,1,0,85,0,1
104149,-89.5125314299619,4,1,0,85,0,1
104235,-89.888738658022,4,1,0,85,0,1
104321,-90.2681215135206,4,1,0,85,0,1
104408,-90.65518827627,4,1,0,85,0,1
104494,-91.0410823296486,4,1,0,85,0,1
104580,-91.4302757158006,4,1,0,85,0,1
104752,-92.2187311986095,4,1,0,85,0,1
104839,-92.6227444397818,4,1,0,85,0,1
104925,-93.0256081730364,4,1,0,85,0,1
105011,-93.4319917370765,4,1,0,85,0,1
105097,-93.8419414635806,4,1,0,85,0,1
105183,-94.2555045009651,4,1,0,85,0,1
105270,-94.6776020040493,4,1,0,85,0,1
105356,-95.0985798979733,4,1,0,85,0,1
105442,-95.5233182148669,4,1,0,85,0,1
105528,-95.9518675662517,4,1,0,85,0,1
105614,-96.3842794759825,4,1,0,85,0,1
105701,-96.8257032058819,4,1,0,85,0,1
105787,-97.2660450194779,4,1,0,85,0,1
105873,-97.7104102845608,4,1,0,85,0,1
105959,-98.1588543982923,4,1,0,85,0,1
106045,-98.6114337795093,4,1,0,85,0,1
106132,-99.0735420856076,4,1,0,85,0,1
106218,-99.5346152458602,4,1,0,85,0,1
106309,-100,4,1,0,85,0,0
106654,-80,4,1,0,85,0,1
106821,-90.9090909090909,4,1,0,85,0,1
106908,-91.3280711977539,4,1,0,85,0,1
106994,-91.7460486403065,4,1,0,85,0,1
107080,-92.1678695535953,4,1,0,85,0,1
107166,-92.5935871958752,4,1,0,85,0,1
107252,-93.0232558139535,4,1,0,85,0,1
107339,-93.4619971809606,4,1,0,85,0,1
107511,-94.3416876436467,4,1,0,85,0,1
107597,-94.7877721574665,4,1,0,85,0,1
107683,-95.2380952380952,4,1,0,85,0,1
107770,-94.6696851203951,4,1,0,85,0,1
107856,-94.1144377003342,4,1,0,85,0,1
107942,-93.5656654688453,4,1,0,85,0,1
108028,-93.0232558139535,4,1,0,85,0,1
108114,-92.4870987199249,4,1,0,85,0,1
108201,-91.9509594882729,4,1,0,85,0,1
108287,-91.427057108785,4,1,0,85,0,1
108373,-90.9090909090909,4,1,0,85,0,1
108459,-90.3969605659636,4,1,0,85,0,1
108545,-89.8905680041688,4,1,0,85,0,1
108632,-89.3840274629186,4,1,0,85,0,1
108718,-88.8888888888889,4,1,0,85,0,1
108804,-88.3992056882967,4,1,0,85,0,1
108890,-87.9148881951966,4,1,0,85,0,1
108976,-87.4358486979662,4,1,0,85,0,1
109063,-86.9565217391304,4,1,0,85,0,1
109149,-87.3116373306319,4,1,0,85,0,1
109235,-87.6696652786166,4,1,0,85,0,1
109321,-88.0306415576125,4,1,0,85,0,1
109408,-88.3988525457139,4,1,0,85,0,1
109580,-89.1359500993811,4,1,0,85,0,1
109666,-89.5091277890467,4,1,0,85,0,1
109752,-89.8854433164404,4,1,0,85,0,1
109839,-90.2693679835041,4,1,0,85,0,1
109925,-90.6521167499343,4,1,0,85,0,1
110011,-91.0381251031523,4,1,0,85,0,1
110097,-91.4274348604389,4,1,0,85,0,1
110183,-91.8200885574458,4,1,0,85,0,1
110270,-92.2207546854363,4,1,0,85,0,1
110356,-92.6202669801024,4,1,0,85,0,1
110442,-93.0232558139535,4,1,0,85,0,1
110528,-93.4297667643422,4,1,0,85,0,1
110614,-93.839846208809,4,1,0,85,0,1
110701,-94.2583732057416,4,1,0,85,0,1
110787,-94.6757749476503,4,1,0,85,0,1
110959,-95.5217677414886,4,1,0,85,0,1
111017,-95.8104634197179,4,1,0,85,0,1
111074,-96.0958868312399,4,1,0,85,0,1
111132,-96.3880685690321,4,1,0,85,0,1
111218,-96.8245888114589,4,1,0,85,0,1
111304,-97.2650808485126,4,1,0,85,0,1
111362,-97.5644268355236,4,1,0,85,0,1
111419,-97.8604123052904,4,1,0,85,0,1
111476,-98.1581991280363,4,1,0,85,0,1
111563,-98.6162262666714,4,1,0,85,0,1
111649,-99.073209282276,4,1,0,85,0,1
111735,-99.5344472914937,4,1,0,85,0,1
111826,-100,4,1,0,65,0,0
112688,-80,4,1,0,85,0,1
112856,-90.9090909090909,4,1,0,85,0,1
112971,-92.3076923076923,4,1,0,85,0,1
113086,-93.75,4,1,0,85,0,1
113201,-95.2380952380952,4,1,0,85,0,1
113287,-94.6757749476503,4,1,0,85,0,1
113373,-94.1200559669658,4,1,0,85,0,1
113459,-93.5708227311281,4,1,0,85,0,1
113545,-93.0279623570682,4,1,0,85,0,1
113632,-92.4851614633983,4,1,0,85,0,1
113718,-91.9547894508719,4,1,0,85,0,1
113804,-91.4304657715896,4,1,0,85,0,1
113890,-90.9120875498566,4,1,0,85,0,1
113976,-90.3995542298994,4,1,0,85,0,1
114063,-89.8869080598377,4,1,0,85,0,1
114149,-89.3858369794199,4,1,0,85,0,1
114235,-88.8903213330325,4,1,0,85,0,1
114321,-88.4002692393987,4,1,0,85,0,1
114408,-87.909986293947,4,1,0,85,0,1
114494,-87.4306546203836,4,1,0,85,0,1
114580,-86.9565217391304,4,1,0,85,0,1
114752,-87.6694046805739,4,1,0,85,0,1
114925,-88.3983211047387,4,1,0,85,0,1
115097,-89.1351403741156,4,1,0,85,0,1
115183,-89.5081754477031,4,1,0,85,0,1
115270,-89.888738658022,4,1,0,85,0,1
115356,-90.2681215135206,4,1,0,85,0,1
115442,-90.6507203758769,4,1,0,85,0,1
115528,-91.0365763120123,4,1,0,85,0,1
115614,-91.4257310910447,4,1,0,85,0,1
115672,-91.6900682939798,4,1,0,85,0,1
115729,-91.9513414430928,4,1,0,85,0,1
115787,-92.2187311986095,4,1,0,85,0,1
115873,-92.6180804995133,4,1,0,85,0,1
115959,-93.0209035738368,4,1,0,85,0,1
116045,-93.4272459449392,4,1,0,85,0,1
116132,-93.8419414635806,4,1,0,85,0,1
116218,-94.2555045009651,4,1,0,85,0,1
116304,-94.6727288324612,4,1,0,85,0,1
116476,-95.5183575966349,4,1,0,85,0,1
116563,-95.9518675662517,4,1,0,85,0,1
116649,-96.3842794759825,4,1,0,85,0,1
116735,-96.8206064008984,4,1,0,85,0,1
116821,-97.2609017520358,4,1,0,85,0,1
116994,-98.1588543982923,4,1,0,85,0,1
117080,-98.6114337795093,4,1,0,85,0,1
117166,-99.0682058923859,4,1,0,85,0,1
117252,-99.5292292707563,4,1,0,85,0,1
117344,-100,4,1,0,85,0,0
117688,-80,4,1,0,85,0,1
117856,-100,4,1,0,85,0,1
117913,-99.8096001603367,4,1,0,85,0,1
117971,-99.6166027671278,4,1,0,85,0,1
118028,-99.4276587248769,4,1,0,85,0,1
118114,-99.1439378857257,4,1,0,85,0,1
118201,-98.8585607940447,4,1,0,85,0,1
118287,-98.5780739665468,4,1,0,85,0,1
118373,-98.2991742606178,4,1,0,85,0,1
118459,-98.0218482432831,4,1,0,85,0,1
118545,-97.7460826327325,4,1,0,85,0,1
118632,-97.4686847599165,4,1,0,85,0,1
118718,-97.1960184763516,4,1,0,85,0,1
118804,-96.924873491631,4,1,0,85,0,1
118890,-96.6552371094003,4,1,0,85,0,1
118976,-96.3870967741936,4,1,0,85,0,1
119063,-96.1173480876251,4,1,0,85,0,1
119149,-95.8521797709556,4,1,0,85,0,1
119235,-95.5884705204901,4,1,0,85,0,1
119321,-95.3262083266869,4,1,0,85,0,1
119408,-95.0623568338,4,1,0,85,0,1
119494,-94.802969731582,4,1,0,85,0,1
119580,-94.5449943045184,4,1,0,85,0,1
119666,-94.2884190596403,4,1,0,85,0,1
119752,-94.0332326283988,4,1,0,85,0,1
119839,-93.7764805573863,4,1,0,85,0,1
119925,-93.5240539610004,4,1,0,85,0,1
120011,-93.272982675199,4,1,0,85,0,1
120097,-93.0232558139535,4,1,0,85,0,1
120155,-92.7510887659532,4,1,0,85,0,1
120212,-92.4851614633983,4,1,0,85,0,1
120270,-92.2161294636886,4,1,0,85,0,1
120356,-91.8200885574458,4,1,0,85,0,1
120442,-91.4274348604389,4,1,0,85,0,1
120499,-91.1690329405154,4,1,0,85,0,1
120557,-90.9075926627882,4,1,0,85,0,1
120614,-90.6521167499343,4,1,0,85,0,1
120701,-90.2649364250765,4,1,0,85,0,1
120787,-89.8854433164404,4,1,0,85,0,1
120844,-89.635672267542,4,1,0,85,0,1
120902,-89.3829401088929,4,1,0,85,0,1
120959,-89.1359500993811,4,1,0,85,0,1
121045,-88.7658711639658,4,1,0,85,0,1
121132,-88.3946027370918,4,1,0,85,0,1
121189,-88.1530372524891,4,1,0,85,0,1
121247,-87.908585271009,4,1,0,85,0,1
121304,-87.6696652786166,4,1,0,85,0,1
121390,-87.3116373306319,4,1,0,85,0,1
121482,-86.9565217391304,4,1,0,85,0,0
121649,-93.0232558139535,4,1,0,85,0,0
121735,-93.6752879808737,4,1,0,85,0,0
121821,-94.3365253077975,4,1,0,85,0,0
121908,-95.0150183251123,4,1,0,85,0,0
121994,-95.6953734284366,4,1,0,85,0,0
122080,-96.3855421686747,4,1,0,85,0,0
122166,-97.0857384203858,4,1,0,85,0,0
122252,-97.7961823184049,4,1,0,85,0,0
122339,-98.5255457766602,4,1,0,85,0,0
122425,-99.2572974840233,4,1,0,85,0,0
122511,-100,4,1,0,85,0,0
122513,-100,4,1,0,80,0,0
122856,-95.2380952380952,4,1,0,80,0,0
123028,-95.5217161704743,4,1,0,80,0,0
123114,-95.664161052878,4,1,0,80,0,0
123287,-95.9519979129527,4,1,0,80,0,0
123373,-96.0957299495746,4,1,0,80,0,0
123545,-96.3844897317412,4,1,0,80,0,0
123632,-96.531210358252,4,1,0,80,0,0
123804,-96.8225972043067,4,1,0,80,0,0
123890,-96.9689513046076,4,1,0,80,0,0
124063,-97.2647056230882,4,1,0,80,0,0
124149,-97.412400349604,4,1,0,80,0,0
124235,-97.5605443018948,4,1,0,80,0,0
124408,-97.8599239044637,4,1,0,80,0,0
124494,-98.0094332080902,4,1,0,80,0,0
124666,-98.3098265277939,4,1,0,80,0,0
124752,-98.4607147637532,4,1,0,80,0,0
124925,-98.7656531118252,4,1,0,80,0,0
125011,-98.9179449021489,4,1,0,80,0,0
125183,-99.2239418001313,4,1,0,80,0,0
125270,-99.3794414071999,4,1,0,80,0,0
125442,-99.6883046483263,4,1,0,80,0,0
125499,-99.7910844615677,4,1,0,80,0,0
125557,-99.8958852021185,4,1,0,80,0,0
125614,-99.9990937185634,4,1,0,80,0,0
125787,-100.313650620483,4,1,0,80,0,0
125873,-100.4707574916,4,1,0,80,0,0
126045,-100.786452196312,4,1,0,80,0,0
126132,-100.94689172499,4,1,0,80,0,0
126304,-101.265590440616,4,1,0,80,0,0
126390,-101.425695612608,4,1,0,80,0,0
126563,-101.749306087069,4,1,0,80,0,0
126649,-101.910945682593,4,1,0,80,0,0
126821,-102.235770474487,4,1,0,80,0,0
126908,-102.400861228922,4,1,0,80,0,0
126994,-102.564579247265,4,1,0,80,0,0
127166,-102.893590831523,4,1,0,80,0,0
127252,-103.058889459674,4,1,0,80,0,0
127425,-103.39302279819,4,1,0,80,0,0
127511,-103.559931297925,4,1,0,80,0,0
127683,-103.895370187283,4,1,0,80,0,0
127770,-104.065868771751,4,1,0,80,0,0
127942,-104.404598571226,4,1,0,80,0,0
128028,-104.574791731825,4,1,0,80,0,0
128201,-104.918843363412,4,1,0,80,0,0
128258,-105.03269778112,4,1,0,80,0,0
128316,-105.148803567855,4,1,0,80,0,0
128373,-105.263157894737,4,1,0,80,0,0
128459,-104.918905557774,4,1,0,80,0,0
128545,-104.576897564674,4,1,0,80,0,0
128632,-104.233174030488,4,1,0,80,0,0
128718,-103.895614844383,4,1,0,80,0,0
128804,-103.560234971755,4,1,0,80,0,0
128890,-103.227013375737,4,1,0,80,0,0
128976,-102.895929289351,4,1,0,80,0,0
129063,-102.56314938384,4,1,0,80,0,0
129149,-102.236303336854,4,1,0,80,0,0
129235,-101.911533844307,4,1,0,80,0,0
129321,-101.588821179373,4,1,0,80,0,0
129408,-101.264428988273,4,1,0,80,0,0
129494,-100.945795144796,4,1,0,80,0,0
129580,-100.629160207896,4,1,0,80,0,0
129666,-100.314505426582,4,1,0,80,0,0
129752,-100.001812283659,4,1,0,80,0,0
129839,-99.6874604809134,4,1,0,80,0,0
129925,-99.3786582620441,4,1,0,80,0,0
130011,-99.071763290662,4,1,0,80,0,0
130097,-98.7667579516369,4,1,0,80,0,0
130183,-98.4636248460948,4,1,0,80,0,0
130270,-98.1588543982923,4,1,0,80,0,0
130356,-97.8594356855303,4,1,0,80,0,0
130442,-97.5618380805884,4,1,0,80,0,0
130528,-97.2660450194779,4,1,0,80,0,0
130614,-96.9720401384813,4,1,0,80,0,0
130701,-96.6764195735585,4,1,0,80,0,0
130787,-96.3859630735908,4,1,0,80,0,0
130873,-96.0972466519218,4,1,0,80,0,0
130959,-95.8102547184554,4,1,0,80,0,0
131045,-95.5249718687787,4,1,0,80,0,0
131132,-95.2380952380952,4,1,0,80,0,0
131189,-94.8646510508032,4,1,0,80,0,0
131247,-94.4876494569872,4,1,0,80,0,0
131304,-94.1200559669658,4,1,0,80,0,0
131390,-93.5708227311281,4,1,0,80,0,0
131476,-93.0279623570682,4,1,0,80,0,0
131534,-92.6653899136512,4,1,0,80,0,0
131591,-92.3118117615557,4,1,0,80,0,0
131649,-91.9547894508719,4,1,0,80,0,0
131735,-91.4304657715896,4,1,0,80,0,0
131821,-90.9120875498566,4,1,0,80,0,0
131879,-90.5657899057564,4,1,0,80,0,0
131936,-90.2280236856741,4,1,0,80,0,0
131994,-89.8869080598377,4,1,0,80,0,0
132080,-89.3858369794199,4,1,0,80,0,0
132166,-88.8903213330325,4,1,0,80,0,0
132224,-88.5592267925377,4,1,0,80,0,0
132281,-88.2362350833413,4,1,0,80,0,0
132339,-87.909986293947,4,1,0,80,0,0
132425,-87.4306546203836,4,1,0,80,0,0
132511,-86.9565217391304,4,1,0,80,0,0
133545,-100,4,1,0,80,0,0
133632,-98.754830399313,4,1,0,80,0,0
133718,-97.5540788915595,4,1,0,80,0,0
133804,-96.3821762816036,4,1,0,80,0,0
133895,-80,4,1,0,90,0,1
134235,-86.9565217391304,4,1,0,90,0,1
134408,-87.5018123821952,4,1,0,90,0,1
134494,-87.7754345138535,4,1,0,90,0,1
134580,-88.0507732710826,4,1,0,90,0,1
134666,-88.3278448591292,4,1,0,90,0,1
134752,-88.6066656878579,4,1,0,90,0,1
134839,-88.8905254630482,4,1,0,90,0,1
134925,-89.1729156662111,4,1,0,90,0,1
135011,-89.4571057995183,4,1,0,90,0,1
135097,-89.743113126882,4,1,0,90,0,1
135183,-90.0309551337038,4,1,0,90,0,1
135270,-90.3240290353962,4,1,0,90,0,1
135356,-90.6156156156156,4,1,0,90,0,1
135442,-90.9090909090909,4,1,0,90,0,1
135528,-91.2044733262808,4,1,0,90,0,1
135614,-91.5017815177015,4,1,0,90,0,1
135701,-91.8045255752044,4,1,0,90,0,1
135787,-92.105765195162,4,1,0,90,0,1
135873,-92.4089882479041,4,1,0,90,0,1
135959,-92.7142143872182,4,1,0,90,0,1
136304,-93.9592090923245,4,1,0,90,0,1
136362,-94.1718030740423,4,1,0,90,0,1
136419,-94.3816710325683,4,1,0,90,0,1
136476,-94.5924764890282,4,1,0,90,0,1
136649,-95.2380952380952,4,1,0,90,0,1
139752,-86.9565217391304,4,1,0,90,0,1
139925,-87.5018123821952,4,1,0,90,0,1
140011,-87.7754345138535,4,1,0,90,0,1
140097,-88.0507732710826,4,1,0,90,0,1
140183,-88.3278448591292,4,1,0,90,0,1
140270,-88.6099181441104,4,1,0,90,0,1
140356,-88.8905254630482,4,1,0,90,0,1
140442,-89.1729156662111,4,1,0,90,0,1
140528,-89.4571057995183,4,1,0,90,0,1
140614,-89.743113126882,4,1,0,90,0,1
140701,-90.0343129941817,4,1,0,90,0,1
140787,-90.3240290353962,4,1,0,90,0,1
140873,-90.6156156156156,4,1,0,90,0,1
140959,-90.9090909090909,4,1,0,90,0,1
141045,-91.2044733262808,4,1,0,90,0,1
141132,-91.5052499905235,4,1,0,90,0,1
141218,-91.8045255752044,4,1,0,90,0,1
141304,-92.105765195162,4,1,0,90,0,1
141390,-92.4089882479041,4,1,0,90,0,1
141476,-92.7142143872182,4,1,0,90,0,1
141821,-93.9592090923245,4,1,0,90,0,1
141879,-94.1718030740423,4,1,0,90,0,1
141936,-94.3816710325683,4,1,0,90,0,1
141994,-94.5961832360202,4,1,0,90,0,1
142166,-95.2380952380952,4,1,0,90,0,1
143632,-94.9530395293632,4,1,0,90,0,1
143718,-94.6729324597812,4,1,0,90,0,1
143890,-94.1176470588235,4,1,0,90,0,1
144063,-93.5656654688453,4,1,0,90,0,1
144235,-93.0232558139535,4,1,0,90,0,1
144408,-92.4839995978957,4,1,0,90,0,1
144580,-91.9540229885057,4,1,0,90,0,1
144637,-91.779728651237,4,1,0,90,0,1
144695,-91.6030534351145,4,1,0,90,0,1
144752,-91.4300857985225,4,1,0,90,0,1
144839,-91.1673383101011,4,1,0,90,0,1
144925,-80,4,1,0,90,0,1
145270,-86.9565217391304,4,1,0,90,0,1
145442,-87.4988668298432,4,1,0,90,0,1
145528,-87.7725842533147,4,1,0,90,0,1
145614,-88.0480195581179,4,1,0,90,0,1
145701,-88.3284221315226,4,1,0,90,0,1
145787,-88.6073625263931,4,1,0,90,0,1
145873,-88.8880702853038,4,1,0,90,0,1
145959,-89.1705622586427,4,1,0,90,0,1
146045,-89.454855511687,4,1,0,90,0,1
146132,-89.7443049744305,4,1,0,90,0,1
146218,-90.0322743130049,4,1,0,90,0,1
146304,-90.3220976586626,4,1,0,90,0,1
146390,-90.6137929739575,4,1,0,90,0,1
146476,-90.9073784542355,4,1,0,90,0,1
146563,-91.2063198079867,4,1,0,90,0,1
146649,-91.503763675319,4,1,0,90,0,1
146735,-91.8031539500466,4,1,0,90,0,1
146821,-92.1045098001794,4,1,0,90,0,1
146908,-92.4113896176014,4,1,0,90,0,1
146994,-92.7167585637164,4,1,0,90,0,1
147339,-93.9623449699188,4,1,0,90,0,1
147396,-94.171366128749,4,1,0,90,0,1
147454,-94.3850110500479,4,1,0,90,0,1
147511,-94.5959190073897,4,1,0,90,0,1
147683,-95.2380952380952,4,1,0,90,0,1
150445,-80,4,1,0,90,0,1
150787,-100,4,1,0,90,0,1
150875,-99.3800759286847,4,1,0,90,0,1
150959,-98.7677906199255,4,1,0,90,0,1
151047,-98.1630037499407,4,1,0,90,0,1
151132,-97.5586743719778,4,1,0,90,0,1
151218,-96.9685602419525,4,1,0,90,0,1
151304,-96.3855421686747,4,1,0,90,0,1
151390,-95.8094929231625,4,1,0,90,0,1
151476,-95.2402882999056,4,1,0,90,0,1
151563,-94.671305621681,4,1,0,90,0,1
151649,-94.1155053929823,4,1,0,90,0,1
151735,-93.5661931046964,4,1,0,90,0,1
151821,-93.0232558139535,4,1,0,90,0,1
152166,-100,4,1,0,90,0,1
152254,-99.3806711796054,4,1,0,90,0,1
152339,-98.7618979460388,4,1,0,90,0,1
152427,-98.157763710079,4,1,0,90,0,1
152511,-97.5609756097561,4,1,0,90,0,1
152597,-96.9714004637763,4,1,0,90,0,1
152683,-96.3889082908431,4,1,0,90,0,1
152770,-95.8067203554568,4,1,0,90,0,1
152856,-95.2380952380952,4,1,0,90,0,1
152942,-94.6761800219539,4,1,0,90,0,1
153028,-94.1208566362024,4,1,0,90,0,1
153114,-93.5720097640358,4,1,0,90,0,1
153201,-93.0232558139535,4,1,0,90,0,1
153373,-92.2207546854363,4,1,0,90,0,1
153459,-91.8246741356062,4,1,0,90,0,1
153545,-91.4319813025245,4,1,0,90,0,1
153632,-91.0381251031523,4,1,0,90,0,1
153718,-90.6521167499343,4,1,0,90,0,1
153890,-89.8898376898507,4,1,0,90,0,1
153976,-89.5134854435104,4,1,0,90,0,1
154063,-89.1359500993811,4,1,0,90,0,1
154149,-88.7658711639658,4,1,0,90,0,1
154235,-88.3988525457139,4,1,0,90,0,1
154321,-88.0348564406212,4,1,0,90,0,1
154408,-87.6696652786166,4,1,0,90,0,1
154494,-87.3116373306319,4,1,0,90,0,1
154580,-80,4,1,0,90,0,1
154813,-74.0740740740741,4,1,0,90,0,1
155043,-68.9655172413793,4,1,0,90,0,1
155275,-64.5161290322581,4,1,0,90,0,0
155614,-90.9090909090909,4,1,0,80,0,0
155701,-91.9632147141143,4,1,0,80,0,0
155787,-93.0295267628421,4,1,0,80,0,0
155873,-94.1208566362024,4,1,0,80,0,0
155964,-80,4,1,0,90,0,1
156307,-95.2380952380952,4,1,0,90,0,1
160183,-94.9561025994147,4,1,0,90,0,1
160270,-94.6725250583551,4,1,0,90,0,1
160356,-94.3938667944418,4,1,0,90,0,1
160442,-94.1168441168441,4,1,0,90,0,1
160528,-93.841442667574,4,1,0,90,0,1
160614,-93.5676482562084,4,1,0,90,0,1
160701,-93.292291039475,4,1,0,90,0,1
160787,-93.0216870720766,4,1,0,90,0,1
160959,-92.4851614633983,4,1,0,90,0,1
161017,-92.3056327186318,4,1,0,90,0,1
161074,-92.129877071085,4,1,0,90,0,1
161132,-91.9517236780689,4,1,0,90,0,1
161218,-91.688829787234,4,1,0,90,0,1
161304,-91.4274348604389,4,1,0,90,0,1
161390,-91.1675261139759,4,1,0,90,0,1
161476,-80,4,1,0,90,0,1
161824,-95.2380952380952,4,1,0,90,0,1
166309,-90.9090909090909,4,1,0,80,0,0
166362,-91.2577701362253,4,1,0,80,0,0
166419,-91.6030534351145,4,1,0,80,0,0
166476,-91.9509594882729,4,1,0,80,0,0
166563,-92.4870987199249,4,1,0,80,0,0
166649,-93.0232558139535,4,1,0,80,0,0
166735,-93.5656654688453,4,1,0,80,0,0
166821,-94.1144377003342,4,1,0,80,0,0
166908,-94.6761800219539,4,1,0,80,0,0
166999,-80,4,1,0,90,0,1
167342,-95.2380952380952,4,1,0,90,0,1
171132,-90.9090909090909,4,1,0,90,0,1
171218,-91.4274348604389,4,1,0,90,0,1
171304,-91.9517236780689,4,1,0,90,0,1
171390,-92.4820602239957,4,1,0,90,0,1
171476,-93.0185497470489,4,1,0,90,0,1
171563,-93.5676482562084,4,1,0,90,0,1
171649,-94.1168441168441,4,1,0,90,0,1
171735,-94.6725250583551,4,1,0,90,0,1
171821,-95.2348066298343,4,1,0,90,0,1
171908,-95.8104634197179,4,1,0,90,0,1
171994,-96.3863842874118,4,1,0,90,0,1
172166,-97.559250088433,4,1,0,90,0,1
172224,-97.9612133267031,4,1,0,90,0,1
172281,-98.3594864479315,4,1,0,90,0,1
172339,-98.7680848016043,4,1,0,90,0,1
172516,-100,4,1,0,90,0,0
172861,-80,4,1,0,90,0,1
173028,-100,4,1,0,90,0,1
173086,-99.8063525274334,4,1,0,90,0,1
173143,-99.6167731185782,4,1,0,90,0,1
173201,-99.4246055942971,4,1,0,90,0,1
173287,-99.1410283339045,4,1,0,90,0,1
173373,-98.8590641018575,4,1,0,90,0,1
173459,-98.5786991744803,4,1,0,90,0,1
173545,-98.299919983339,4,1,0,90,0,1
173632,-98.0194989725878,4,1,0,90,0,1
173718,-97.7438692098093,4,1,0,90,0,1
173804,-97.4697852360664,4,1,0,90,0,1
173890,-97.1972340840613,4,1,0,90,0,1
173976,-96.9262029311314,4,1,0,90,0,1
174063,-96.6535539149647,4,1,0,90,0,1
174149,-96.3855421686747,4,1,0,90,0,1
174235,-96.1190126579565,4,1,0,90,0,1
174321,-95.8539531204908,4,1,0,90,0,1
174408,-95.5872948198678,4,1,0,90,0,1
174494,-95.3251557218478,4,1,0,90,0,1
174580,-95.0644504748982,4,1,0,90,0,1
174666,-94.8051673467662,4,1,0,90,0,1
174752,-94.547294732847,4,1,0,90,0,1
174839,-94.287847087149,4,1,0,90,0,1
174925,-94.0327772593346,4,1,0,90,0,1
175011,-93.7790837507451,4,1,0,90,0,1
175097,-93.5267554517296,4,1,0,90,0,1
175183,-93.2757813718862,4,1,0,90,0,1
175270,-93.0232558139535,4,1,0,90,0,1
175327,-92.7557678078967,4,1,0,90,0,1
175385,-92.4851614633983,4,1,0,90,0,1
175442,-92.2207546854363,4,1,0,90,0,1
175528,-91.8246741356062,4,1,0,90,0,1
175614,-91.4319813025245,4,1,0,90,0,1
175672,-91.1690329405154,4,1,0,90,0,1
175729,-90.9120875498566,4,1,0,90,0,1
175787,-90.6521167499343,4,1,0,90,0,1
175873,-90.2693679835041,4,1,0,90,0,1
175959,-89.8898376898507,4,1,0,90,0,1
176017,-89.635672267542,4,1,0,90,0,1
176074,-89.3872854850994,4,1,0,90,0,1
176132,-89.1359500993811,4,1,0,90,0,1
176218,-88.7658711639658,4,1,0,90,0,1
176304,-88.3988525457139,4,1,0,90,0,1
176362,-88.1530372524891,4,1,0,90,0,1
176419,-87.9127884737983,4,1,0,90,0,1
176476,-87.6738456647858,4,1,0,90,0,1
176563,-87.3116373306319,4,1,0,90,0,1
176654,-86.9565217391304,4,1,0,90,0,0
176995,-100,4,1,0,70,0,0
177683,-95.2380952380952,4,1,0,80,0,0
177798,-96.7741935483871,4,1,0,80,0,0
177913,-98.3606557377049,4,1,0,80,0,0
178028,-80,4,1,0,80,0,0
178204,-66.6666666666667,4,1,0,80,0,0
178719,-100,4,1,0,75,0,0
179409,-100,4,1,0,70,0,0
180099,-100,4,1,0,65,0,0
180788,-105.263157894737,4,1,0,60,0,0
182169,-109.89010989011,4,1,0,60,0,0
183547,-113.636363636364,4,1,0,70,0,0
184928,-116.279069767442,4,1,0,70,0,0
186307,-117.647058823529,4,1,0,70,0,0
189064,-117.647058823529,4,1,0,70,0,0
195097,-113.881206917902,4,1,0,70,0,0
195270,-112.674330753681,4,1,0,70,0,0
195442,-111.499525147002,4,1,0,70,0,0
195614,-110.34896510349,4,1,0,70,0,0
195787,-109.215422373525,4,1,0,72,0,0
195962,-108.108108108108,4,1,0,72,0,0
196132,-107.023022168778,4,1,0,75,0,0
196304,-105.962554008641,4,1,0,75,0,0
196476,-104.922895552471,4,1,0,75,0,0
196649,-103.897571078893,4,1,0,75,0,0
196821,-102.897848058777,4,1,0,75,0,0
197166,-100.949488666508,4,1,0,75,0,0
197339,-100,4,1,0,80,0,0
197396,-99.3838059889734,4,1,0,80,0,0
197454,-98.7645478961504,4,1,0,80,0,0
197511,-98.1634396355353,4,1,0,80,0,0
197597,-97.2702264230796,4,1,0,80,0,0
197683,-96.3931217670907,4,1,0,80,0,0
197741,-95.8104634197179,4,1,0,80,0,0
197798,-95.2446731360293,4,1,0,80,0,0
197856,-94.6757749476503,4,1,0,80,0,0
197942,-93.844635748069,4,1,0,80,0,0
198028,-93.0279623570682,4,1,0,80,0,0
198086,-92.4851614633983,4,1,0,80,0,0
198143,-91.9578554281142,4,1,0,80,0,0
198201,-91.4274348604389,4,1,0,80,0,0
198287,-90.6521167499343,4,1,0,80,0,0
198373,-89.8898376898507,4,1,0,80,0,0
198431,-89.3829401088929,4,1,0,80,0,0
198488,-88.8903213330325,4,1,0,80,0,0
198545,-88.4031027629976,4,1,0,80,0,0
198632,-87.6696652786166,4,1,0,80,0,0
198718,-86.9565217391304,4,1,0,80,0,0
199751,-100,4,1,0,85,0,0
199838,-98.7689665044374,4,1,0,80,0,0
199925,-97.5540788915595,4,1,0,80,0,0
200011,-96.3821762816036,4,1,0,80,0,0
200097,-80,4,1,0,80,0,0
200617,-71.4285714285714,4,1,0,80,0,0
200959,-90.9090909090909,4,1,0,80,0,0
201131,-92.3049455454383,4,1,0,80,0,0
201175,-92.6689370854992,4,1,0,80,0,0
201304,-93.7528334391151,4,1,0,80,0,0
201347,-94.1197888221373,4,1,0,80,0,0
201476,-80,4,1,0,80,0,0
201968,-71.4285714285714,4,1,0,80,0,0
202341,-95.2380952380952,4,1,0,80,0,0
202859,-80,4,1,0,80,0,0
203347,-71.4285714285714,4,1,0,80,0,0
203890,-90.9090909090909,4,1,0,80,0,0
203948,-91.3750441852245,4,1,0,80,0,0
204005,-91.8376409983125,4,1,0,80,0,0
204062,-92.3049455454383,4,1,0,80,0,0
204235,-93.0232558139535,4,1,0,80,0,0
204407,-95.2380952380952,4,1,0,80,0,0
204494,-94.6761800219539,4,1,0,80,0,0
204752,-96.3821762816036,4,1,0,80,0,0
204927,-97.5609756097561,4,1,0,80,0,0
205011,-98.157763710079,4,1,0,80,0,0
205099,-98.7618979460388,4,1,0,80,0,0
205269,-100,4,1,0,80,0,0
205356,-98.754830399313,4,1,0,80,0,0
205442,-97.5540788915595,4,1,0,80,0,0
205528,-96.3821762816036,4,1,0,80,0,0
205614,-74.0740740740741,4,1,0,80,0,0
206106,-83.3333333333333,4,1,0,80,0,0
206451,-95.2380952380952,4,1,0,80,0,0
206968,-74.0740740740741,4,1,0,80,0,0
207460,-83.3333333333333,4,1,0,80,0,0
207830,-95.2380952380952,4,1,0,80,0,0
208088,-83.3333333333333,4,1,0,80,0,0
208347,-76.9230769230769,4,1,0,80,0,0
208606,-71.4285714285714,4,1,0,80,0,0
208864,-66.6666666666667,4,1,0,80,0,0
209037,-57.1428571428571,4,1,0,80,0,0
209726,-95.2380952380952,4,1,0,80,0,0
210787,-100,4,1,0,80,0,0
210873,-98.7689665044374,4,1,0,80,0,0
210960,-97.5540788915595,4,1,0,80,0,0
211046,-96.3821762816036,4,1,0,80,0,0
211132,-80,4,1,0,80,0,0
211652,-71.4285714285714,4,1,0,80,0,0
211993,-90.9090909090909,4,1,0,80,0,0
212051,-91.3741400599753,4,1,0,80,0,0
212108,-91.835830156901,4,1,0,80,0,0
212166,-92.3104339303217,4,1,0,80,0,0
212338,-93.7471722016107,4,1,0,80,0,0
212511,-80,4,1,0,80,0,0
213003,-71.4285714285714,4,1,0,80,0,0
213376,-95.2380952380952,4,1,0,80,0,0
213891,-80,4,1,0,80,0,0
214382,-71.4285714285714,4,1,0,80,0,0
214925,-90.9090909090909,4,1,0,80,0,0
214983,-91.3750441852245,4,1,0,80,0,0
215040,-91.8376409983125,4,1,0,80,0,0
215097,-92.3049455454383,4,1,0,80,0,0
215270,-93.0232558139535,4,1,0,80,0,0
215442,-94.1155053929823,4,1,0,80,0,0
215614,-95.2337094174534,4,1,0,80,0,0
215787,-96.3855421686747,4,1,0,80,0,0
215875,-96.9685602419525,4,1,0,80,0,0
215961,-97.5586743719778,4,1,0,80,0,0
216045,-98.1560149037663,4,1,0,80,0,0
216134,-98.7677906199255,4,1,0,80,0,0
216304,-100,4,1,0,80,0,0
216391,-98.754830399313,4,1,0,80,0,0
216477,-97.5540788915595,4,1,0,80,0,0
216563,-96.3821762816036,4,1,0,80,0,0
216649,-74.0740740740741,4,1,0,80,0,0
217141,-83.3333333333333,4,1,0,80,0,0
217486,-95.2380952380952,4,1,0,80,0,0
218003,-74.0740740740741,4,1,0,80,0,0
218495,-83.3333333333333,4,1,0,80,0,0
218865,-95.2380952380952,4,1,0,80,0,0
219123,-83.3333333333333,4,1,0,80,0,0
219382,-76.9230769230769,4,1,0,80,0,0
219641,-71.4285714285714,4,1,0,80,0,0
219899,-66.6666666666667,4,1,0,80,0,0
220072,-62.5,4,1,0,80,0,0
220387,-58.8235294117647,4,1,0,80,0,0
220560,-50,4,1,0,80,0,0
220761,-95.2380952380952,4,1,0,80,0,0
222166,-100,4,1,0,80,0,0
222168,-100,4,1,0,75,0,0
222339,-100.472587210096,4,1,0,75,0,0
222425,-100.70918101914,4,1,0,75,0,0
222597,-101.18572725522,4,1,0,75,0,0
222683,-101.425695612608,4,1,0,75,0,0
222856,-101.911886949293,4,1,0,75,0,0
222942,-102.155316075992,4,1,0,75,0,0
223114,-102.64567983925,4,1,0,75,0,0
223201,-102.895509861519,4,1,0,75,0,0
223373,-103.39302279819,4,1,0,75,0,0
223459,-103.643587792713,4,1,0,75,0,0
223545,-103.895370187283,4,1,0,75,0,0
223718,-104.405586465312,4,1,0,75,0,0
223804,-104.661089294861,4,1,0,75,0,0
223976,-105.175865027166,4,1,0,75,0,0
224063,-105.4381790557,4,1,0,75,0,0
224235,-105.960646480943,4,1,0,75,0,0
224321,-106.223826714801,4,1,0,75,0,0
224494,-106.757227446883,4,1,0,75,0,0
224580,-107.024384566141,4,1,0,75,0,0
224752,-107.562730303562,4,1,0,75,0,0
224810,-107.7454886337,4,1,0,75,0,0
224867,-107.925702045248,4,1,0,75,0,0
224925,-108.109696951883,4,1,0,75,0,0
225097,-108.659044580342,4,1,0,75,0,0
225183,-108.935817314812,4,1,0,75,0,0
225356,-109.496874069664,4,1,0,75,0,0
225442,-109.777936962751,4,1,0,75,0,0
225614,-110.344413776551,4,1,0,75,0,0
225701,-110.633177921492,4,1,0,75,0,0
225873,-111.208538687147,4,1,0,75,0,0
225959,-111.498469093885,4,1,0,75,0,0
226132,-112.086304626074,4,1,0,75,0,0
226218,-112.380835981423,4,1,0,75,0,0
226304,-112.676919306415,4,1,0,75,0,0
226476,-113.273791191869,4,1,0,75,0,0
226563,-113.578111972331,4,1,0,75,0,0
226735,-114.184595324579,4,1,0,75,0,0
226821,-114.490272373541,4,1,0,75,0,0
226994,-115.110165247872,4,1,0,75,0,0
227080,-115.420824703446,4,1,0,75,0,0
227252,-116.047201363034,4,1,0,75,0,0
227339,-116.366627645775,4,1,0,75,0,0
227511,-117.003340225863,4,1,0,75,0,0
227568,-117.2158837402,4,1,0,75,0,0
227626,-117.432950191571,4,1,0,75,0,0
227683,-117.647058823529,4,1,0,75,0,0
227856,-116.785437098709,4,1,0,75,0,0
227942,-116.361795762271,4,1,0,75,0,0
228114,-115.523667276204,4,1,0,75,0,0
228201,-115.104311543811,4,1,0,75,0,0
228373,-114.284136102519,4,1,0,75,0,0
228459,-113.878415939676,4,1,0,75,0,0
228632,-113.070922082713,4,1,0,75,0,0
228718,-112.673755292644,4,1,0,75,0,0
228890,-111.887733719091,4,1,0,75,0,0
228976,-111.498821151903,4,1,0,75,0,0
229063,-111.10812770185,4,1,0,75,0,0
229235,-110.343724167356,4,1,0,75,0,0
229321,-109.965453095934,4,1,0,75,0,0
229494,-109.212314757387,4,1,0,75,0,0
229580,-108.841748096322,4,1,0,75,0,0
229752,-108.108108108108,4,1,0,75,0,0
229839,-107.740776420965,4,1,0,75,0,0
230011,-107.021854390275,4,1,0,75,0,0
230097,-106.665979275146,4,1,0,75,0,0
230270,-105.95721254177,4,1,0,75,0,0
230327,-105.725746697667,4,1,0,75,0,0
230385,-105.491255799725,4,1,0,75,0,0
230442,-105.26181906058,4,1,0,75,0,0
230614,-104.575493751501,4,1,0,80,0,0
230701,-104.231738035264,4,1,0,80,0,0
230873,-103.558736673507,4,1,0,80,0,0
230959,-103.225484571058,4,1,0,80,0,0
231132,-102.561560482322,4,1,0,85,0,0
231189,-102.344677483182,4,1,0,85,0,0
231247,-102.124929045633,4,1,0,85,0,0
231304,-101.909886835203,4,1,0,85,0,0
231390,-101.587145715443,4,1,0,85,0,0
231476,-101.266442337106,4,1,0,90,0,0
231534,-101.051294887605,4,1,0,90,0,0
231591,-100.840745704886,4,1,0,90,0,0
231649,-100.627401390983,4,1,0,90,0,0
231735,-100.312719691644,4,1,0,90,0,0
231821,-100,4,1,0,90,0,0
231995,-100,4,1,0,85,0,0
233202,-80,4,1,0,90,0,0
233373,-90.9090909090909,4,1,0,90,0,0
233459,-91.0422592788158,4,1,0,90,0,0
233545,-91.1758183648056,4,1,0,90,0,0
233632,-91.3113297799645,4,1,0,90,0,0
233718,-91.4456800684346,4,1,0,90,0,0
233804,-91.5804262901789,4,1,0,90,0,0
233890,-91.7155701980164,4,1,0,90,0,0
233976,-91.8511135551278,4,1,0,90,0,0
234063,-91.9886412529042,4,1,0,90,0,0
234149,-92.1249935366001,4,1,0,90,0,0
234235,-92.2617506429841,4,1,0,90,0,0
234321,-92.3989143775822,4,1,0,90,0,0
234408,-92.5380886426593,4,1,0,90,0,0
234494,-92.6760758747442,4,1,0,90,0,0
234580,-92.8144752378968,4,1,0,90,0,0
234666,-92.9532885812667,4,1,0,90,0,0
234752,-93.0925177650829,4,1,0,90,0,0
234839,-93.2337909260584,4,1,0,90,0,0
234925,-93.3738623063082,4,1,0,90,0,0
235011,-93.5143551970887,4,1,0,90,0,0
235097,-93.6552715039162,4,1,0,90,0,0
235183,-93.7966131438098,4,1,0,90,0,0
235270,-93.9400330415832,4,1,0,90,0,0
235356,-94.0822361472928,4,1,0,90,0,0
235442,-94.2248704297853,4,1,0,90,0,0
235528,-94.3679378531074,4,1,0,90,0,0
235614,-94.5114403932525,4,1,0,90,0,0
235701,-94.6570563337879,4,1,0,90,0,0
235787,-94.8014402014863,4,1,0,90,0,0
235873,-94.9462652100542,4,1,0,90,0,0
235959,-95.0915333843335,4,1,0,90,0,0
236045,-95.2372467615773,4,1,0,90,0,0
236132,-95.3851095724177,4,1,0,90,0,0
236218,-95.5317247542449,4,1,0,90,0,0
236304,-95.6787913504224,4,1,0,90,0,0
236390,-95.8263114489584,4,1,0,90,0,0
236476,-95.9742871507577,4,1,0,90,0,0
236563,-96.1244492401762,4,1,0,90,0,0
236649,-96.2733478628938,4,1,0,90,0,0
236735,-96.4227084949398,4,1,0,90,0,0
236821,-96.5725332899705,4,1,0,90,0,0
236908,-96.724574737604,4,1,0,90,0,0
236994,-96.8753398339798,4,1,0,90,0,0
237080,-97.026575660761,4,1,0,90,0,0
237166,-97.1782844260209,4,1,0,90,0,0
237252,-97.3304683516644,4,1,0,90,0,0
237339,-97.4849076218789,4,1,0,90,0,0
237425,-97.6380541804432,4,1,0,90,0,0
237511,-97.7916826755951,4,1,0,90,0,0
237597,-97.9457953858277,4,1,0,90,0,0
237683,-98.1003946040195,4,1,0,90,0,0
237770,-98.2572888709144,4,1,0,90,0,0
237856,-98.4128737663868,4,1,0,90,0,0
237942,-98.568952163169,4,1,0,90,0,0
238028,-98.7255264130033,4,1,0,90,0,0
238114,-98.8825988825989,4,1,0,90,0,0
238201,-99.0420071525191,4,1,0,90,0,0
238287,-99.2000890852063,4,1,0,90,0,0
238373,-99.3586764569198,4,1,0,90,0,0
238459,-99.517771695619,4,1,0,90,0,0
238545,-99.677377244839,4,1,0,90,0,0
238632,-99.8393604303646,4,1,0,90,0,0
238718,-100,4,1,0,90,0,0
238804,-99.7666805331983,4,1,0,90,0,0
238890,-99.5344472914937,4,1,0,90,0,0
238976,-99.3032927070769,4,1,0,90,0,0
239063,-99.0705401643393,4,1,0,90,0,0
239149,-98.8415327963588,4,1,0,90,0,0
239235,-98.6135817146535,4,1,0,90,0,0
239321,-98.3866796279285,4,1,0,90,0,0
239408,-98.1581991280363,4,1,0,90,0,0
239494,-97.9333854129678,4,1,0,90,0,0
239580,-97.7095991355641,4,1,0,90,0,0
239666,-97.4868332685306,4,1,0,90,0,0
239752,-97.2650808485126,4,1,0,90,0,0
239839,-97.0417740559274,4,1,0,90,0,0
239925,-96.8220394765712,4,1,0,90,0,0
240011,-96.6032977521695,4,1,0,90,0,0
240097,-96.3855421686747,4,1,0,90,0,0
240183,-96.1687660724404,4,1,0,90,0,0
240270,-95.9504592262733,4,1,0,90,0,0
240356,-95.7356335803669,4,1,0,90,0,0
240442,-95.5217677414886,4,1,0,90,0,0
240528,-95.3088552915767,4,1,0,90,0,0
240614,-95.0968898696642,4,1,0,90,0,0
240701,-94.8834169039039,4,1,0,90,0,0
240787,-94.6733375097617,4,1,0,90,0,0
240873,-94.4641863252986,4,1,0,90,0,0
240959,-94.2559572123066,4,1,0,90,0,0
241045,-94.0486440865807,4,1,0,90,0,0
241132,-93.839846208809,4,1,0,90,0,0
241218,-93.6343574944831,4,1,0,90,0,0
241304,-93.4297667643422,4,1,0,90,0,0
241390,-93.2260681449432,4,1,0,90,0,0
241476,-93.0232558139535,4,1,0,90,0,0
241591,-92.7442692530298,4,1,0,90,0,0
241649,-92.462100680177,4,1,0,90,0,0
241735,-92.0468589531584,4,1,0,90,0,0
241821,-91.6353302025751,4,1,0,90,0,0
241879,-91.359859021095,4,1,0,90,0,0
241936,-91.0907462275202,4,1,0,90,0,0
241994,-90.818534675231,4,1,0,90,0,0
242080,-90.4178920730456,4,1,0,90,0,0
242166,-90.0207687855368,4,1,0,90,0,0
242224,-89.7549052888859,4,1,0,90,0,0
242281,-89.4951512176959,4,1,0,90,0,0
242339,-89.2323787988728,4,1,0,90,0,0
242425,-88.8455787227608,4,1,0,90,0,0
242511,-88.4621175368453,4,1,0,90,0,0
242568,-88.2097818109028,4,1,0,90,0,0
242626,-87.9544925318519,4,1,0,90,0,0
242683,-87.7050403861145,4,1,0,90,0,0
242770,-87.3270139049444,4,1,0,90,0,0
242856,-86.9565217391304,4,1,0,90,0,0
243890,-90.9090909090909,4,1,0,90,0,0
243976,-91.9509594882729,4,1,0,90,0,0
244063,-93.0295267628421,4,1,0,90,0,0
244149,-94.1208566362024,4,1,0,90,0,0
244240,-80,4,1,0,95,0,1
244494,-86.9565217391304,4,1,0,95,0,1
244580,-87.2174155735417,4,1,0,95,0,1
244752,-87.7439281201741,4,1,0,95,0,1
244839,-88.0126738250308,4,1,0,95,0,1
245011,-88.5488612616442,4,1,0,95,0,1
245097,-88.8194123707678,4,1,0,95,0,1
245270,-89.3686995066848,4,1,0,95,0,1
245356,-89.6442914515204,4,1,0,95,0,1
245442,-89.9215883749371,4,1,0,95,0,1
245528,-90.2006061480733,4,1,0,95,0,1
245614,-90.481360839667,4,1,0,95,0,1
245873,-91.3375470388367,4,1,0,95,0,1
245959,-91.6254352208173,4,1,0,95,0,1
246132,-92.2100914724107,4,1,0,95,0,1
246218,-92.5035151335751,4,1,0,95,0,1
246390,-93.0960005958144,4,1,0,95,0,1
246476,-93.3950986252241,4,1,0,95,0,1
246649,-94.0026320736981,4,1,0,95,0,1
246735,-94.3075936474405,4,1,0,95,0,1
246821,-94.6145403625629,4,1,0,95,0,1
246908,-94.9270959902795,4,1,0,95,0,1
246994,-86.9565217391304,4,1,0,95,0,1
247252,-87.6696652786166,4,1,0,95,0,1
247339,-87.9127884737983,4,1,0,95,0,1
247511,-88.3974358974359,4,1,0,95,0,1
247597,-88.6417689785949,4,1,0,95,0,1
247770,-89.1373905174364,4,1,0,95,0,1
247856,-89.3858369794199,4,1,0,95,0,1
248028,-89.8869080598377,4,1,0,95,0,1
248114,-90.1395561656372,4,1,0,95,0,1
248201,-90.396591281547,4,1,0,95,0,1
248287,-90.6521167499343,4,1,0,95,0,1
248373,-90.9090909090909,4,1,0,95,0,1
248632,-90.1395561656372,4,1,0,95,0,1
248718,-89.8869080598377,4,1,0,95,0,1
248890,-89.3858369794199,4,1,0,95,0,1
248976,-89.1373905174364,4,1,0,95,0,1
249149,-88.6417689785949,4,1,0,95,0,1
249235,-88.3974358974359,4,1,0,95,0,1
249408,-87.909986293947,4,1,0,95,0,1
249494,-87.6696652786166,4,1,0,95,0,1
249580,-87.4306546203836,4,1,0,95,0,1
249666,-87.1929436312478,4,1,0,95,0,1
249752,-86.9565217391304,4,1,0,95,0,1
250097,-87.9124380645881,4,1,0,80,0,1
250270,-88.3997372679066,4,1,0,80,0,1
250356,-88.6439942810326,4,1,0,80,0,1
250442,-88.889604845595,4,1,0,80,0,1
250528,-89.1365802439221,4,1,0,80,0,1
250614,-89.3849318840814,4,1,0,80,0,1
250701,-89.6375834565214,4,1,0,80,0,1
250787,-89.888738658022,4,1,0,80,0,1
250873,-90.1413052356449,4,1,0,80,0,1
250959,-90.3952951198336,4,1,0,80,0,1
251045,-90.6507203758769,4,1,0,80,0,1
251132,-90.9105886617131,4,1,0,80,0,1
251218,-91.1689384551838,4,1,0,80,0,1
251304,-91.4287607906815,4,1,0,80,0,1
251390,-91.6900682939798,4,1,0,80,0,1
251476,-91.9528737356063,4,1,0,80,0,1
251563,-92.2202724158101,4,1,0,80,0,1
251649,-92.4861304325964,4,1,0,80,0,1
251735,-92.7535257433898,4,1,0,80,0,1
251821,-93.0224717206966,4,1,0,80,0,1
251908,-93.2961366134077,4,1,0,80,0,1
251994,-93.5682430942974,4,1,0,80,0,1
252080,-93.8419414635806,4,1,0,80,0,1
252166,-94.1172457316345,4,1,0,80,0,1
252252,-94.3941700737294,4,1,0,80,0,1
252339,-94.6759775577784,4,1,0,80,0,1
252425,-94.9562045051711,4,1,0,80,0,1
252511,-86.9565217391304,4,1,0,80,0,1
252683,-87.4304818341705,4,1,0,80,0,1
252856,-87.9124380645881,4,1,0,80,0,1
253028,-88.3969049869439,4,1,0,80,0,1
253114,-88.6411463269666,4,1,0,80,0,1
253201,-88.889604845595,4,1,0,80,0,1
253287,-89.1365802439221,4,1,0,80,0,1
253373,-89.3849318840814,4,1,0,80,0,1
253459,-89.6346713016358,4,1,0,80,0,1
253545,-89.8858101614296,4,1,0,80,0,1
253632,-90.1413052356449,4,1,0,80,0,1
253718,-90.3952951198336,4,1,0,80,0,1
253804,-90.6507203758769,4,1,0,80,0,1
253890,-90.9075932058189,4,1,0,80,0,1
253976,-91.1659259504023,4,1,0,80,0,1
254063,-91.4287607906815,4,1,0,80,0,1
254149,-91.6900682939798,4,1,0,80,0,1
254235,-91.9528737356063,4,1,0,80,0,1
254321,-92.2171900329228,4,1,0,80,0,1
254408,-92.4861304325964,4,1,0,80,0,1
254494,-92.7535257433898,4,1,0,80,0,1
254580,-93.0224717206966,4,1,0,80,0,1
254666,-93.2929818925727,4,1,0,80,0,1
254752,-93.5650699448919,4,1,0,80,0,1
254839,-93.8419414635806,4,1,0,80,0,1
254925,-94.1172457316345,4,1,0,80,0,1
255011,-94.3941700737294,4,1,0,80,0,1
255097,-94.6727288324612,4,1,0,80,0,1
255183,-94.9529365202278,4,1,0,80,0,1
255270,-80,4,1,0,85,0,1
255528,-86.9565217391304,4,1,0,85,0,1
255614,-87.2174155735417,4,1,0,85,0,1
255787,-87.7470078270331,4,1,0,85,0,1
255873,-88.0126738250308,4,1,0,85,0,1
256045,-88.5488612616442,4,1,0,85,0,1
256132,-88.8225680380871,4,1,0,85,0,1
256304,-89.3686995066848,4,1,0,85,0,1
256390,-89.6442914515204,4,1,0,85,0,1
256476,-89.9215883749371,4,1,0,85,0,1
256563,-90.203860725239,4,1,0,85,0,1
256649,-90.4846357088566,4,1,0,85,0,1
256908,-91.3408841797589,4,1,0,85,0,1
256994,-91.6287934320481,4,1,0,85,0,1
257166,-92.2100914724107,4,1,0,85,0,1
257252,-92.5035151335751,4,1,0,85,0,1
257425,-93.0994674710461,4,1,0,85,0,1
257511,-93.3985878133523,4,1,0,85,0,1
257683,-94.0026320736981,4,1,0,85,0,1
257770,-94.3111513505357,4,1,0,85,0,1
257856,-94.6181212625842,4,1,0,85,0,1
257942,-94.9270959902795,4,1,0,85,0,1
258028,-86.9565217391304,4,1,0,85,0,1
258287,-87.6719291000921,4,1,0,85,0,1
258373,-87.9120879120879,4,1,0,85,0,1
258545,-88.39637446754,4,1,0,85,0,1
258632,-88.6433710174717,4,1,0,85,0,1
258804,-89.1357705722775,4,1,0,85,0,1
258890,-89.3840274629186,4,1,0,85,0,1
259063,-89.8876404494382,4,1,0,85,0,1
259149,-90.1401090825958,4,1,0,85,0,1
259235,-90.3939999344971,4,1,0,85,0,1
259321,-90.6493250566558,4,1,0,85,0,1
259408,-90.9090909090909,4,1,0,85,0,1
259666,-90.1425022878808,4,1,0,85,0,1
259752,-89.8898376898507,4,1,0,85,0,1
259925,-89.3858369794199,4,1,0,85,0,1
260011,-89.1373905174364,4,1,0,85,0,1
260183,-88.6446180053354,4,1,0,85,0,1
260270,-88.3974358974359,4,1,0,85,0,1
260442,-87.9127884737983,4,1,0,85,0,1
260528,-87.6724521584335,4,1,0,85,0,1
260614,-87.4334263251332,4,1,0,85,0,1
260701,-87.1929436312478,4,1,0,85,0,1
260787,-80,4,1,0,85,0,1
261132,-100,4,1,0,85,0,1
261218,-99.3800759286847,4,1,0,85,0,1
261476,-97.565578411021,4,1,0,85,0,1
261563,-96.9685602419525,4,1,0,85,0,1
261649,-96.3855421686747,4,1,0,85,0,1
261735,-95.8094929231625,4,1,0,85,0,1
261821,-95.2402882999056,4,1,0,85,0,1
261908,-94.671305621681,4,1,0,85,0,1
261994,-94.1155053929823,4,1,0,85,0,1
262080,-93.5661931046964,4,1,0,85,0,1
262166,-93.0232558139535,4,1,0,85,0,1
262511,-100,4,1,0,85,0,1
262597,-99.3800759286847,4,1,0,85,0,1
262856,-97.5586743719778,4,1,0,85,0,1
262942,-96.9685602419525,4,1,0,85,0,1
263028,-96.3855421686747,4,1,0,85,0,1
263114,-95.8094929231625,4,1,0,85,0,1
263201,-95.2337094174534,4,1,0,85,0,1
263287,-94.671305621681,4,1,0,85,0,1
263373,-94.1155053929823,4,1,0,85,0,1
263459,-93.5661931046964,4,1,0,85,0,1
263545,-93.0232558139535,4,1,0,85,0,1
263718,-92.2167092667769,4,1,0,85,0,1
263804,-91.8209491491591,4,1,0,85,0,1
263890,-91.4285714285714,4,1,0,85,0,1
263976,-91.0395329276137,4,1,0,85,0,1
264063,-90.6493250566558,4,1,0,85,0,1
264235,-89.8876404494382,4,1,0,85,0,1
264321,-89.5115781280405,4,1,0,85,0,1
264408,-89.1343312503028,4,1,0,85,0,1
264494,-88.7645327801631,4,1,0,85,0,1
264580,-88.3977900552486,4,1,0,85,0,1
264666,-88.0340653557246,4,1,0,85,0,1
264752,-87.6733215800257,4,1,0,85,0,1
264839,-87.3113789503654,4,1,0,85,0,1
264925,-80,4,1,0,85,0,1
265158,-74.0740740740741,4,1,0,85,0,1
265388,-68.9655172413793,4,1,0,85,0,1
265619,-64.5161290322581,4,1,0,95,0,0
265959,-100,4,1,0,95,0,0
265961,-100,4,1,0,85,0,0
266045,-98.7689665044374,4,1,0,85,0,0
266132,-97.5540788915595,4,1,0,85,0,0
266218,-96.3821762816036,4,1,0,85,0,0
266304,-95.2380952380952,4,1,0,85,0,0
266476,-93.0295267628421,4,1,0,85,0,0
266534,-92.3076923076923,4,1,0,85,0,0
266591,-91.6091343600637,4,1,0,85,0,0
266654,-76.9230769230769,4,1,0,95,0,1
266821,-90.9090909090909,4,1,0,95,0,1
266908,-91.3280711977539,4,1,0,95,0,1
266994,-91.7460486403065,4,1,0,95,0,1
267080,-92.1678695535953,4,1,0,95,0,1
267166,-92.5935871958752,4,1,0,95,0,1
267339,-93.4619971809606,4,1,0,95,0,1
267511,-94.3416876436467,4,1,0,95,0,1
267597,-94.7877721574665,4,1,0,95,0,1
267683,-86.9565217391304,4,1,0,95,0,1
267770,-87.4358486979662,4,1,0,95,0,1
267856,-87.9148881951966,4,1,0,95,0,1
267942,-88.3992056882967,4,1,0,95,0,1
268028,-88.8888888888889,4,1,0,95,0,1
268201,-89.8905680041688,4,1,0,95,0,1
268287,-90.3969605659636,4,1,0,95,0,1
268459,-91.427057108785,4,1,0,95,0,1
268545,-91.9509594882729,4,1,0,95,0,1
268718,-93.0232558139535,4,1,0,95,0,1
268890,-94.1144377003342,4,1,0,95,0,1
268976,-94.6696851203951,4,1,0,95,0,1
269063,-86.9565217391304,4,1,0,95,0,1
269235,-87.909986293947,4,1,0,95,0,1
269408,-88.8903213330325,4,1,0,95,0,1
269580,-89.8869080598377,4,1,0,95,0,1
269666,-90.3936285274163,4,1,0,95,0,1
269752,-90.906094465869,4,1,0,95,0,1
269839,-91.4304657715896,4,1,0,95,0,1
269925,-91.9547894508719,4,1,0,95,0,1
270011,-92.4851614633983,4,1,0,95,0,1
270097,-93.0216870720766,4,1,0,95,0,1
270270,-94.1200559669658,4,1,0,95,0,1
270356,-94.6757749476503,4,1,0,95,0,1
270442,-95.2380952380952,4,1,0,95,0,1
270614,-95.9985145297558,4,1,0,95,0,1
270701,-96.3877883943137,4,1,0,95,0,1
270787,-96.775703121344,4,1,0,95,0,1
270873,-97.166752807405,4,1,0,95,0,1
270959,-97.5609756097561,4,1,0,95,0,1
271045,-97.9584103074227,4,1,0,95,0,1
271132,-98.3637747336378,4,1,0,95,0,1
271218,-98.7677906199255,4,1,0,95,0,1
271304,-99.1751390753884,4,1,0,95,0,1
271390,-99.5858615043822,4,1,0,95,0,1
271476,-100,4,1,0,95,0,1
271826,-100,4,1,0,95,0,0
272171,-76.9230769230769,4,1,0,95,0,1
272339,-90.9090909090909,4,1,0,95,0,1
272425,-91.3232333933679,4,1,0,95,0,1
272511,-91.7411664538101,4,1,0,95,0,1
272597,-92.1629423714316,4,1,0,95,0,1
272683,-92.5886143931257,4,1,0,95,0,1
272770,-93.0232558139535,4,1,0,95,0,1
272856,-93.456930666233,4,1,0,95,0,1
272942,-93.8946680464027,4,1,0,95,0,1
273028,-94.3365253077975,4,1,0,95,0,1
273114,-94.7825608884491,4,1,0,95,0,1
273201,-86.9565217391304,4,1,0,95,0,1
273287,-87.4306546203836,4,1,0,95,0,1
273373,-87.909986293947,4,1,0,95,0,1
273545,-88.8845918334461,4,1,0,95,0,1
273718,-89.8869080598377,4,1,0,95,0,1
273804,-90.3936285274163,4,1,0,95,0,1
273890,-90.906094465869,4,1,0,95,0,1
273976,-91.4244041502304,4,1,0,95,0,1
274063,-91.9547894508719,4,1,0,95,0,1
274149,-92.4851614633983,4,1,0,95,0,1
274235,-93.0216870720766,4,1,0,95,0,1
274408,-94.1200559669658,4,1,0,95,0,1
274494,-94.6757749476503,4,1,0,95,0,1
274580,-86.9565217391304,4,1,0,95,0,1
274752,-87.909986293947,4,1,0,95,0,1
274839,-88.4002692393987,4,1,0,95,0,1
274925,-88.8903213330325,4,1,0,95,0,1
275011,-89.3858369794199,4,1,0,95,0,1
275097,-89.8869080598377,4,1,0,95,0,1
275183,-90.3936285274163,4,1,0,95,0,1
275270,-90.9120875498566,4,1,0,95,0,1
275356,-91.4304657715896,4,1,0,95,0,1
275442,-91.9547894508719,4,1,0,95,0,1
275614,-93.0216870720766,4,1,0,95,0,1
275787,-94.1200559669658,4,1,0,95,0,1
275873,-94.6757749476503,4,1,0,95,0,1
275959,-95.2380952380952,4,1,0,95,0,1
276045,-95.5215615698761,4,1,0,95,0,1
276132,-95.8100461693338,4,1,0,95,0,1
276218,-96.0969325580586,4,1,0,95,0,1
276304,-96.3855421686747,4,1,0,95,0,1
276390,-96.6758905741007,4,1,0,95,0,1
276476,-96.9679935354671,4,1,0,95,0,1
276563,-97.2652946151677,4,1,0,95,0,1
276649,-97.5609756097561,4,1,0,95,0,1
276735,-97.8584597929372,4,1,0,95,0,1
276821,-98.157763710079,4,1,0,95,0,1
276994,-98.7654320987654,4,1,0,95,0,1
277080,-99.0703183890305,4,1,0,95,0,1
277166,-99.3770928599719,4,1,0,95,0,1
277252,-99.6857731065121,4,1,0,95,0,1
277344,-100,4,1,0,95,0,0
277688,-76.9230769230769,4,1,0,100,0,1
277856,-90.9090909090909,4,1,0,100,0,1
277942,-91.3232333933679,4,1,0,100,0,1
278028,-91.7411664538101,4,1,0,100,0,1
278114,-92.1629423714316,4,1,0,100,0,1
278201,-92.5935871958752,4,1,0,100,0,1
278373,-93.456930666233,4,1,0,100,0,1
278545,-94.3365253077975,4,1,0,100,0,1
278632,-94.7877721574665,4,1,0,100,0,1
278718,-86.9565217391304,4,1,0,100,0,1
278804,-87.4306546203836,4,1,0,100,0,1
278890,-87.909986293947,4,1,0,100,0,1
278976,-88.3946027370918,4,1,0,100,0,1
279063,-88.8903213330325,4,1,0,100,0,1
279235,-89.8869080598377,4,1,0,100,0,1
279321,-90.3936285274163,4,1,0,100,0,1
279494,-91.4304657715896,4,1,0,100,0,1
279580,-91.9547894508719,4,1,0,100,0,1
279752,-93.0216870720766,4,1,0,100,0,1
279925,-94.1200559669658,4,1,0,100,0,1
280011,-94.6757749476503,4,1,0,100,0,1
280097,-86.9565217391304,4,1,0,100,0,1
280270,-87.9155908322973,4,1,0,100,0,1
280442,-88.8903213330325,4,1,0,100,0,1
280614,-89.8869080598377,4,1,0,100,0,1
280701,-90.3995542298994,4,1,0,100,0,1
280787,-90.9120875498566,4,1,0,100,0,1
280873,-91.4304657715896,4,1,0,100,0,1
280959,-91.9547894508719,4,1,0,100,0,1
281045,-92.4851614633983,4,1,0,100,0,1
281132,-93.0279623570682,4,1,0,100,0,1
281304,-94.1200559669658,4,1,0,100,0,1
281390,-94.6757749476503,4,1,0,100,0,1
281476,-95.2380952380952,4,1,0,100,0,1
281649,-95.8893217778485,4,1,0,100,0,1
281735,-96.5495156512689,4,1,0,100,0,1
281821,-97.2188633615478,4,1,0,100,0,1
281908,-97.9055041402825,4,1,0,100,0,1
281994,-98.5938521909745,4,1,0,100,0,1
282080,-99.2919479664087,4,1,0,100,0,1
282171,-100,4,1,0,100,0,0
282597,-98.7689665044374,4,1,0,100,0,0
282683,-97.5678733031674,4,1,0,100,0,0
282770,-96.3821762816036,4,1,0,100,0,0
282861,-76.9230769230769,4,1,0,100,0,1
283031,-95.2380952380952,4,1,0,100,0,1
283201,-94.7851664513291,4,1,0,100,0,1
283287,-94.5616103995831,4,1,0,100,0,1
283373,-94.3391064051,4,1,0,100,0,1
283431,-94.1896358619936,4,1,0,100,0,1
283488,-94.0432031420467,4,1,0,100,0,1
283545,-93.8972250211051,4,1,0,100,0,1
283632,-93.6752879808737,4,1,0,100,0,1
283718,-93.456930666233,4,1,0,100,0,1
283804,-93.2395889670092,4,1,0,100,0,1
283890,-93.0232558139535,4,1,0,100,0,1
283976,-92.807924203273,4,1,0,100,0,1
284063,-92.5911007277317,4,1,0,100,0,1
284149,-92.377762893503,4,1,0,100,0,1
284235,-92.1654058966614,4,1,0,100,0,1
284321,-91.9540229885058,4,1,0,100,0,1
284408,-91.7411664538101,4,1,0,100,0,1
284494,-91.5317228563844,4,1,0,100,0,1
284580,-91.3232333933679,4,1,0,100,0,1
284666,-91.1156915596427,4,1,0,100,0,1
284752,-90.9090909090909,4,1,0,100,0,1
284839,-90.7010390635275,4,1,0,100,0,1
284925,-90.4963124327445,4,1,0,100,0,1
285011,-90.292507921544,4,1,0,100,0,1
285097,-90.0896193138766,4,1,0,100,0,1
285183,-89.8876404494382,4,1,0,100,0,1
285270,-89.6842324299017,4,1,0,100,0,1
285356,-89.4840651925672,4,1,0,100,0,1
285442,-89.28478947641,4,1,0,100,0,1
285528,-89.0863993385696,4,1,0,100,0,1
285614,-88.8888888888889,4,1,0,100,0,1
285672,-88.6405241352731,4,1,0,100,0,1
285729,-88.3977900552486,4,1,0,100,0,1
285787,-88.1521582906147,4,1,0,100,0,1
285873,-87.7904480175581,4,1,0,100,0,1
285959,-87.431693989071,4,1,0,100,0,1
286017,-87.1913945884472,4,1,0,100,0,1
286074,-86.9565217391304,4,1,0,100,0,1
286132,-86.7188236403054,4,1,0,100,0,1
286218,-86.3687570409313,4,1,0,100,0,1
286304,-86.0215053763441,4,1,0,100,0,1
286362,-85.7888847444983,4,1,0,100,0,1
286419,-85.5614973262032,4,1,0,100,0,1
286476,-85.3353121231797,4,1,0,100,0,1
286563,-84.9923784008499,4,1,0,100,0,1
286649,-84.6560846560847,4,1,0,100,0,1
286706,-84.4346549192364,4,1,0,100,0,1
286764,-84.2105263157895,4,1,0,100,0,1
286821,-83.9914182681335,4,1,0,100,0,1
286908,-83.6591797763026,4,1,0,100,0,1
286999,-83.3333333333333,4,1,0,100,0,0
287168,-100,4,1,0,95,0,0
287426,-100,4,1,0,90,0,0
287685,-100,4,1,0,85,0,0
287944,-100,4,1,0,80,0,0
288378,-80,4,1,0,80,0,1
288545,-90.9090909090909,4,1,0,80,0,1
288632,-91.2309257375381,4,1,0,80,0,1
288718,-91.5513087508677,4,1,0,80,0,1
288804,-91.8739499241896,4,1,0,80,0,1
288890,-92.1988732162684,4,1,0,80,0,1
288976,-92.5261029260039,4,1,0,80,0,1
289063,-92.8595096090126,4,1,0,80,0,1
289149,-93.1914539862,4,1,0,80,0,1
289235,-93.5257800767562,4,1,0,80,0,1
289321,-93.8625136062966,4,1,0,80,0,1
289408,-94.2056388923904,4,1,0,80,0,1
289494,-94.547294732847,4,1,0,80,0,1
289580,-94.8914377618826,4,1,0,80,0,1
289666,-95.2380952380952,4,1,0,80,0,1
289752,-95.5872948198678,4,1,0,80,0,1
289925,-96.2975689373765,4,1,0,80,0,1
290097,-97.0142795326698,4,1,0,80,0,1
290270,-97.7459999128046,4,1,0,80,0,1
290356,-98.1138681020524,4,1,0,80,0,1
290442,-98.4845157039315,4,1,0,80,0,1
290528,-98.8579743374928,4,1,0,80,0,1
290619,-99.2342761032178,4,1,0,80,0,0
290787,-100,4,1,0,80,0,0
290903,-100,4,1,0,70,0,0
291018,-100,4,1,0,60,0,0
291133,-100,4,1,0,50,0,0
291482,-80,4,1,0,80,0,1
291649,-90.9090909090909,4,1,0,80,0,1
291735,-91.2273559943008,4,1,0,80,0,1
291908,-91.8743850442768,4,1,0,80,0,1
291994,-92.1994569242162,4,1,0,80,0,1
292166,-92.8565509240076,4,1,0,80,0,1
292224,-93.0802458880213,4,1,0,80,0,1
292281,-93.3011366001915,4,1,0,80,0,1
292339,-93.5269813446851,4,1,0,80,0,1
292425,-93.8638743455497,4,1,0,80,0,1
292511,-94.2032031611249,4,1,0,80,0,1
292597,-94.5449943045184,4,1,0,80,0,1
292683,-94.8892746750222,4,1,0,80,0,1
292770,-95.2401189970251,4,1,0,80,0,1
292856,-95.5894898481488,4,1,0,80,0,1
292942,-95.9414333418957,4,1,0,80,0,1
293028,-96.2959779993125,4,1,0,80,0,1
293114,-96.6531527645993,4,1,0,80,0,1
293201,-97.0171868912074,4,1,0,80,0,1
293287,-97.3797418850215,4,1,0,80,0,1
293373,-97.7450167924281,4,1,0,80,0,1
293545,-98.4838497033619,4,1,0,80,0,1
293632,-98.8618316569614,4,1,0,80,0,1
293718,-99.2383314144008,4,1,0,80,0,1
293804,-99.6177098150782,4,1,0,80,0,1
293890,-100,4,1,0,80,0,1
294238,-80,4,1,0,80,0,1
294408,-90.9090909090909,4,1,0,80,0,1
294494,-91.2273559943008,4,1,0,80,0,1
294580,-91.5478573471138,4,1,0,80,0,1
294666,-91.8706186200959,4,1,0,80,0,1
294752,-92.1956638005513,4,1,0,80,0,1
294839,-92.5268373245252,4,1,0,80,0,1
294925,-92.8565509240076,4,1,0,80,0,1
295097,-93.5230782071613,4,1,0,80,0,1
295183,-93.859943039035,4,1,0,80,0,1
295270,-94.2032031611249,4,1,0,80,0,1
295356,-94.5449943045184,4,1,0,80,0,1
295442,-94.8892746750222,4,1,0,80,0,1
295614,-95.5854126679462,4,1,0,80,0,1
295787,-96.2959779993125,4,1,0,80,0,1
295873,-96.6531527645993,4,1,0,80,0,1
295959,-97.012987012987,4,1,0,80,0,1
296045,-97.3755105587903,4,1,0,80,0,1
296132,-97.7450167924281,4,1,0,80,0,1
296218,-98.1130423361499,4,1,0,80,0,1
296304,-98.4838497033619,4,1,0,80,0,1
296476,-99.2339370322809,4,1,0,80,0,1
296563,-99.6177098150782,4,1,0,80,0,1
296649,-90.9090909090909,4,1,0,80,0,1
296735,-91.1758684228486,4,1,0,80,0,1
296821,-91.4442162902122,4,1,0,80,0,1
296994,-91.988845663924,4,1,0,80,0,1
297166,-92.5367965367965,4,1,0,80,0,1
297252,-92.8132272743062,4,1,0,80,0,1
297339,-93.0945578705317,4,1,0,80,0,1
297511,-93.6558009113214,4,1,0,80,0,1
297683,-94.2238521757529,4,1,0,80,0,1
297856,-94.8021997516409,4,1,0,80,0,1
297942,-95.0923520409979,4,1,0,80,0,1
298033,-90.9090909090909,4,1,0,80,0,0
298114,-91.4621206762397,4,1,0,80,0,0
298201,-92.0284697508897,4,1,0,80,0,0
298287,-92.595244915497,4,1,0,80,0,0
298545,-94.3382460236393,4,1,0,80,0,0
298632,-94.9408914017182,4,1,0,80,0,0
298718,-95.5442252272224,4,1,0,80,0,0
298804,-96.1552762697999,4,1,0,80,0,0
299063,-98.0436760691538,4,1,0,80,0,0
299149,-98.6872233246832,4,1,0,80,0,0
299235,-99.339274738783,4,1,0,80,0,0
299321,-100,4,1,0,80,0,0
299413,-80,4,1,0,80,0,1
299752,-90.9090909090909,4,1,0,80,0,1
299925,-91.5513087508677,4,1,0,80,0,1
300011,-91.8739499241896,4,1,0,80,0,1
300097,-92.1988732162684,4,1,0,80,0,1
300183,-92.5261029260039,4,1,0,80,0,1
300270,-92.8595096090126,4,1,0,80,0,1
300356,-93.1914539862,4,1,0,80,0,1
300442,-93.5257800767562,4,1,0,80,0,1
300528,-93.8625136062966,4,1,0,80,0,1
300614,-94.2016806722689,4,1,0,80,0,1
300672,-94.4318086092157,4,1,0,80,0,1
300729,-94.6590669199916,4,1,0,80,0,1
300787,-94.8914377618826,4,1,0,80,0,1
300873,-95.2380952380952,4,1,0,80,0,1
300959,-95.5872948198678,4,1,0,80,0,1
301017,-95.8242509723469,4,1,0,80,0,1
301074,-96.0582690659812,4,1,0,80,0,1
301132,-96.2975689373765,4,1,0,80,0,1
301218,-96.6545956199345,4,1,0,80,0,1
301304,-97.0142795326698,4,1,0,80,0,1
301390,-97.3766504517026,4,1,0,80,0,1
301476,-97.7417385997035,4,1,0,80,0,1
301563,-98.1138681020524,4,1,0,80,0,1
301649,-98.4845157039315,4,1,0,80,0,1
301735,-98.8579743374928,4,1,0,80,0,1
301826,-99.2342761032178,4,1,0,80,0,0
301938,-100,4,1,0,70,0,0
302053,-100,4,1,0,50,0,0
302688,-80,4,1,0,80,0,1
302942,-90.9090909090909,4,1,0,80,0,1
303028,-91.2689280618585,4,1,0,80,0,1
303114,-91.631625155954,4,1,0,80,0,1
303201,-92.0014846432217,4,1,0,80,0,1
303373,-92.7415583200823,4,1,0,80,0,1
303459,-93.1160781367393,4,1,0,80,0,1
303545,-93.4936350777935,4,1,0,80,0,1
303632,-93.8787104104531,4,1,0,80,0,1
303718,-94.2624898987498,4,1,0,80,0,1
303804,-94.6494200754141,4,1,0,80,0,1
303890,-95.039539899353,4,1,0,80,0,1
303976,-95.4328889744453,4,1,0,80,0,1
304063,-95.8341387976029,4,1,0,80,0,1
304235,-96.6374269005848,4,1,0,80,0,1
304321,-97.044142116081,4,1,0,80,0,1
304408,-97.4590848773775,4,1,0,80,0,1
304580,-98.2899628252788,4,1,0,80,0,1
304695,-98.8534396809571,4,1,0,80,0,1
304810,-99.4234143895713,4,1,0,80,0,1
304925,-80,4,1,0,80,0,1
305270,-100,4,1,0,80,0,1
305356,-99.3800759286847,4,1,0,80,0,1
305614,-97.565578411021,4,1,0,80,0,1
305701,-96.9685602419525,4,1,0,80,0,1
305787,-96.3855421686747,4,1,0,80,0,1
305873,-95.8094929231625,4,1,0,80,0,1
305959,-95.2402882999056,4,1,0,80,0,1
306045,-94.6778070275839,4,1,0,80,0,1
306132,-94.1155053929823,4,1,0,80,0,1
306218,-93.5661931046964,4,1,0,80,0,1
306304,-93.0232558139535,4,1,0,80,0,1
306649,-100,4,1,0,80,0,1
306735,-99.3800759286847,4,1,0,80,0,1
306994,-97.5586743719778,4,1,0,80,0,1
307080,-96.9685602419525,4,1,0,80,0,1
307166,-96.3855421686747,4,1,0,80,0,1
307252,-95.8094929231625,4,1,0,80,0,1
307339,-95.2337094174534,4,1,0,80,0,1
307425,-94.671305621681,4,1,0,80,0,1
307511,-94.1155053929823,4,1,0,80,0,1
307597,-93.5661931046964,4,1,0,80,0,1
307683,-93.0232558139535,4,1,0,80,0,1
307856,-92.2167092667769,4,1,0,80,0,1
307942,-91.8209491491591,4,1,0,80,0,1
308028,-91.4285714285714,4,1,0,80,0,1
308114,-91.0395329276137,4,1,0,80,0,1
308201,-90.6493250566558,4,1,0,80,0,1
308373,-89.8876404494382,4,1,0,80,0,1
308459,-89.5115781280405,4,1,0,80,0,1
308545,-89.1386493556826,4,1,0,80,0,1
308632,-88.7645327801631,4,1,0,80,0,1
308718,-88.3977900552486,4,1,0,80,0,1
308804,-88.0340653557246,4,1,0,80,0,1
308890,-87.6733215800257,4,1,0,80,0,1
308976,-87.3155222322403,4,1,0,80,0,1
309063,-80,4,1,0,80,0,1
309296,-74.0740740740741,4,1,0,80,0,1
309525,-68.9655172413793,4,1,0,80,0,1
309757,-64.5161290322581,4,1,0,80,0,0
310097,-90.9090909090909,4,1,0,60,0,0
310183,-91.9509594882729,4,1,0,60,0,0
310270,-93.0295267628421,4,1,0,60,0,0
310356,-94.1208566362024,4,1,0,60,0,0
310442,-80,4,1,0,60,0,0
310617,-57.1428571428571,4,1,0,60,0,0
311824,-100,4,1,0,60,0,0
313204,-111.111111111111,4,1,0,60,0,0
314583,-121.951219512195,4,1,0,60,0,0
315962,-131.578947368421,4,1,0,60,0,0
317342,-138.888888888889,4,1,0,60,0,0
318721,-142.857142857143,4,1,0,60,0,0
321478,-100,4,1,0,50,0,0
332857,-100,4,1,0,45,0,0
333547,-100,4,1,0,40,0,0
334237,-100,4,1,0,35,0,0
334926,-100,4,1,0,30,0,0
336995,-100,4,1,0,40,0,0
337340,-100,4,1,0,50,0,0
337685,-100,4,1,0,60,0,0
338030,-100,4,1,0,70,0,0

[HitObjects]
256,192,1999,5,0,0:0:0:0:
256,192,2171,1,2,0:0:0:0:
256,192,2344,1,0,0:0:0:0:
256,192,7516,5,0,0:0:0:0:
256,192,7688,1,2,0:0:0:0:
256,192,7861,1,0,0:0:0:0:
256,192,12516,5,6,0:0:0:0:
256,192,12775,1,0,0:0:0:0:
256,192,13033,1,2,0:0:0:0:
256,192,13292,1,0,0:0:0:0:
256,192,13550,1,2,0:0:0:0:
256,192,13723,1,2,0:0:0:0:
256,192,13895,1,0,0:0:0:0:
256,192,14154,1,0,0:0:0:0:
256,192,14413,1,2,0:0:0:0:
256,192,14671,1,0,0:0:0:0:
256,192,14930,1,2,0:0:0:0:
256,192,15102,1,2,0:0:0:0:
256,192,15275,1,2,0:0:0:0:
256,192,15533,1,0,0:0:0:0:
256,192,15792,1,2,0:0:0:0:
256,192,16050,1,0,0:0:0:0:
256,192,16309,1,2,0:0:0:0:
256,192,16481,1,2,0:0:0:0:
256,192,16654,1,0,0:0:0:0:
256,192,16913,1,0,0:0:0:0:
256,192,17171,1,2,0:0:0:0:
256,192,17430,1,0,0:0:0:0:
256,192,17688,1,2,0:0:0:0:
256,192,17861,1,2,0:0:0:0:
256,192,18033,1,0,0:0:0:0:
256,192,18550,1,0,0:0:0:0:
256,192,18723,1,2,0:0:0:0:
256,192,18895,1,2,0:0:0:0:
256,192,19068,1,0,0:0:0:0:
256,192,19240,1,2,0:0:0:0:
256,192,19585,1,2,0:0:0:0:
256,192,19757,1,0,0:0:0:0:
256,192,19930,1,2,0:0:0:0:
256,192,20275,1,2,0:0:0:0:
256,192,20619,1,0,0:0:0:0:
256,192,20792,1,2,0:0:0:0:
256,192,21309,1,0,0:0:0:0:
256,192,21481,1,2,0:0:0:0:
256,192,21654,1,2,0:0:0:0:
256,192,21826,1,0,0:0:0:0:
256,192,21999,1,2,0:0:0:0:
256,192,22344,1,2,0:0:0:0:
256,192,22516,1,0,0:0:0:0:
256,192,22688,1,0,0:0:0:0:
256,192,22861,1,2,0:0:0:0:
256,192,23033,1,0,0:0:0:0:
256,192,23206,1,2,0:0:0:0:
256,192,23550,1,2,0:0:0:0:
256,192,23809,1,0,0:0:0:0:
256,192,24068,1,2,0:0:0:0:
256,192,24326,1,0,0:0:0:0:
256,192,24585,1,2,0:0:0:0:
256,192,24757,1,2,0:0:0:0:
256,192,24930,1,0,0:0:0:0:
256,192,25188,1,0,0:0:0:0:
256,192,25447,1,2,0:0:0:0:
256,192,25706,1,0,0:0:0:0:
256,192,25964,1,2,0:0:0:0:
256,192,26137,1,2,0:0:0:0:
256,192,26309,1,2,0:0:0:0:
256,192,26568,1,0,0:0:0:0:
256,192,26826,1,2,0:0:0:0:
256,192,27085,1,0,0:0:0:0:
256,192,27344,1,2,0:0:0:0:
256,192,27516,1,2,0:0:0:0:
256,192,27688,1,0,0:0:0:0:
256,192,27947,1,0,0:0:0:0:
256,192,28206,1,2,0:0:0:0:
256,192,28464,1,0,0:0:0:0:
256,192,28723,1,2,0:0:0:0:
256,192,28895,1,2,0:0:0:0:
256,192,29068,1,0,0:0:0:0:
256,192,29154,1,0,0:0:0:0:
256,192,29240,1,0,0:0:0:0:
256,192,29326,1,0,0:0:0:0:
256,192,29413,1,2,0:0:0:0:
256,192,29499,1,0,0:0:0:0:
256,192,29585,1,2,0:0:0:0:
256,192,29671,1,2,0:0:0:0:
256,192,29757,1,0,0:0:0:0:
256,192,29844,1,0,0:0:0:0:
256,192,29930,1,2,0:0:0:0:
256,192,30016,1,0,0:0:0:0:
256,192,30102,1,2,0:0:0:0:
256,192,30188,1,2,0:0:0:0:
256,192,30275,1,0,0:0:0:0:
256,192,30361,1,0,0:0:0:0:
256,192,30447,1,0,0:0:0:0:
256,192,30533,1,0,0:0:0:0:
256,192,30619,1,2,0:0:0:0:
256,192,30706,1,0,0:0:0:0:
256,192,30792,1,2,0:0:0:0:
256,192,30878,1,2,0:0:0:0:
256,192,30964,1,0,0:0:0:0:
256,192,31050,1,0,0:0:0:0:
256,192,31137,1,2,0:0:0:0:
256,192,31223,1,0,0:0:0:0:
256,192,31309,1,2,0:0:0:0:
256,192,31395,1,2,0:0:0:0:
256,192,31481,1,0,0:0:0:0:
256,192,31568,1,0,0:0:0:0:
256,192,31654,1,0,0:0:0:0:
256,192,31740,1,0,0:0:0:0:
256,192,31826,1,2,0:0:0:0:
256,192,31884,1,2,0:0:0:0:
256,192,31941,1,2,0:0:0:0:
256,192,31999,1,0,0:0:0:0:
256,192,32085,1,0,0:0:0:0:
256,192,32171,1,2,0:0:0:0:
256,192,32229,1,0,0:0:0:0:
256,192,32286,1,0,0:0:0:0:
256,192,32344,1,2,0:0:0:0:
256,192,32430,1,0,0:0:0:0:
256,192,32516,1,2,0:0:0:0:
256,192,32573,1,2,0:0:0:0:
256,192,32631,1,2,0:0:0:0:
256,192,32688,1,0,0:0:0:0:
256,192,32775,1,0,0:0:0:0:
256,192,32861,1,2,0:0:0:0:
256,192,32918,1,0,0:0:0:0:
256,192,32976,1,0,0:0:0:0:
256,192,33033,1,2,0:0:0:0:
256,192,33119,1,2,0:0:0:0:
256,192,33206,1,0,0:0:0:0:
256,192,34240,1,0,0:0:0:0:
256,192,34326,1,0,0:0:0:0:
256,192,34413,1,0,0:0:0:0:
256,192,34499,1,0,0:0:0:0:
256,192,34585,1,6,0:0:0:0:
256,192,35102,1,6,0:0:0:0:
256,192,35447,1,0,0:0:0:0:
256,192,35619,1,2,0:0:0:0:
256,192,35663,1,0,0:0:0:0:
256,192,35792,1,2,0:0:0:0:
256,192,35835,1,0,0:0:0:0:
256,192,35964,1,6,0:0:0:0:
256,192,36481,1,6,0:0:0:0:
256,192,36826,1,0,0:0:0:0:
256,192,36999,1,2,0:0:0:0:
256,192,37171,1,0,0:0:0:0:
256,192,37257,1,0,0:0:0:0:
256,192,37344,1,6,0:0:0:0:
256,192,37861,1,6,0:0:0:0:
256,192,38378,1,0,0:0:0:0:
256,192,38436,1,0,0:0:0:0:
256,192,38493,1,2,0:0:0:0:
256,192,38550,1,2,0:0:0:0:
256,192,38723,1,0,0:0:0:0:
256,192,38895,8,0,39585,0:0:0:0:
256,192,39757,5,0,0:0:0:0:
256,192,39844,1,0,0:0:0:0:
256,192,39930,1,0,0:0:0:0:
256,192,40016,1,0,0:0:0:0:
256,192,40102,1,6,0:0:0:0:
256,192,40619,1,4,0:0:0:0:
256,192,40964,1,0,0:0:0:0:
256,192,41137,1,2,0:0:0:0:
256,192,41223,1,2,0:0:0:0:
256,192,41309,1,0,0:0:0:0:
256,192,41395,1,0,0:0:0:0:
256,192,41481,1,6,0:0:0:0:
256,192,41999,1,6,0:0:0:0:
256,192,42344,1,0,0:0:0:0:
256,192,42602,1,4,0:0:0:0:
256,192,42861,1,6,0:0:0:0:
256,192,43119,1,6,0:0:0:0:
256,192,43378,1,4,0:0:0:0:
256,192,43550,8,0,45102,0:0:0:0:
256,192,45275,5,0,0:0:0:0:
256,192,45361,1,0,0:0:0:0:
256,192,45447,1,0,0:0:0:0:
256,192,45533,1,0,0:0:0:0:
256,192,45619,1,6,0:0:0:0:
256,192,46137,1,6,0:0:0:0:
256,192,46481,1,0,0:0:0:0:
256,192,46539,1,0,0:0:0:0:
256,192,46596,1,0,0:0:0:0:
256,192,46654,1,2,0:0:0:0:
256,192,46826,1,0,0:0:0:0:
256,192,46999,1,6,0:0:0:0:
256,192,47516,1,6,0:0:0:0:
256,192,48206,1,0,0:0:0:0:
256,192,48292,1,0,0:0:0:0:
256,192,48378,1,6,0:0:0:0:
256,192,48895,1,6,0:0:0:0:
256,192,49413,1,0,0:0:0:0:
256,192,49470,1,0,0:0:0:0:
256,192,49527,1,2,0:0:0:0:
256,192,49585,1,2,0:0:0:0:
256,192,49757,1,0,0:0:0:0:
256,192,49930,8,0,50619,0:0:0:0:
256,192,50792,5,0,0:0:0:0:
256,192,50878,1,0,0:0:0:0:
256,192,50964,1,0,0:0:0:0:
256,192,51050,1,0,0:0:0:0:
256,192,51137,1,6,0:0:0:0:
256,192,51654,1,4,0:0:0:0:
256,192,51999,1,0,0:0:0:0:
256,192,52171,1,2,0:0:0:0:
256,192,52344,1,0,0:0:0:0:
256,192,52430,1,0,0:0:0:0:
256,192,52516,1,6,0:0:0:0:
256,192,53033,1,6,0:0:0:0:
256,192,53637,1,4,0:0:0:0:
256,192,53895,1,6,0:0:0:0:
256,192,54154,1,6,0:0:0:0:
256,192,54413,1,4,0:0:0:0:
256,192,54671,1,4,0:0:0:0:
256,192,54930,1,6,0:0:0:0:
256,192,55102,8,6,56481,0:0:0:0:
256,192,56654,5,6,0:0:0:0:
256,192,66309,5,0,0:0:0:0:
256,192,67688,1,6,0:0:0:0:
256,192,67861,1,0,0:0:0:0:
256,192,67947,1,0,0:0:0:0:
256,192,68033,1,2,0:0:0:0:
256,192,68119,1,2,0:0:0:0:
256,192,68206,1,0,0:0:0:0:
256,192,68378,1,2,0:0:0:0:
256,192,68464,1,2,0:0:0:0:
256,192,68550,1,2,0:0:0:0:
256,192,68723,1,0,0:0:0:0:
256,192,68809,1,0,0:0:0:0:
256,192,68895,1,2,0:0:0:0:
256,192,68981,1,0,0:0:0:0:
256,192,69068,1,2,0:0:0:0:
256,192,69240,1,0,0:0:0:0:
256,192,69326,1,0,0:0:0:0:
256,192,69413,1,2,0:0:0:0:
256,192,69585,1,0,0:0:0:0:
256,192,69757,1,2,0:0:0:0:
256,192,69844,1,2,0:0:0:0:
256,192,69930,1,0,0:0:0:0:
256,192,70016,1,0,0:0:0:0:
256,192,70102,1,2,0:0:0:0:
256,192,70275,1,0,0:0:0:0:
256,192,70332,1,0,0:0:0:0:
256,192,70390,1,0,0:0:0:0:
256,192,70447,1,2,0:0:0:0:
256,192,70619,1,0,0:0:0:0:
256,192,70706,1,2,0:0:0:0:
256,192,70792,1,2,0:0:0:0:
256,192,70878,1,2,0:0:0:0:
256,192,70964,1,0,0:0:0:0:
256,192,71137,1,2,0:0:0:0:
256,192,71223,1,2,0:0:0:0:
256,192,71309,1,0,0:0:0:0:
256,192,71395,1,0,0:0:0:0:
256,192,71481,1,2,0:0:0:0:
256,192,71654,1,0,0:0:0:0:
256,192,71740,1,0,0:0:0:0:
256,192,71826,1,0,0:0:0:0:
256,192,71999,1,2,0:0:0:0:
256,192,72085,1,2,0:0:0:0:
256,192,72171,1,0,0:0:0:0:
256,192,72344,1,2,0:0:0:0:
256,192,72516,1,0,0:0:0:0:
256,192,72602,1,0,0:0:0:0:
256,192,72688,1,0,0:0:0:0:
256,192,72775,1,0,0:0:0:0:
256,192,72861,1,2,0:0:0:0:
256,192,73033,1,0,0:0:0:0:
256,192,73091,1,0,0:0:0:0:
256,192,73148,1,0,0:0:0:0:
256,192,73206,1,2,0:0:0:0:
256,192,73292,1,2,0:0:0:0:
256,192,73378,1,0,0:0:0:0:
256,192,73464,1,0,0:0:0:0:
256,192,73550,1,2,0:0:0:0:
256,192,73637,1,0,0:0:0:0:
256,192,73723,1,0,0:0:0:0:
256,192,73809,1,0,0:0:0:0:
256,192,73895,1,2,0:0:0:0:
256,192,73981,1,2,0:0:0:0:
256,192,74068,1,0,0:0:0:0:
256,192,74154,1,0,0:0:0:0:
256,192,74240,1,2,0:0:0:0:
256,192,74326,1,0,0:0:0:0:
256,192,74413,1,0,0:0:0:0:
256,192,74499,1,0,0:0:0:0:
256,192,74585,1,2,0:0:0:0:
256,192,74671,1,2,0:0:0:0:
256,192,74757,1,0,0:0:0:0:
256,192,74844,1,0,0:0:0:0:
256,192,74930,1,2,0:0:0:0:
256,192,75016,1,0,0:0:0:0:
256,192,75102,1,0,0:0:0:0:
256,192,75188,1,0,0:0:0:0:
256,192,75275,1,2,0:0:0:0:
256,192,75361,1,2,0:0:0:0:
256,192,75447,1,0,0:0:0:0:
256,192,75533,1,0,0:0:0:0:
256,192,75619,1,2,0:0:0:0:
256,192,75706,1,0,0:0:0:0:
256,192,75792,1,0,0:0:0:0:
256,192,75878,1,0,0:0:0:0:
256,192,75964,1,2,0:0:0:0:
256,192,76022,1,2,0:0:0:0:
256,192,76079,1,2,0:0:0:0:
256,192,76137,1,0,0:0:0:0:
256,192,76223,1,0,0:0:0:0:
256,192,76309,1,2,0:0:0:0:
256,192,76367,1,0,0:0:0:0:
256,192,76424,1,0,0:0:0:0:
256,192,76481,1,2,0:0:0:0:
256,192,76568,1,0,0:0:0:0:
256,192,76654,1,2,0:0:0:0:
256,192,76711,1,2,0:0:0:0:
256,192,76769,1,2,0:0:0:0:
256,192,76826,1,0,0:0:0:0:
256,192,76913,1,0,0:0:0:0:
256,192,76999,1,2,0:0:0:0:
256,192,77056,1,0,0:0:0:0:
256,192,77114,1,0,0:0:0:0:
256,192,77171,1,2,0:0:0:0:
256,192,77257,1,2,0:0:0:0:
256,192,77344,1,0,0:0:0:0:
256,192,78378,1,0,0:0:0:0:
256,192,78464,1,0,0:0:0:0:
256,192,78550,1,0,0:0:0:0:
256,192,78637,1,0,0:0:0:0:
256,192,78723,1,6,0:0:0:0:
256,192,79068,1,0,0:0:0:0:
256,192,79240,1,2,0:0:0:0:
256,192,79326,1,0,0:0:0:0:
256,192,79413,1,2,0:0:0:0:
256,192,79499,1,2,0:0:0:0:
256,192,79585,1,0,0:0:0:0:
256,192,79757,1,2,0:0:0:0:
256,192,79930,1,0,0:0:0:0:
256,192,80016,1,0,0:0:0:0:
256,192,80102,1,2,0:0:0:0:
256,192,80188,1,2,0:0:0:0:
256,192,80275,1,0,0:0:0:0:
256,192,80361,1,0,0:0:0:0:
256,192,80447,1,2,0:0:0:0:
256,192,80619,1,0,0:0:0:0:
256,192,80706,1,2,0:0:0:0:
256,192,80792,1,0,0:0:0:0:
256,192,80878,1,2,0:0:0:0:
256,192,80964,1,0,0:0:0:0:
256,192,81137,1,2,0:0:0:0:
256,192,81309,1,2,0:0:0:0:
256,192,81395,1,2,0:0:0:0:
256,192,81481,1,0,0:0:0:0:
256,192,81568,1,0,0:0:0:0:
256,192,81654,1,0,0:0:0:0:
256,192,81826,1,2,0:0:0:0:
256,192,81999,1,0,0:0:0:0:
256,192,82085,1,0,0:0:0:0:
256,192,82257,1,2,0:0:0:0:
256,192,82344,1,0,0:0:0:0:
256,192,82516,1,2,0:0:0:0:
256,192,82573,1,2,0:0:0:0:
256,192,82631,1,2,0:0:0:0:
256,192,82688,1,0,0:0:0:0:
256,192,82775,1,0,0:0:0:0:
256,192,82861,1,2,0:0:0:0:
256,192,83033,1,0,0:0:0:0:
256,192,83206,1,2,0:0:0:0:
256,192,83292,1,2,0:0:0:0:
256,192,83378,1,0,0:0:0:0:
256,192,83464,1,2,0:0:0:0:
256,192,83550,1,0,0:0:0:0:
256,192,83637,1,0,0:0:0:0:
256,192,83723,1,2,0:0:0:0:
256,192,83809,1,0,0:0:0:0:
256,192,83895,1,2,0:0:0:0:
256,192,83981,1,2,0:0:0:0:
256,192,84068,1,0,0:0:0:0:
256,192,84154,1,0,0:0:0:0:
256,192,84240,1,2,0:0:0:0:
256,192,84298,1,2,0:0:0:0:
256,192,84355,1,2,0:0:0:0:
256,192,84413,1,0,0:0:0:0:
256,192,84499,1,0,0:0:0:0:
256,192,84585,1,2,0:0:0:0:
256,192,84757,1,0,0:0:0:0:
256,192,84844,1,2,0:0:0:0:
256,192,84930,1,0,0:0:0:0:
256,192,85016,1,2,0:0:0:0:
256,192,85102,1,0,0:0:0:0:
256,192,85275,1,2,0:0:0:0:
256,192,85447,1,0,0:0:0:0:
256,192,85533,1,0,0:0:0:0:
256,192,85619,1,2,0:0:0:0:
256,192,85706,1,0,0:0:0:0:
256,192,85792,1,2,0:0:0:0:
256,192,85964,1,0,0:0:0:0:
256,192,86137,1,2,0:0:0:0:
256,192,86223,1,2,0:0:0:0:
256,192,86309,1,0,0:0:0:0:
256,192,86395,1,2,0:0:0:0:
256,192,86481,1,0,0:0:0:0:
256,192,86568,1,0,0:0:0:0:
256,192,86654,1,2,0:0:0:0:
256,192,86826,1,0,0:0:0:0:
256,192,86913,1,0,0:0:0:0:
256,192,86999,1,0,0:0:0:0:
256,192,87085,1,0,0:0:0:0:
256,192,87171,1,2,0:0:0:0:
256,192,87257,1,0,0:0:0:0:
256,192,87344,1,2,0:0:0:0:
256,192,87430,1,2,0:0:0:0:
256,192,87516,1,0,0:0:0:0:
256,192,87602,1,0,0:0:0:0:
256,192,87688,1,2,0:0:0:0:
256,192,87775,1,2,0:0:0:0:
256,192,87861,1,0,0:0:0:0:
256,192,88033,1,2,0:0:0:0:
256,192,88206,1,0,0:0:0:0:
256,192,88292,1,0,0:0:0:0:
256,192,88378,1,2,0:0:0:0:
256,192,88464,1,2,0:0:0:0:
256,192,88550,1,0,0:0:0:0:
256,192,88723,1,2,0:0:0:0:
256,192,88895,1,0,0:0:0:0:
256,192,88953,1,0,0:0:0:0:
256,192,89010,1,0,0:0:0:0:
256,192,89068,1,2,0:0:0:0:
256,192,89154,1,2,0:0:0:0:
256,192,89240,1,0,0:0:0:0:
256,192,89298,1,0,0:0:0:0:
256,192,89355,1,0,0:0:0:0:
256,192,89413,1,0,0:0:0:0:
256,192,89585,1,2,0:0:0:0:
256,192,89671,1,2,0:0:0:0:
256,192,89757,1,4,0:0:0:0:
256,192,90102,1,2,0:0:0:0:
256,192,90275,1,0,0:0:0:0:
256,192,90361,1,0,0:0:0:0:
256,192,90447,1,2,0:0:0:0:
256,192,90533,1,2,0:0:0:0:
256,192,90619,1,0,0:0:0:0:
256,192,90792,1,2,0:0:0:0:
256,192,90964,1,0,0:0:0:0:
256,192,91050,1,0,0:0:0:0:
256,192,91137,1,2,0:0:0:0:
256,192,91223,1,0,0:0:0:0:
256,192,91309,1,2,0:0:0:0:
256,192,91395,1,2,0:0:0:0:
256,192,91481,1,0,0:0:0:0:
256,192,91654,1,2,0:0:0:0:
256,192,91740,1,0,0:0:0:0:
256,192,91826,1,2,0:0:0:0:
256,192,91913,1,0,0:0:0:0:
256,192,91999,1,0,0:0:0:0:
256,192,92171,1,2,0:0:0:0:
256,192,92344,1,0,0:0:0:0:
256,192,92430,1,0,0:0:0:0:
256,192,92516,1,2,0:0:0:0:
256,192,92602,1,0,0:0:0:0:
256,192,92688,1,0,0:0:0:0:
256,192,92775,1,0,0:0:0:0:
256,192,92861,1,2,0:0:0:0:
256,192,93033,1,0,0:0:0:0:
256,192,93119,1,0,0:0:0:0:
256,192,93292,1,2,0:0:0:0:
256,192,93378,1,0,0:0:0:0:
256,192,93550,1,2,0:0:0:0:
256,192,93608,1,2,0:0:0:0:
256,192,93665,1,2,0:0:0:0:
256,192,93723,1,0,0:0:0:0:
256,192,93809,1,0,0:0:0:0:
256,192,93895,1,2,0:0:0:0:
256,192,94068,1,0,0:0:0:0:
256,192,94154,1,2,0:0:0:0:
256,192,94326,1,0,0:0:0:0:
256,192,94413,1,2,0:0:0:0:
256,192,94585,1,0,0:0:0:0:
256,192,94671,1,2,0:0:0:0:
256,192,94757,1,0,0:0:0:0:
256,192,94930,1,2,0:0:0:0:
256,192,95102,1,0,0:0:0:0:
256,192,95188,1,0,0:0:0:0:
256,192,95275,1,6,0:0:0:0:
256,192,95619,1,0,0:0:0:0:
256,192,95706,1,2,0:0:0:0:
256,192,95964,1,0,0:0:0:0:
256,192,96050,1,0,0:0:0:0:
256,192,96137,1,2,0:0:0:0:
256,192,96223,1,2,0:0:0:0:
256,192,96309,1,0,0:0:0:0:
256,192,96395,1,2,0:0:0:0:
256,192,96481,1,2,0:0:0:0:
256,192,96568,1,2,0:0:0:0:
256,192,96654,1,0,0:0:0:0:
256,192,96999,1,0,0:0:0:0:
256,192,97085,1,2,0:0:0:0:
256,192,97344,1,0,0:0:0:0:
256,192,97430,1,0,0:0:0:0:
256,192,97516,1,2,0:0:0:0:
256,192,97602,1,2,0:0:0:0:
256,192,97688,1,0,0:0:0:0:
256,192,97775,1,2,0:0:0:0:
256,192,97861,1,2,0:0:0:0:
256,192,97947,1,2,0:0:0:0:
256,192,98033,1,0,0:0:0:0:
256,192,98206,1,2,0:0:0:0:
256,192,98292,1,0,0:0:0:0:
256,192,98378,1,2,0:0:0:0:
256,192,98464,1,0,0:0:0:0:
256,192,98550,1,2,0:0:0:0:
256,192,98723,1,0,0:0:0:0:
256,192,98809,1,0,0:0:0:0:
256,192,98895,1,2,0:0:0:0:
256,192,98981,1,2,0:0:0:0:
256,192,99068,1,0,0:0:0:0:
256,192,99154,1,2,0:0:0:0:
256,192,99240,1,2,0:0:0:0:
256,192,99326,1,2,0:0:0:0:
256,192,99413,1,4,0:0:0:0:
256,192,99642,1,4,0:0:0:0:
256,192,99872,1,4,0:0:0:0:
256,192,100102,1,6,0:0:0:0:
256,192,100447,1,2,0:0:0:0:
256,192,100533,1,2,0:0:0:0:
256,192,100619,1,2,0:0:0:0:
256,192,100706,1,2,0:0:0:0:
256,192,100792,1,4,0:0:0:0:
256,192,101137,1,2,0:0:0:0:
256,192,101309,1,0,0:0:0:0:
256,192,101395,1,0,0:0:0:0:
256,192,101481,1,2,0:0:0:0:
256,192,101568,1,0,0:0:0:0:
256,192,101654,1,2,0:0:0:0:
256,192,101740,1,2,0:0:0:0:
256,192,101826,1,0,0:0:0:0:
256,192,101999,1,2,0:0:0:0:
256,192,102085,1,2,0:0:0:0:
256,192,102171,1,2,0:0:0:0:
256,192,102257,1,0,0:0:0:0:
256,192,102344,1,2,0:0:0:0:
256,192,102430,1,2,0:0:0:0:
256,192,102516,1,0,0:0:0:0:
256,192,102602,1,0,0:0:0:0:
256,192,102688,1,2,0:0:0:0:
256,192,102775,1,0,0:0:0:0:
256,192,102861,1,0,0:0:0:0:
256,192,102947,1,0,0:0:0:0:
256,192,103033,1,2,0:0:0:0:
256,192,103119,1,0,0:0:0:0:
256,192,103206,1,2,0:0:0:0:
256,192,103292,1,2,0:0:0:0:
256,192,103378,1,0,0:0:0:0:
256,192,103464,1,0,0:0:0:0:
256,192,103550,1,2,0:0:0:0:
256,192,103723,1,0,0:0:0:0:
256,192,103809,1,0,0:0:0:0:
256,192,103895,1,2,0:0:0:0:
256,192,103981,1,0,0:0:0:0:
256,192,104068,1,2,0:0:0:0:
256,192,104154,1,2,0:0:0:0:
256,192,104240,1,0,0:0:0:0:
256,192,104326,1,0,0:0:0:0:
256,192,104413,1,2,0:0:0:0:
256,192,104499,1,0,0:0:0:0:
256,192,104585,1,2,0:0:0:0:
256,192,104757,1,0,0:0:0:0:
256,192,104844,1,0,0:0:0:0:
256,192,104930,1,2,0:0:0:0:
256,192,105016,1,2,0:0:0:0:
256,192,105102,1,0,0:0:0:0:
256,192,105188,1,2,0:0:0:0:
256,192,105275,1,0,0:0:0:0:
256,192,105361,1,0,0:0:0:0:
256,192,105447,1,2,0:0:0:0:
256,192,105533,1,2,0:0:0:0:
256,192,105619,1,0,0:0:0:0:
256,192,105706,1,2,0:0:0:0:
256,192,105792,1,0,0:0:0:0:
256,192,105878,1,0,0:0:0:0:
256,192,105964,1,2,0:0:0:0:
256,192,106050,1,0,0:0:0:0:
256,192,106137,1,2,0:0:0:0:
256,192,106223,1,2,0:0:0:0:
256,192,106309,1,0,0:0:0:0:
256,192,106481,1,0,0:0:0:0:
256,192,106654,1,6,0:0:0:0:
256,192,106826,1,0,0:0:0:0:
256,192,106913,1,0,0:0:0:0:
256,192,106999,1,2,0:0:0:0:
256,192,107085,1,0,0:0:0:0:
256,192,107171,1,2,0:0:0:0:
256,192,107257,1,2,0:0:0:0:
256,192,107344,1,0,0:0:0:0:
256,192,107516,1,2,0:0:0:0:
256,192,107602,1,2,0:0:0:0:
256,192,107688,1,0,0:0:0:0:
256,192,107775,1,0,0:0:0:0:
256,192,107861,1,2,0:0:0:0:
256,192,107947,1,0,0:0:0:0:
256,192,108033,1,2,0:0:0:0:
256,192,108119,1,2,0:0:0:0:
256,192,108206,1,0,0:0:0:0:
256,192,108292,1,2,0:0:0:0:
256,192,108378,1,0,0:0:0:0:
256,192,108464,1,0,0:0:0:0:
256,192,108550,1,2,0:0:0:0:
256,192,108637,1,0,0:0:0:0:
256,192,108723,1,2,0:0:0:0:
256,192,108809,1,2,0:0:0:0:
256,192,108895,1,0,0:0:0:0:
256,192,108981,1,0,0:0:0:0:
256,192,109068,1,2,0:0:0:0:
256,192,109154,1,0,0:0:0:0:
256,192,109240,1,2,0:0:0:0:
256,192,109326,1,2,0:0:0:0:
256,192,109413,1,0,0:0:0:0:
256,192,109585,1,2,0:0:0:0:
256,192,109671,1,2,0:0:0:0:
256,192,109757,1,0,0:0:0:0:
256,192,109844,1,0,0:0:0:0:
256,192,109930,1,2,0:0:0:0:
256,192,110016,1,0,0:0:0:0:
256,192,110102,1,2,0:0:0:0:
256,192,110188,1,2,0:0:0:0:
256,192,110275,1,0,0:0:0:0:
256,192,110361,1,0,0:0:0:0:
256,192,110447,1,2,0:0:0:0:
256,192,110533,1,0,0:0:0:0:
256,192,110619,1,2,0:0:0:0:
256,192,110706,1,2,0:0:0:0:
256,192,110792,1,0,0:0:0:0:
256,192,110964,1,2,0:0:0:0:
256,192,111022,1,2,0:0:0:0:
256,192,111079,1,2,0:0:0:0:
256,192,111137,1,0,0:0:0:0:
256,192,111223,1,0,0:0:0:0:
256,192,111309,1,2,0:0:0:0:
256,192,111367,1,0,0:0:0:0:
256,192,111424,1,0,0:0:0:0:
256,192,111481,1,2,0:0:0:0:
256,192,111568,1,0,0:0:0:0:
256,192,111654,1,2,0:0:0:0:
256,192,111740,1,2,0:0:0:0:
256,192,111826,1,0,0:0:0:0:
256,192,111999,1,2,0:0:0:0:
256,192,112085,1,0,0:0:0:0:
256,192,112257,1,2,0:0:0:0:
256,192,112344,1,0,0:0:0:0:
256,192,112516,1,2,0:0:0:0:
256,192,112688,1,4,0:0:0:0:
256,192,112861,1,2,0:0:0:0:
256,192,112976,1,2,0:0:0:0:
256,192,113091,1,2,0:0:0:0:
256,192,113206,1,0,0:0:0:0:
256,192,113292,1,0,0:0:0:0:
256,192,113378,1,2,0:0:0:0:
256,192,113464,1,0,0:0:0:0:
256,192,113550,1,2,0:0:0:0:
256,192,113637,1,2,0:0:0:0:
256,192,113723,1,0,0:0:0:0:
256,192,113809,1,2,0:0:0:0:
256,192,113895,1,0,0:0:0:0:
256,192,113981,1,0,0:0:0:0:
256,192,114068,1,2,0:0:0:0:
256,192,114154,1,0,0:0:0:0:
256,192,114240,1,2,0:0:0:0:
256,192,114326,1,2,0:0:0:0:
256,192,114413,1,0,0:0:0:0:
256,192,114499,1,0,0:0:0:0:
256,192,114585,1,2,0:0:0:0:
256,192,114757,1,0,0:0:0:0:
256,192,114930,1,2,0:0:0:0:
256,192,115102,1,0,0:0:0:0:
256,192,115188,1,0,0:0:0:0:
256,192,115275,1,2,0:0:0:0:
256,192,115361,1,0,0:0:0:0:
256,192,115447,1,2,0:0:0:0:
256,192,115533,1,2,0:0:0:0:
256,192,115619,1,0,0:0:0:0:
256,192,115677,1,0,0:0:0:0:
256,192,115734,1,0,0:0:0:0:
256,192,115792,1,2,0:0:0:0:
256,192,115878,1,2,0:0:0:0:
256,192,115964,1,0,0:0:0:0:
256,192,116050,1,0,0:0:0:0:
256,192,116137,1,2,0:0:0:0:
256,192,116223,1,0,0:0:0:0:
256,192,116309,1,2,0:0:0:0:
256,192,116481,1,0,0:0:0:0:
256,192,116568,1,0,0:0:0:0:
256,192,116654,1,2,0:0:0:0:
256,192,116740,1,2,0:0:0:0:
256,192,116826,1,2,0:0:0:0:
256,192,116999,1,0,0:0:0:0:
256,192,117085,1,0,0:0:0:0:
256,192,117171,1,2,0:0:0:0:
256,192,117257,1,2,0:0:0:0:
256,192,117344,1,0,0:0:0:0:
256,192,117516,1,0,0:0:0:0:
256,192,117688,1,6,0:0:0:0:
256,192,117861,1,0,0:0:0:0:
256,192,117918,1,0,0:0:0:0:
256,192,117976,1,0,0:0:0:0:
256,192,118033,1,2,0:0:0:0:
256,192,118119,1,2,0:0:0:0:
256,192,118206,1,0,0:0:0:0:
256,192,118292,1,0,0:0:0:0:
256,192,118378,1,2,0:0:0:0:
256,192,118464,1,0,0:0:0:0:
256,192,118550,1,0,0:0:0:0:
256,192,118637,1,0,0:0:0:0:
256,192,118723,1,2,0:0:0:0:
256,192,118809,1,2,0:0:0:0:
256,192,118895,1,0,0:0:0:0:
256,192,118981,1,0,0:0:0:0:
256,192,119068,1,2,0:0:0:0:
256,192,119154,1,0,0:0:0:0:
256,192,119240,1,0,0:0:0:0:
256,192,119326,1,0,0:0:0:0:
256,192,119413,1,2,0:0:0:0:
256,192,119499,1,2,0:0:0:0:
256,192,119585,1,0,0:0:0:0:
256,192,119671,1,0,0:0:0:0:
256,192,119757,1,2,0:0:0:0:
256,192,119844,1,0,0:0:0:0:
256,192,119930,1,0,0:0:0:0:
256,192,120016,1,0,0:0:0:0:
256,192,120102,1,2,0:0:0:0:
256,192,120160,1,2,0:0:0:0:
256,192,120217,1,2,0:0:0:0:
256,192,120275,1,0,0:0:0:0:
256,192,120361,1,0,0:0:0:0:
256,192,120447,1,2,0:0:0:0:
256,192,120504,1,0,0:0:0:0:
256,192,120562,1,0,0:0:0:0:
256,192,120619,1,2,0:0:0:0:
256,192,120706,1,0,0:0:0:0:
256,192,120792,1,2,0:0:0:0:
256,192,120849,1,2,0:0:0:0:
256,192,120907,1,2,0:0:0:0:
256,192,120964,1,0,0:0:0:0:
256,192,121050,1,0,0:0:0:0:
256,192,121137,1,2,0:0:0:0:
256,192,121194,1,0,0:0:0:0:
256,192,121252,1,0,0:0:0:0:
256,192,121309,1,2,0:0:0:0:
256,192,121395,1,2,0:0:0:0:
256,192,121481,1,0,0:0:0:0:
256,192,121654,1,2,0:0:0:0:
256,192,121740,1,0,0:0:0:0:
256,192,121826,1,2,0:0:0:0:
256,192,121913,1,0,0:0:0:0:
256,192,121999,1,2,0:0:0:0:
256,192,122085,1,0,0:0:0:0:
256,192,122171,1,2,0:0:0:0:
256,192,122257,1,0,0:0:0:0:
256,192,122344,1,2,0:0:0:0:
256,192,122430,1,0,0:0:0:0:
256,192,122516,1,2,0:0:0:0:
256,192,122861,1,6,0:0:0:0:
256,192,123033,1,0,0:0:0:0:
256,192,123119,1,2,0:0:0:0:
256,192,123292,1,0,0:0:0:0:
256,192,123378,1,2,0:0:0:0:
256,192,123550,1,0,0:0:0:0:
256,192,123637,1,2,0:0:0:0:
256,192,123809,1,0,0:0:0:0:
256,192,123895,1,2,0:0:0:0:
256,192,124068,1,0,0:0:0:0:
256,192,124154,1,0,0:0:0:0:
256,192,124240,1,2,0:0:0:0:
256,192,124413,1,0,0:0:0:0:
256,192,124499,1,2,0:0:0:0:
256,192,124671,1,0,0:0:0:0:
256,192,124757,1,2,0:0:0:0:
256,192,124930,1,0,0:0:0:0:
256,192,125016,1,2,0:0:0:0:
256,192,125188,1,0,0:0:0:0:
256,192,125275,1,2,0:0:0:0:
256,192,125447,1,0,0:0:0:0:
256,192,125504,1,0,0:0:0:0:
256,192,125562,1,0,0:0:0:0:
256,192,125619,1,2,0:0:0:0:
256,192,125792,1,0,0:0:0:0:
256,192,125878,1,2,0:0:0:0:
256,192,126050,1,0,0:0:0:0:
256,192,126137,1,2,0:0:0:0:
256,192,126309,1,0,0:0:0:0:
256,192,126395,1,2,0:0:0:0:
256,192,126568,1,0,0:0:0:0:
256,192,126654,1,2,0:0:0:0:
256,192,126826,1,0,0:0:0:0:
256,192,126913,1,0,0:0:0:0:
256,192,126999,1,2,0:0:0:0:
256,192,127171,1,0,0:0:0:0:
256,192,127257,1,2,0:0:0:0:
256,192,127430,1,0,0:0:0:0:
256,192,127516,1,2,0:0:0:0:
256,192,127688,1,0,0:0:0:0:
256,192,127775,1,2,0:0:0:0:
256,192,127947,1,0,0:0:0:0:
256,192,128033,1,2,0:0:0:0:
256,192,128206,1,0,0:0:0:0:
256,192,128263,1,0,0:0:0:0:
256,192,128321,1,0,0:0:0:0:
256,192,128378,1,2,0:0:0:0:
256,192,128464,1,2,0:0:0:0:
256,192,128550,1,0,0:0:0:0:
256,192,128637,1,0,0:0:0:0:
256,192,128723,1,2,0:0:0:0:
256,192,128809,1,0,0:0:0:0:
256,192,128895,1,0,0:0:0:0:
256,192,128981,1,0,0:0:0:0:
256,192,129068,1,2,0:0:0:0:
256,192,129154,1,2,0:0:0:0:
256,192,129240,1,0,0:0:0:0:
256,192,129326,1,0,0:0:0:0:
256,192,129413,1,2,0:0:0:0:
256,192,129499,1,0,0:0:0:0:
256,192,129585,1,0,0:0:0:0:
256,192,129671,1,0,0:0:0:0:
256,192,129757,1,2,0:0:0:0:
256,192,129844,1,2,0:0:0:0:
256,192,129930,1,0,0:0:0:0:
256,192,130016,1,0,0:0:0:0:
256,192,130102,1,2,0:0:0:0:
256,192,130188,1,0,0:0:0:0:
256,192,130275,1,0,0:0:0:0:
256,192,130361,1,0,0:0:0:0:
256,192,130447,1,2,0:0:0:0:
256,192,130533,1,2,0:0:0:0:
256,192,130619,1,0,0:0:0:0:
256,192,130706,1,0,0:0:0:0:
256,192,130792,1,2,0:0:0:0:
256,192,130878,1,0,0:0:0:0:
256,192,130964,1,0,0:0:0:0:
256,192,131050,1,0,0:0:0:0:
256,192,131137,1,2,0:0:0:0:
256,192,131194,1,2,0:0:0:0:
256,192,131252,1,2,0:0:0:0:
256,192,131309,1,0,0:0:0:0:
256,192,131395,1,0,0:0:0:0:
256,192,131481,1,2,0:0:0:0:
256,192,131539,1,0,0:0:0:0:
256,192,131596,1,0,0:0:0:0:
256,192,131654,1,2,0:0:0:0:
256,192,131740,1,0,0:0:0:0:
256,192,131826,1,2,0:0:0:0:
256,192,131884,1,2,0:0:0:0:
256,192,131941,1,2,0:0:0:0:
256,192,131999,1,0,0:0:0:0:
256,192,132085,1,0,0:0:0:0:
256,192,132171,1,2,0:0:0:0:
256,192,132229,1,0,0:0:0:0:
256,192,132286,1,0,0:0:0:0:
256,192,132344,1,2,0:0:0:0:
256,192,132430,1,2,0:0:0:0:
256,192,132516,1,0,0:0:0:0:
256,192,133550,1,0,0:0:0:0:
256,192,133637,1,0,0:0:0:0:
256,192,133723,1,0,0:0:0:0:
256,192,133809,1,0,0:0:0:0:
256,192,133895,1,6,0:0:0:0:
256,192,134240,1,0,0:0:0:0:
256,192,134413,1,0,0:0:0:0:
256,192,134499,1,0,0:0:0:0:
256,192,134585,1,2,0:0:0:0:
256,192,134671,1,0,0:0:0:0:
256,192,134757,1,2,0:0:0:0:
256,192,134844,1,0,0:0:0:0:
256,192,134930,1,2,0:0:0:0:
256,192,135016,1,2,0:0:0:0:
256,192,135102,1,0,0:0:0:0:
256,192,135188,1,0,0:0:0:0:
256,192,135275,1,2,0:0:0:0:
256,192,135361,1,0,0:0:0:0:
256,192,135447,1,2,0:0:0:0:
256,192,135533,1,0,0:0:0:0:
256,192,135619,1,2,0:0:0:0:
256,192,135706,1,2,0:0:0:0:
256,192,135792,1,0,0:0:0:0:
256,192,135878,1,0,0:0:0:0:
256,192,135964,1,2,0:0:0:0:
256,192,136309,1,0,0:0:0:0:
256,192,136367,1,0,0:0:0:0:
256,192,136424,1,2,0:0:0:0:
256,192,136481,1,2,0:0:0:0:
256,192,136654,1,0,0:0:0:0:
256,192,136826,1,2,0:0:0:0:
256,192,137171,1,0,0:0:0:0:
256,192,137344,1,2,0:0:0:0:
256,192,137516,1,2,0:0:0:0:
256,192,137688,1,0,0:0:0:0:
256,192,137861,1,2,0:0:0:0:
256,192,137947,1,2,0:0:0:0:
256,192,138033,1,0,0:0:0:0:
256,192,138119,1,2,0:0:0:0:
256,192,138206,1,0,0:0:0:0:
256,192,138292,1,0,0:0:0:0:
256,192,138378,1,2,0:0:0:0:
256,192,138436,1,2,0:0:0:0:
256,192,138493,1,2,0:0:0:0:
256,192,138550,1,0,0:0:0:0:
256,192,138637,1,0,0:0:0:0:
256,192,138723,1,2,0:0:0:0:
256,192,138809,1,0,0:0:0:0:
256,192,138895,1,2,0:0:0:0:
256,192,138981,1,2,0:0:0:0:
256,192,139068,1,0,0:0:0:0:
256,192,139154,1,0,0:0:0:0:
256,192,139240,1,2,0:0:0:0:
256,192,139326,1,0,0:0:0:0:
256,192,139413,1,2,0:0:0:0:
256,192,139757,1,0,0:0:0:0:
256,192,139930,1,0,0:0:0:0:
256,192,140016,1,0,0:0:0:0:
256,192,140102,1,2,0:0:0:0:
256,192,140188,1,0,0:0:0:0:
256,192,140275,1,2,0:0:0:0:
256,192,140361,1,0,0:0:0:0:
256,192,140447,1,2,0:0:0:0:
256,192,140533,1,2,0:0:0:0:
256,192,140619,1,0,0:0:0:0:
256,192,140706,1,0,0:0:0:0:
256,192,140792,1,2,0:0:0:0:
256,192,140878,1,0,0:0:0:0:
256,192,140964,1,2,0:0:0:0:
256,192,141050,1,0,0:0:0:0:
256,192,141137,1,2,0:0:0:0:
256,192,141223,1,2,0:0:0:0:
256,192,141309,1,0,0:0:0:0:
256,192,141395,1,0,0:0:0:0:
256,192,141481,1,2,0:0:0:0:
256,192,141826,1,0,0:0:0:0:
256,192,141884,1,0,0:0:0:0:
256,192,141941,1,2,0:0:0:0:
256,192,141999,1,2,0:0:0:0:
256,192,142171,1,0,0:0:0:0:
256,192,142344,1,2,0:0:0:0:
256,192,142516,1,0,0:0:0:0:
256,192,142573,1,0,0:0:0:0:
256,192,142631,1,0,0:0:0:0:
256,192,142688,1,2,0:0:0:0:
256,192,142775,1,0,0:0:0:0:
256,192,142861,1,2,0:0:0:0:
256,192,142947,1,2,0:0:0:0:
256,192,143033,1,0,0:0:0:0:
256,192,143119,1,0,0:0:0:0:
256,192,143206,1,2,0:0:0:0:
256,192,143292,1,0,0:0:0:0:
256,192,143378,1,0,0:0:0:0:
256,192,143464,1,0,0:0:0:0:
256,192,143550,1,2,0:0:0:0:
256,192,143637,1,2,0:0:0:0:
256,192,143723,1,0,0:0:0:0:
256,192,143895,1,2,0:0:0:0:
256,192,144068,1,2,0:0:0:0:
256,192,144240,1,0,0:0:0:0:
256,192,144413,1,0,0:0:0:0:
256,192,144585,1,2,0:0:0:0:
256,192,144642,1,2,0:0:0:0:
256,192,144700,1,2,0:0:0:0:
256,192,144757,1,0,0:0:0:0:
256,192,144844,1,0,0:0:0:0:
256,192,144930,1,6,0:0:0:0:
256,192,145275,1,0,0:0:0:0:
256,192,145447,1,0,0:0:0:0:
256,192,145533,1,0,0:0:0:0:
256,192,145619,1,2,0:0:0:0:
256,192,145706,1,0,0:0:0:0:
256,192,145792,1,2,0:0:0:0:
256,192,145878,1,0,0:0:0:0:
256,192,145964,1,2,0:0:0:0:
256,192,146050,1,2,0:0:0:0:
256,192,146137,1,0,0:0:0:0:
256,192,146223,1,0,0:0:0:0:
256,192,146309,1,2,0:0:0:0:
256,192,146395,1,0,0:0:0:0:
256,192,146481,1,2,0:0:0:0:
256,192,146568,1,0,0:0:0:0:
256,192,146654,1,2,0:0:0:0:
256,192,146740,1,2,0:0:0:0:
256,192,146826,1,0,0:0:0:0:
256,192,146913,1,0,0:0:0:0:
256,192,146999,1,2,0:0:0:0:
256,192,147344,1,0,0:0:0:0:
256,192,147401,1,0,0:0:0:0:
256,192,147459,1,2,0:0:0:0:
256,192,147516,1,2,0:0:0:0:
256,192,147688,1,0,0:0:0:0:
256,192,147861,1,2,0:0:0:0:
256,192,148206,1,0,0:0:0:0:
256,192,148378,1,2,0:0:0:0:
256,192,148550,1,2,0:0:0:0:
256,192,148723,1,0,0:0:0:0:
256,192,148895,1,2,0:0:0:0:
256,192,148981,1,2,0:0:0:0:
256,192,149068,1,0,0:0:0:0:
256,192,149154,1,2,0:0:0:0:
256,192,149240,1,0,0:0:0:0:
256,192,149326,1,0,0:0:0:0:
256,192,149413,1,2,0:0:0:0:
256,192,149470,1,2,0:0:0:0:
256,192,149527,1,2,0:0:0:0:
256,192,149585,1,0,0:0:0:0:
256,192,149671,1,0,0:0:0:0:
256,192,149757,1,2,0:0:0:0:
256,192,149844,1,0,0:0:0:0:
256,192,149930,1,2,0:0:0:0:
256,192,149987,1,2,0:0:0:0:
256,192,150045,1,0,0:0:0:0:
256,192,150102,1,0,0:0:0:0:
256,192,150188,1,0,0:0:0:0:
256,192,150275,1,2,0:0:0:0:
256,192,150361,1,0,0:0:0:0:
256,192,150447,1,6,0:0:0:0:
256,192,150792,1,0,0:0:0:0:
256,192,150878,1,0,0:0:0:0:
256,192,150964,1,2,0:0:0:0:
256,192,151050,1,2,0:0:0:0:
256,192,151137,1,0,0:0:0:0:
256,192,151223,1,0,0:0:0:0:
256,192,151309,1,2,0:0:0:0:
256,192,151395,1,2,0:0:0:0:
256,192,151481,1,0,0:0:0:0:
256,192,151568,1,2,0:0:0:0:
256,192,151654,1,2,0:0:0:0:
256,192,151740,1,2,0:0:0:0:
256,192,151826,1,0,0:0:0:0:
256,192,152171,1,0,0:0:0:0:
256,192,152257,1,0,0:0:0:0:
256,192,152344,1,2,0:0:0:0:
256,192,152430,1,2,0:0:0:0:
256,192,152516,1,0,0:0:0:0:
256,192,152602,1,0,0:0:0:0:
256,192,152688,1,2,0:0:0:0:
256,192,152775,1,2,0:0:0:0:
256,192,152861,1,0,0:0:0:0:
256,192,152947,1,2,0:0:0:0:
256,192,153033,1,2,0:0:0:0:
256,192,153119,1,2,0:0:0:0:
256,192,153206,1,0,0:0:0:0:
256,192,153378,1,2,0:0:0:0:
256,192,153464,1,0,0:0:0:0:
256,192,153550,1,2,0:0:0:0:
256,192,153637,1,0,0:0:0:0:
256,192,153723,1,2,0:0:0:0:
256,192,153895,1,0,0:0:0:0:
256,192,153981,1,0,0:0:0:0:
256,192,154068,1,2,0:0:0:0:
256,192,154154,1,2,0:0:0:0:
256,192,154240,1,0,0:0:0:0:
256,192,154326,1,2,0:0:0:0:
256,192,154413,1,2,0:0:0:0:
256,192,154499,1,2,0:0:0:0:
256,192,154585,1,4,0:0:0:0:
256,192,154815,1,4,0:0:0:0:
256,192,155045,1,4,0:0:0:0:
256,192,155275,1,6,0:0:0:0:
256,192,155619,1,2,0:0:0:0:
256,192,155706,1,2,0:0:0:0:
256,192,155792,1,2,0:0:0:0:
256,192,155878,1,2,0:0:0:0:
256,192,155964,1,4,0:0:0:0:
256,192,156309,1,0,0:0:0:0:
256,192,156395,1,0,0:0:0:0:
256,192,156481,1,2,0:0:0:0:
256,192,156568,1,2,0:0:0:0:
256,192,156654,1,0,0:0:0:0:
256,192,156740,1,2,0:0:0:0:
256,192,156826,1,2,0:0:0:0:
256,192,156913,1,2,0:0:0:0:
256,192,156999,1,0,0:0:0:0:
256,192,157085,1,0,0:0:0:0:
256,192,157171,1,2,0:0:0:0:
256,192,157257,1,2,0:0:0:0:
256,192,157344,1,0,0:0:0:0:
256,192,157430,1,0,0:0:0:0:
256,192,157516,1,0,0:0:0:0:
256,192,157602,1,2,0:0:0:0:
256,192,157688,1,0,0:0:0:0:
256,192,157775,1,0,0:0:0:0:
256,192,157861,1,2,0:0:0:0:
256,192,157947,1,2,0:0:0:0:
256,192,158033,1,0,0:0:0:0:
256,192,158119,1,0,0:0:0:0:
256,192,158206,1,0,0:0:0:0:
256,192,158378,1,2,0:0:0:0:
256,192,158464,1,2,0:0:0:0:
256,192,158550,1,2,0:0:0:0:
256,192,158637,1,2,0:0:0:0:
256,192,158723,1,0,0:0:0:0:
256,192,158895,1,2,0:0:0:0:
256,192,158953,1,2,0:0:0:0:
256,192,159010,1,2,0:0:0:0:
256,192,159068,1,0,0:0:0:0:
256,192,159240,1,2,0:0:0:0:
256,192,159326,1,2,0:0:0:0:
256,192,159413,1,0,0:0:0:0:
256,192,159499,1,0,0:0:0:0:
256,192,159585,1,2,0:0:0:0:
256,192,159671,1,2,0:0:0:0:
256,192,159757,1,0,0:0:0:0:
256,192,159844,1,2,0:0:0:0:
256,192,159930,1,2,0:0:0:0:
256,192,160016,1,2,0:0:0:0:
256,192,160102,1,0,0:0:0:0:
256,192,160188,1,0,0:0:0:0:
256,192,160275,1,2,0:0:0:0:
256,192,160361,1,0,0:0:0:0:
256,192,160447,1,2,0:0:0:0:
256,192,160533,1,2,0:0:0:0:
256,192,160619,1,0,0:0:0:0:
256,192,160706,1,0,0:0:0:0:
256,192,160792,1,2,0:0:0:0:
256,192,160964,1,0,0:0:0:0:
256,192,161022,1,0,0:0:0:0:
256,192,161079,1,0,0:0:0:0:
256,192,161137,1,2,0:0:0:0:
256,192,161223,1,2,0:0:0:0:
256,192,161309,1,0,0:0:0:0:
256,192,161395,1,0,0:0:0:0:
256,192,161481,1,6,0:0:0:0:
256,192,161826,1,0,0:0:0:0:
256,192,161913,1,0,0:0:0:0:
256,192,161999,1,2,0:0:0:0:
256,192,162085,1,2,0:0:0:0:
256,192,162171,1,0,0:0:0:0:
256,192,162257,1,2,0:0:0:0:
256,192,162344,1,2,0:0:0:0:
256,192,162430,1,2,0:0:0:0:
256,192,162516,1,0,0:0:0:0:
256,192,162602,1,0,0:0:0:0:
256,192,162688,1,2,0:0:0:0:
256,192,162775,1,2,0:0:0:0:
256,192,162861,1,0,0:0:0:0:
256,192,162947,1,0,0:0:0:0:
256,192,163033,1,0,0:0:0:0:
256,192,163119,1,2,0:0:0:0:
256,192,163206,1,0,0:0:0:0:
256,192,163292,1,0,0:0:0:0:
256,192,163378,1,2,0:0:0:0:
256,192,163436,1,2,0:0:0:0:
256,192,163493,1,2,0:0:0:0:
256,192,163550,1,0,0:0:0:0:
256,192,163637,1,0,0:0:0:0:
256,192,163723,1,0,0:0:0:0:
256,192,163895,1,2,0:0:0:0:
256,192,163981,1,2,0:0:0:0:
256,192,164068,1,2,0:0:0:0:
256,192,164154,1,2,0:0:0:0:
256,192,164240,1,0,0:0:0:0:
256,192,164585,1,2,0:0:0:0:
256,192,164642,1,2,0:0:0:0:
256,192,164700,1,2,0:0:0:0:
256,192,164757,1,0,0:0:0:0:
256,192,164844,1,0,0:0:0:0:
256,192,164930,1,2,0:0:0:0:
256,192,165016,1,0,0:0:0:0:
256,192,165102,1,2,0:0:0:0:
256,192,165188,1,2,0:0:0:0:
256,192,165275,1,0,0:0:0:0:
256,192,165361,1,0,0:0:0:0:
256,192,165447,1,2,0:0:0:0:
256,192,165533,1,0,0:0:0:0:
256,192,165619,1,2,0:0:0:0:
256,192,165792,1,2,0:0:0:0:
256,192,165964,1,0,0:0:0:0:
256,192,166137,1,0,0:0:0:0:
256,192,166223,1,0,0:0:0:0:
256,192,166309,1,2,0:0:0:0:
256,192,166367,1,2,0:0:0:0:
256,192,166424,1,2,0:0:0:0:
256,192,166481,1,0,0:0:0:0:
256,192,166568,1,0,0:0:0:0:
256,192,166654,1,2,0:0:0:0:
256,192,166740,1,0,0:0:0:0:
256,192,166826,1,2,0:0:0:0:
256,192,166913,1,2,0:0:0:0:
256,192,166999,1,4,0:0:0:0:
256,192,167344,1,2,0:0:0:0:
256,192,167430,1,0,0:0:0:0:
256,192,167516,1,2,0:0:0:0:
256,192,167602,1,2,0:0:0:0:
256,192,167688,1,0,0:0:0:0:
256,192,167775,1,0,0:0:0:0:
256,192,167861,1,2,0:0:0:0:
256,192,167947,1,2,0:0:0:0:
256,192,168033,1,0,0:0:0:0:
256,192,168119,1,0,0:0:0:0:
256,192,168206,1,2,0:0:0:0:
256,192,168292,1,0,0:0:0:0:
256,192,168378,1,2,0:0:0:0:
256,192,168464,1,2,0:0:0:0:
256,192,168550,1,0,0:0:0:0:
256,192,168723,1,2,0:0:0:0:
256,192,168809,1,0,0:0:0:0:
256,192,168895,1,2,0:0:0:0:
256,192,168981,1,0,0:0:0:0:
256,192,169068,1,2,0:0:0:0:
256,192,169154,1,2,0:0:0:0:
256,192,169240,1,0,0:0:0:0:
256,192,169413,1,2,0:0:0:0:
256,192,169499,1,2,0:0:0:0:
256,192,169585,1,2,0:0:0:0:
256,192,169671,1,2,0:0:0:0:
256,192,169757,1,0,0:0:0:0:
256,192,169930,1,0,0:0:0:0:
256,192,170102,1,2,0:0:0:0:
256,192,170275,1,0,0:0:0:0:
256,192,170361,1,0,0:0:0:0:
256,192,170447,1,2,0:0:0:0:
256,192,170533,1,2,0:0:0:0:
256,192,170619,1,0,0:0:0:0:
256,192,170792,1,2,0:0:0:0:
256,192,170964,1,0,0:0:0:0:
256,192,171050,1,0,0:0:0:0:
256,192,171137,1,2,0:0:0:0:
256,192,171223,1,0,0:0:0:0:
256,192,171309,1,2,0:0:0:0:
256,192,171395,1,2,0:0:0:0:
256,192,171481,1,0,0:0:0:0:
256,192,171568,1,0,0:0:0:0:
256,192,171654,1,2,0:0:0:0:
256,192,171740,1,0,0:0:0:0:
256,192,171826,1,2,0:0:0:0:
256,192,171913,1,2,0:0:0:0:
256,192,171999,1,0,0:0:0:0:
256,192,172171,1,2,0:0:0:0:
256,192,172229,1,2,0:0:0:0:
256,192,172286,1,0,0:0:0:0:
256,192,172344,1,0,0:0:0:0:
256,192,172516,1,0,0:0:0:0:
256,192,172688,1,0,0:0:0:0:
256,192,172861,1,6,0:0:0:0:
256,192,173033,1,0,0:0:0:0:
256,192,173091,1,0,0:0:0:0:
256,192,173148,1,0,0:0:0:0:
256,192,173206,1,2,0:0:0:0:
256,192,173292,1,2,0:0:0:0:
256,192,173378,1,0,0:0:0:0:
256,192,173464,1,0,0:0:0:0:
256,192,173550,1,2,0:0:0:0:
256,192,173637,1,0,0:0:0:0:
256,192,173723,1,0,0:0:0:0:
256,192,173809,1,0,0:0:0:0:
256,192,173895,1,2,0:0:0:0:
256,192,173981,1,2,0:0:0:0:
256,192,174068,1,0,0:0:0:0:
256,192,174154,1,0,0:0:0:0:
256,192,174240,1,2,0:0:0:0:
256,192,174326,1,0,0:0:0:0:
256,192,174413,1,0,0:0:0:0:
256,192,174499,1,0,0:0:0:0:
256,192,174585,1,2,0:0:0:0:
256,192,174671,1,2,0:0:0:0:
256,192,174757,1,0,0:0:0:0:
256,192,174844,1,0,0:0:0:0:
256,192,174930,1,2,0:0:0:0:
256,192,175016,1,0,0:0:0:0:
256,192,175102,1,0,0:0:0:0:
256,192,175188,1,0,0:0:0:0:
256,192,175275,1,2,0:0:0:0:
256,192,175332,1,2,0:0:0:0:
256,192,175390,1,2,0:0:0:0:
256,192,175447,1,0,0:0:0:0:
256,192,175533,1,0,0:0:0:0:
256,192,175619,1,2,0:0:0:0:
256,192,175677,1,0,0:0:0:0:
256,192,175734,1,0,0:0:0:0:
256,192,175792,1,2,0:0:0:0:
256,192,175878,1,0,0:0:0:0:
256,192,175964,1,2,0:0:0:0:
256,192,176022,1,2,0:0:0:0:
256,192,176079,1,2,0:0:0:0:
256,192,176137,1,0,0:0:0:0:
256,192,176223,1,0,0:0:0:0:
256,192,176309,1,2,0:0:0:0:
256,192,176367,1,0,0:0:0:0:
256,192,176424,1,0,0:0:0:0:
256,192,176481,1,2,0:0:0:0:
256,192,176568,1,2,0:0:0:0:
256,192,176654,1,0,0:0:0:0:
256,192,177688,1,0,0:0:0:0:
256,192,177803,1,0,0:0:0:0:
256,192,177918,1,0,0:0:0:0:
256,192,178033,1,6,0:0:0:0:
256,192,178206,12,2,188378,0:0:0:0:
256,192,189068,5,2,0:0:0:0:
256,192,189326,1,0,0:0:0:0:
256,192,189585,1,2,0:0:0:0:
256,192,189844,1,0,0:0:0:0:
256,192,190102,1,2,0:0:0:0:
256,192,190275,1,2,0:0:0:0:
256,192,190447,1,0,0:0:0:0:
256,192,190706,1,0,0:0:0:0:
256,192,190964,1,2,0:0:0:0:
256,192,191223,1,0,0:0:0:0:
256,192,191481,1,2,0:0:0:0:
256,192,191654,1,2,0:0:0:0:
256,192,191826,1,2,0:0:0:0:
256,192,192085,1,0,0:0:0:0:
256,192,192344,1,2,0:0:0:0:
256,192,192602,1,0,0:0:0:0:
256,192,192861,1,2,0:0:0:0:
256,192,193033,1,2,0:0:0:0:
256,192,193206,1,0,0:0:0:0:
256,192,193464,1,0,0:0:0:0:
256,192,193723,1,2,0:0:0:0:
256,192,193981,1,0,0:0:0:0:
256,192,194240,1,2,0:0:0:0:
256,192,194413,1,2,0:0:0:0:
256,192,194585,1,0,0:0:0:0:
256,192,195102,1,2,0:0:0:0:
256,192,195275,1,2,0:0:0:0:
256,192,195447,1,2,0:0:0:0:
256,192,195619,1,0,0:0:0:0:
256,192,195792,1,2,0:0:0:0:
256,192,196137,1,2,0:0:0:0:
256,192,196309,1,0,0:0:0:0:
256,192,196481,1,2,0:0:0:0:
256,192,196654,1,0,0:0:0:0:
256,192,196826,1,2,0:0:0:0:
256,192,197171,1,0,0:0:0:0:
256,192,197344,1,2,0:0:0:0:
256,192,197401,1,2,0:0:0:0:
256,192,197459,1,2,0:0:0:0:
256,192,197516,1,0,0:0:0:0:
256,192,197602,1,0,0:0:0:0:
256,192,197688,1,2,0:0:0:0:
256,192,197746,1,0,0:0:0:0:
256,192,197803,1,0,0:0:0:0:
256,192,197861,1,2,0:0:0:0:
256,192,197947,1,0,0:0:0:0:
256,192,198033,1,2,0:0:0:0:
256,192,198091,1,2,0:0:0:0:
256,192,198148,1,2,0:0:0:0:
256,192,198206,1,0,0:0:0:0:
256,192,198292,1,0,0:0:0:0:
256,192,198378,1,2,0:0:0:0:
256,192,198436,1,0,0:0:0:0:
256,192,198493,1,0,0:0:0:0:
256,192,198550,1,2,0:0:0:0:
256,192,198637,1,2,0:0:0:0:
256,192,198723,1,0,0:0:0:0:
256,192,199757,1,0,0:0:0:0:
256,192,199844,1,0,0:0:0:0:
256,192,199930,1,0,0:0:0:0:
256,192,200016,1,0,0:0:0:0:
256,192,200102,1,6,0:0:0:0:
256,192,200619,1,6,0:0:0:0:
256,192,200964,1,0,0:0:0:0:
256,192,201137,1,2,0:0:0:0:
256,192,201180,1,0,0:0:0:0:
256,192,201309,1,2,0:0:0:0:
256,192,201352,1,0,0:0:0:0:
256,192,201481,1,6,0:0:0:0:
256,192,201999,1,6,0:0:0:0:
256,192,202344,1,0,0:0:0:0:
256,192,202516,1,2,0:0:0:0:
256,192,202688,1,0,0:0:0:0:
256,192,202775,1,0,0:0:0:0:
256,192,202861,1,6,0:0:0:0:
256,192,203378,1,6,0:0:0:0:
256,192,203895,1,0,0:0:0:0:
256,192,203953,1,0,0:0:0:0:
256,192,204010,1,2,0:0:0:0:
256,192,204068,1,2,0:0:0:0:
256,192,204240,1,0,0:0:0:0:
256,192,204499,1,0,0:0:0:0:
256,192,204930,1,2,0:0:0:0:
256,192,205102,1,0,0:0:0:0:
256,192,205275,1,0,0:0:0:0:
256,192,205361,1,0,0:0:0:0:
256,192,205447,1,0,0:0:0:0:
256,192,205533,1,0,0:0:0:0:
256,192,205619,1,6,0:0:0:0:
256,192,206137,1,4,0:0:0:0:
256,192,206481,1,0,0:0:0:0:
256,192,206654,1,2,0:0:0:0:
256,192,206740,1,2,0:0:0:0:
256,192,206826,1,0,0:0:0:0:
256,192,206913,1,0,0:0:0:0:
256,192,206999,1,6,0:0:0:0:
256,192,207516,1,6,0:0:0:0:
256,192,207861,1,0,0:0:0:0:
256,192,208119,1,4,0:0:0:0:
256,192,208378,1,6,0:0:0:0:
256,192,208637,1,6,0:0:0:0:
256,192,208895,1,4,0:0:0:0:
256,192,209068,8,0,210619,0:0:0:0:
256,192,210792,5,0,0:0:0:0:
256,192,210878,1,0,0:0:0:0:
256,192,210964,1,0,0:0:0:0:
256,192,211050,1,0,0:0:0:0:
256,192,211137,1,6,0:0:0:0:
256,192,211654,1,6,0:0:0:0:
256,192,211999,1,0,0:0:0:0:
256,192,212056,1,0,0:0:0:0:
256,192,212114,1,0,0:0:0:0:
256,192,212171,1,2,0:0:0:0:
256,192,212344,1,0,0:0:0:0:
256,192,212516,1,6,0:0:0:0:
256,192,213033,1,6,0:0:0:0:
256,192,213550,1,0,0:0:0:0:
256,192,213723,1,0,0:0:0:0:
256,192,213809,1,0,0:0:0:0:
256,192,213895,1,6,0:0:0:0:
256,192,214413,1,6,0:0:0:0:
256,192,214930,1,0,0:0:0:0:
256,192,214987,1,0,0:0:0:0:
256,192,215045,1,2,0:0:0:0:
256,192,215102,1,2,0:0:0:0:
256,192,215275,1,0,0:0:0:0:
256,192,215447,1,0,0:0:0:0:
256,192,215619,1,0,0:0:0:0:
256,192,215878,1,2,0:0:0:0:
256,192,215964,1,0,0:0:0:0:
256,192,216137,1,2,0:0:0:0:
256,192,216309,1,0,0:0:0:0:
256,192,216395,1,0,0:0:0:0:
256,192,216481,1,0,0:0:0:0:
256,192,216568,1,0,0:0:0:0:
256,192,216654,1,6,0:0:0:0:
256,192,217171,1,4,0:0:0:0:
256,192,217516,1,0,0:0:0:0:
256,192,217688,1,2,0:0:0:0:
256,192,217861,1,0,0:0:0:0:
256,192,217947,1,0,0:0:0:0:
256,192,218033,1,6,0:0:0:0:
256,192,218550,1,6,0:0:0:0:
256,192,219154,1,4,0:0:0:0:
256,192,219413,1,6,0:0:0:0:
256,192,219671,1,6,0:0:0:0:
256,192,219930,1,4,0:0:0:0:
256,192,220188,1,4,0:0:0:0:
256,192,220447,1,6,0:0:0:0:
256,192,220619,8,6,221999,0:0:0:0:
256,192,222171,5,6,0:0:0:0:
256,192,222344,1,0,0:0:0:0:
256,192,222430,1,2,0:0:0:0:
256,192,222602,1,0,0:0:0:0:
256,192,222688,1,2,0:0:0:0:
256,192,222861,1,0,0:0:0:0:
256,192,222947,1,2,0:0:0:0:
256,192,223119,1,0,0:0:0:0:
256,192,223206,1,2,0:0:0:0:
256,192,223378,1,0,0:0:0:0:
256,192,223464,1,0,0:0:0:0:
256,192,223550,1,2,0:0:0:0:
256,192,223723,1,0,0:0:0:0:
256,192,223809,1,2,0:0:0:0:
256,192,223981,1,0,0:0:0:0:
256,192,224068,1,2,0:0:0:0:
256,192,224240,1,0,0:0:0:0:
256,192,224326,1,2,0:0:0:0:
256,192,224499,1,0,0:0:0:0:
256,192,224585,1,2,0:0:0:0:
256,192,224757,1,0,0:0:0:0:
256,192,224815,1,0,0:0:0:0:
256,192,224872,1,0,0:0:0:0:
256,192,224930,1,2,0:0:0:0:
256,192,225102,1,0,0:0:0:0:
256,192,225188,1,2,0:0:0:0:
256,192,225361,1,0,0:0:0:0:
256,192,225447,1,2,0:0:0:0:
256,192,225619,1,0,0:0:0:0:
256,192,225706,1,2,0:0:0:0:
256,192,225878,1,0,0:0:0:0:
256,192,225964,1,2,0:0:0:0:
256,192,226137,1,0,0:0:0:0:
256,192,226223,1,0,0:0:0:0:
256,192,226309,1,2,0:0:0:0:
256,192,226481,1,0,0:0:0:0:
256,192,226568,1,2,0:0:0:0:
256,192,226740,1,0,0:0:0:0:
256,192,226826,1,2,0:0:0:0:
256,192,226999,1,0,0:0:0:0:
256,192,227085,1,2,0:0:0:0:
256,192,227257,1,0,0:0:0:0:
256,192,227344,1,2,0:0:0:0:
256,192,227516,1,0,0:0:0:0:
256,192,227573,1,0,0:0:0:0:
256,192,227631,1,0,0:0:0:0:
256,192,227688,1,2,0:0:0:0:
256,192,227861,1,0,0:0:0:0:
256,192,227947,1,2,0:0:0:0:
256,192,228119,1,0,0:0:0:0:
256,192,228206,1,2,0:0:0:0:
256,192,228378,1,0,0:0:0:0:
256,192,228464,1,2,0:0:0:0:
256,192,228637,1,0,0:0:0:0:
256,192,228723,1,2,0:0:0:0:
256,192,228895,1,0,0:0:0:0:
256,192,228981,1,0,0:0:0:0:
256,192,229068,1,2,0:0:0:0:
256,192,229240,1,0,0:0:0:0:
256,192,229326,1,2,0:0:0:0:
256,192,229499,1,0,0:0:0:0:
256,192,229585,1,2,0:0:0:0:
256,192,229757,1,0,0:0:0:0:
256,192,229844,1,2,0:0:0:0:
256,192,230016,1,0,0:0:0:0:
256,192,230102,1,2,0:0:0:0:
256,192,230275,1,0,0:0:0:0:
256,192,230332,1,0,0:0:0:0:
256,192,230390,1,0,0:0:0:0:
256,192,230447,1,2,0:0:0:0:
256,192,230619,1,0,0:0:0:0:
256,192,230706,1,2,0:0:0:0:
256,192,230878,1,0,0:0:0:0:
256,192,230964,1,0,0:0:0:0:
256,192,231137,1,2,0:0:0:0:
256,192,231194,1,2,0:0:0:0:
256,192,231252,1,2,0:0:0:0:
256,192,231309,1,0,0:0:0:0:
256,192,231395,1,0,0:0:0:0:
256,192,231481,1,2,0:0:0:0:
256,192,231539,1,0,0:0:0:0:
256,192,231596,1,0,0:0:0:0:
256,192,231654,1,2,0:0:0:0:
256,192,231740,1,2,0:0:0:0:
256,192,231826,1,0,0:0:0:0:
256,192,231999,1,2,0:0:0:0:
256,192,232085,1,0,0:0:0:0:
256,192,232257,1,2,0:0:0:0:
256,192,232344,1,0,0:0:0:0:
256,192,232516,1,2,0:0:0:0:
256,192,232602,1,2,0:0:0:0:
256,192,232688,1,2,0:0:0:0:
256,192,232775,1,2,0:0:0:0:
256,192,232861,1,0,0:0:0:0:
256,192,233033,1,0,0:0:0:0:
256,192,233206,1,6,0:0:0:0:
256,192,233378,1,0,0:0:0:0:
256,192,233464,1,0,0:0:0:0:
256,192,233550,1,2,0:0:0:0:
256,192,233637,1,0,0:0:0:0:
256,192,233723,1,0,0:0:0:0:
256,192,233809,1,0,0:0:0:0:
256,192,233895,1,2,0:0:0:0:
256,192,233981,1,2,0:0:0:0:
256,192,234068,1,0,0:0:0:0:
256,192,234154,1,0,0:0:0:0:
256,192,234240,1,2,0:0:0:0:
256,192,234326,1,0,0:0:0:0:
256,192,234413,1,0,0:0:0:0:
256,192,234499,1,0,0:0:0:0:
256,192,234585,1,2,0:0:0:0:
256,192,234671,1,2,0:0:0:0:
256,192,234757,1,0,0:0:0:0:
256,192,234844,1,0,0:0:0:0:
256,192,234930,1,2,0:0:0:0:
256,192,235016,1,0,0:0:0:0:
256,192,235102,1,0,0:0:0:0:
256,192,235188,1,0,0:0:0:0:
256,192,235275,1,2,0:0:0:0:
256,192,235361,1,2,0:0:0:0:
256,192,235447,1,0,0:0:0:0:
256,192,235533,1,0,0:0:0:0:
256,192,235619,1,2,0:0:0:0:
256,192,235706,1,0,0:0:0:0:
256,192,235792,1,0,0:0:0:0:
256,192,235878,1,0,0:0:0:0:
256,192,235964,1,2,0:0:0:0:
256,192,236050,1,2,0:0:0:0:
256,192,236137,1,0,0:0:0:0:
256,192,236223,1,0,0:0:0:0:
256,192,236309,1,2,0:0:0:0:
256,192,236395,1,0,0:0:0:0:
256,192,236481,1,2,0:0:0:0:
256,192,236568,1,0,0:0:0:0:
256,192,236654,1,2,0:0:0:0:
256,192,236740,1,2,0:0:0:0:
256,192,236826,1,0,0:0:0:0:
256,192,236913,1,0,0:0:0:0:
256,192,236999,1,2,0:0:0:0:
256,192,237085,1,0,0:0:0:0:
256,192,237171,1,2,0:0:0:0:
256,192,237257,1,0,0:0:0:0:
256,192,237344,1,2,0:0:0:0:
256,192,237430,1,2,0:0:0:0:
256,192,237516,1,0,0:0:0:0:
256,192,237602,1,0,0:0:0:0:
256,192,237688,1,2,0:0:0:0:
256,192,237775,1,0,0:0:0:0:
256,192,237861,1,2,0:0:0:0:
256,192,237947,1,0,0:0:0:0:
256,192,238033,1,2,0:0:0:0:
256,192,238119,1,2,0:0:0:0:
256,192,238206,1,0,0:0:0:0:
256,192,238292,1,0,0:0:0:0:
256,192,238378,1,2,0:0:0:0:
256,192,238464,1,0,0:0:0:0:
256,192,238550,1,2,0:0:0:0:
256,192,238637,1,0,0:0:0:0:
256,192,238723,1,2,0:0:0:0:
256,192,238809,1,2,0:0:0:0:
256,192,238895,1,2,0:0:0:0:
256,192,238981,1,0,0:0:0:0:
256,192,239068,1,2,0:0:0:0:
256,192,239154,1,2,0:0:0:0:
256,192,239240,1,0,0:0:0:0:
256,192,239326,1,0,0:0:0:0:
256,192,239413,1,2,0:0:0:0:
256,192,239499,1,2,0:0:0:0:
256,192,239585,1,2,0:0:0:0:
256,192,239671,1,0,0:0:0:0:
256,192,239757,1,2,0:0:0:0:
256,192,239844,1,2,0:0:0:0:
256,192,239930,1,0,0:0:0:0:
256,192,240016,1,0,0:0:0:0:
256,192,240102,1,2,0:0:0:0:
256,192,240188,1,2,0:0:0:0:
256,192,240275,1,2,0:0:0:0:
256,192,240361,1,0,0:0:0:0:
256,192,240447,1,2,0:0:0:0:
256,192,240533,1,2,0:0:0:0:
256,192,240619,1,0,0:0:0:0:
256,192,240706,1,0,0:0:0:0:
256,192,240792,1,2,0:0:0:0:
256,192,240878,1,2,0:0:0:0:
256,192,240964,1,2,0:0:0:0:
256,192,241050,1,0,0:0:0:0:
256,192,241137,1,2,0:0:0:0:
256,192,241223,1,2,0:0:0:0:
256,192,241309,1,0,0:0:0:0:
256,192,241395,1,0,0:0:0:0:
256,192,241481,1,2,0:0:0:0:
256,192,241539,1,2,0:0:0:0:
256,192,241596,1,2,0:0:0:0:
256,192,241654,1,0,0:0:0:0:
256,192,241740,1,0,0:0:0:0:
256,192,241826,1,2,0:0:0:0:
256,192,241884,1,0,0:0:0:0:
256,192,241941,1,0,0:0:0:0:
256,192,241999,1,2,0:0:0:0:
256,192,242085,1,0,0:0:0:0:
256,192,242171,1,2,0:0:0:0:
256,192,242229,1,2,0:0:0:0:
256,192,242286,1,2,0:0:0:0:
256,192,242344,1,0,0:0:0:0:
256,192,242430,1,0,0:0:0:0:
256,192,242516,1,2,0:0:0:0:
256,192,242573,1,0,0:0:0:0:
256,192,242631,1,0,0:0:0:0:
256,192,242688,1,2,0:0:0:0:
256,192,242775,1,2,0:0:0:0:
256,192,242861,1,0,0:0:0:0:
256,192,243895,1,0,0:0:0:0:
256,192,243981,1,0,0:0:0:0:
256,192,244068,1,0,0:0:0:0:
256,192,244154,1,0,0:0:0:0:
256,192,244240,1,6,0:0:0:0:
256,192,244499,1,2,0:0:0:0:
256,192,244585,1,0,0:0:0:0:
256,192,244757,1,2,0:0:0:0:
256,192,244844,1,2,0:0:0:0:
256,192,245016,1,0,0:0:0:0:
256,192,245102,1,0,0:0:0:0:
256,192,245275,1,2,0:0:0:0:
256,192,245361,1,2,0:0:0:0:
256,192,245447,1,2,0:0:0:0:
256,192,245533,1,2,0:0:0:0:
256,192,245619,1,0,0:0:0:0:
256,192,245878,1,0,0:0:0:0:
256,192,245964,1,0,0:0:0:0:
256,192,246137,1,2,0:0:0:0:
256,192,246223,1,0,0:0:0:0:
256,192,246395,1,2,0:0:0:0:
256,192,246481,1,2,0:0:0:0:
256,192,246654,1,0,0:0:0:0:
256,192,246740,1,0,0:0:0:0:
256,192,246826,1,0,0:0:0:0:
256,192,246913,1,0,0:0:0:0:
256,192,246999,1,2,0:0:0:0:
256,192,247257,1,2,0:0:0:0:
256,192,247344,1,0,0:0:0:0:
256,192,247516,1,2,0:0:0:0:
256,192,247602,1,2,0:0:0:0:
256,192,247775,1,0,0:0:0:0:
256,192,247861,1,0,0:0:0:0:
256,192,248033,1,2,0:0:0:0:
256,192,248119,1,2,0:0:0:0:
256,192,248206,1,2,0:0:0:0:
256,192,248292,1,2,0:0:0:0:
256,192,248378,1,0,0:0:0:0:
256,192,248637,1,0,0:0:0:0:
256,192,248723,1,0,0:0:0:0:
256,192,248895,1,2,0:0:0:0:
256,192,248981,1,2,0:0:0:0:
256,192,249154,1,0,0:0:0:0:
256,192,249240,1,0,0:0:0:0:
256,192,249413,1,2,0:0:0:0:
256,192,249499,1,2,0:0:0:0:
256,192,249585,1,2,0:0:0:0:
256,192,249671,1,2,0:0:0:0:
256,192,249757,1,0,0:0:0:0:
256,192,250102,1,2,0:0:0:0:
256,192,250275,1,0,0:0:0:0:
256,192,250361,1,0,0:0:0:0:
256,192,250447,1,2,0:0:0:0:
256,192,250533,1,0,0:0:0:0:
256,192,250619,1,2,0:0:0:0:
256,192,250706,1,2,0:0:0:0:
256,192,250792,1,0,0:0:0:0:
256,192,250878,1,0,0:0:0:0:
256,192,250964,1,2,0:0:0:0:
256,192,251050,1,0,0:0:0:0:
256,192,251137,1,2,0:0:0:0:
256,192,251223,1,2,0:0:0:0:
256,192,251309,1,0,0:0:0:0:
256,192,251395,1,0,0:0:0:0:
256,192,251481,1,2,0:0:0:0:
256,192,251568,1,0,0:0:0:0:
256,192,251654,1,2,0:0:0:0:
256,192,251740,1,2,0:0:0:0:
256,192,251826,1,0,0:0:0:0:
256,192,251913,1,0,0:0:0:0:
256,192,251999,1,2,0:0:0:0:
256,192,252085,1,2,0:0:0:0:
256,192,252171,1,2,0:0:0:0:
256,192,252257,1,2,0:0:0:0:
256,192,252344,1,0,0:0:0:0:
256,192,252430,1,0,0:0:0:0:
256,192,252516,1,2,0:0:0:0:
256,192,252688,1,0,0:0:0:0:
256,192,252861,1,2,0:0:0:0:
256,192,253033,1,2,0:0:0:0:
256,192,253119,1,2,0:0:0:0:
256,192,253206,1,0,0:0:0:0:
256,192,253292,1,0,0:0:0:0:
256,192,253378,1,2,0:0:0:0:
256,192,253464,1,0,0:0:0:0:
256,192,253550,1,2,0:0:0:0:
256,192,253637,1,2,0:0:0:0:
256,192,253723,1,0,0:0:0:0:
256,192,253809,1,0,0:0:0:0:
256,192,253895,1,2,0:0:0:0:
256,192,253981,1,0,0:0:0:0:
256,192,254068,1,2,0:0:0:0:
256,192,254154,1,2,0:0:0:0:
256,192,254240,1,0,0:0:0:0:
256,192,254326,1,0,0:0:0:0:
256,192,254413,1,2,0:0:0:0:
256,192,254499,1,0,0:0:0:0:
256,192,254585,1,2,0:0:0:0:
256,192,254671,1,2,0:0:0:0:
256,192,254757,1,0,0:0:0:0:
256,192,254844,1,0,0:0:0:0:
256,192,254930,1,2,0:0:0:0:
256,192,255016,1,0,0:0:0:0:
256,192,255102,1,0,0:0:0:0:
256,192,255188,1,0,0:0:0:0:
256,192,255275,1,6,0:0:0:0:
256,192,255533,1,2,0:0:0:0:
256,192,255619,1,0,0:0:0:0:
256,192,255792,1,2,0:0:0:0:
256,192,255878,1,2,0:0:0:0:
256,192,256050,1,0,0:0:0:0:
256,192,256137,1,0,0:0:0:0:
256,192,256309,1,2,0:0:0:0:
256,192,256395,1,2,0:0:0:0:
256,192,256481,1,2,0:0:0:0:
256,192,256568,1,2,0:0:0:0:
256,192,256654,1,0,0:0:0:0:
256,192,256913,1,0,0:0:0:0:
256,192,256999,1,0,0:0:0:0:
256,192,257171,1,2,0:0:0:0:
256,192,257257,1,0,0:0:0:0:
256,192,257430,1,2,0:0:0:0:
256,192,257516,1,2,0:0:0:0:
256,192,257688,1,0,0:0:0:0:
256,192,257775,1,0,0:0:0:0:
256,192,257861,1,0,0:0:0:0:
256,192,257947,1,0,0:0:0:0:
256,192,258033,1,2,0:0:0:0:
256,192,258292,1,2,0:0:0:0:
256,192,258378,1,0,0:0:0:0:
256,192,258550,1,2,0:0:0:0:
256,192,258637,1,2,0:0:0:0:
256,192,258809,1,0,0:0:0:0:
256,192,258895,1,0,0:0:0:0:
256,192,259068,1,2,0:0:0:0:
256,192,259154,1,2,0:0:0:0:
256,192,259240,1,2,0:0:0:0:
256,192,259326,1,2,0:0:0:0:
256,192,259413,1,0,0:0:0:0:
256,192,259671,1,0,0:0:0:0:
256,192,259757,1,0,0:0:0:0:
256,192,259930,1,2,0:0:0:0:
256,192,260016,1,2,0:0:0:0:
256,192,260188,1,0,0:0:0:0:
256,192,260275,1,0,0:0:0:0:
256,192,260447,1,2,0:0:0:0:
256,192,260533,1,2,0:0:0:0:
256,192,260619,1,2,0:0:0:0:
256,192,260706,1,2,0:0:0:0:
256,192,260792,1,4,0:0:0:0:
256,192,261137,1,0,0:0:0:0:
256,192,261223,1,2,0:0:0:0:
256,192,261481,1,0,0:0:0:0:
256,192,261568,1,0,0:0:0:0:
256,192,261654,1,2,0:0:0:0:
256,192,261740,1,2,0:0:0:0:
256,192,261826,1,0,0:0:0:0:
256,192,261913,1,2,0:0:0:0:
256,192,261999,1,2,0:0:0:0:
256,192,262085,1,2,0:0:0:0:
256,192,262171,1,0,0:0:0:0:
256,192,262516,1,0,0:0:0:0:
256,192,262602,1,2,0:0:0:0:
256,192,262861,1,0,0:0:0:0:
256,192,262947,1,0,0:0:0:0:
256,192,263033,1,2,0:0:0:0:
256,192,263119,1,2,0:0:0:0:
256,192,263206,1,0,0:0:0:0:
256,192,263292,1,2,0:0:0:0:
256,192,263378,1,2,0:0:0:0:
256,192,263464,1,2,0:0:0:0:
256,192,263550,1,0,0:0:0:0:
256,192,263723,1,2,0:0:0:0:
256,192,263809,1,0,0:0:0:0:
256,192,263895,1,2,0:0:0:0:
256,192,263981,1,0,0:0:0:0:
256,192,264068,1,2,0:0:0:0:
256,192,264240,1,0,0:0:0:0:
256,192,264326,1,0,0:0:0:0:
256,192,264413,1,2,0:0:0:0:
256,192,264499,1,2,0:0:0:0:
256,192,264585,1,0,0:0:0:0:
256,192,264671,1,2,0:0:0:0:
256,192,264757,1,2,0:0:0:0:
256,192,264844,1,2,0:0:0:0:
256,192,264930,1,4,0:0:0:0:
256,192,265160,1,4,0:0:0:0:
256,192,265390,1,4,0:0:0:0:
256,192,265619,1,6,0:0:0:0:
256,192,265964,1,0,0:0:0:0:
256,192,266050,1,0,0:0:0:0:
256,192,266137,1,0,0:0:0:0:
256,192,266223,1,0,0:0:0:0:
256,192,266309,1,2,0:0:0:0:
256,192,266481,1,0,0:0:0:0:
256,192,266539,1,0,0:0:0:0:
256,192,266596,1,0,0:0:0:0:
256,192,266654,1,6,0:0:0:0:
256,192,266826,1,0,0:0:0:0:
256,192,266913,1,0,0:0:0:0:
256,192,266999,1,2,0:0:0:0:
256,192,267085,1,0,0:0:0:0:
256,192,267171,1,2,0:0:0:0:
256,192,267344,1,0,0:0:0:0:
256,192,267516,1,2,0:0:0:0:
256,192,267602,1,2,0:0:0:0:
256,192,267688,1,0,0:0:0:0:
256,192,267775,1,2,0:0:0:0:
256,192,267861,1,0,0:0:0:0:
256,192,267947,1,0,0:0:0:0:
256,192,268033,1,2,0:0:0:0:
256,192,268206,1,0,0:0:0:0:
256,192,268292,1,0,0:0:0:0:
256,192,268464,1,2,0:0:0:0:
256,192,268550,1,0,0:0:0:0:
256,192,268723,1,2,0:0:0:0:
256,192,268895,1,0,0:0:0:0:
256,192,268981,1,0,0:0:0:0:
256,192,269068,1,2,0:0:0:0:
256,192,269240,1,0,0:0:0:0:
256,192,269413,1,2,0:0:0:0:
256,192,269585,1,0,0:0:0:0:
256,192,269671,1,0,0:0:0:0:
256,192,269757,1,2,0:0:0:0:
256,192,269844,1,2,0:0:0:0:
256,192,269930,1,0,0:0:0:0:
256,192,270016,1,0,0:0:0:0:
256,192,270102,1,2,0:0:0:0:
256,192,270275,1,0,0:0:0:0:
256,192,270361,1,0,0:0:0:0:
256,192,270447,1,2,0:0:0:0:
256,192,270619,1,0,0:0:0:0:
256,192,270706,1,2,0:0:0:0:
256,192,270792,1,0,0:0:0:0:
256,192,270878,1,0,0:0:0:0:
256,192,270964,1,2,0:0:0:0:
256,192,271050,1,2,0:0:0:0:
256,192,271137,1,0,0:0:0:0:
256,192,271223,1,0,0:0:0:0:
256,192,271309,1,2,0:0:0:0:
256,192,271395,1,0,0:0:0:0:
256,192,271481,1,2,0:0:0:0:
256,192,271568,1,2,0:0:0:0:
256,192,271654,1,2,0:0:0:0:
256,192,271740,1,2,0:0:0:0:
256,192,271826,1,0,0:0:0:0:
256,192,271999,1,0,0:0:0:0:
256,192,272171,1,6,0:0:0:0:
256,192,272344,1,0,0:0:0:0:
256,192,272430,1,0,0:0:0:0:
256,192,272516,1,2,0:0:0:0:
256,192,272602,1,0,0:0:0:0:
256,192,272688,1,2,0:0:0:0:
256,192,272775,1,2,0:0:0:0:
256,192,272861,1,0,0:0:0:0:
256,192,272947,1,0,0:0:0:0:
256,192,273033,1,2,0:0:0:0:
256,192,273119,1,0,0:0:0:0:
256,192,273206,1,2,0:0:0:0:
256,192,273292,1,2,0:0:0:0:
256,192,273378,1,0,0:0:0:0:
256,192,273550,1,2,0:0:0:0:
256,192,273723,1,0,0:0:0:0:
256,192,273809,1,0,0:0:0:0:
256,192,273895,1,2,0:0:0:0:
256,192,273981,1,2,0:0:0:0:
256,192,274068,1,0,0:0:0:0:
256,192,274154,1,0,0:0:0:0:
256,192,274240,1,2,0:0:0:0:
256,192,274413,1,0,0:0:0:0:
256,192,274499,1,0,0:0:0:0:
256,192,274585,1,2,0:0:0:0:
256,192,274757,1,2,0:0:0:0:
256,192,274844,1,0,0:0:0:0:
256,192,274930,1,2,0:0:0:0:
256,192,275016,1,2,0:0:0:0:
256,192,275102,1,0,0:0:0:0:
256,192,275188,1,0,0:0:0:0:
256,192,275275,1,2,0:0:0:0:
256,192,275361,1,2,0:0:0:0:
256,192,275447,1,0,0:0:0:0:
256,192,275619,1,2,0:0:0:0:
256,192,275792,1,0,0:0:0:0:
256,192,275878,1,0,0:0:0:0:
256,192,275964,1,2,0:0:0:0:
256,192,276050,1,2,0:0:0:0:
256,192,276137,1,0,0:0:0:0:
256,192,276223,1,2,0:0:0:0:
256,192,276309,1,0,0:0:0:0:
256,192,276395,1,0,0:0:0:0:
256,192,276481,1,2,0:0:0:0:
256,192,276568,1,0,0:0:0:0:
256,192,276654,1,2,0:0:0:0:
256,192,276740,1,2,0:0:0:0:
256,192,276826,1,0,0:0:0:0:
256,192,276999,1,2,0:0:0:0:
256,192,277085,1,2,0:0:0:0:
256,192,277171,1,2,0:0:0:0:
256,192,277257,1,2,0:0:0:0:
256,192,277344,1,0,0:0:0:0:
256,192,277430,1,0,0:0:0:0:
256,192,277516,1,0,0:0:0:0:
256,192,277602,1,0,0:0:0:0:
256,192,277688,1,6,0:0:0:0:
256,192,277861,1,0,0:0:0:0:
256,192,277947,1,0,0:0:0:0:
256,192,278033,1,2,0:0:0:0:
256,192,278119,1,0,0:0:0:0:
256,192,278206,1,2,0:0:0:0:
256,192,278378,1,0,0:0:0:0:
256,192,278550,1,2,0:0:0:0:
256,192,278637,1,2,0:0:0:0:
256,192,278723,1,0,0:0:0:0:
256,192,278809,1,2,0:0:0:0:
256,192,278895,1,0,0:0:0:0:
256,192,278981,1,0,0:0:0:0:
256,192,279068,1,2,0:0:0:0:
256,192,279240,1,0,0:0:0:0:
256,192,279326,1,0,0:0:0:0:
256,192,279499,1,2,0:0:0:0:
256,192,279585,1,0,0:0:0:0:
256,192,279757,1,2,0:0:0:0:
256,192,279930,1,0,0:0:0:0:
256,192,280016,1,0,0:0:0:0:
256,192,280102,1,2,0:0:0:0:
256,192,280275,1,0,0:0:0:0:
256,192,280447,1,2,0:0:0:0:
256,192,280619,1,0,0:0:0:0:
256,192,280706,1,0,0:0:0:0:
256,192,280792,1,2,0:0:0:0:
256,192,280878,1,2,0:0:0:0:
256,192,280964,1,0,0:0:0:0:
256,192,281050,1,0,0:0:0:0:
256,192,281137,1,2,0:0:0:0:
256,192,281309,1,0,0:0:0:0:
256,192,281395,1,0,0:0:0:0:
256,192,281481,1,2,0:0:0:0:
256,192,281568,1,2,0:0:0:0:
256,192,281654,1,0,0:0:0:0:
256,192,281740,1,2,0:0:0:0:
256,192,281826,1,0,0:0:0:0:
256,192,281913,1,0,0:0:0:0:
256,192,281999,1,2,0:0:0:0:
256,192,282085,1,2,0:0:0:0:
256,192,282171,1,0,0:0:0:0:
256,192,282516,1,2,0:0:0:0:
256,192,282602,1,2,0:0:0:0:
256,192,282688,1,2,0:0:0:0:
256,192,282775,1,2,0:0:0:0:
256,192,282861,1,4,0:0:0:0:
256,192,283033,1,0,0:0:0:0:
256,192,283206,1,2,0:0:0:0:
256,192,283292,1,2,0:0:0:0:
256,192,283378,1,0,0:0:0:0:
256,192,283436,1,0,0:0:0:0:
256,192,283493,1,0,0:0:0:0:
256,192,283550,1,2,0:0:0:0:
256,192,283637,1,2,0:0:0:0:
256,192,283723,1,0,0:0:0:0:
256,192,283809,1,0,0:0:0:0:
256,192,283895,1,2,0:0:0:0:
256,192,283981,1,0,0:0:0:0:
256,192,284068,1,0,0:0:0:0:
256,192,284154,1,0,0:0:0:0:
256,192,284240,1,2,0:0:0:0:
256,192,284326,1,2,0:0:0:0:
256,192,284413,1,0,0:0:0:0:
256,192,284499,1,0,0:0:0:0:
256,192,284585,1,2,0:0:0:0:
256,192,284671,1,0,0:0:0:0:
256,192,284757,1,0,0:0:0:0:
256,192,284844,1,0,0:0:0:0:
256,192,284930,1,2,0:0:0:0:
256,192,285016,1,2,0:0:0:0:
256,192,285102,1,0,0:0:0:0:
256,192,285188,1,0,0:0:0:0:
256,192,285275,1,2,0:0:0:0:
256,192,285361,1,0,0:0:0:0:
256,192,285447,1,0,0:0:0:0:
256,192,285533,1,0,0:0:0:0:
256,192,285619,1,2,0:0:0:0:
256,192,285677,1,2,0:0:0:0:
256,192,285734,1,2,0:0:0:0:
256,192,285792,1,0,0:0:0:0:
256,192,285878,1,0,0:0:0:0:
256,192,285964,1,2,0:0:0:0:
256,192,286022,1,0,0:0:0:0:
256,192,286079,1,0,0:0:0:0:
256,192,286137,1,2,0:0:0:0:
256,192,286223,1,0,0:0:0:0:
256,192,286309,1,2,0:0:0:0:
256,192,286367,1,2,0:0:0:0:
256,192,286424,1,2,0:0:0:0:
256,192,286481,1,0,0:0:0:0:
256,192,286568,1,0,0:0:0:0:
256,192,286654,1,2,0:0:0:0:
256,192,286711,1,0,0:0:0:0:
256,192,286769,1,0,0:0:0:0:
256,192,286826,1,2,0:0:0:0:
256,192,286913,1,2,0:0:0:0:
256,192,286999,1,0,0:0:0:0:
256,192,288033,1,0,0:0:0:0:
256,192,288378,1,6,0:0:0:0:
256,192,288550,1,0,0:0:0:0:
256,192,288637,1,0,0:0:0:0:
256,192,288723,1,2,0:0:0:0:
256,192,288809,1,2,0:0:0:0:
256,192,288895,1,0,0:0:0:0:
256,192,288981,1,0,0:0:0:0:
256,192,289068,1,2,0:0:0:0:
256,192,289154,1,0,0:0:0:0:
256,192,289240,1,2,0:0:0:0:
256,192,289326,1,2,0:0:0:0:
256,192,289413,1,0,0:0:0:0:
256,192,289499,1,0,0:0:0:0:
256,192,289585,1,2,0:0:0:0:
256,192,289671,1,2,0:0:0:0:
256,192,289757,1,0,0:0:0:0:
256,192,289930,1,0,0:0:0:0:
256,192,290102,1,2,0:0:0:0:
256,192,290275,1,0,0:0:0:0:
256,192,290361,1,0,0:0:0:0:
256,192,290447,1,2,0:0:0:0:
256,192,290533,1,0,0:0:0:0:
256,192,290619,1,2,0:0:0:0:
256,192,290792,12,2,291137,0:0:0:0:
256,192,291309,5,0,0:0:0:0:
256,192,291482,1,6,0:0:0:0:
256,192,291654,1,0,0:0:0:0:
256,192,291740,1,0,0:0:0:0:
256,192,291913,1,2,0:0:0:0:
256,192,291999,1,0,0:0:0:0:
256,192,292171,1,2,0:0:0:0:
256,192,292229,1,2,0:0:0:0:
256,192,292286,1,2,0:0:0:0:
256,192,292344,1,0,0:0:0:0:
256,192,292430,1,0,0:0:0:0:
256,192,292516,1,2,0:0:0:0:
256,192,292602,1,0,0:0:0:0:
256,192,292688,1,2,0:0:0:0:
256,192,292775,1,2,0:0:0:0:
256,192,292861,1,0,0:0:0:0:
256,192,292947,1,0,0:0:0:0:
256,192,293033,1,2,0:0:0:0:
256,192,293119,1,0,0:0:0:0:
256,192,293206,1,2,0:0:0:0:
256,192,293292,1,2,0:0:0:0:
256,192,293378,1,0,0:0:0:0:
256,192,293550,1,2,0:0:0:0:
256,192,293637,1,2,0:0:0:0:
256,192,293723,1,2,0:0:0:0:
256,192,293809,1,2,0:0:0:0:
256,192,293895,1,0,0:0:0:0:
256,192,294068,1,0,0:0:0:0:
256,192,294154,1,0,0:0:0:0:
256,192,294240,1,6,0:0:0:0:
256,192,294413,1,0,0:0:0:0:
256,192,294499,1,0,0:0:0:0:
256,192,294585,1,2,0:0:0:0:
256,192,294671,1,2,0:0:0:0:
256,192,294757,1,0,0:0:0:0:
256,192,294844,1,0,0:0:0:0:
256,192,294930,1,2,0:0:0:0:
256,192,295102,1,0,0:0:0:0:
256,192,295188,1,2,0:0:0:0:
256,192,295275,1,0,0:0:0:0:
256,192,295361,1,2,0:0:0:0:
256,192,295447,1,0,0:0:0:0:
256,192,295619,1,2,0:0:0:0:
256,192,295792,1,0,0:0:0:0:
256,192,295878,1,0,0:0:0:0:
256,192,295964,1,2,0:0:0:0:
256,192,296050,1,2,0:0:0:0:
256,192,296137,1,0,0:0:0:0:
256,192,296223,1,0,0:0:0:0:
256,192,296309,1,2,0:0:0:0:
256,192,296481,1,0,0:0:0:0:
256,192,296568,1,0,0:0:0:0:
256,192,296654,1,2,0:0:0:0:
256,192,296740,1,2,0:0:0:0:
256,192,296826,1,0,0:0:0:0:
256,192,296999,1,2,0:0:0:0:
256,192,297171,1,0,0:0:0:0:
256,192,297257,1,0,0:0:0:0:
256,192,297344,1,2,0:0:0:0:
256,192,297516,1,0,0:0:0:0:
256,192,297688,1,2,0:0:0:0:
256,192,297861,1,0,0:0:0:0:
256,192,297947,1,2,0:0:0:0:
256,192,298033,1,0,0:0:0:0:
256,192,298119,1,0,0:0:0:0:
256,192,298206,1,2,0:0:0:0:
256,192,298292,1,2,0:0:0:0:
256,192,298550,1,0,0:0:0:0:
256,192,298637,1,0,0:0:0:0:
256,192,298723,1,2,0:0:0:0:
256,192,298809,1,2,0:0:0:0:
256,192,299068,1,0,0:0:0:0:
256,192,299154,1,0,0:0:0:0:
256,192,299240,1,2,0:0:0:0:
256,192,299326,1,2,0:0:0:0:
256,192,299413,1,4,0:0:0:0:
256,192,299757,1,2,0:0:0:0:
256,192,299930,1,0,0:0:0:0:
256,192,300016,1,0,0:0:0:0:
256,192,300102,1,2,0:0:0:0:
256,192,300188,1,0,0:0:0:0:
256,192,300275,1,2,0:0:0:0:
256,192,300361,1,2,0:0:0:0:
256,192,300447,1,0,0:0:0:0:
256,192,300533,1,0,0:0:0:0:
256,192,300619,1,2,0:0:0:0:
256,192,300677,1,2,0:0:0:0:
256,192,300734,1,2,0:0:0:0:
256,192,300792,1,0,0:0:0:0:
256,192,300878,1,0,0:0:0:0:
256,192,300964,1,2,0:0:0:0:
256,192,301022,1,0,0:0:0:0:
256,192,301079,1,0,0:0:0:0:
256,192,301137,1,2,0:0:0:0:
256,192,301223,1,2,0:0:0:0:
256,192,301309,1,0,0:0:0:0:
256,192,301395,1,0,0:0:0:0:
256,192,301481,1,2,0:0:0:0:
256,192,301568,1,0,0:0:0:0:
256,192,301654,1,2,0:0:0:0:
256,192,301740,1,2,0:0:0:0:
256,192,301826,1,0,0:0:0:0:
256,192,301999,12,2,302171,0:0:0:0:
256,192,302344,5,0,0:0:0:0:
256,192,302688,1,6,0:0:0:0:
256,192,302947,1,0,0:0:0:0:
256,192,303033,1,0,0:0:0:0:
256,192,303119,1,2,0:0:0:0:
256,192,303206,1,2,0:0:0:0:
256,192,303378,1,2,0:0:0:0:
256,192,303464,1,2,0:0:0:0:
256,192,303550,1,0,0:0:0:0:
256,192,303637,1,0,0:0:0:0:
256,192,303723,1,2,0:0:0:0:
256,192,303809,1,0,0:0:0:0:
256,192,303895,1,2,0:0:0:0:
256,192,303981,1,2,0:0:0:0:
256,192,304068,1,0,0:0:0:0:
256,192,304240,1,2,0:0:0:0:
256,192,304326,1,2,0:0:0:0:
256,192,304413,1,0,0:0:0:0:
256,192,304585,1,2,0:0:0:0:
256,192,304700,1,2,0:0:0:0:
256,192,304815,1,2,0:0:0:0:
256,192,304930,1,4,0:0:0:0:
256,192,305275,1,0,0:0:0:0:
256,192,305361,1,2,0:0:0:0:
256,192,305619,1,0,0:0:0:0:
256,192,305706,1,0,0:0:0:0:
256,192,305792,1,2,0:0:0:0:
256,192,305878,1,2,0:0:0:0:
256,192,305964,1,0,0:0:0:0:
256,192,306050,1,2,0:0:0:0:
256,192,306137,1,2,0:0:0:0:
256,192,306223,1,2,0:0:0:0:
256,192,306309,1,0,0:0:0:0:
256,192,306654,1,0,0:0:0:0:
256,192,306740,1,2,0:0:0:0:
256,192,306999,1,0,0:0:0:0:
256,192,307085,1,0,0:0:0:0:
256,192,307171,1,2,0:0:0:0:
256,192,307257,1,2,0:0:0:0:
256,192,307344,1,0,0:0:0:0:
256,192,307430,1,2,0:0:0:0:
256,192,307516,1,2,0:0:0:0:
256,192,307602,1,2,0:0:0:0:
256,192,307688,1,0,0:0:0:0:
256,192,307861,1,2,0:0:0:0:
256,192,307947,1,0,0:0:0:0:
256,192,308033,1,2,0:0:0:0:
256,192,308119,1,0,0:0:0:0:
256,192,308206,1,2,0:0:0:0:
256,192,308378,1,0,0:0:0:0:
256,192,308464,1,0,0:0:0:0:
256,192,308550,1,2,0:0:0:0:
256,192,308637,1,2,0:0:0:0:
256,192,308723,1,0,0:0:0:0:
256,192,308809,1,2,0:0:0:0:
256,192,308895,1,2,0:0:0:0:
256,192,308981,1,2,0:0:0:0:
256,192,309068,1,4,0:0:0:0:
256,192,309298,1,4,0:0:0:0:
256,192,309527,1,4,0:0:0:0:
256,192,309757,1,6,0:0:0:0:
256,192,310102,1,2,0:0:0:0:
256,192,310188,1,2,0:0:0:0:
256,192,310275,1,2,0:0:0:0:
256,192,310361,1,2,0:0:0:0:
256,192,310447,1,4,0:0:0:0:
256,192,310619,12,0,320792,0:0:0:0:
256,192,321481,5,0,0:0:0:0:
