osu file format v14

[General]
AudioFilename: audio.mp3
AudioLeadIn: 0
PreviewTime: 30520
Countdown: 0
SampleSet: Normal
StackLeniency: 0.7
Mode: 1
LetterboxInBreaks: 0
WidescreenStoryboard: 1

[Editor]
DistanceSpacing: 0.8
BeatDivisor: 4
GridSize: 32
TimelineZoom: 2.1

[Metadata]
Title:Spin Eternally
TitleUnicode:Spin Eternally
Artist:Camellia
ArtistUnicode:かめりあ
Creator:Star Stream
Version:Muzukashii
Source:Beat Saber
Tags:cametek kamelcamellia dubstep electrohouse hardcore breakcore instrumental ost4 featured artist fa electronic original sound track soundtrack かめるかめりあ
BeatmapID:3143266
BeatmapSetID:1497800

[Difficulty]
HPDrainRate:6
CircleSize:4.2
OverallDifficulty:4.5
ApproachRate:5
SliderMultiplier:1.4
SliderTickRate:1

[Events]
//Background and Video events
0,0,"co2ver.jpg",0,50
//Break Periods
2,112612,118104
//Storyboard Layer 0 (Background)
//Storyboard Layer 1 (Fail)
//Storyboard Layer 2 (Pass)
//Storyboard Layer 3 (Foreground)
//Storyboard Layer 4 (Overlay)
//Storyboard Sound Samples

[TimingPoints]
-20,270.27027027027,4,1,0,100,1,0
30250,-111.111111111111,4,1,0,100,0,1
37817,-111.111111111111,4,1,0,100,0,0
38898,-99.9999999999999,4,1,0,100,0,1
47547,-99.9999999999999,4,1,0,100,0,0
57142,-111.111111111111,4,1,0,100,0,0
58358,-100,4,1,0,100,0,0
61466,-111.111111111111,4,1,0,100,0,0
62682,-100,4,1,0,100,0,0
65790,-111.111111111111,4,1,0,100,0,0
67007,-100,4,1,0,100,0,0
76871,-101.351351351351,4,1,0,100,0,0
77007,-104.166666666667,4,1,0,100,0,0
77142,-107.142857142857,4,1,0,100,0,0
77277,-110.294117647059,4,1,0,100,0,0
77547,-117.1875,4,1,0,100,0,0
77615,-119.047619047619,4,1,0,100,0,0
77682,-120.967741935484,4,1,0,100,0,0
77817,-125,4,1,0,100,0,0
82142,-111.111111111111,4,1,0,100,0,0
86466,-125,4,1,0,100,0,0
90520,-120,4,1,0,100,0,0
90655,-115.384615384615,4,1,0,100,0,0
90790,-111.111111111111,4,1,0,100,0,0
94304,-109.375,4,1,0,100,0,0
94439,-107.692307692308,4,1,0,100,0,0
94709,-104.477611940299,4,1,0,100,0,0
94844,-102.941176470588,4,1,0,100,0,0
94979,-101.449275362319,4,1,0,100,0,0
95115,-100,4,1,0,100,0,0
99439,-90.9090909090909,4,1,0,100,0,0
103763,-100,4,1,0,100,0,0
108088,-90.9090909090909,4,1,0,100,0,0
112412,-90.9090909090909,4,1,0,70,0,0
131871,-90.9090909090909,4,1,0,70,0,1
148223,-91.5492957746479,4,1,0,100,0,1
148358,-92.8571428571428,4,1,0,100,0,1
148628,-95.5882352941176,4,1,0,100,0,1
148763,-97.0149253731343,4,1,0,100,0,1
149034,-100,4,1,0,100,0,1
149169,-100,4,1,0,100,0,0
149439,-100,4,1,0,100,0,1
165925,-100,4,1,0,100,0,0
190250,-90.9090909090909,4,1,0,100,0,1
194574,-90.9090909090909,4,1,0,100,0,0
198763,-90.9090909090909,4,1,0,100,0,1
216196,-90.9090909090909,4,1,0,100,0,0

[Colours]
Combo1 : 28,148,231
Combo2 : 220,18,21
Combo3 : 64,59,80
Combo4 : 46,60,215
SliderBorder : 234,231,16
SliderTrackOverride : 14,6,8

[HitObjects]
256,192,2142,5,4,0:0:0:0:
256,192,2547,1,8,0:0:0:0:
256,192,2952,1,8,0:0:0:0:
256,192,3223,1,4,0:0:0:0:
256,192,3763,1,8,0:0:0:0:
256,192,4304,1,4,0:0:0:0:
256,192,4709,1,0,0:0:0:0:
256,192,5115,1,8,0:0:0:0:
256,192,5385,1,4,0:0:0:0:
256,192,5925,1,8,0:0:0:0:
256,192,6466,1,4,0:0:0:0:
256,192,6871,1,8,0:0:0:0:
256,192,7277,1,8,0:0:0:0:
256,192,7547,1,4,0:0:0:0:
256,192,8088,1,8,0:0:0:0:
256,192,8628,1,4,0:0:0:0:
256,192,9034,1,12,0:0:0:0:
256,192,9439,1,4,0:0:0:0:
256,192,9979,1,8,0:0:0:0:
256,192,10115,1,8,0:0:0:0:
256,192,10250,1,8,0:0:0:0:
256,192,10385,1,8,0:0:0:0:
256,192,10520,1,8,0:0:0:0:
256,192,10790,1,4,0:0:0:0:
256,192,11196,1,8,0:0:0:0:
256,192,11601,1,8,0:0:0:0:
256,192,11871,1,4,0:0:0:0:
256,192,12007,1,8,0:0:0:0:
256,192,12277,1,0,0:0:0:0:
256,192,12412,1,8,0:0:0:0:
256,192,12547,1,0,0:0:0:0:
256,192,12952,1,4,0:0:0:0:
256,192,13358,1,8,0:0:0:0:
256,192,13763,1,8,0:0:0:0:
256,192,14034,1,4,0:0:0:0:
256,192,14169,1,8,0:0:0:0:
256,192,14439,1,8,0:0:0:0:
256,192,14574,1,8,0:0:0:0:
256,192,14709,1,0,0:0:0:0:
256,192,15115,1,4,0:0:0:0:
256,192,15520,1,8,0:0:0:0:
256,192,15925,1,8,0:0:0:0:
256,192,16196,1,4,0:0:0:0:
256,192,16331,1,8,0:0:0:0:
256,192,16601,1,0,0:0:0:0:
256,192,16736,1,8,0:0:0:0:
256,192,16871,1,0,0:0:0:0:
256,192,17142,1,0,0:0:0:0:
256,192,17277,1,12,0:0:0:0:
256,192,17682,1,12,0:0:0:0:
256,192,17952,1,0,0:0:0:0:
256,192,18088,1,12,0:0:0:0:
256,192,19439,1,4,0:0:0:0:
256,192,20520,1,4,0:0:0:0:
256,192,21196,1,12,0:0:0:0:
256,192,21398,1,4,0:0:0:0:
256,192,21601,1,12,0:0:0:0:
256,192,22547,1,12,0:0:0:0:
256,192,22817,1,12,0:0:0:0:
256,192,23763,1,0,0:0:0:0:
256,192,23831,1,0,0:0:0:0:
256,192,23898,1,0,0:0:0:0:
256,192,24304,1,8,0:0:0:0:
256,192,24371,1,8,0:0:0:0:
256,192,24439,1,8,0:0:0:0:
256,192,24844,1,0,0:0:0:0:
256,192,24912,1,0,0:0:0:0:
256,192,24979,1,0,0:0:0:0:
256,192,25385,1,8,0:0:0:0:
256,192,25452,1,8,0:0:0:0:
256,192,25520,1,8,0:0:0:0:
256,192,25925,2,0,B|480:192|480:192|64:192|64:192|448:192|448:192|416:192,1,1050
256,192,28088,12,0,28290,0:0:0:0:
256,192,28358,12,0,28561,0:0:0:0:
256,192,28628,12,0,28831,0:0:0:0:
256,192,28898,12,0,29101,0:0:0:0:
256,192,29169,12,0,29371,0:0:0:0:
256,192,29439,12,0,29642,0:0:0:0:
256,192,29709,12,0,29844,0:0:0:0:
256,192,30250,5,4,0:0:0:0:
256,192,30520,1,8,0:0:0:0:
256,192,30655,1,0,0:0:0:0:
256,192,30790,1,8,0:0:0:0:
256,192,31061,1,8,0:0:0:0:
256,192,31331,1,8,0:0:0:0:
256,192,31601,1,8,0:0:0:0:
256,192,31736,1,0,0:0:0:0:
256,192,31871,1,8,0:0:0:0:
256,192,32142,1,8,0:0:0:0:
256,192,32277,1,8,0:0:0:0:
256,192,32412,1,4,0:0:0:0:
256,192,32682,1,8,0:0:0:0:
256,192,32817,1,0,0:0:0:0:
256,192,32952,1,8,0:0:0:0:
256,192,33223,1,8,0:0:0:0:
256,192,33493,1,8,0:0:0:0:
256,192,34034,1,8,0:0:0:0:
256,192,34169,1,0,0:0:0:0:
256,192,34304,1,8,0:0:0:0:
256,192,34574,1,4,0:0:0:0:
256,192,34844,1,8,0:0:0:0:
256,192,34979,1,0,0:0:0:0:
256,192,35115,1,8,0:0:0:0:
256,192,35385,1,8,0:0:0:0:
256,192,35655,1,8,0:0:0:0:
256,192,35925,1,8,0:0:0:0:
256,192,36061,1,0,0:0:0:0:
256,192,36196,1,8,0:0:0:0:
256,192,36466,1,8,0:0:0:0:
256,192,36601,1,8,0:0:0:0:
256,192,36736,1,4,0:0:0:0:
256,192,37007,1,8,0:0:0:0:
256,192,37142,1,8,0:0:0:0:
256,192,37277,1,0,0:0:0:0:
256,192,37412,1,8,0:0:0:0:
256,192,37547,1,0,0:0:0:0:
256,192,37817,1,12,0:0:0:0:
256,192,38223,1,12,0:0:0:0:
256,192,38493,1,0,0:0:0:0:
256,192,38628,1,12,0:0:0:0:
256,192,38898,1,4,0:0:0:0:
256,192,39169,1,8,0:0:0:0:
256,192,39304,1,0,0:0:0:0:
256,192,39439,1,8,0:0:0:0:
256,192,39709,1,8,0:0:0:0:
256,192,39979,1,8,0:0:0:0:
256,192,40115,1,0,0:0:0:0:
256,192,40250,1,8,0:0:0:0:
256,192,40520,1,8,0:0:0:0:
256,192,40655,1,0,0:0:0:0:
256,192,40790,1,8,0:0:0:0:
256,192,40925,1,8,0:0:0:0:
256,192,41061,1,4,0:0:0:0:
256,192,41331,1,8,0:0:0:0:
256,192,41466,1,0,0:0:0:0:
256,192,41601,1,8,0:0:0:0:
256,192,41871,1,8,0:0:0:0:
256,192,42142,1,8,0:0:0:0:
256,192,42277,1,8,0:0:0:0:
256,192,42412,1,8,0:0:0:0:
256,192,42547,1,8,0:0:0:0:
256,192,42615,1,8,0:0:0:0:
256,192,42682,1,8,0:0:0:0:
256,192,42817,1,0,0:0:0:0:
256,192,42952,1,8,0:0:0:0:
256,192,43223,1,4,0:0:0:0:
256,192,43763,1,8,0:0:0:0:
256,192,43966,1,8,0:0:0:0:
256,192,44169,1,8,0:0:0:0:
256,192,44236,1,8,0:0:0:0:
256,192,44304,1,8,0:0:0:0:
256,192,44507,1,8,0:0:0:0:
256,192,44709,1,8,0:0:0:0:
256,192,44777,1,8,0:0:0:0:
256,192,44844,1,8,0:0:0:0:
256,192,45047,1,8,0:0:0:0:
256,192,45250,1,8,0:0:0:0:
256,192,45317,1,8,0:0:0:0:
256,192,45385,1,8,0:0:0:0:
256,192,45790,1,12,0:0:0:0:
256,192,46196,1,4,0:0:0:0:
256,192,46601,1,12,0:0:0:0:
256,192,47547,1,4,0:0:0:0:
256,192,47750,1,8,0:0:0:0:
256,192,47952,1,8,0:0:0:0:
256,192,48088,1,0,0:0:0:0:
256,192,48155,1,0,0:0:0:0:
256,192,48223,1,0,0:0:0:0:
256,192,48358,1,8,0:0:0:0:
256,192,48425,1,8,0:0:0:0:
256,192,48493,1,8,0:0:0:0:
256,192,48628,1,0,0:0:0:0:
256,192,48898,1,8,0:0:0:0:
256,192,49169,1,8,0:0:0:0:
256,192,49709,1,4,0:0:0:0:
256,192,49912,1,8,0:0:0:0:
256,192,50115,1,8,0:0:0:0:
256,192,50250,1,0,0:0:0:0:
256,192,50317,1,0,0:0:0:0:
256,192,50385,1,0,0:0:0:0:
256,192,50520,1,8,0:0:0:0:
256,192,50790,1,0,0:0:0:0:
256,192,50925,1,8,0:0:0:0:
256,192,51061,1,0,0:0:0:0:
256,192,51196,1,0,0:0:0:0:
256,192,51331,1,12,0:0:0:0:
256,192,51601,1,12,0:0:0:0:
256,192,51871,1,4,0:0:0:0:
256,192,52074,1,8,0:0:0:0:
256,192,52277,1,8,0:0:0:0:
256,192,52412,1,0,0:0:0:0:
256,192,52479,1,0,0:0:0:0:
256,192,52547,1,0,0:0:0:0:
256,192,52682,1,8,0:0:0:0:
256,192,52750,1,8,0:0:0:0:
256,192,52817,1,8,0:0:0:0:
256,192,52952,1,0,0:0:0:0:
256,192,53223,1,8,0:0:0:0:
256,192,53493,1,8,0:0:0:0:
256,192,54034,1,4,0:0:0:0:
256,192,54236,1,8,0:0:0:0:
256,192,54439,1,8,0:0:0:0:
256,192,54574,1,0,0:0:0:0:
256,192,54664,1,0,0:0:0:0:
256,192,54754,1,0,0:0:0:0:
256,192,54844,1,8,0:0:0:0:
256,192,55115,1,0,0:0:0:0:
256,192,55250,12,0,56061,0:0:0:0:
256,192,56196,5,12,0:0:0:0:
256,192,57142,1,8,0:0:0:0:
256,192,57209,1,8,0:0:0:0:
256,192,57277,1,8,0:0:0:0:
256,192,57547,1,0,0:0:0:0:
256,192,57615,1,0,0:0:0:0:
256,192,57682,1,0,0:0:0:0:
256,192,57952,1,0,0:0:0:0:
256,192,58020,1,0,0:0:0:0:
256,192,58088,1,0,0:0:0:0:
256,192,58358,1,12,0:0:0:0:
256,192,58763,1,12,0:0:0:0:
256,192,59169,1,12,0:0:0:0:
256,192,59574,1,12,0:0:0:0:
256,192,59979,1,12,0:0:0:0:
256,192,60250,1,4,0:0:0:0:
256,192,60520,1,4,0:0:0:0:
256,192,61466,1,0,0:0:0:0:
256,192,61601,1,8,0:0:0:0:
256,192,61736,1,8,0:0:0:0:
256,192,61871,1,0,0:0:0:0:
256,192,62007,1,8,0:0:0:0:
256,192,62142,1,8,0:0:0:0:
256,192,62277,1,0,0:0:0:0:
256,192,62412,1,8,0:0:0:0:
256,192,62682,1,12,0:0:0:0:
256,192,62952,1,0,0:0:0:0:
256,192,63088,1,12,0:0:0:0:
256,192,63358,1,0,0:0:0:0:
256,192,63493,1,12,0:0:0:0:
256,192,63763,1,0,0:0:0:0:
256,192,63898,1,12,0:0:0:0:
256,192,64169,1,0,0:0:0:0:
256,192,64304,1,12,0:0:0:0:
256,192,64574,1,4,0:0:0:0:
256,192,64844,1,4,0:0:0:0:
256,192,65790,1,0,0:0:0:0:
256,192,65925,1,8,0:0:0:0:
256,192,66061,1,8,0:0:0:0:
256,192,66196,1,0,0:0:0:0:
256,192,66331,1,8,0:0:0:0:
256,192,66466,1,0,0:0:0:0:
256,192,66601,1,0,0:0:0:0:
256,192,66736,1,8,0:0:0:0:
256,192,67007,1,12,0:0:0:0:
256,192,67277,1,0,0:0:0:0:
256,192,67412,1,12,0:0:0:0:
256,192,67682,1,0,0:0:0:0:
256,192,67817,1,12,0:0:0:0:
256,192,68088,1,0,0:0:0:0:
256,192,68223,1,12,0:0:0:0:
256,192,68493,1,0,0:0:0:0:
256,192,68628,1,12,0:0:0:0:
256,192,68898,1,4,0:0:0:0:
256,192,69169,1,4,0:0:0:0:
256,192,69709,1,0,0:0:0:0:
256,192,69844,1,8,0:0:0:0:
256,192,69979,1,8,0:0:0:0:
256,192,70115,1,8,0:0:0:0:
256,192,70250,1,4,0:0:0:0:
256,192,70790,1,8,0:0:0:0:
256,192,70925,1,0,0:0:0:0:
256,192,71061,1,0,0:0:0:0:
256,192,71196,1,8,0:0:0:0:
256,192,71331,1,4,0:0:0:0:
256,192,71871,1,8,0:0:0:0:
256,192,72007,1,8,0:0:0:0:
256,192,72142,1,0,0:0:0:0:
256,192,72277,1,8,0:0:0:0:
256,192,72412,1,4,0:0:0:0:
256,192,72952,1,0,0:0:0:0:
256,192,73088,1,8,0:0:0:0:
256,192,73223,1,8,0:0:0:0:
256,192,73358,1,8,0:0:0:0:
256,192,73493,1,0,0:0:0:0:
256,192,73561,1,0,0:0:0:0:
256,192,73628,1,0,0:0:0:0:
256,192,74034,1,8,0:0:0:0:
256,192,74101,1,8,0:0:0:0:
256,192,74169,1,8,0:0:0:0:
256,192,74574,1,0,0:0:0:0:
256,192,74642,1,0,0:0:0:0:
256,192,74709,1,0,0:0:0:0:
256,192,75115,1,8,0:0:0:0:
256,192,75182,1,8,0:0:0:0:
256,192,75250,1,8,0:0:0:0:
256,192,75655,2,0,B|512:192|512:192|192:192,1,560
256,192,76871,1,8,0:0:0:0:
256,192,77007,1,8,0:0:0:0:
256,192,77142,1,0,0:0:0:0:
256,192,77277,1,0,0:0:0:0:
256,192,77547,1,8,0:0:0:0:
256,192,77615,1,8,0:0:0:0:
256,192,77682,1,8,0:0:0:0:
256,192,77817,1,4,0:0:0:0:
256,192,78088,1,8,0:0:0:0:
256,192,78358,1,0,0:0:0:0:
256,192,78628,1,0,0:0:0:0:
256,192,78763,1,0,0:0:0:0:
256,192,78898,1,8,0:0:0:0:
256,192,79034,1,0,0:0:0:0:
256,192,79169,1,8,0:0:0:0:
256,192,79304,1,0,0:0:0:0:
256,192,79439,1,0,0:0:0:0:
256,192,79979,1,4,0:0:0:0:
256,192,80250,1,8,0:0:0:0:
256,192,80520,1,0,0:0:0:0:
256,192,80790,1,0,0:0:0:0:
256,192,80925,1,0,0:0:0:0:
256,192,81061,1,8,0:0:0:0:
256,192,81196,1,0,0:0:0:0:
256,192,81331,1,8,0:0:0:0:
256,192,81466,1,0,0:0:0:0:
256,192,81601,1,0,0:0:0:0:
256,192,82142,1,4,0:0:0:0:
256,192,82412,1,8,0:0:0:0:
256,192,82682,1,0,0:0:0:0:
256,192,82750,1,0,0:0:0:0:
256,192,82817,1,0,0:0:0:0:
256,192,82952,1,8,0:0:0:0:
256,192,83223,1,0,0:0:0:0:
256,192,83290,1,0,0:0:0:0:
256,192,83358,1,0,0:0:0:0:
256,192,83493,1,8,0:0:0:0:
256,192,83763,1,0,0:0:0:0:
256,192,83831,1,0,0:0:0:0:
256,192,83898,1,0,0:0:0:0:
256,192,84034,1,8,0:0:0:0:
256,192,84304,1,4,0:0:0:0:
256,192,84574,1,8,0:0:0:0:
256,192,84844,1,0,0:0:0:0:
256,192,84912,1,0,0:0:0:0:
256,192,84979,1,0,0:0:0:0:
256,192,85115,1,8,0:0:0:0:
256,192,85385,1,0,0:0:0:0:
256,192,85452,1,0,0:0:0:0:
256,192,85520,1,0,0:0:0:0:
256,192,85655,1,8,0:0:0:0:
261,189,85925,1,0,0:0:0:0:
256,192,86466,1,4,0:0:0:0:
256,192,86736,1,8,0:0:0:0:
256,192,87007,1,0,0:0:0:0:
256,192,87277,1,0,0:0:0:0:
256,192,87412,1,0,0:0:0:0:
256,192,87547,1,8,0:0:0:0:
256,192,87682,1,0,0:0:0:0:
256,192,87817,1,0,0:0:0:0:
256,192,87952,1,8,0:0:0:0:
256,192,88088,1,0,0:0:0:0:
256,192,88628,1,4,0:0:0:0:
256,192,88898,1,8,0:0:0:0:
256,192,89169,1,0,0:0:0:0:
256,192,89439,1,0,0:0:0:0:
256,192,89574,1,0,0:0:0:0:
256,192,89709,1,8,0:0:0:0:
256,192,89844,1,0,0:0:0:0:
256,192,89979,1,0,0:0:0:0:
256,192,90115,1,8,0:0:0:0:
256,192,90250,1,0,0:0:0:0:
256,192,90520,1,0,0:0:0:0:
256,192,90655,1,8,0:0:0:0:
256,192,90790,1,4,0:0:0:0:
256,192,91061,1,8,0:0:0:0:
256,192,91331,1,0,0:0:0:0:
256,192,91398,1,0,0:0:0:0:
256,192,91466,1,0,0:0:0:0:
256,192,91601,1,8,0:0:0:0:
256,192,91871,1,0,0:0:0:0:
256,192,91939,1,0,0:0:0:0:
256,192,92007,1,0,0:0:0:0:
256,192,92142,1,8,0:0:0:0:
256,192,92412,1,0,0:0:0:0:
256,192,92479,1,0,0:0:0:0:
256,192,92547,1,0,0:0:0:0:
256,192,92682,1,8,0:0:0:0:
256,192,92952,1,4,0:0:0:0:
256,192,93223,1,8,0:0:0:0:
256,192,93358,1,0,0:0:0:0:
256,192,93493,2,0,L|404:191,1,125.999996154785
256,192,94304,1,0,0:0:0:0:
256,192,94439,1,8,0:0:0:0:
256,192,94709,1,0,0:0:0:0:
256,192,94844,1,8,0:0:0:0:
256,192,94979,1,0,0:0:0:0:
256,192,95115,1,4,0:0:0:0:
256,192,95385,1,8,0:0:0:0:
256,192,95520,1,8,0:0:0:0:
256,192,95790,1,0,0:0:0:0:
256,192,95925,1,8,0:0:0:0:
256,192,96196,1,8,0:0:0:0:
256,192,96331,1,0,0:0:0:0:
256,192,96466,1,0,0:0:0:0:
256,192,96601,1,8,0:0:0:0:
256,192,96736,1,0,0:0:0:0:
256,192,97277,1,4,0:0:0:0:
256,192,97547,1,8,0:0:0:0:
256,192,97682,1,8,0:0:0:0:
256,192,97952,1,0,0:0:0:0:
256,192,98088,1,8,0:0:0:0:
256,192,98358,1,8,0:0:0:0:
256,192,98493,1,0,0:0:0:0:
256,192,98628,1,0,0:0:0:0:
256,192,98763,1,8,0:0:0:0:
256,192,98898,1,12,0:0:0:0:
256,192,99439,1,4,0:0:0:0:
256,192,99709,1,8,0:0:0:0:
256,192,99979,1,0,0:0:0:0:
256,192,100047,1,0,0:0:0:0:
256,192,100115,1,0,0:0:0:0:
256,192,100250,1,8,0:0:0:0:
256,192,100520,1,0,0:0:0:0:
256,192,100588,1,0,0:0:0:0:
256,192,100655,1,0,0:0:0:0:
256,192,100790,1,8,0:0:0:0:
256,192,101061,1,0,0:0:0:0:
256,192,101128,1,0,0:0:0:0:
256,192,101196,1,0,0:0:0:0:
256,192,101331,1,8,0:0:0:0:
256,192,101601,1,4,0:0:0:0:
256,192,101871,1,8,0:0:0:0:
256,192,102142,1,0,0:0:0:0:
256,192,102209,1,0,0:0:0:0:
256,192,102277,1,0,0:0:0:0:
256,192,102412,1,8,0:0:0:0:
256,192,102682,1,0,0:0:0:0:
256,192,102750,1,0,0:0:0:0:
256,192,102817,1,0,0:0:0:0:
256,192,102952,1,8,0:0:0:0:
256,192,103763,5,4,0:0:0:0:
256,192,104034,1,8,0:0:0:0:
256,192,104169,1,8,0:0:0:0:
256,192,104439,1,0,0:0:0:0:
256,192,104574,1,8,0:0:0:0:
256,192,104844,1,8,0:0:0:0:
256,192,104979,1,0,0:0:0:0:
256,192,105115,1,0,0:0:0:0:
256,192,105250,1,8,0:0:0:0:
256,192,105385,1,0,0:0:0:0:
256,192,105925,1,4,0:0:0:0:
256,192,106196,1,8,0:0:0:0:
256,192,106331,1,8,0:0:0:0:
256,192,106601,1,0,0:0:0:0:
256,192,106736,1,8,0:0:0:0:
256,192,107007,1,8,0:0:0:0:
256,192,107142,1,0,0:0:0:0:
256,192,107277,1,0,0:0:0:0:
256,192,107412,1,8,0:0:0:0:
256,192,107547,1,0,0:0:0:0:
256,192,108088,1,8,0:0:0:0:
256,192,108223,1,0,0:0:0:0:
256,192,108358,1,8,0:0:0:0:
256,192,108493,1,0,0:0:0:0:
256,192,108628,1,8,0:0:0:0:
256,192,108898,1,8,0:0:0:0:
256,192,109169,1,8,0:0:0:0:
256,192,109304,1,0,0:0:0:0:
256,192,109439,1,8,0:0:0:0:
256,192,109574,1,0,0:0:0:0:
256,192,109709,1,8,0:0:0:0:
256,192,109979,1,8,0:0:0:0:
256,192,110250,1,8,0:0:0:0:
256,192,110385,1,0,0:0:0:0:
256,192,110520,1,8,0:0:0:0:
256,192,110655,1,0,0:0:0:0:
256,192,110790,1,8,0:0:0:0:
256,192,110925,1,8,0:0:0:0:
256,192,111061,1,8,0:0:0:0:
256,192,111196,1,8,0:0:0:0:
256,192,111331,12,0,112277,0:0:0:0:
256,192,112412,5,12,0:0:0:0:
256,192,119304,5,0,0:0:0:0:
256,192,119439,1,8,0:0:0:0:
256,192,119709,1,8,0:0:0:0:
256,192,119844,1,0,0:0:0:0:
256,192,119979,1,4,0:0:0:0:
256,192,120115,1,4,0:0:0:0:
256,192,120385,1,12,0:0:0:0:
256,192,120655,1,4,0:0:0:0:
256,192,121061,5,8,0:0:0:0:
256,192,121263,1,8,0:0:0:0:
256,192,121466,1,0,0:0:0:0:
256,192,121601,1,8,0:0:0:0:
256,192,121871,1,8,0:0:0:0:
256,192,122142,1,0,0:0:0:0:
256,192,122344,1,8,0:0:0:0:
256,192,122547,1,8,0:0:0:0:
256,192,122682,1,0,0:0:0:0:
256,192,122952,1,0,0:0:0:0:
256,192,123223,1,8,0:0:0:0:
256,192,123425,1,8,0:0:0:0:
256,192,123628,1,0,0:0:0:0:
256,192,123763,1,8,0:0:0:0:
256,192,124034,1,8,0:0:0:0:
256,192,124304,1,0,0:0:0:0:
256,192,124574,1,8,0:0:0:0:
256,192,124844,1,8,0:0:0:0:
256,192,125385,1,8,0:0:0:0:
256,192,125588,1,8,0:0:0:0:
256,192,125790,1,0,0:0:0:0:
256,192,125925,1,8,0:0:0:0:
256,192,126196,1,8,0:0:0:0:
256,192,126466,1,0,0:0:0:0:
256,192,126669,1,8,0:0:0:0:
256,192,126871,1,0,0:0:0:0:
256,192,127007,1,8,0:0:0:0:
256,192,127277,1,8,0:0:0:0:
256,192,127547,1,8,0:0:0:0:
256,192,127952,1,8,0:0:0:0:
256,192,128223,1,0,0:0:0:0:
256,192,128358,1,8,0:0:0:0:
256,192,128628,1,0,0:0:0:0:
256,192,128763,1,8,0:0:0:0:
256,192,128898,1,0,0:0:0:0:
256,192,129034,1,0,0:0:0:0:
256,192,129169,1,8,0:0:0:0:
256,192,129439,1,8,0:0:0:0:
256,192,129709,12,0,129912,0:0:0:0:
256,192,129979,12,0,130182,0:0:0:0:
256,192,130250,12,0,130452,0:0:0:0:
256,192,130520,12,0,130655,0:0:0:0:
256,192,130790,5,0,0:0:0:0:
256,192,130925,1,0,0:0:0:0:
256,192,131061,1,0,0:0:0:0:
256,192,131196,1,0,0:0:0:0:
256,192,131331,1,0,0:0:0:0:
256,192,131871,5,12,0:0:0:0:
256,192,132074,1,8,0:0:0:0:
256,192,132277,1,0,0:0:0:0:
256,192,132412,1,8,0:0:0:0:
256,192,132682,1,8,0:0:0:0:
256,192,132952,1,0,0:0:0:0:
256,192,133155,1,8,0:0:0:0:
256,192,133358,1,8,0:0:0:0:
256,192,133493,1,0,0:0:0:0:
256,192,133763,1,0,0:0:0:0:
256,192,134034,1,8,0:0:0:0:
256,192,134236,1,8,0:0:0:0:
256,192,134439,1,0,0:0:0:0:
256,192,134574,1,8,0:0:0:0:
256,192,134844,1,8,0:0:0:0:
256,192,135115,1,8,0:0:0:0:
256,192,135250,1,0,0:0:0:0:
256,192,135385,1,8,0:0:0:0:
256,192,135655,1,8,0:0:0:0:
256,192,136196,1,8,0:0:0:0:
256,192,136398,1,8,0:0:0:0:
256,192,136601,1,0,0:0:0:0:
256,192,136736,1,8,0:0:0:0:
256,192,137007,1,8,0:0:0:0:
256,192,137277,1,0,0:0:0:0:
256,192,137479,1,8,0:0:0:0:
256,192,137682,1,8,0:0:0:0:
256,192,137817,1,0,0:0:0:0:
256,192,138088,1,0,0:0:0:0:
256,192,138358,1,8,0:0:0:0:
256,192,138763,1,8,0:0:0:0:
256,192,139169,1,8,0:0:0:0:
256,192,139439,1,0,0:0:0:0:
256,192,139574,1,8,0:0:0:0:
256,192,139642,1,8,0:0:0:0:
256,192,139709,1,8,0:0:0:0:
256,192,139844,1,0,0:0:0:0:
256,192,139979,1,8,0:0:0:0:
256,192,140250,1,8,0:0:0:0:
256,192,140520,1,12,0:0:0:0:
256,192,140723,1,8,0:0:0:0:
256,192,140925,1,0,0:0:0:0:
256,192,141061,1,8,0:0:0:0:
256,192,141331,1,8,0:0:0:0:
256,192,141601,1,0,0:0:0:0:
256,192,141804,1,8,0:0:0:0:
256,192,142007,1,8,0:0:0:0:
256,192,142142,1,0,0:0:0:0:
256,192,142412,1,0,0:0:0:0:
256,192,142682,1,8,0:0:0:0:
256,192,142885,1,8,0:0:0:0:
256,192,143088,1,0,0:0:0:0:
256,192,143223,1,8,0:0:0:0:
256,192,143493,1,8,0:0:0:0:
256,192,143763,1,8,0:0:0:0:
256,192,143898,1,0,0:0:0:0:
256,192,144034,1,8,0:0:0:0:
256,192,144304,1,8,0:0:0:0:
256,192,144844,1,8,0:0:0:0:
256,192,145047,1,8,0:0:0:0:
256,192,145250,1,0,0:0:0:0:
256,192,145385,1,8,0:0:0:0:
256,192,145655,1,8,0:0:0:0:
256,192,145925,1,0,0:0:0:0:
256,192,146128,1,8,0:0:0:0:
256,192,146331,1,0,0:0:0:0:
256,192,146466,1,8,0:0:0:0:
256,192,146736,1,8,0:0:0:0:
256,192,147007,1,8,0:0:0:0:
256,192,147277,1,0,0:0:0:0:
256,192,147412,1,8,0:0:0:0:
256,192,147682,1,0,0:0:0:0:
256,192,147817,1,8,0:0:0:0:
256,192,148088,1,0,0:0:0:0:
256,192,148223,1,8,0:0:0:0:
256,192,148358,1,0,0:0:0:0:
256,192,148493,1,0,0:0:0:0:
256,192,148628,1,8,0:0:0:0:
256,192,148763,1,0,0:0:0:0:
256,192,148898,1,8,0:0:0:0:
256,192,149169,1,0,0:0:0:0:
256,192,149439,1,4,0:0:0:0:
256,192,149574,1,8,0:0:0:0:
256,192,149979,1,8,0:0:0:0:
256,192,150250,1,0,0:0:0:0:
256,192,150385,1,8,0:0:0:0:
256,192,150520,1,0,0:0:0:0:
256,192,150655,1,8,0:0:0:0:
256,192,150790,1,8,0:0:0:0:
256,192,150925,1,0,0:0:0:0:
256,192,151196,1,8,0:0:0:0:
256,192,151263,1,8,0:0:0:0:
256,192,151331,1,8,0:0:0:0:
256,192,151601,1,0,0:0:0:0:
256,192,151736,1,8,0:0:0:0:
256,192,152142,1,8,0:0:0:0:
256,192,152412,1,0,0:0:0:0:
256,192,152547,1,8,0:0:0:0:
256,192,152682,1,0,0:0:0:0:
256,192,152817,1,8,0:0:0:0:
256,192,152952,1,8,0:0:0:0:
256,192,153088,1,0,0:0:0:0:
256,192,153358,1,8,0:0:0:0:
256,192,153425,1,8,0:0:0:0:
256,192,153493,1,8,0:0:0:0:
256,192,153763,1,0,0:0:0:0:
256,192,153898,1,8,0:0:0:0:
256,192,154304,1,8,0:0:0:0:
256,192,154574,1,0,0:0:0:0:
256,192,154709,1,8,0:0:0:0:
256,192,154844,1,0,0:0:0:0:
256,192,154979,1,8,0:0:0:0:
256,192,155115,1,8,0:0:0:0:
256,192,155250,1,0,0:0:0:0:
256,192,155520,1,8,0:0:0:0:
256,192,155588,1,8,0:0:0:0:
256,192,155655,1,8,0:0:0:0:
256,192,155925,1,0,0:0:0:0:
256,192,156061,1,8,0:0:0:0:
256,192,156331,1,0,0:0:0:0:
256,192,156466,1,8,0:0:0:0:
256,192,156736,1,0,0:0:0:0:
256,192,157007,1,8,0:0:0:0:
256,192,157142,1,8,0:0:0:0:
256,192,157277,1,8,0:0:0:0:
256,192,157412,1,0,0:0:0:0:
256,192,157547,1,0,0:0:0:0:
256,192,157817,1,12,0:0:0:0:
256,192,158088,1,0,0:0:0:0:
256,192,158223,1,8,0:0:0:0:
256,192,158628,1,8,0:0:0:0:
256,192,158898,1,0,0:0:0:0:
256,192,159034,1,8,0:0:0:0:
256,192,159169,1,0,0:0:0:0:
256,192,159304,1,8,0:0:0:0:
256,192,159439,1,8,0:0:0:0:
256,192,159574,1,0,0:0:0:0:
256,192,159844,1,8,0:0:0:0:
256,192,159912,1,8,0:0:0:0:
256,192,159979,1,8,0:0:0:0:
256,192,160250,1,0,0:0:0:0:
256,192,160385,1,8,0:0:0:0:
256,192,160790,1,8,0:0:0:0:
256,192,161061,1,0,0:0:0:0:
256,192,161196,1,8,0:0:0:0:
256,192,161331,1,0,0:0:0:0:
256,192,161466,1,8,0:0:0:0:
256,192,161601,1,8,0:0:0:0:
256,192,161736,1,0,0:0:0:0:
256,192,162007,1,8,0:0:0:0:
256,192,162074,1,8,0:0:0:0:
256,192,162142,1,8,0:0:0:0:
256,192,162412,1,0,0:0:0:0:
256,192,162547,1,8,0:0:0:0:
256,192,162952,1,8,0:0:0:0:
256,192,163223,1,0,0:0:0:0:
256,192,163358,1,8,0:0:0:0:
256,192,163493,1,0,0:0:0:0:
256,192,163628,1,8,0:0:0:0:
256,192,163763,1,8,0:0:0:0:
256,192,163898,1,0,0:0:0:0:
256,192,164169,1,8,0:0:0:0:
256,192,164304,1,12,0:0:0:0:
256,192,164709,1,12,0:0:0:0:
256,192,164979,1,0,0:0:0:0:
256,192,165115,2,0,B|382:264|382:264|385:117,1,280
256,192,165925,1,0,0:0:0:0:
256,192,166061,1,0,0:0:0:0:
256,192,166196,1,8,0:0:0:0:
256,192,166331,1,8,0:0:0:0:
256,192,166466,1,12,0:0:0:0:
256,192,166871,1,8,0:0:0:0:
256,192,167007,1,8,0:0:0:0:
256,192,167142,1,0,0:0:0:0:
256,192,167277,1,8,0:0:0:0:
256,192,167547,1,8,0:0:0:0:
256,192,167615,1,8,0:0:0:0:
256,192,167682,1,8,0:0:0:0:
256,192,167817,1,0,0:0:0:0:
256,192,168088,1,8,0:0:0:0:
256,192,168223,1,0,0:0:0:0:
256,192,168358,1,8,0:0:0:0:
256,192,168493,1,8,0:0:0:0:
256,192,168561,1,8,0:0:0:0:
256,192,168628,1,8,0:0:0:0:
256,192,169034,1,8,0:0:0:0:
256,192,169169,1,0,0:0:0:0:
256,192,169304,1,0,0:0:0:0:
256,192,169439,1,8,0:0:0:0:
256,192,169709,1,8,0:0:0:0:
256,192,169844,1,0,0:0:0:0:
256,192,169912,1,0,0:0:0:0:
256,192,169979,1,0,0:0:0:0:
256,192,170250,1,8,0:0:0:0:
256,192,170385,1,0,0:0:0:0:
256,192,170520,1,8,0:0:0:0:
256,192,170655,1,8,0:0:0:0:
256,192,170723,1,8,0:0:0:0:
256,192,170790,1,8,0:0:0:0:
256,192,171196,1,8,0:0:0:0:
256,192,171331,1,8,0:0:0:0:
256,192,171466,1,0,0:0:0:0:
256,192,171601,1,8,0:0:0:0:
256,192,171871,1,8,0:0:0:0:
256,192,172142,1,0,0:0:0:0:
256,192,172277,1,8,0:0:0:0:
256,192,172412,1,8,0:0:0:0:
256,192,172682,1,0,0:0:0:0:
256,192,172817,1,8,0:0:0:0:
256,192,172952,1,4,0:0:0:0:
256,192,173223,1,8,0:0:0:0:
256,192,173358,1,0,0:0:0:0:
256,192,173493,1,8,0:0:0:0:
256,192,173628,1,0,0:0:0:0:
256,192,173763,1,8,0:0:0:0:
256,192,174034,1,8,0:0:0:0:
256,192,174169,1,0,0:0:0:0:
256,192,174304,1,8,0:0:0:0:
256,192,174574,1,0,0:0:0:0:
256,192,174642,1,0,0:0:0:0:
256,192,174709,1,0,0:0:0:0:
256,192,174844,1,8,0:0:0:0:
256,192,174912,1,8,0:0:0:0:
256,192,174979,1,8,0:0:0:0:
256,192,175115,1,12,0:0:0:0:
256,192,175520,1,0,0:0:0:0:
256,192,175655,1,8,0:0:0:0:
256,192,175790,1,0,0:0:0:0:
256,192,175925,1,8,0:0:0:0:
256,192,176196,1,8,0:0:0:0:
256,192,176263,1,8,0:0:0:0:
256,192,176331,1,8,0:0:0:0:
256,192,176466,1,0,0:0:0:0:
256,192,176736,1,0,0:0:0:0:
256,192,176871,1,8,0:0:0:0:
256,192,177007,1,0,0:0:0:0:
256,192,177142,1,8,0:0:0:0:
256,192,177209,1,8,0:0:0:0:
256,192,177277,1,8,0:0:0:0:
256,192,177682,1,8,0:0:0:0:
256,192,177817,1,0,0:0:0:0:
256,192,177952,1,8,0:0:0:0:
256,192,178088,1,8,0:0:0:0:
256,192,178358,1,0,0:0:0:0:
256,192,178493,1,8,0:0:0:0:
256,192,178763,1,8,0:0:0:0:
256,192,178898,1,8,0:0:0:0:
256,192,179034,1,8,0:0:0:0:
256,192,179101,1,8,0:0:0:0:
256,192,179169,1,8,0:0:0:0:
256,192,179304,1,0,0:0:0:0:
256,192,179439,1,12,0:0:0:0:
256,192,179844,1,12,0:0:0:0:
256,192,179979,1,0,0:0:0:0:
256,192,180250,1,8,0:0:0:0:
256,192,180385,1,0,0:0:0:0:
256,192,180520,1,12,0:0:0:0:
256,192,180723,1,12,0:0:0:0:
256,192,180925,1,12,0:0:0:0:
256,192,181061,1,0,0:0:0:0:
256,192,181331,1,8,0:0:0:0:
256,192,181466,1,0,0:0:0:0:
256,192,181601,1,4,0:0:0:0:
256,192,181871,1,8,0:0:0:0:
256,192,182007,1,0,0:0:0:0:
256,192,182142,1,8,0:0:0:0:
256,192,182412,1,8,0:0:0:0:
256,192,182682,1,0,0:0:0:0:
256,192,182817,1,0,0:0:0:0:
256,192,182952,1,8,0:0:0:0:
256,192,183088,1,0,0:0:0:0:
256,192,183223,1,8,0:0:0:0:
256,192,183493,1,0,0:0:0:0:
256,192,183628,1,8,0:0:0:0:
256,192,183763,1,4,0:0:0:0:
256,192,184304,1,8,0:0:0:0:
256,192,184394,1,0,0:0:0:0:
256,192,184484,1,0,0:0:0:0:
256,192,184574,1,8,0:0:0:0:
256,192,184844,1,0,0:0:0:0:
256,192,184979,12,0,185790,0:0:0:0:
256,192,185925,5,4,0:0:0:0:
256,192,186196,12,0,186398,0:0:0:0:
256,192,186466,12,0,186669,0:0:0:0:
256,192,186736,12,0,186939,0:0:0:0:
256,192,187007,12,0,187209,0:0:0:0:
256,192,187277,12,0,187479,0:0:0:0:
256,192,187547,12,0,187750,0:0:0:0:
256,192,187817,12,0,187952,0:0:0:0:
256,192,188088,5,8,0:0:0:0:
256,192,188223,1,0,0:0:0:0:
256,192,188358,1,8,0:0:0:0:
256,192,188628,1,8,0:0:0:0:
256,192,188898,1,0,0:0:0:0:
256,192,189034,1,8,0:0:0:0:
256,192,189169,1,0,0:0:0:0:
256,192,189709,1,8,0:0:0:0:
256,192,189979,1,8,0:0:0:0:
256,192,190250,1,4,0:0:0:0:
256,192,190520,1,8,0:0:0:0:
256,192,190790,1,8,0:0:0:0:
256,192,190925,1,0,0:0:0:0:
256,192,191061,1,8,0:0:0:0:
256,192,191331,1,8,0:0:0:0:
256,192,191466,1,0,0:0:0:0:
256,192,191601,1,8,0:0:0:0:
256,192,191871,1,8,0:0:0:0:
256,192,192007,1,0,0:0:0:0:
256,192,192142,1,8,0:0:0:0:
256,192,192277,1,8,0:0:0:0:
256,192,192412,1,4,0:0:0:0:
256,192,192682,1,0,0:0:0:0:
256,192,192817,1,8,0:0:0:0:
256,192,192952,1,8,0:0:0:0:
256,192,193088,1,0,0:0:0:0:
256,192,193223,1,8,0:0:0:0:
256,192,193493,1,8,0:0:0:0:
256,192,193628,1,0,0:0:0:0:
256,192,193763,1,0,0:0:0:0:
256,192,193898,1,8,0:0:0:0:
256,192,194034,1,8,0:0:0:0:
256,192,194574,1,4,0:0:0:0:
256,192,194844,1,8,0:0:0:0:
256,192,194979,1,0,0:0:0:0:
256,192,195115,1,8,0:0:0:0:
256,192,195385,1,12,0:0:0:0:
256,192,195655,1,8,0:0:0:0:
256,192,195790,1,0,0:0:0:0:
256,192,195925,1,8,0:0:0:0:
256,192,196196,1,8,0:0:0:0:
256,192,196466,1,0,0:0:0:0:
256,192,196601,1,8,0:0:0:0:
256,192,196736,1,4,0:0:0:0:
256,192,197007,1,8,0:0:0:0:
256,192,197142,1,0,0:0:0:0:
256,192,197277,1,8,0:0:0:0:
256,192,197412,1,8,0:0:0:0:
256,192,197547,1,0,0:0:0:0:
256,192,197817,1,12,0:0:0:0:
256,192,198223,1,12,0:0:0:0:
256,192,198493,1,0,0:0:0:0:
256,192,198628,1,8,0:0:0:0:
256,192,198763,1,4,0:0:0:0:
256,192,199034,1,0,0:0:0:0:
256,192,199169,1,12,0:0:0:0:
256,192,199439,1,8,0:0:0:0:
256,192,199574,1,0,0:0:0:0:
256,192,199709,1,8,0:0:0:0:
256,192,199979,1,8,0:0:0:0:
256,192,200115,1,0,0:0:0:0:
256,192,200250,1,8,0:0:0:0:
256,192,200520,1,8,0:0:0:0:
256,192,200790,1,0,0:0:0:0:
256,192,200925,1,4,0:0:0:0:
256,192,201196,1,0,0:0:0:0:
256,192,201331,1,8,0:0:0:0:
256,192,201601,1,8,0:0:0:0:
256,192,201736,1,0,0:0:0:0:
256,192,201871,1,8,0:0:0:0:
256,192,202142,1,4,0:0:0:0:
256,192,202344,1,4,0:0:0:0:
256,192,202547,1,4,0:0:0:0:
256,192,202682,1,8,0:0:0:0:
256,192,202952,1,0,0:0:0:0:
256,192,203223,1,4,0:0:0:0:
256,192,203763,1,8,0:0:0:0:
256,192,203966,1,8,0:0:0:0:
256,192,204169,1,0,0:0:0:0:
256,192,204304,1,8,0:0:0:0:
256,192,204507,1,8,0:0:0:0:
256,192,204709,1,0,0:0:0:0:
256,192,204844,1,8,0:0:0:0:
256,192,205047,1,8,0:0:0:0:
256,192,205250,1,0,0:0:0:0:
256,192,205385,1,8,0:0:0:0:
256,192,205655,1,0,0:0:0:0:
256,192,205790,1,8,0:0:0:0:
256,192,206061,1,0,0:0:0:0:
256,192,206196,1,8,0:0:0:0:
256,192,206466,1,0,0:0:0:0:
256,192,206601,1,8,0:0:0:0:
256,192,206871,1,0,0:0:0:0:
256,192,207007,1,8,0:0:0:0:
256,192,207142,1,0,0:0:0:0:
256,192,207277,1,8,0:0:0:0:
256,192,207412,1,8,0:0:0:0:
256,192,207547,1,12,0:0:0:0:
256,192,207750,1,12,0:0:0:0:
256,192,207952,1,0,0:0:0:0:
256,192,208358,1,0,0:0:0:0:
256,192,208628,1,12,0:0:0:0:
256,192,208831,1,12,0:0:0:0:
256,192,209034,1,8,0:0:0:0:
256,192,209439,1,0,0:0:0:0:
256,192,209709,1,12,0:0:0:0:
256,192,209912,1,12,0:0:0:0:
256,192,210115,1,0,0:0:0:0:
256,192,210520,1,8,0:0:0:0:
256,192,210655,1,0,0:0:0:0:
256,192,210790,1,12,0:0:0:0:
256,192,211061,1,12,0:0:0:0:
256,192,211331,1,8,0:0:0:0:
256,192,211466,1,0,0:0:0:0:
256,192,211601,1,8,0:0:0:0:
256,192,211871,1,12,0:0:0:0:
256,192,212074,1,12,0:0:0:0:
256,192,212277,1,0,0:0:0:0:
256,192,212682,1,0,0:0:0:0:
256,192,212952,1,12,0:0:0:0:
256,192,213155,1,12,0:0:0:0:
256,192,213358,1,8,0:0:0:0:
256,192,213763,1,0,0:0:0:0:
256,192,214034,1,12,0:0:0:0:
256,192,214304,1,0,0:0:0:0:
256,192,214439,1,12,0:0:0:0:
256,192,214709,1,0,0:0:0:0:
256,192,214844,1,12,0:0:0:0:
256,192,215115,1,0,0:0:0:0:
256,192,215250,1,12,0:0:0:0:
256,192,215520,1,0,0:0:0:0:
256,192,215655,1,8,0:0:0:0:
256,192,215790,1,0,0:0:0:0:
256,192,215925,1,8,0:0:0:0:
256,192,216061,1,8,0:0:0:0:
256,192,216196,5,4,0:0:0:0:
256,192,216601,1,8,0:0:0:0:
256,192,217007,1,0,0:0:0:0:
256,192,217412,1,8,0:0:0:0:
256,192,217682,1,0,0:0:0:0:
256,192,217817,1,8,0:0:0:0:
256,192,217952,1,0,0:0:0:0:
256,192,218223,1,8,0:0:0:0:
256,192,218290,1,8,0:0:0:0:
256,192,218358,1,8,0:0:0:0:
256,192,218763,1,0,0:0:0:0:
256,192,219169,1,8,0:0:0:0:
256,192,219574,1,8,0:0:0:0:
256,192,219844,1,0,0:0:0:0:
256,192,219979,1,8,0:0:0:0:
256,192,220115,1,0,0:0:0:0:
256,192,220385,1,8,0:0:0:0:
256,192,220452,1,8,0:0:0:0:
256,192,220520,1,8,0:0:0:0:
256,192,220790,1,0,0:0:0:0:
256,192,220925,1,8,0:0:0:0:
256,192,221196,1,0,0:0:0:0:
256,192,221331,1,8,0:0:0:0:
256,192,221601,1,0,0:0:0:0:
256,192,221736,1,8,0:0:0:0:
256,192,221871,1,0,0:0:0:0:
256,192,222007,1,8,0:0:0:0:
256,192,222142,1,8,0:0:0:0:
256,192,222277,1,0,0:0:0:0:
256,192,222547,1,8,0:0:0:0:
256,192,222682,1,12,0:0:0:0:
256,192,222952,1,0,0:0:0:0:
256,192,223088,1,12,0:0:0:0:
256,192,223358,1,8,0:0:0:0:
256,192,223493,1,12,0:0:0:0:
