osu file format v14

[General]
AudioFilename: audio.mp3
AudioLeadIn: 8
PreviewTime: 132671
Countdown: 0
SampleSet: Normal
StackLeniency: 0.7
Mode: 3
LetterboxInBreaks: 0
StoryFireInFront: 0
SpecialStyle: 0
WidescreenStoryboard: 1

[Editor]
Bookmarks: 0
DistanceSpacing: 1
BeatDivisor: 4
GridSize: 4
TimelineZoom: 2.199999

[Metadata]
Title:Spin Eternally
TitleUnicode:Spin Eternally
Artist:Camellia
ArtistUnicode:かめりあ
Creator:Benson_
Version:Extra
Source:Beat Saber
Tags:cametek kamelcamellia dubstep electrohouse hardcore breakcore instrumental video game ost4 featured artist fa electronic original sound track soundtrack かめるかめりあ LN long notes Hybrid 大箭将也 masaya ooya
BeatmapID:3584381
BeatmapSetID:1751794

[Difficulty]
HPDrainRate:8
CircleSize:6
OverallDifficulty:7
ApproachRate:5
SliderMultiplier:1.4
SliderTickRate:1

[Events]
//Background and Video events
0,0,"bg_spin.jpg",0,0
//Break Periods
//Storyboard Layer 0 (Background)
//Storyboard Layer 1 (Fail)
//Storyboard Layer 2 (Pass)
//Storyboard Layer 3 (Foreground)
//Storyboard Layer 4 (Overlay)
//Storyboard Sound Samples

[TimingPoints]
1050,270.27027027027,4,1,1,100,1,0
132941,-100,4,1,1,100,0,1
150239,-100,4,1,1,100,0,0
150509,-100,4,1,1,100,0,1
182671,-100,4,1,1,100,0,0
191320,-100,4,1,1,100,0,1
217266,-100,4,1,1,100,0,0

[HitObjects]
298,192,1050,128,0,1590:0:0:0:0:
42,192,1050,1,0,0:0:0:0:
469,192,1050,1,0,0:0:0:0:
42,192,1320,1,0,0:0:0:0:
42,192,1590,128,0,1995:0:0:0:0:
469,192,1590,1,0,0:0:0:0:
128,192,1725,128,0,1995:0:0:0:0:
213,192,1860,128,0,1995:0:0:0:0:
469,192,1860,1,0,0:0:0:0:
469,192,1995,1,0,0:0:0:0:
384,192,2063,1,0,0:0:0:0:
42,192,2131,128,0,2941:0:0:0:0:
298,192,2131,1,0,0:0:0:0:
128,192,2131,1,0,0:0:0:0:
128,192,2266,1,0,0:0:0:0:
298,192,2266,1,0,0:0:0:0:
213,192,2401,1,0,0:0:0:0:
384,192,2401,1,0,0:0:0:0:
384,192,2536,1,0,0:0:0:0:
469,192,2604,1,0,0:0:0:0:
128,192,2671,1,0,0:0:0:0:
213,192,2671,1,0,0:0:0:0:
298,192,2739,1,0,0:0:0:0:
128,192,2806,1,0,0:0:0:0:
384,192,2806,1,0,0:0:0:0:
213,192,2874,1,0,0:0:0:0:
298,192,2941,1,0,0:0:0:0:
469,192,2941,1,0,0:0:0:0:
42,192,3077,1,0,0:0:0:0:
128,192,3144,1,0,0:0:0:0:
384,192,3212,1,0,0:0:0:0:
213,192,3212,1,0,0:0:0:0:
469,192,3212,128,0,3752:0:0:0:0:
298,192,3347,1,0,0:0:0:0:
298,192,3482,1,0,0:0:0:0:
384,192,3617,1,0,0:0:0:0:
128,192,3617,1,0,0:0:0:0:
298,192,3752,1,0,0:0:0:0:
298,192,3887,1,0,0:0:0:0:
42,192,4022,1,0,0:0:0:0:
213,192,4022,1,0,0:0:0:0:
298,192,4158,1,0,0:0:0:0:
213,192,4293,1,0,0:0:0:0:
384,192,4293,1,0,0:0:0:0:
128,192,4293,128,0,4833:0:0:0:0:
42,192,4428,1,0,0:0:0:0:
469,192,4428,1,0,0:0:0:0:
469,192,4563,1,0,0:0:0:0:
298,192,4698,1,0,0:0:0:0:
42,192,4698,1,0,0:0:0:0:
469,192,4833,1,0,0:0:0:0:
213,192,4833,1,0,0:0:0:0:
469,192,4968,1,0,0:0:0:0:
128,192,4968,1,0,0:0:0:0:
298,192,5104,1,0,0:0:0:0:
213,192,5239,1,0,0:0:0:0:
128,192,5306,1,0,0:0:0:0:
469,192,5374,1,0,0:0:0:0:
298,192,5374,1,0,0:0:0:0:
42,192,5374,128,0,5914:0:0:0:0:
213,192,5509,1,0,0:0:0:0:
213,192,5644,1,0,0:0:0:0:
384,192,5779,1,0,0:0:0:0:
128,192,5779,1,0,0:0:0:0:
213,192,5914,1,0,0:0:0:0:
213,192,6049,1,0,0:0:0:0:
469,192,6185,1,0,0:0:0:0:
128,192,6185,1,0,0:0:0:0:
213,192,6320,1,0,0:0:0:0:
298,192,6455,1,0,0:0:0:0:
42,192,6455,1,0,0:0:0:0:
384,192,6455,128,0,6995:0:0:0:0:
128,192,6590,1,0,0:0:0:0:
469,192,6590,1,0,0:0:0:0:
128,192,6725,1,0,0:0:0:0:
298,192,6860,1,0,0:0:0:0:
213,192,6860,1,0,0:0:0:0:
128,192,6995,1,0,0:0:0:0:
469,192,6995,1,0,0:0:0:0:
128,192,7131,1,0,0:0:0:0:
298,192,7131,1,0,0:0:0:0:
213,192,7266,1,0,0:0:0:0:
469,192,7401,1,0,0:0:0:0:
384,192,7468,1,0,0:0:0:0:
298,192,7536,1,0,0:0:0:0:
128,192,7536,1,0,0:0:0:0:
42,192,7536,128,0,8077:0:0:0:0:
213,192,7671,1,0,0:0:0:0:
213,192,7806,1,0,0:0:0:0:
128,192,7941,1,0,0:0:0:0:
384,192,7941,1,0,0:0:0:0:
213,192,8077,1,0,0:0:0:0:
213,192,8212,1,0,0:0:0:0:
469,192,8347,1,0,0:0:0:0:
298,192,8347,1,0,0:0:0:0:
213,192,8482,1,0,0:0:0:0:
298,192,8617,1,0,0:0:0:0:
128,192,8617,1,0,0:0:0:0:
384,192,8617,128,0,9158:0:0:0:0:
469,192,8752,1,0,0:0:0:0:
42,192,8752,1,0,0:0:0:0:
42,192,8887,1,0,0:0:0:0:
213,192,9022,1,0,0:0:0:0:
469,192,9022,1,0,0:0:0:0:
42,192,9158,1,0,0:0:0:0:
298,192,9158,1,0,0:0:0:0:
42,192,9293,1,0,0:0:0:0:
384,192,9293,1,0,0:0:0:0:
213,192,9428,1,0,0:0:0:0:
298,192,9563,1,0,0:0:0:0:
384,192,9631,1,0,0:0:0:0:
213,192,9698,1,0,0:0:0:0:
42,192,9698,128,0,9968:0:0:0:0:
469,192,9698,1,0,0:0:0:0:
213,192,9833,1,0,0:0:0:0:
213,192,9968,1,0,0:0:0:0:
384,192,9968,1,0,0:0:0:0:
298,192,10104,1,0,0:0:0:0:
42,192,10104,1,0,0:0:0:0:
469,192,10104,128,0,10374:0:0:0:0:
298,192,10239,1,0,0:0:0:0:
298,192,10374,1,0,0:0:0:0:
128,192,10374,1,0,0:0:0:0:
213,192,10509,1,0,0:0:0:0:
42,192,10509,128,0,10914:0:0:0:0:
469,192,10509,128,0,10914:0:0:0:0:
213,192,10644,1,0,0:0:0:0:
298,192,10779,1,0,0:0:0:0:
298,192,10914,1,0,0:0:0:0:
213,192,11049,1,0,0:0:0:0:
42,192,11049,1,0,0:0:0:0:
42,192,11185,1,0,0:0:0:0:
213,192,11185,1,0,0:0:0:0:
213,192,11320,1,0,0:0:0:0:
42,192,11320,1,0,0:0:0:0:
42,192,11455,1,0,0:0:0:0:
213,192,11455,1,0,0:0:0:0:
213,192,11590,1,0,0:0:0:0:
42,192,11590,128,0,11725:0:0:0:0:
469,192,11590,128,0,11725:0:0:0:0:
298,192,11725,1,0,0:0:0:0:
384,192,11793,1,0,0:0:0:0:
128,192,11860,1,0,0:0:0:0:
469,192,11860,1,0,0:0:0:0:
42,192,11860,128,0,12266:0:0:0:0:
213,192,11995,1,0,0:0:0:0:
213,192,12131,1,0,0:0:0:0:
128,192,12266,1,0,0:0:0:0:
384,192,12266,1,0,0:0:0:0:
213,192,12401,1,0,0:0:0:0:
42,192,12401,1,0,0:0:0:0:
469,192,12401,1,0,0:0:0:0:
213,192,12536,1,0,0:0:0:0:
384,192,12671,1,0,0:0:0:0:
128,192,12671,1,0,0:0:0:0:
213,192,12806,1,0,0:0:0:0:
384,192,12941,1,0,0:0:0:0:
42,192,12941,1,0,0:0:0:0:
469,192,12941,128,0,13347:0:0:0:0:
298,192,13077,1,0,0:0:0:0:
128,192,13077,1,0,0:0:0:0:
298,192,13212,1,0,0:0:0:0:
128,192,13347,1,0,0:0:0:0:
384,192,13347,1,0,0:0:0:0:
42,192,13482,1,0,0:0:0:0:
298,192,13482,1,0,0:0:0:0:
469,192,13482,1,0,0:0:0:0:
298,192,13617,1,0,0:0:0:0:
128,192,13617,1,0,0:0:0:0:
213,192,13752,1,0,0:0:0:0:
298,192,13887,1,0,0:0:0:0:
384,192,13955,1,0,0:0:0:0:
42,192,14022,1,0,0:0:0:0:
213,192,14022,1,0,0:0:0:0:
469,192,14022,128,0,14428:0:0:0:0:
128,192,14158,1,0,0:0:0:0:
128,192,14293,1,0,0:0:0:0:
384,192,14428,1,0,0:0:0:0:
213,192,14428,1,0,0:0:0:0:
128,192,14563,1,0,0:0:0:0:
469,192,14563,1,0,0:0:0:0:
298,192,14563,1,0,0:0:0:0:
128,192,14698,1,0,0:0:0:0:
42,192,14833,1,0,0:0:0:0:
384,192,14833,1,0,0:0:0:0:
298,192,14968,1,0,0:0:0:0:
213,192,15104,1,0,0:0:0:0:
469,192,15104,1,0,0:0:0:0:
42,192,15104,128,0,15509:0:0:0:0:
384,192,15239,1,0,0:0:0:0:
128,192,15239,1,0,0:0:0:0:
384,192,15374,1,0,0:0:0:0:
213,192,15509,1,0,0:0:0:0:
469,192,15509,1,0,0:0:0:0:
384,192,15644,1,0,0:0:0:0:
128,192,15644,1,0,0:0:0:0:
42,192,15644,1,0,0:0:0:0:
384,192,15779,1,0,0:0:0:0:
213,192,15779,1,0,0:0:0:0:
298,192,15914,1,0,0:0:0:0:
42,192,16049,1,0,0:0:0:0:
128,192,16117,1,0,0:0:0:0:
213,192,16185,1,0,0:0:0:0:
384,192,16185,1,0,0:0:0:0:
469,192,16185,128,0,16590:0:0:0:0:
42,192,16252,1,0,0:0:0:0:
128,192,16320,1,0,0:0:0:0:
213,192,16387,1,0,0:0:0:0:
298,192,16455,1,0,0:0:0:0:
42,192,16522,1,0,0:0:0:0:
384,192,16590,1,0,0:0:0:0:
213,192,16590,1,0,0:0:0:0:
128,192,16658,1,0,0:0:0:0:
298,192,16725,1,0,0:0:0:0:
469,192,16725,1,0,0:0:0:0:
42,192,16725,1,0,0:0:0:0:
128,192,16793,1,0,0:0:0:0:
213,192,16860,1,0,0:0:0:0:
298,192,16928,1,0,0:0:0:0:
42,192,16995,1,0,0:0:0:0:
384,192,16995,1,0,0:0:0:0:
469,192,17063,1,0,0:0:0:0:
213,192,17131,1,0,0:0:0:0:
298,192,17198,1,0,0:0:0:0:
128,192,17266,1,0,0:0:0:0:
42,192,17266,128,0,17671:0:0:0:0:
384,192,17266,1,0,0:0:0:0:
213,192,17333,1,0,0:0:0:0:
298,192,17401,1,0,0:0:0:0:
469,192,17401,1,0,0:0:0:0:
384,192,17468,1,0,0:0:0:0:
213,192,17536,1,0,0:0:0:0:
469,192,17604,1,0,0:0:0:0:
384,192,17671,1,0,0:0:0:0:
128,192,17671,1,0,0:0:0:0:
298,192,17739,1,0,0:0:0:0:
469,192,17806,1,0,0:0:0:0:
213,192,17806,1,0,0:0:0:0:
42,192,17806,1,0,0:0:0:0:
128,192,17874,1,0,0:0:0:0:
298,192,17941,5,0,0:0:0:0:
469,192,17941,1,0,0:0:0:0:
213,192,18009,5,0,0:0:0:0:
128,192,18077,5,0,0:0:0:0:
384,192,18077,1,0,0:0:0:0:
42,192,18144,1,0,0:0:0:0:
298,192,18144,1,0,0:0:0:0:
469,192,18212,1,0,0:0:0:0:
213,192,18212,128,0,18347:0:0:0:0:
384,192,18279,1,0,0:0:0:0:
128,192,18279,128,0,18347:0:0:0:0:
298,192,18347,1,0,0:0:0:0:
42,192,18347,128,0,18617:0:0:0:0:
469,192,18347,1,0,0:0:0:0:
298,192,18482,1,0,0:0:0:0:
298,192,18617,1,0,0:0:0:0:
213,192,18752,1,0,0:0:0:0:
42,192,18752,1,0,0:0:0:0:
469,192,18752,128,0,19022:0:0:0:0:
213,192,18887,1,0,0:0:0:0:
213,192,19022,1,0,0:0:0:0:
384,192,19022,1,0,0:0:0:0:
128,192,19022,1,0,0:0:0:0:
128,192,19158,128,0,19968:0:0:0:0:
469,192,19158,128,0,19698:0:0:0:0:
298,192,19158,128,0,19698:0:0:0:0:
42,192,19158,128,0,19968:0:0:0:0:
384,192,19968,1,0,0:0:0:0:
298,192,20239,1,0,0:0:0:0:
384,192,20509,1,0,0:0:0:0:
42,192,20509,1,0,0:0:0:0:
469,192,20509,1,0,0:0:0:0:
128,192,20577,1,0,0:0:0:0:
213,192,20644,1,0,0:0:0:0:
298,192,20712,1,0,0:0:0:0:
384,192,20779,1,0,0:0:0:0:
298,192,20847,1,0,0:0:0:0:
213,192,20914,1,0,0:0:0:0:
128,192,20982,1,0,0:0:0:0:
213,192,21049,1,0,0:0:0:0:
298,192,21117,1,0,0:0:0:0:
384,192,21185,1,0,0:0:0:0:
469,192,21252,1,0,0:0:0:0:
384,192,21320,1,0,0:0:0:0:
298,192,21387,1,0,0:0:0:0:
213,192,21455,1,0,0:0:0:0:
128,192,21522,1,0,0:0:0:0:
42,192,21590,1,0,0:0:0:0:
469,192,21590,1,0,0:0:0:0:
384,192,21590,1,0,0:0:0:0:
298,192,21658,1,0,0:0:0:0:
213,192,21725,1,0,0:0:0:0:
128,192,21793,1,0,0:0:0:0:
42,192,21860,1,0,0:0:0:0:
128,192,21928,1,0,0:0:0:0:
213,192,21995,1,0,0:0:0:0:
298,192,22063,1,0,0:0:0:0:
384,192,22131,1,0,0:0:0:0:
298,192,22198,1,0,0:0:0:0:
42,192,22266,1,0,0:0:0:0:
213,192,22266,1,0,0:0:0:0:
469,192,22266,1,0,0:0:0:0:
298,192,22468,1,0,0:0:0:0:
384,192,22468,1,0,0:0:0:0:
128,192,22468,1,0,0:0:0:0:
42,192,22671,1,0,0:0:0:0:
213,192,22671,1,0,0:0:0:0:
469,192,22671,1,0,0:0:0:0:
128,192,22806,1,0,0:0:0:0:
213,192,22874,1,0,0:0:0:0:
384,192,22941,1,0,0:0:0:0:
298,192,23009,1,0,0:0:0:0:
213,192,23077,1,0,0:0:0:0:
128,192,23077,1,0,0:0:0:0:
469,192,23144,1,0,0:0:0:0:
384,192,23144,1,0,0:0:0:0:
42,192,23212,1,0,0:0:0:0:
128,192,23212,1,0,0:0:0:0:
298,192,23347,1,0,0:0:0:0:
384,192,23347,1,0,0:0:0:0:
128,192,23414,1,0,0:0:0:0:
213,192,23414,1,0,0:0:0:0:
384,192,23482,1,0,0:0:0:0:
469,192,23482,1,0,0:0:0:0:
298,192,23549,1,0,0:0:0:0:
213,192,23617,1,0,0:0:0:0:
42,192,23617,1,0,0:0:0:0:
128,192,23617,1,0,0:0:0:0:
384,192,23685,1,0,0:0:0:0:
128,192,23752,1,0,0:0:0:0:
469,192,23887,1,0,0:0:0:0:
298,192,23887,1,0,0:0:0:0:
384,192,23887,1,0,0:0:0:0:
128,192,23955,1,0,0:0:0:0:
384,192,24022,1,0,0:0:0:0:
213,192,24090,1,0,0:0:0:0:
128,192,24158,1,0,0:0:0:0:
42,192,24158,1,0,0:0:0:0:
298,192,24225,1,0,0:0:0:0:
384,192,24225,1,0,0:0:0:0:
128,192,24293,1,0,0:0:0:0:
42,192,24293,1,0,0:0:0:0:
469,192,24428,1,0,0:0:0:0:
384,192,24428,1,0,0:0:0:0:
213,192,24495,1,0,0:0:0:0:
128,192,24495,1,0,0:0:0:0:
384,192,24563,1,0,0:0:0:0:
469,192,24563,1,0,0:0:0:0:
298,192,24597,1,0,0:0:0:0:
213,192,24631,1,0,0:0:0:0:
128,192,24698,1,0,0:0:0:0:
42,192,24698,1,0,0:0:0:0:
384,192,24766,1,0,0:0:0:0:
213,192,24833,1,0,0:0:0:0:
298,192,24833,1,0,0:0:0:0:
42,192,24833,1,0,0:0:0:0:
469,192,24901,1,0,0:0:0:0:
384,192,24901,1,0,0:0:0:0:
213,192,24968,1,0,0:0:0:0:
42,192,24968,1,0,0:0:0:0:
469,192,25036,1,0,0:0:0:0:
384,192,25036,1,0,0:0:0:0:
128,192,25104,1,0,0:0:0:0:
298,192,25374,1,0,0:0:0:0:
213,192,25374,1,0,0:0:0:0:
469,192,25374,1,0,0:0:0:0:
42,192,25441,1,0,0:0:0:0:
128,192,25441,1,0,0:0:0:0:
298,192,25509,1,0,0:0:0:0:
469,192,25509,1,0,0:0:0:0:
42,192,25577,1,0,0:0:0:0:
128,192,25577,1,0,0:0:0:0:
469,192,25644,128,0,25779:0:0:0:0:
384,192,25678,128,0,25779:0:0:0:0:
298,192,25779,128,0,25914:0:0:0:0:
128,192,25779,128,0,25847:0:0:0:0:
42,192,25914,1,0,0:0:0:0:
128,192,25914,1,0,0:0:0:0:
213,192,25914,1,0,0:0:0:0:
298,192,25982,1,0,0:0:0:0:
469,192,25982,1,0,0:0:0:0:
128,192,26049,1,0,0:0:0:0:
42,192,26049,1,0,0:0:0:0:
298,192,26117,1,0,0:0:0:0:
469,192,26117,1,0,0:0:0:0:
213,192,26185,128,0,26320:0:0:0:0:
384,192,26455,1,0,0:0:0:0:
469,192,26455,1,0,0:0:0:0:
298,192,26455,1,0,0:0:0:0:
42,192,26522,1,0,0:0:0:0:
213,192,26522,1,0,0:0:0:0:
469,192,26590,1,0,0:0:0:0:
384,192,26590,1,0,0:0:0:0:
213,192,26658,1,0,0:0:0:0:
42,192,26658,1,0,0:0:0:0:
298,192,26725,128,0,26995:0:0:0:0:
42,192,26860,128,0,26995:0:0:0:0:
213,192,26995,1,0,0:0:0:0:
384,192,26995,1,0,0:0:0:0:
469,192,26995,1,0,0:0:0:0:
42,192,27063,1,0,0:0:0:0:
128,192,27131,1,0,0:0:0:0:
469,192,27131,1,0,0:0:0:0:
213,192,27198,1,0,0:0:0:0:
128,192,27266,1,0,0:0:0:0:
42,192,27266,1,0,0:0:0:0:
298,192,27266,1,0,0:0:0:0:
469,192,27333,1,0,0:0:0:0:
384,192,27401,1,0,0:0:0:0:
42,192,27401,1,0,0:0:0:0:
298,192,27468,1,0,0:0:0:0:
469,192,27536,1,0,0:0:0:0:
384,192,27536,1,0,0:0:0:0:
213,192,27536,1,0,0:0:0:0:
42,192,27604,1,0,0:0:0:0:
128,192,27671,1,0,0:0:0:0:
469,192,27671,1,0,0:0:0:0:
213,192,27739,1,0,0:0:0:0:
42,192,27806,1,0,0:0:0:0:
298,192,27806,1,0,0:0:0:0:
128,192,27806,1,0,0:0:0:0:
384,192,27874,1,0,0:0:0:0:
298,192,27941,1,0,0:0:0:0:
42,192,27941,1,0,0:0:0:0:
213,192,28009,1,0,0:0:0:0:
384,192,28077,1,0,0:0:0:0:
469,192,28077,1,0,0:0:0:0:
298,192,28077,1,0,0:0:0:0:
128,192,28144,1,0,0:0:0:0:
42,192,28144,1,0,0:0:0:0:
384,192,28212,1,0,0:0:0:0:
469,192,28212,1,0,0:0:0:0:
213,192,28212,1,0,0:0:0:0:
128,192,28279,1,0,0:0:0:0:
42,192,28279,1,0,0:0:0:0:
384,192,28347,1,0,0:0:0:0:
469,192,28347,1,0,0:0:0:0:
298,192,28347,1,0,0:0:0:0:
42,192,28414,1,0,0:0:0:0:
128,192,28414,1,0,0:0:0:0:
384,192,28482,1,0,0:0:0:0:
469,192,28482,1,0,0:0:0:0:
213,192,28482,1,0,0:0:0:0:
128,192,28549,1,0,0:0:0:0:
42,192,28549,1,0,0:0:0:0:
469,192,28617,128,0,28685:0:0:0:0:
213,192,28617,128,0,28685:0:0:0:0:
384,192,28685,128,0,28752:0:0:0:0:
128,192,28685,128,0,28752:0:0:0:0:
298,192,28752,128,0,28820:0:0:0:0:
42,192,28752,128,0,28820:0:0:0:0:
469,192,28820,128,0,28887:0:0:0:0:
213,192,28820,128,0,28887:0:0:0:0:
128,192,28887,128,0,28955:0:0:0:0:
384,192,28887,128,0,28955:0:0:0:0:
469,192,28955,128,0,29022:0:0:0:0:
213,192,28955,128,0,29022:0:0:0:0:
298,192,29022,128,0,29090:0:0:0:0:
42,192,29022,128,0,29090:0:0:0:0:
384,192,29090,128,0,29158:0:0:0:0:
128,192,29090,128,0,29158:0:0:0:0:
469,192,29158,1,0,0:0:0:0:
213,192,29158,1,0,0:0:0:0:
298,192,29225,1,0,0:0:0:0:
213,192,29293,1,0,0:0:0:0:
128,192,29360,1,0,0:0:0:0:
384,192,29428,1,0,0:0:0:0:
42,192,29428,1,0,0:0:0:0:
298,192,29518,1,0,0:0:0:0:
213,192,29608,1,0,0:0:0:0:
384,192,29698,1,0,0:0:0:0:
42,192,29698,1,0,0:0:0:0:
384,192,29833,1,0,0:0:0:0:
213,192,29968,1,0,0:0:0:0:
42,192,29968,1,0,0:0:0:0:
213,192,30104,1,0,0:0:0:0:
469,192,30239,1,0,0:0:0:0:
298,192,30239,128,0,30374:0:0:0:0:
128,192,30239,1,0,0:0:0:0:
469,192,30374,1,0,0:0:0:0:
42,192,30374,1,0,0:0:0:0:
469,192,30509,1,0,0:0:0:0:
298,192,30509,128,0,30644:0:0:0:0:
128,192,30509,1,0,0:0:0:0:
469,192,30644,1,0,0:0:0:0:
213,192,30644,1,0,0:0:0:0:
298,192,30779,128,0,30914:0:0:0:0:
469,192,30779,128,0,30914:0:0:0:0:
42,192,30779,1,0,0:0:0:0:
128,192,30914,1,0,0:0:0:0:
213,192,31049,1,0,0:0:0:0:
213,192,31185,128,0,31320:0:0:0:0:
42,192,31320,128,0,31522:0:0:0:0:
128,192,31320,128,0,31522:0:0:0:0:
298,192,31320,128,0,31522:0:0:0:0:
469,192,31320,128,0,31522:0:0:0:0:
384,192,31590,128,0,31793:0:0:0:0:
298,192,31590,1,0,0:0:0:0:
213,192,31725,1,0,0:0:0:0:
384,192,31860,128,0,32063:0:0:0:0:
42,192,31860,1,0,0:0:0:0:
128,192,31860,1,0,0:0:0:0:
213,192,31995,1,0,0:0:0:0:
384,192,32131,128,0,32333:0:0:0:0:
298,192,32131,1,0,0:0:0:0:
213,192,32266,1,0,0:0:0:0:
384,192,32401,128,0,32604:0:0:0:0:
469,192,32401,1,0,0:0:0:0:
128,192,32401,1,0,0:0:0:0:
213,192,32536,1,0,0:0:0:0:
384,192,32671,128,0,32874:0:0:0:0:
298,192,32671,1,0,0:0:0:0:
213,192,32806,1,0,0:0:0:0:
384,192,32941,128,0,33144:0:0:0:0:
128,192,32941,1,0,0:0:0:0:
42,192,32941,1,0,0:0:0:0:
213,192,33077,1,0,0:0:0:0:
469,192,33212,1,0,0:0:0:0:
298,192,33212,1,0,0:0:0:0:
213,192,33347,1,0,0:0:0:0:
42,192,33347,1,0,0:0:0:0:
469,192,33482,128,0,33685:0:0:0:0:
384,192,33482,128,0,33685:0:0:0:0:
213,192,33482,128,0,33685:0:0:0:0:
42,192,33482,128,0,33685:0:0:0:0:
128,192,33752,128,0,33955:0:0:0:0:
213,192,33752,1,0,0:0:0:0:
298,192,33887,1,0,0:0:0:0:
128,192,34022,128,0,34225:0:0:0:0:
469,192,34022,1,0,0:0:0:0:
384,192,34022,1,0,0:0:0:0:
298,192,34158,1,0,0:0:0:0:
128,192,34293,128,0,34495:0:0:0:0:
213,192,34293,1,0,0:0:0:0:
298,192,34428,1,0,0:0:0:0:
128,192,34563,128,0,34766:0:0:0:0:
42,192,34563,1,0,0:0:0:0:
384,192,34563,1,0,0:0:0:0:
298,192,34698,1,0,0:0:0:0:
213,192,34833,1,0,0:0:0:0:
42,192,34833,1,0,0:0:0:0:
213,192,34968,1,0,0:0:0:0:
42,192,34968,1,0,0:0:0:0:
213,192,35104,1,0,0:0:0:0:
384,192,35104,1,0,0:0:0:0:
469,192,35104,1,0,0:0:0:0:
42,192,35104,1,0,0:0:0:0:
213,192,35239,1,0,0:0:0:0:
42,192,35239,1,0,0:0:0:0:
128,192,35374,128,0,35577:0:0:0:0:
384,192,35374,128,0,35577:0:0:0:0:
42,192,35644,128,0,35847:0:0:0:0:
213,192,35644,128,0,35847:0:0:0:0:
298,192,35644,128,0,35847:0:0:0:0:
469,192,35644,128,0,35847:0:0:0:0:
298,192,35914,1,0,0:0:0:0:
384,192,35914,128,0,36117:0:0:0:0:
213,192,36049,1,0,0:0:0:0:
128,192,36185,1,0,0:0:0:0:
42,192,36185,1,0,0:0:0:0:
384,192,36185,128,0,36387:0:0:0:0:
213,192,36320,1,0,0:0:0:0:
298,192,36455,1,0,0:0:0:0:
384,192,36455,128,0,36658:0:0:0:0:
213,192,36590,1,0,0:0:0:0:
128,192,36725,1,0,0:0:0:0:
469,192,36725,1,0,0:0:0:0:
384,192,36725,128,0,36928:0:0:0:0:
213,192,36860,1,0,0:0:0:0:
384,192,36995,128,0,37198:0:0:0:0:
298,192,36995,1,0,0:0:0:0:
213,192,37131,1,0,0:0:0:0:
384,192,37266,128,0,37468:0:0:0:0:
128,192,37266,1,0,0:0:0:0:
42,192,37266,1,0,0:0:0:0:
213,192,37401,1,0,0:0:0:0:
298,192,37536,1,0,0:0:0:0:
42,192,37536,1,0,0:0:0:0:
128,192,37671,1,0,0:0:0:0:
384,192,37671,1,0,0:0:0:0:
469,192,37806,128,0,38009:0:0:0:0:
384,192,37806,128,0,38009:0:0:0:0:
128,192,37806,128,0,38009:0:0:0:0:
42,192,37806,128,0,38009:0:0:0:0:
298,192,38077,1,0,0:0:0:0:
469,192,38077,1,0,0:0:0:0:
469,192,38212,1,0,0:0:0:0:
298,192,38212,1,0,0:0:0:0:
42,192,38347,1,0,0:0:0:0:
128,192,38347,1,0,0:0:0:0:
298,192,38347,1,0,0:0:0:0:
469,192,38347,1,0,0:0:0:0:
469,192,38482,1,0,0:0:0:0:
298,192,38482,1,0,0:0:0:0:
128,192,38617,128,0,38820:0:0:0:0:
298,192,38617,128,0,38820:0:0:0:0:
384,192,38617,128,0,38820:0:0:0:0:
128,192,38887,1,0,0:0:0:0:
42,192,38887,1,0,0:0:0:0:
469,192,38887,1,0,0:0:0:0:
384,192,38955,1,0,0:0:0:0:
298,192,38955,1,0,0:0:0:0:
128,192,39022,1,0,0:0:0:0:
213,192,39022,1,0,0:0:0:0:
384,192,39090,1,0,0:0:0:0:
469,192,39090,1,0,0:0:0:0:
298,192,39158,1,0,0:0:0:0:
213,192,39158,1,0,0:0:0:0:
128,192,39293,1,0,0:0:0:0:
213,192,39360,1,0,0:0:0:0:
298,192,39428,1,0,0:0:0:0:
384,192,39495,1,0,0:0:0:0:
469,192,39563,1,0,0:0:0:0:
213,192,39563,1,0,0:0:0:0:
128,192,39631,1,0,0:0:0:0:
384,192,39631,1,0,0:0:0:0:
298,192,39698,1,0,0:0:0:0:
469,192,39698,1,0,0:0:0:0:
42,192,39698,1,0,0:0:0:0:
213,192,39833,1,0,0:0:0:0:
298,192,39901,1,0,0:0:0:0:
128,192,39968,128,0,40171:0:0:0:0:
42,192,39968,128,0,40171:0:0:0:0:
384,192,39968,128,0,40171:0:0:0:0:
469,192,39968,128,0,40171:0:0:0:0:
469,192,40239,128,0,40306:0:0:0:0:
298,192,40239,1,0,0:0:0:0:
42,192,40239,1,0,0:0:0:0:
469,192,40374,128,0,40441:0:0:0:0:
128,192,40374,1,0,0:0:0:0:
469,192,40509,128,0,40644:0:0:0:0:
298,192,40509,1,0,0:0:0:0:
213,192,40509,1,0,0:0:0:0:
128,192,40644,1,0,0:0:0:0:
469,192,40779,128,0,40914:0:0:0:0:
298,192,40779,1,0,0:0:0:0:
42,192,40779,1,0,0:0:0:0:
128,192,40914,1,0,0:0:0:0:
469,192,41049,128,0,41185:0:0:0:0:
298,192,41049,1,0,0:0:0:0:
213,192,41049,1,0,0:0:0:0:
42,192,41185,1,0,0:0:0:0:
469,192,41320,128,0,41455:0:0:0:0:
298,192,41320,1,0,0:0:0:0:
128,192,41320,1,0,0:0:0:0:
213,192,41455,1,0,0:0:0:0:
469,192,41590,128,0,41725:0:0:0:0:
298,192,41590,1,0,0:0:0:0:
128,192,41590,1,0,0:0:0:0:
42,192,41725,1,0,0:0:0:0:
469,192,41860,128,0,41995:0:0:0:0:
298,192,41860,1,0,0:0:0:0:
128,192,41860,1,0,0:0:0:0:
213,192,41995,1,0,0:0:0:0:
384,192,42131,1,0,0:0:0:0:
469,192,42131,1,0,0:0:0:0:
128,192,42131,128,0,42333:0:0:0:0:
42,192,42131,128,0,42333:0:0:0:0:
384,192,42266,1,0,0:0:0:0:
298,192,42266,1,0,0:0:0:0:
469,192,42401,1,0,0:0:0:0:
42,192,42401,128,0,42468:0:0:0:0:
213,192,42401,1,0,0:0:0:0:
42,192,42536,128,0,42604:0:0:0:0:
384,192,42536,1,0,0:0:0:0:
42,192,42671,128,0,42806:0:0:0:0:
213,192,42671,1,0,0:0:0:0:
298,192,42671,1,0,0:0:0:0:
384,192,42806,1,0,0:0:0:0:
213,192,42941,1,0,0:0:0:0:
42,192,42941,128,0,43077:0:0:0:0:
469,192,42941,1,0,0:0:0:0:
384,192,43077,1,0,0:0:0:0:
42,192,43212,128,0,43279:0:0:0:0:
213,192,43212,1,0,0:0:0:0:
298,192,43212,1,0,0:0:0:0:
42,192,43347,128,0,43414:0:0:0:0:
298,192,43347,1,0,0:0:0:0:
384,192,43414,1,0,0:0:0:0:
42,192,43482,128,0,43549:0:0:0:0:
213,192,43482,1,0,0:0:0:0:
469,192,43482,1,0,0:0:0:0:
128,192,43617,1,0,0:0:0:0:
384,192,43685,1,0,0:0:0:0:
128,192,43752,1,0,0:0:0:0:
298,192,43752,1,0,0:0:0:0:
384,192,43820,1,0,0:0:0:0:
128,192,43887,1,0,0:0:0:0:
384,192,43955,1,0,0:0:0:0:
42,192,44022,1,0,0:0:0:0:
469,192,44022,1,0,0:0:0:0:
213,192,44022,128,0,44225:0:0:0:0:
42,192,44158,1,0,0:0:0:0:
42,192,44293,128,0,44563:0:0:0:0:
213,192,44293,128,0,44563:0:0:0:0:
298,192,44293,128,0,44428:0:0:0:0:
469,192,44293,128,0,44428:0:0:0:0:
384,192,44563,128,0,44833:0:0:0:0:
469,192,44563,128,0,44833:0:0:0:0:
128,192,44833,1,0,0:0:0:0:
42,192,44833,1,0,0:0:0:0:
298,192,44833,1,0,0:0:0:0:
213,192,45036,1,0,0:0:0:0:
128,192,45036,1,0,0:0:0:0:
384,192,45036,1,0,0:0:0:0:
384,192,45239,1,0,0:0:0:0:
469,192,45239,1,0,0:0:0:0:
213,192,45239,1,0,0:0:0:0:
128,192,45306,1,0,0:0:0:0:
42,192,45306,1,0,0:0:0:0:
298,192,45374,1,0,0:0:0:0:
384,192,45374,1,0,0:0:0:0:
469,192,45374,1,0,0:0:0:0:
384,192,45577,1,0,0:0:0:0:
298,192,45577,1,0,0:0:0:0:
213,192,45577,1,0,0:0:0:0:
298,192,45779,1,0,0:0:0:0:
42,192,45779,1,0,0:0:0:0:
128,192,45779,1,0,0:0:0:0:
384,192,45847,1,0,0:0:0:0:
469,192,45847,1,0,0:0:0:0:
213,192,45914,1,0,0:0:0:0:
128,192,45914,1,0,0:0:0:0:
42,192,45914,1,0,0:0:0:0:
469,192,45982,1,0,0:0:0:0:
384,192,46049,1,0,0:0:0:0:
298,192,46117,1,0,0:0:0:0:
213,192,46117,1,0,0:0:0:0:
42,192,46117,1,0,0:0:0:0:
384,192,46185,1,0,0:0:0:0:
469,192,46252,1,0,0:0:0:0:
213,192,46320,1,0,0:0:0:0:
42,192,46320,1,0,0:0:0:0:
128,192,46320,1,0,0:0:0:0:
384,192,46387,1,0,0:0:0:0:
298,192,46387,1,0,0:0:0:0:
469,192,46455,1,0,0:0:0:0:
42,192,46455,128,0,46725:0:0:0:0:
128,192,46455,128,0,46590:0:0:0:0:
213,192,46522,1,0,0:0:0:0:
384,192,46590,1,0,0:0:0:0:
128,192,46658,1,0,0:0:0:0:
298,192,46725,1,0,0:0:0:0:
213,192,46793,1,0,0:0:0:0:
42,192,46860,1,0,0:0:0:0:
469,192,46860,128,0,47131:0:0:0:0:
384,192,46860,128,0,46995:0:0:0:0:
298,192,46928,1,0,0:0:0:0:
128,192,46995,1,0,0:0:0:0:
384,192,47063,1,0,0:0:0:0:
213,192,47131,1,0,0:0:0:0:
298,192,47198,1,0,0:0:0:0:
42,192,47266,128,0,47536:0:0:0:0:
469,192,47266,1,0,0:0:0:0:
128,192,47266,128,0,47401:0:0:0:0:
213,192,47333,1,0,0:0:0:0:
384,192,47401,1,0,0:0:0:0:
128,192,47468,1,0,0:0:0:0:
298,192,47536,1,0,0:0:0:0:
213,192,47604,1,0,0:0:0:0:
469,192,47671,128,0,47941:0:0:0:0:
42,192,47671,1,0,0:0:0:0:
384,192,47671,128,0,47806:0:0:0:0:
298,192,47739,1,0,0:0:0:0:
128,192,47806,1,0,0:0:0:0:
384,192,47874,1,0,0:0:0:0:
213,192,47941,1,0,0:0:0:0:
469,192,48009,1,0,0:0:0:0:
128,192,48077,128,0,48212:0:0:0:0:
128,192,48347,128,0,48617:0:0:0:0:
42,192,48617,128,0,49022:0:0:0:0:
213,192,48617,128,0,48820:0:0:0:0:
384,192,48617,128,0,48820:0:0:0:0:
469,192,48617,128,0,49022:0:0:0:0:
128,192,48820,128,0,49022:0:0:0:0:
213,192,48887,128,0,49022:0:0:0:0:
384,192,49022,1,0,0:0:0:0:
42,192,49158,128,0,49360:0:0:0:0:
298,192,49158,128,0,49293:0:0:0:0:
469,192,49158,128,0,49293:0:0:0:0:
128,192,49225,128,0,49360:0:0:0:0:
213,192,49293,128,0,49360:0:0:0:0:
384,192,49293,1,0,0:0:0:0:
298,192,49360,1,0,0:0:0:0:
469,192,49428,128,0,49631:0:0:0:0:
213,192,49428,128,0,49563:0:0:0:0:
42,192,49428,128,0,49563:0:0:0:0:
384,192,49495,128,0,49631:0:0:0:0:
298,192,49563,128,0,49631:0:0:0:0:
128,192,49563,1,0,0:0:0:0:
42,192,49698,1,0,0:0:0:0:
469,192,49698,128,0,49788:0:0:0:0:
213,192,49698,1,0,0:0:0:0:
384,192,49743,128,0,49833:0:0:0:0:
298,192,49788,128,0,49878:0:0:0:0:
128,192,49833,128,0,49968:0:0:0:0:
298,192,49968,1,0,0:0:0:0:
469,192,49968,128,0,50239:0:0:0:0:
298,192,50104,1,0,0:0:0:0:
213,192,50239,128,0,50712:0:0:0:0:
384,192,50239,128,0,50712:0:0:0:0:
42,192,50239,128,0,50712:0:0:0:0:
42,192,50779,128,0,51185:0:0:0:0:
213,192,50779,128,0,50982:0:0:0:0:
469,192,50779,128,0,50982:0:0:0:0:
384,192,50779,128,0,50982:0:0:0:0:
128,192,50982,128,0,51185:0:0:0:0:
213,192,51049,128,0,51185:0:0:0:0:
384,192,51185,1,0,0:0:0:0:
128,192,51320,128,0,51387:0:0:0:0:
469,192,51320,1,0,0:0:0:0:
213,192,51320,1,0,0:0:0:0:
384,192,51387,128,0,51455:0:0:0:0:
128,192,51455,128,0,51522:0:0:0:0:
384,192,51522,128,0,51590:0:0:0:0:
42,192,51590,128,0,51658:0:0:0:0:
298,192,51658,128,0,51725:0:0:0:0:
42,192,51725,128,0,51793:0:0:0:0:
298,192,51793,128,0,51860:0:0:0:0:
469,192,51860,1,0,0:0:0:0:
128,192,51860,1,0,0:0:0:0:
384,192,51860,1,0,0:0:0:0:
128,192,51995,128,0,52198:0:0:0:0:
298,192,51995,128,0,52198:0:0:0:0:
128,192,52266,1,0,0:0:0:0:
298,192,52266,1,0,0:0:0:0:
42,192,52401,1,0,0:0:0:0:
384,192,52401,128,0,52570:0:0:0:0:
469,192,52401,128,0,52604:0:0:0:0:
298,192,52401,128,0,52536:0:0:0:0:
298,192,52671,128,0,52806:0:0:0:0:
213,192,52671,128,0,52840:0:0:0:0:
128,192,52671,128,0,52874:0:0:0:0:
469,192,52941,128,0,53347:0:0:0:0:
298,192,52941,128,0,53144:0:0:0:0:
128,192,52941,128,0,53144:0:0:0:0:
42,192,52941,128,0,53144:0:0:0:0:
384,192,53144,128,0,53347:0:0:0:0:
298,192,53212,128,0,53347:0:0:0:0:
128,192,53347,1,0,0:0:0:0:
469,192,53482,128,0,53685:0:0:0:0:
213,192,53482,128,0,53617:0:0:0:0:
42,192,53482,128,0,53617:0:0:0:0:
384,192,53549,128,0,53685:0:0:0:0:
298,192,53617,128,0,53685:0:0:0:0:
128,192,53617,1,0,0:0:0:0:
213,192,53685,1,0,0:0:0:0:
42,192,53752,128,0,53955:0:0:0:0:
298,192,53752,128,0,53887:0:0:0:0:
469,192,53752,128,0,53887:0:0:0:0:
128,192,53820,128,0,53955:0:0:0:0:
213,192,53887,128,0,53955:0:0:0:0:
384,192,53887,1,0,0:0:0:0:
469,192,54022,1,0,0:0:0:0:
42,192,54022,128,0,54113:0:0:0:0:
298,192,54022,1,0,0:0:0:0:
128,192,54068,128,0,54158:0:0:0:0:
213,192,54113,128,0,54203:0:0:0:0:
384,192,54158,128,0,54293:0:0:0:0:
213,192,54293,1,0,0:0:0:0:
42,192,54293,128,0,54563:0:0:0:0:
213,192,54428,1,0,0:0:0:0:
469,192,54563,128,0,55036:0:0:0:0:
298,192,54563,128,0,54631:0:0:0:0:
128,192,54563,1,0,0:0:0:0:
42,192,54631,128,0,54698:0:0:0:0:
298,192,54698,128,0,54766:0:0:0:0:
42,192,54766,128,0,54833:0:0:0:0:
384,192,54833,128,0,54901:0:0:0:0:
128,192,54901,128,0,54968:0:0:0:0:
384,192,54968,128,0,55036:0:0:0:0:
128,192,55036,128,0,55104:0:0:0:0:
298,192,55104,128,0,55306:0:0:0:0:
213,192,55104,128,0,55306:0:0:0:0:
469,192,55104,128,0,55509:0:0:0:0:
42,192,55104,128,0,55306:0:0:0:0:
384,192,55306,128,0,55509:0:0:0:0:
298,192,55374,128,0,55509:0:0:0:0:
128,192,55509,1,0,0:0:0:0:
469,192,55644,5,0,0:0:0:0:
298,192,55644,1,0,0:0:0:0:
42,192,55644,1,0,0:0:0:0:
384,192,55734,1,0,0:0:0:0:
213,192,55734,1,0,0:0:0:0:
128,192,55824,1,0,0:0:0:0:
298,192,55824,1,0,0:0:0:0:
42,192,55914,1,0,0:0:0:0:
213,192,55914,1,0,0:0:0:0:
469,192,55914,1,0,0:0:0:0:
298,192,56004,1,0,0:0:0:0:
128,192,56004,1,0,0:0:0:0:
213,192,56095,1,0,0:0:0:0:
384,192,56095,1,0,0:0:0:0:
469,192,56185,1,0,0:0:0:0:
298,192,56185,1,0,0:0:0:0:
42,192,56185,128,0,57131:0:0:0:0:
469,192,56455,128,0,57131:0:0:0:0:
298,192,56725,1,0,0:0:0:0:
298,192,56860,1,0,0:0:0:0:
298,192,56995,128,0,57131:0:0:0:0:
469,192,57266,128,0,58077:0:0:0:0:
42,192,57266,1,0,0:0:0:0:
298,192,57266,1,0,0:0:0:0:
128,192,57401,128,0,57739:0:0:0:0:
384,192,57401,128,0,57806:0:0:0:0:
213,192,57536,128,0,57739:0:0:0:0:
42,192,57739,128,0,58077:0:0:0:0:
298,192,57806,128,0,57941:0:0:0:0:
213,192,57941,128,0,58077:0:0:0:0:
128,192,58077,128,0,58212:0:0:0:0:
42,192,58212,128,0,58347:0:0:0:0:
298,192,58212,1,0,0:0:0:0:
384,192,58279,1,0,0:0:0:0:
213,192,58347,1,0,0:0:0:0:
128,192,58347,1,0,0:0:0:0:
469,192,58347,1,0,0:0:0:0:
213,192,58482,1,0,0:0:0:0:
384,192,58617,1,0,0:0:0:0:
384,192,58685,1,0,0:0:0:0:
128,192,58752,1,0,0:0:0:0:
213,192,58797,1,0,0:0:0:0:
298,192,58887,1,0,0:0:0:0:
213,192,59022,1,0,0:0:0:0:
213,192,59090,1,0,0:0:0:0:
298,192,59158,1,0,0:0:0:0:
42,192,59158,1,0,0:0:0:0:
469,192,59158,1,0,0:0:0:0:
128,192,59293,1,0,0:0:0:0:
298,192,59293,1,0,0:0:0:0:
42,192,59428,128,0,59698:0:0:0:0:
469,192,59428,128,0,59698:0:0:0:0:
384,192,59428,128,0,59968:0:0:0:0:
128,192,59563,128,0,59698:0:0:0:0:
213,192,59698,128,0,59833:0:0:0:0:
298,192,59833,128,0,60374:0:0:0:0:
42,192,59833,128,0,60104:0:0:0:0:
469,192,59833,128,0,60104:0:0:0:0:
128,192,59968,128,0,60104:0:0:0:0:
384,192,60104,128,0,60239:0:0:0:0:
469,192,60239,128,0,60509:0:0:0:0:
213,192,60239,128,0,60779:0:0:0:0:
42,192,60239,128,0,60509:0:0:0:0:
128,192,60374,128,0,60509:0:0:0:0:
298,192,60509,128,0,60644:0:0:0:0:
128,192,60644,128,0,61185:0:0:0:0:
469,192,60644,128,0,60914:0:0:0:0:
42,192,60644,128,0,60914:0:0:0:0:
384,192,60779,128,0,60914:0:0:0:0:
213,192,60914,128,0,61049:0:0:0:0:
298,192,61049,128,0,61185:0:0:0:0:
42,192,61049,128,0,61320:0:0:0:0:
469,192,61049,128,0,61185:0:0:0:0:
384,192,61185,128,0,61320:0:0:0:0:
298,192,61320,128,0,61590:0:0:0:0:
469,192,61320,128,0,61455:0:0:0:0:
128,192,61320,128,0,61455:0:0:0:0:
213,192,61455,128,0,61590:0:0:0:0:
469,192,61590,128,0,62401:0:0:0:0:
128,192,61590,128,0,61995:0:0:0:0:
42,192,61590,128,0,62266:0:0:0:0:
384,192,61590,128,0,62401:0:0:0:0:
298,192,61725,128,0,62131:0:0:0:0:
213,192,62131,128,0,62401:0:0:0:0:
128,192,62401,128,0,62536:0:0:0:0:
298,192,62536,1,0,0:0:0:0:
213,192,62604,1,0,0:0:0:0:
469,192,62671,1,0,0:0:0:0:
384,192,62671,1,0,0:0:0:0:
42,192,62739,1,0,0:0:0:0:
128,192,62739,1,0,0:0:0:0:
469,192,62806,1,0,0:0:0:0:
384,192,62806,1,0,0:0:0:0:
128,192,62874,1,0,0:0:0:0:
42,192,62874,1,0,0:0:0:0:
298,192,62941,1,0,0:0:0:0:
213,192,63009,1,0,0:0:0:0:
384,192,63077,1,0,0:0:0:0:
469,192,63077,1,0,0:0:0:0:
42,192,63144,1,0,0:0:0:0:
128,192,63144,1,0,0:0:0:0:
469,192,63212,1,0,0:0:0:0:
384,192,63212,1,0,0:0:0:0:
128,192,63279,1,0,0:0:0:0:
42,192,63279,1,0,0:0:0:0:
298,192,63347,1,0,0:0:0:0:
213,192,63414,1,0,0:0:0:0:
42,192,63482,128,0,63685:0:0:0:0:
128,192,63482,128,0,63685:0:0:0:0:
384,192,63482,128,0,63685:0:0:0:0:
469,192,63482,128,0,63685:0:0:0:0:
469,192,63752,128,0,64022:0:0:0:0:
42,192,63752,128,0,64022:0:0:0:0:
128,192,63752,128,0,64293:0:0:0:0:
384,192,63887,128,0,64022:0:0:0:0:
298,192,64022,128,0,64158:0:0:0:0:
213,192,64158,128,0,64698:0:0:0:0:
469,192,64158,128,0,64428:0:0:0:0:
42,192,64158,128,0,64428:0:0:0:0:
384,192,64293,128,0,64428:0:0:0:0:
128,192,64428,128,0,64563:0:0:0:0:
42,192,64563,128,0,64833:0:0:0:0:
298,192,64563,128,0,65104:0:0:0:0:
469,192,64563,128,0,64833:0:0:0:0:
384,192,64698,128,0,64833:0:0:0:0:
213,192,64833,128,0,64968:0:0:0:0:
384,192,64968,128,0,65509:0:0:0:0:
42,192,64968,128,0,65239:0:0:0:0:
469,192,64968,128,0,65239:0:0:0:0:
128,192,65104,128,0,65239:0:0:0:0:
298,192,65239,128,0,65374:0:0:0:0:
213,192,65374,128,0,65509:0:0:0:0:
469,192,65374,128,0,65644:0:0:0:0:
42,192,65374,128,0,65509:0:0:0:0:
128,192,65509,128,0,65644:0:0:0:0:
213,192,65644,128,0,65914:0:0:0:0:
42,192,65644,128,0,65779:0:0:0:0:
384,192,65644,128,0,65779:0:0:0:0:
298,192,65779,128,0,65914:0:0:0:0:
42,192,65914,128,0,66860:0:0:0:0:
128,192,65914,128,0,66860:0:0:0:0:
384,192,65914,128,0,66725:0:0:0:0:
469,192,65914,128,0,66725:0:0:0:0:
298,192,66860,1,0,0:0:0:0:
213,192,66928,1,0,0:0:0:0:
128,192,66995,1,0,0:0:0:0:
42,192,66995,1,0,0:0:0:0:
469,192,66995,1,0,0:0:0:0:
384,192,67063,1,0,0:0:0:0:
298,192,67131,1,0,0:0:0:0:
213,192,67198,1,0,0:0:0:0:
42,192,67266,1,0,0:0:0:0:
469,192,67266,1,0,0:0:0:0:
384,192,67266,1,0,0:0:0:0:
128,192,67333,1,0,0:0:0:0:
213,192,67401,1,0,0:0:0:0:
298,192,67468,1,0,0:0:0:0:
42,192,67536,1,0,0:0:0:0:
128,192,67536,1,0,0:0:0:0:
469,192,67536,1,0,0:0:0:0:
384,192,67604,1,0,0:0:0:0:
298,192,67671,1,0,0:0:0:0:
213,192,67739,1,0,0:0:0:0:
469,192,67806,128,0,68009:0:0:0:0:
42,192,67806,128,0,68009:0:0:0:0:
384,192,67806,128,0,68009:0:0:0:0:
128,192,67806,128,0,68009:0:0:0:0:
384,192,68077,128,0,68617:0:0:0:0:
469,192,68077,128,0,68347:0:0:0:0:
42,192,68077,128,0,68347:0:0:0:0:
128,192,68212,128,0,68347:0:0:0:0:
213,192,68347,128,0,68482:0:0:0:0:
469,192,68482,128,0,68752:0:0:0:0:
42,192,68482,128,0,68752:0:0:0:0:
298,192,68482,128,0,69022:0:0:0:0:
128,192,68617,128,0,68752:0:0:0:0:
384,192,68752,128,0,68887:0:0:0:0:
42,192,68887,128,0,69158:0:0:0:0:
213,192,68887,128,0,69428:0:0:0:0:
469,192,68887,128,0,69158:0:0:0:0:
128,192,69022,128,0,69158:0:0:0:0:
298,192,69158,128,0,69293:0:0:0:0:
42,192,69293,128,0,69563:0:0:0:0:
469,192,69293,128,0,69563:0:0:0:0:
128,192,69293,128,0,69833:0:0:0:0:
384,192,69428,128,0,69563:0:0:0:0:
213,192,69563,128,0,69698:0:0:0:0:
469,192,69698,128,0,69833:0:0:0:0:
42,192,69698,128,0,69968:0:0:0:0:
298,192,69698,128,0,69833:0:0:0:0:
384,192,69833,128,0,69968:0:0:0:0:
128,192,69968,128,0,70104:0:0:0:0:
469,192,69968,128,0,70104:0:0:0:0:
298,192,69968,128,0,70239:0:0:0:0:
213,192,70104,128,0,70239:0:0:0:0:
469,192,70239,1,0,0:0:0:0:
384,192,70239,1,0,0:0:0:0:
42,192,70239,1,0,0:0:0:0:
128,192,70306,1,0,0:0:0:0:
213,192,70374,1,0,0:0:0:0:
469,192,70374,1,0,0:0:0:0:
298,192,70441,1,0,0:0:0:0:
384,192,70509,1,0,0:0:0:0:
42,192,70509,1,0,0:0:0:0:
128,192,70577,1,0,0:0:0:0:
213,192,70644,1,0,0:0:0:0:
469,192,70644,1,0,0:0:0:0:
298,192,70712,1,0,0:0:0:0:
42,192,70712,1,0,0:0:0:0:
384,192,70779,1,0,0:0:0:0:
128,192,70779,1,0,0:0:0:0:
469,192,70847,1,0,0:0:0:0:
298,192,70914,1,0,0:0:0:0:
42,192,70914,1,0,0:0:0:0:
384,192,70982,1,0,0:0:0:0:
128,192,70982,1,0,0:0:0:0:
469,192,71049,1,0,0:0:0:0:
213,192,71049,1,0,0:0:0:0:
128,192,71117,1,0,0:0:0:0:
384,192,71117,1,0,0:0:0:0:
298,192,71185,1,0,0:0:0:0:
42,192,71185,1,0,0:0:0:0:
213,192,71252,1,0,0:0:0:0:
469,192,71320,1,0,0:0:0:0:
128,192,71320,1,0,0:0:0:0:
42,192,71320,1,0,0:0:0:0:
384,192,71387,1,0,0:0:0:0:
298,192,71455,1,0,0:0:0:0:
213,192,71522,1,0,0:0:0:0:
128,192,71590,1,0,0:0:0:0:
469,192,71590,1,0,0:0:0:0:
384,192,71658,1,0,0:0:0:0:
42,192,71725,1,0,0:0:0:0:
298,192,71725,1,0,0:0:0:0:
213,192,71793,1,0,0:0:0:0:
469,192,71793,1,0,0:0:0:0:
128,192,71860,1,0,0:0:0:0:
384,192,71860,1,0,0:0:0:0:
42,192,71928,1,0,0:0:0:0:
469,192,71995,1,0,0:0:0:0:
213,192,71995,1,0,0:0:0:0:
384,192,72063,1,0,0:0:0:0:
128,192,72063,1,0,0:0:0:0:
298,192,72131,1,0,0:0:0:0:
42,192,72131,1,0,0:0:0:0:
384,192,72198,1,0,0:0:0:0:
128,192,72198,1,0,0:0:0:0:
469,192,72266,1,0,0:0:0:0:
213,192,72266,1,0,0:0:0:0:
298,192,72333,1,0,0:0:0:0:
384,192,72401,1,0,0:0:0:0:
469,192,72401,1,0,0:0:0:0:
42,192,72401,1,0,0:0:0:0:
128,192,72468,1,0,0:0:0:0:
213,192,72536,1,0,0:0:0:0:
298,192,72604,1,0,0:0:0:0:
384,192,72671,1,0,0:0:0:0:
42,192,72671,1,0,0:0:0:0:
128,192,72739,1,0,0:0:0:0:
213,192,72806,1,0,0:0:0:0:
469,192,72806,1,0,0:0:0:0:
298,192,72874,1,0,0:0:0:0:
42,192,72874,1,0,0:0:0:0:
384,192,72941,1,0,0:0:0:0:
128,192,72941,1,0,0:0:0:0:
469,192,73009,1,0,0:0:0:0:
298,192,73077,1,0,0:0:0:0:
42,192,73077,1,0,0:0:0:0:
384,192,73144,1,0,0:0:0:0:
128,192,73144,1,0,0:0:0:0:
469,192,73212,1,0,0:0:0:0:
213,192,73212,1,0,0:0:0:0:
128,192,73279,1,0,0:0:0:0:
384,192,73279,1,0,0:0:0:0:
298,192,73347,1,0,0:0:0:0:
42,192,73347,1,0,0:0:0:0:
213,192,73414,1,0,0:0:0:0:
469,192,73482,1,0,0:0:0:0:
128,192,73482,1,0,0:0:0:0:
42,192,73482,1,0,0:0:0:0:
384,192,73549,1,0,0:0:0:0:
298,192,73617,1,0,0:0:0:0:
213,192,73685,1,0,0:0:0:0:
128,192,73752,1,0,0:0:0:0:
469,192,73752,1,0,0:0:0:0:
384,192,73820,1,0,0:0:0:0:
42,192,73887,1,0,0:0:0:0:
298,192,73887,1,0,0:0:0:0:
213,192,73955,1,0,0:0:0:0:
469,192,73955,1,0,0:0:0:0:
128,192,74022,1,0,0:0:0:0:
384,192,74022,1,0,0:0:0:0:
42,192,74090,1,0,0:0:0:0:
469,192,74158,1,0,0:0:0:0:
213,192,74158,1,0,0:0:0:0:
384,192,74225,1,0,0:0:0:0:
128,192,74225,1,0,0:0:0:0:
298,192,74293,1,0,0:0:0:0:
42,192,74293,1,0,0:0:0:0:
384,192,74360,1,0,0:0:0:0:
128,192,74360,1,0,0:0:0:0:
469,192,74428,1,0,0:0:0:0:
213,192,74428,1,0,0:0:0:0:
298,192,74495,1,0,0:0:0:0:
128,192,74563,1,0,0:0:0:0:
384,192,74563,1,0,0:0:0:0:
469,192,74563,1,0,0:0:0:0:
42,192,74631,1,0,0:0:0:0:
213,192,74631,1,0,0:0:0:0:
384,192,74698,1,0,0:0:0:0:
469,192,74698,1,0,0:0:0:0:
213,192,74766,1,0,0:0:0:0:
42,192,74766,1,0,0:0:0:0:
298,192,74833,1,0,0:0:0:0:
128,192,75104,1,0,0:0:0:0:
42,192,75104,1,0,0:0:0:0:
384,192,75104,1,0,0:0:0:0:
469,192,75171,1,0,0:0:0:0:
298,192,75171,1,0,0:0:0:0:
128,192,75239,1,0,0:0:0:0:
42,192,75239,1,0,0:0:0:0:
298,192,75306,1,0,0:0:0:0:
469,192,75306,1,0,0:0:0:0:
213,192,75374,128,0,75509:0:0:0:0:
128,192,75408,128,0,75509:0:0:0:0:
42,192,75509,128,0,75644:0:0:0:0:
298,192,75509,128,0,75577:0:0:0:0:
298,192,75644,1,0,0:0:0:0:
384,192,75644,1,0,0:0:0:0:
213,192,75644,1,0,0:0:0:0:
42,192,75712,1,0,0:0:0:0:
128,192,75712,1,0,0:0:0:0:
384,192,75779,1,0,0:0:0:0:
298,192,75779,1,0,0:0:0:0:
42,192,75847,1,0,0:0:0:0:
128,192,75847,1,0,0:0:0:0:
469,192,75914,128,0,76049:0:0:0:0:
128,192,76185,1,0,0:0:0:0:
213,192,76185,1,0,0:0:0:0:
298,192,76185,1,0,0:0:0:0:
384,192,76252,1,0,0:0:0:0:
469,192,76252,1,0,0:0:0:0:
128,192,76320,1,0,0:0:0:0:
213,192,76320,1,0,0:0:0:0:
469,192,76387,1,0,0:0:0:0:
384,192,76387,1,0,0:0:0:0:
42,192,76455,128,0,76725:0:0:0:0:
213,192,76590,128,0,76725:0:0:0:0:
384,192,76725,1,0,0:0:0:0:
469,192,76725,1,0,0:0:0:0:
128,192,76793,1,0,0:0:0:0:
42,192,76793,1,0,0:0:0:0:
469,192,76860,1,0,0:0:0:0:
384,192,76860,1,0,0:0:0:0:
128,192,76928,1,0,0:0:0:0:
42,192,76928,1,0,0:0:0:0:
298,192,76995,1,0,0:0:0:0:
384,192,76995,1,0,0:0:0:0:
213,192,77063,1,0,0:0:0:0:
128,192,77063,1,0,0:0:0:0:
298,192,77131,1,0,0:0:0:0:
384,192,77131,1,0,0:0:0:0:
213,192,77198,1,0,0:0:0:0:
128,192,77198,1,0,0:0:0:0:
298,192,77266,1,0,0:0:0:0:
469,192,77266,1,0,0:0:0:0:
42,192,77333,1,0,0:0:0:0:
213,192,77333,1,0,0:0:0:0:
298,192,77401,1,0,0:0:0:0:
469,192,77401,1,0,0:0:0:0:
213,192,77468,1,0,0:0:0:0:
42,192,77468,1,0,0:0:0:0:
384,192,77536,1,0,0:0:0:0:
469,192,77536,1,0,0:0:0:0:
128,192,77604,1,0,0:0:0:0:
42,192,77604,1,0,0:0:0:0:
384,192,77671,1,0,0:0:0:0:
469,192,77671,1,0,0:0:0:0:
128,192,77739,1,0,0:0:0:0:
42,192,77739,1,0,0:0:0:0:
298,192,77806,1,0,0:0:0:0:
213,192,77941,1,0,0:0:0:0:
128,192,78009,1,0,0:0:0:0:
213,192,78077,1,0,0:0:0:0:
469,192,78077,1,0,0:0:0:0:
384,192,78144,1,0,0:0:0:0:
298,192,78212,1,0,0:0:0:0:
128,192,78212,1,0,0:0:0:0:
213,192,78279,1,0,0:0:0:0:
42,192,78347,1,0,0:0:0:0:
384,192,78347,1,0,0:0:0:0:
128,192,78414,1,0,0:0:0:0:
213,192,78482,1,0,0:0:0:0:
469,192,78482,1,0,0:0:0:0:
298,192,78549,1,0,0:0:0:0:
128,192,78617,1,0,0:0:0:0:
42,192,78617,1,0,0:0:0:0:
384,192,78685,1,0,0:0:0:0:
298,192,78685,1,0,0:0:0:0:
213,192,78752,1,0,0:0:0:0:
128,192,78752,1,0,0:0:0:0:
469,192,78820,1,0,0:0:0:0:
384,192,78820,1,0,0:0:0:0:
298,192,78887,128,0,79158:0:0:0:0:
42,192,78887,128,0,79158:0:0:0:0:
128,192,78887,128,0,79428:0:0:0:0:
384,192,79158,1,0,0:0:0:0:
384,192,79293,1,0,0:0:0:0:
213,192,79383,1,0,0:0:0:0:
42,192,79428,1,0,0:0:0:0:
469,192,79428,1,0,0:0:0:0:
298,192,79428,128,0,79698:0:0:0:0:
42,192,79563,128,0,79698:0:0:0:0:
128,192,79631,128,0,79698:0:0:0:0:
213,192,79698,128,0,79766:0:0:0:0:
384,192,79698,128,0,79766:0:0:0:0:
213,192,79833,128,0,79901:0:0:0:0:
384,192,79833,128,0,79901:0:0:0:0:
298,192,79968,128,0,80239:0:0:0:0:
213,192,79968,128,0,80104:0:0:0:0:
384,192,79968,128,0,80374:0:0:0:0:
42,192,79968,128,0,80036:0:0:0:0:
42,192,80104,128,0,80171:0:0:0:0:
128,192,80104,128,0,80171:0:0:0:0:
128,192,80239,128,0,80306:0:0:0:0:
213,192,80239,128,0,80306:0:0:0:0:
213,192,80374,128,0,80441:0:0:0:0:
298,192,80374,128,0,80441:0:0:0:0:
42,192,80509,128,0,80712:0:0:0:0:
128,192,80509,128,0,80712:0:0:0:0:
384,192,80509,128,0,80712:0:0:0:0:
469,192,80509,128,0,80712:0:0:0:0:
298,192,80779,128,0,81049:0:0:0:0:
128,192,80779,1,0,0:0:0:0:
42,192,80914,1,0,0:0:0:0:
128,192,80982,1,0,0:0:0:0:
213,192,81049,128,0,81320:0:0:0:0:
469,192,81049,128,0,81320:0:0:0:0:
384,192,81049,128,0,81590:0:0:0:0:
128,192,81320,128,0,81455:0:0:0:0:
213,192,81590,128,0,81860:0:0:0:0:
42,192,81590,1,0,0:0:0:0:
469,192,81590,1,0,0:0:0:0:
469,192,81725,128,0,81860:0:0:0:0:
384,192,81793,128,0,81860:0:0:0:0:
298,192,81860,128,0,81928:0:0:0:0:
128,192,81860,128,0,81928:0:0:0:0:
298,192,81995,128,0,82063:0:0:0:0:
128,192,81995,128,0,82063:0:0:0:0:
213,192,82131,128,0,82401:0:0:0:0:
298,192,82131,128,0,82266:0:0:0:0:
128,192,82131,128,0,82536:0:0:0:0:
469,192,82131,128,0,82198:0:0:0:0:
469,192,82266,128,0,82333:0:0:0:0:
384,192,82266,128,0,82333:0:0:0:0:
384,192,82401,128,0,82468:0:0:0:0:
298,192,82401,128,0,82468:0:0:0:0:
213,192,82536,128,0,82604:0:0:0:0:
298,192,82536,128,0,82604:0:0:0:0:
469,192,82671,128,0,82874:0:0:0:0:
384,192,82671,128,0,82874:0:0:0:0:
128,192,82671,128,0,82874:0:0:0:0:
42,192,82671,128,0,82874:0:0:0:0:
128,192,82941,1,0,0:0:0:0:
298,192,82941,1,0,0:0:0:0:
128,192,83077,1,0,0:0:0:0:
298,192,83077,1,0,0:0:0:0:
42,192,83212,128,0,83414:0:0:0:0:
213,192,83212,128,0,83685:0:0:0:0:
469,192,83212,128,0,83414:0:0:0:0:
384,192,83279,128,0,83414:0:0:0:0:
298,192,83347,128,0,83414:0:0:0:0:
469,192,83482,128,0,83685:0:0:0:0:
42,192,83482,128,0,83685:0:0:0:0:
128,192,83482,128,0,83685:0:0:0:0:
384,192,83752,1,0,0:0:0:0:
469,192,83752,1,0,0:0:0:0:
128,192,83752,1,0,0:0:0:0:
42,192,83752,1,0,0:0:0:0:
213,192,83820,1,0,0:0:0:0:
384,192,83887,1,0,0:0:0:0:
298,192,84158,1,0,0:0:0:0:
298,192,84225,1,0,0:0:0:0:
42,192,84293,1,0,0:0:0:0:
128,192,84293,1,0,0:0:0:0:
384,192,84360,1,0,0:0:0:0:
384,192,84428,1,0,0:0:0:0:
213,192,84698,1,0,0:0:0:0:
213,192,84766,1,0,0:0:0:0:
42,192,84833,128,0,85036:0:0:0:0:
384,192,84833,128,0,84968:0:0:0:0:
469,192,84833,128,0,84968:0:0:0:0:
128,192,84833,128,0,85036:0:0:0:0:
298,192,84968,128,0,85171:0:0:0:0:
384,192,85036,128,0,85171:0:0:0:0:
42,192,85104,128,0,85306:0:0:0:0:
469,192,85104,128,0,85171:0:0:0:0:
128,192,85171,128,0,85306:0:0:0:0:
213,192,85239,128,0,85306:0:0:0:0:
298,192,85306,1,0,0:0:0:0:
384,192,85374,128,0,85577:0:0:0:0:
469,192,85374,128,0,85577:0:0:0:0:
42,192,85374,128,0,85847:0:0:0:0:
128,192,85374,128,0,85847:0:0:0:0:
384,192,85644,1,0,0:0:0:0:
298,192,85779,1,0,0:0:0:0:
213,192,85847,1,0,0:0:0:0:
128,192,85914,1,0,0:0:0:0:
42,192,85914,1,0,0:0:0:0:
384,192,85914,1,0,0:0:0:0:
469,192,85914,1,0,0:0:0:0:
298,192,85982,1,0,0:0:0:0:
128,192,86049,1,0,0:0:0:0:
213,192,86320,1,0,0:0:0:0:
213,192,86387,1,0,0:0:0:0:
469,192,86455,1,0,0:0:0:0:
384,192,86455,1,0,0:0:0:0:
128,192,86522,1,0,0:0:0:0:
128,192,86590,1,0,0:0:0:0:
42,192,86725,128,0,86860:0:0:0:0:
213,192,86725,128,0,87131:0:0:0:0:
469,192,86725,128,0,86928:0:0:0:0:
384,192,86793,128,0,86928:0:0:0:0:
298,192,86860,128,0,87131:0:0:0:0:
469,192,86995,128,0,87401:0:0:0:0:
384,192,86995,128,0,87266:0:0:0:0:
128,192,86995,1,0,0:0:0:0:
42,192,87131,128,0,87401:0:0:0:0:
128,192,87266,128,0,87401:0:0:0:0:
298,192,87266,1,0,0:0:0:0:
384,192,87401,1,0,0:0:0:0:
213,192,87401,128,0,87536:0:0:0:0:
298,192,87536,128,0,87806:0:0:0:0:
42,192,87536,128,0,87806:0:0:0:0:
128,192,87536,128,0,88077:0:0:0:0:
384,192,87806,1,0,0:0:0:0:
384,192,87941,1,0,0:0:0:0:
213,192,88031,1,0,0:0:0:0:
42,192,88077,1,0,0:0:0:0:
469,192,88077,1,0,0:0:0:0:
298,192,88077,128,0,88347:0:0:0:0:
42,192,88212,128,0,88347:0:0:0:0:
128,192,88279,128,0,88347:0:0:0:0:
213,192,88347,128,0,88414:0:0:0:0:
384,192,88347,128,0,88414:0:0:0:0:
213,192,88482,128,0,88549:0:0:0:0:
384,192,88482,128,0,88549:0:0:0:0:
298,192,88617,128,0,88887:0:0:0:0:
213,192,88617,128,0,88752:0:0:0:0:
384,192,88617,128,0,89022:0:0:0:0:
42,192,88617,128,0,88685:0:0:0:0:
42,192,88752,128,0,88820:0:0:0:0:
128,192,88752,128,0,88820:0:0:0:0:
128,192,88887,128,0,88955:0:0:0:0:
213,192,88887,128,0,88955:0:0:0:0:
213,192,89022,128,0,89090:0:0:0:0:
298,192,89022,128,0,89090:0:0:0:0:
42,192,89158,128,0,89360:0:0:0:0:
128,192,89158,128,0,89360:0:0:0:0:
384,192,89158,128,0,89360:0:0:0:0:
469,192,89158,128,0,89360:0:0:0:0:
298,192,89428,128,0,89698:0:0:0:0:
128,192,89428,1,0,0:0:0:0:
42,192,89563,1,0,0:0:0:0:
128,192,89631,1,0,0:0:0:0:
213,192,89698,128,0,89968:0:0:0:0:
469,192,89698,128,0,89968:0:0:0:0:
384,192,89698,128,0,90239:0:0:0:0:
128,192,89968,128,0,90104:0:0:0:0:
213,192,90239,128,0,90509:0:0:0:0:
42,192,90239,1,0,0:0:0:0:
469,192,90239,1,0,0:0:0:0:
469,192,90374,128,0,90509:0:0:0:0:
384,192,90441,128,0,90509:0:0:0:0:
298,192,90509,128,0,90577:0:0:0:0:
128,192,90509,128,0,90577:0:0:0:0:
298,192,90644,128,0,90712:0:0:0:0:
128,192,90644,128,0,90712:0:0:0:0:
213,192,90779,128,0,91049:0:0:0:0:
298,192,90779,128,0,90914:0:0:0:0:
128,192,90779,128,0,91185:0:0:0:0:
469,192,90779,128,0,90847:0:0:0:0:
469,192,90914,128,0,90982:0:0:0:0:
384,192,90914,128,0,90982:0:0:0:0:
384,192,91049,128,0,91117:0:0:0:0:
298,192,91049,128,0,91117:0:0:0:0:
213,192,91185,128,0,91252:0:0:0:0:
298,192,91185,128,0,91252:0:0:0:0:
469,192,91320,128,0,91522:0:0:0:0:
384,192,91320,128,0,91522:0:0:0:0:
128,192,91320,128,0,91522:0:0:0:0:
42,192,91320,128,0,91522:0:0:0:0:
128,192,91590,1,0,0:0:0:0:
298,192,91590,1,0,0:0:0:0:
128,192,91725,1,0,0:0:0:0:
298,192,91725,1,0,0:0:0:0:
42,192,91860,128,0,92063:0:0:0:0:
213,192,91860,128,0,92333:0:0:0:0:
469,192,91860,128,0,92063:0:0:0:0:
384,192,91928,128,0,92063:0:0:0:0:
298,192,91995,128,0,92063:0:0:0:0:
469,192,92131,128,0,92333:0:0:0:0:
42,192,92131,128,0,92333:0:0:0:0:
128,192,92131,128,0,92333:0:0:0:0:
384,192,92401,1,0,0:0:0:0:
469,192,92401,1,0,0:0:0:0:
128,192,92401,1,0,0:0:0:0:
42,192,92401,1,0,0:0:0:0:
213,192,92468,1,0,0:0:0:0:
384,192,92536,1,0,0:0:0:0:
298,192,92806,1,0,0:0:0:0:
298,192,92874,1,0,0:0:0:0:
128,192,92941,1,0,0:0:0:0:
42,192,92941,1,0,0:0:0:0:
384,192,93009,1,0,0:0:0:0:
384,192,93077,1,0,0:0:0:0:
213,192,93347,1,0,0:0:0:0:
213,192,93414,1,0,0:0:0:0:
42,192,93482,128,0,93685:0:0:0:0:
384,192,93482,128,0,93617:0:0:0:0:
469,192,93482,128,0,93617:0:0:0:0:
128,192,93482,128,0,93685:0:0:0:0:
298,192,93617,128,0,93820:0:0:0:0:
384,192,93685,128,0,93820:0:0:0:0:
469,192,93752,128,0,93820:0:0:0:0:
42,192,93752,128,0,93955:0:0:0:0:
128,192,93820,128,0,93955:0:0:0:0:
213,192,93887,128,0,93955:0:0:0:0:
298,192,93955,1,0,0:0:0:0:
384,192,94022,128,0,94225:0:0:0:0:
469,192,94022,128,0,94225:0:0:0:0:
42,192,94022,128,0,94495:0:0:0:0:
128,192,94022,128,0,94495:0:0:0:0:
384,192,94293,1,0,0:0:0:0:
469,192,94428,1,0,0:0:0:0:
298,192,94428,1,0,0:0:0:0:
384,192,94495,1,0,0:0:0:0:
213,192,94495,1,0,0:0:0:0:
128,192,94563,1,0,0:0:0:0:
42,192,94563,1,0,0:0:0:0:
298,192,94563,128,0,94698:0:0:0:0:
384,192,94631,128,0,94766:0:0:0:0:
469,192,94698,128,0,94833:0:0:0:0:
213,192,94766,128,0,94901:0:0:0:0:
298,192,94833,128,0,94968:0:0:0:0:
384,192,94901,128,0,95036:0:0:0:0:
128,192,94968,128,0,95104:0:0:0:0:
213,192,95036,128,0,95104:0:0:0:0:
298,192,95104,1,0,0:0:0:0:
42,192,95171,1,0,0:0:0:0:
298,192,95239,1,0,0:0:0:0:
42,192,95306,1,0,0:0:0:0:
384,192,95374,1,0,0:0:0:0:
128,192,95441,1,0,0:0:0:0:
384,192,95509,1,0,0:0:0:0:
128,192,95577,1,0,0:0:0:0:
469,192,95644,1,0,0:0:0:0:
213,192,95712,1,0,0:0:0:0:
469,192,95779,1,0,0:0:0:0:
213,192,95847,1,0,0:0:0:0:
42,192,95914,1,0,0:0:0:0:
384,192,95914,128,0,96185:0:0:0:0:
128,192,95982,1,0,0:0:0:0:
213,192,96049,1,0,0:0:0:0:
298,192,96117,1,0,0:0:0:0:
469,192,96185,128,0,96590:0:0:0:0:
42,192,96185,128,0,96455:0:0:0:0:
128,192,96185,128,0,96725:0:0:0:0:
384,192,96455,128,0,96590:0:0:0:0:
213,192,96455,1,0,0:0:0:0:
213,192,96590,1,0,0:0:0:0:
384,192,96680,1,0,0:0:0:0:
298,192,96725,128,0,96860:0:0:0:0:
128,192,96860,1,0,0:0:0:0:
469,192,96860,1,0,0:0:0:0:
213,192,96995,128,0,97063:0:0:0:0:
384,192,96995,128,0,97063:0:0:0:0:
42,192,96995,1,0,0:0:0:0:
213,192,97131,128,0,97198:0:0:0:0:
384,192,97131,128,0,97198:0:0:0:0:
469,192,97266,128,0,97941:0:0:0:0:
298,192,97266,128,0,97536:0:0:0:0:
213,192,97266,1,0,0:0:0:0:
42,192,97266,128,0,97333:0:0:0:0:
42,192,97401,128,0,97468:0:0:0:0:
128,192,97401,128,0,97468:0:0:0:0:
384,192,97536,1,0,0:0:0:0:
128,192,97536,128,0,97604:0:0:0:0:
213,192,97536,128,0,97604:0:0:0:0:
213,192,97671,128,0,97739:0:0:0:0:
298,192,97671,128,0,97739:0:0:0:0:
42,192,97671,128,0,97941:0:0:0:0:
384,192,97941,1,0,0:0:0:0:
128,192,97941,1,0,0:0:0:0:
298,192,98077,128,0,98279:0:0:0:0:
213,192,98077,1,0,0:0:0:0:
42,192,98077,1,0,0:0:0:0:
42,192,98212,1,0,0:0:0:0:
128,192,98347,128,0,98617:0:0:0:0:
469,192,98347,128,0,98887:0:0:0:0:
384,192,98347,128,0,98887:0:0:0:0:
298,192,98617,128,0,98752:0:0:0:0:
42,192,98617,1,0,0:0:0:0:
128,192,98752,128,0,98955:0:0:0:0:
213,192,98752,128,0,98955:0:0:0:0:
298,192,99022,1,0,0:0:0:0:
128,192,99022,1,0,0:0:0:0:
384,192,99158,128,0,99225:0:0:0:0:
42,192,99158,1,0,0:0:0:0:
213,192,99158,128,0,99225:0:0:0:0:
384,192,99293,128,0,99360:0:0:0:0:
213,192,99293,128,0,99360:0:0:0:0:
42,192,99428,128,0,99833:0:0:0:0:
213,192,99428,128,0,99698:0:0:0:0:
298,192,99428,1,0,0:0:0:0:
469,192,99428,128,0,99495:0:0:0:0:
384,192,99563,128,0,99631:0:0:0:0:
469,192,99563,128,0,99631:0:0:0:0:
128,192,99698,1,0,0:0:0:0:
384,192,99698,128,0,99766:0:0:0:0:
298,192,99698,128,0,99766:0:0:0:0:
213,192,99833,128,0,99901:0:0:0:0:
298,192,99833,128,0,99901:0:0:0:0:
128,192,99968,128,0,100171:0:0:0:0:
42,192,99968,128,0,100171:0:0:0:0:
384,192,99968,128,0,100171:0:0:0:0:
469,192,99968,128,0,100171:0:0:0:0:
298,192,100239,1,0,0:0:0:0:
128,192,100239,128,0,100441:0:0:0:0:
298,192,100374,1,0,0:0:0:0:
384,192,100441,1,0,0:0:0:0:
469,192,100509,128,0,100712:0:0:0:0:
42,192,100509,128,0,100712:0:0:0:0:
213,192,100509,128,0,100712:0:0:0:0:
469,192,100779,128,0,100982:0:0:0:0:
213,192,100779,1,0,0:0:0:0:
298,192,100779,128,0,100982:0:0:0:0:
42,192,100779,128,0,100982:0:0:0:0:
42,192,101049,1,0,0:0:0:0:
384,192,101049,1,0,0:0:0:0:
128,192,101117,1,0,0:0:0:0:
213,192,101185,1,0,0:0:0:0:
384,192,101185,1,0,0:0:0:0:
42,192,101320,1,0,0:0:0:0:
298,192,101320,1,0,0:0:0:0:
469,192,101320,1,0,0:0:0:0:
213,192,101455,1,0,0:0:0:0:
298,192,101522,1,0,0:0:0:0:
42,192,101590,1,0,0:0:0:0:
128,192,101590,1,0,0:0:0:0:
298,192,101658,1,0,0:0:0:0:
213,192,101725,1,0,0:0:0:0:
42,192,101860,1,0,0:0:0:0:
384,192,101860,1,0,0:0:0:0:
469,192,101860,1,0,0:0:0:0:
298,192,101995,1,0,0:0:0:0:
213,192,102063,1,0,0:0:0:0:
384,192,102131,1,0,0:0:0:0:
213,192,102198,1,0,0:0:0:0:
298,192,102266,1,0,0:0:0:0:
128,192,102266,1,0,0:0:0:0:
384,192,102401,1,0,0:0:0:0:
42,192,102401,128,0,102604:0:0:0:0:
469,192,102401,128,0,102604:0:0:0:0:
128,192,102468,128,0,102604:0:0:0:0:
213,192,102536,128,0,102671:0:0:0:0:
298,192,102604,128,0,102671:0:0:0:0:
384,192,102671,128,0,102874:0:0:0:0:
469,192,102671,128,0,102874:0:0:0:0:
42,192,102671,128,0,103144:0:0:0:0:
128,192,102671,128,0,103144:0:0:0:0:
384,192,102941,1,0,0:0:0:0:
469,192,102941,1,0,0:0:0:0:
298,192,103077,128,0,103212:0:0:0:0:
128,192,103212,1,0,0:0:0:0:
469,192,103212,1,0,0:0:0:0:
384,192,103279,1,0,0:0:0:0:
128,192,103347,1,0,0:0:0:0:
298,192,103347,1,0,0:0:0:0:
384,192,103482,1,0,0:0:0:0:
469,192,103482,1,0,0:0:0:0:
42,192,103482,1,0,0:0:0:0:
213,192,103617,1,0,0:0:0:0:
128,192,103685,1,0,0:0:0:0:
469,192,103752,1,0,0:0:0:0:
298,192,103752,1,0,0:0:0:0:
128,192,103820,1,0,0:0:0:0:
213,192,103887,1,0,0:0:0:0:
469,192,104022,128,0,104698:0:0:0:0:
42,192,104022,128,0,104428:0:0:0:0:
128,192,104090,128,0,104293:0:0:0:0:
213,192,104158,128,0,104293:0:0:0:0:
298,192,104293,128,0,104563:0:0:0:0:
128,192,104428,128,0,104698:0:0:0:0:
384,192,104563,128,0,104833:0:0:0:0:
213,192,104698,128,0,104833:0:0:0:0:
469,192,104833,128,0,105239:0:0:0:0:
42,192,104833,128,0,105104:0:0:0:0:
128,192,104833,128,0,105374:0:0:0:0:
384,192,105104,128,0,105239:0:0:0:0:
213,192,105104,1,0,0:0:0:0:
213,192,105239,1,0,0:0:0:0:
384,192,105329,1,0,0:0:0:0:
298,192,105374,128,0,105509:0:0:0:0:
128,192,105509,128,0,105644:0:0:0:0:
469,192,105509,1,0,0:0:0:0:
384,192,105644,128,0,105712:0:0:0:0:
213,192,105644,128,0,105712:0:0:0:0:
42,192,105644,1,0,0:0:0:0:
384,192,105779,128,0,105847:0:0:0:0:
213,192,105779,128,0,105847:0:0:0:0:
469,192,105914,128,0,106455:0:0:0:0:
298,192,105914,128,0,106185:0:0:0:0:
213,192,105914,1,0,0:0:0:0:
42,192,105914,128,0,105982:0:0:0:0:
128,192,106049,128,0,106117:0:0:0:0:
42,192,106049,128,0,106117:0:0:0:0:
384,192,106185,1,0,0:0:0:0:
128,192,106185,128,0,106252:0:0:0:0:
213,192,106185,128,0,106252:0:0:0:0:
213,192,106320,128,0,106387:0:0:0:0:
298,192,106320,128,0,106387:0:0:0:0:
42,192,106320,128,0,106590:0:0:0:0:
128,192,106590,1,0,0:0:0:0:
384,192,106590,1,0,0:0:0:0:
213,192,106725,128,0,106928:0:0:0:0:
298,192,106725,1,0,0:0:0:0:
42,192,106725,1,0,0:0:0:0:
42,192,106860,1,0,0:0:0:0:
128,192,106995,128,0,107266:0:0:0:0:
469,192,106995,128,0,107536:0:0:0:0:
384,192,106995,128,0,107536:0:0:0:0:
298,192,107266,128,0,107401:0:0:0:0:
42,192,107266,1,0,0:0:0:0:
128,192,107401,128,0,107604:0:0:0:0:
213,192,107401,128,0,107604:0:0:0:0:
128,192,107671,1,0,0:0:0:0:
298,192,107671,1,0,0:0:0:0:
384,192,107806,128,0,107874:0:0:0:0:
42,192,107806,1,0,0:0:0:0:
213,192,107806,128,0,107874:0:0:0:0:
384,192,107941,128,0,108009:0:0:0:0:
213,192,107941,128,0,108009:0:0:0:0:
42,192,108077,128,0,108347:0:0:0:0:
128,192,108077,128,0,108212:0:0:0:0:
298,192,108077,1,0,0:0:0:0:
469,192,108077,128,0,108144:0:0:0:0:
213,192,108212,1,0,0:0:0:0:
384,192,108212,128,0,108279:0:0:0:0:
469,192,108212,128,0,108279:0:0:0:0:
128,192,108347,1,0,0:0:0:0:
298,192,108347,128,0,108414:0:0:0:0:
384,192,108347,128,0,108414:0:0:0:0:
42,192,108482,128,0,108617:0:0:0:0:
213,192,108482,128,0,108887:0:0:0:0:
298,192,108482,128,0,108887:0:0:0:0:
469,192,108482,128,0,108617:0:0:0:0:
42,192,108752,128,0,108887:0:0:0:0:
469,192,108887,128,0,109022:0:0:0:0:
128,192,109022,1,0,0:0:0:0:
384,192,109022,1,0,0:0:0:0:
213,192,109090,1,0,0:0:0:0:
298,192,109090,1,0,0:0:0:0:
128,192,109158,1,0,0:0:0:0:
42,192,109158,1,0,0:0:0:0:
384,192,109158,1,0,0:0:0:0:
384,192,109293,1,0,0:0:0:0:
128,192,109293,1,0,0:0:0:0:
42,192,109293,1,0,0:0:0:0:
213,192,109428,1,0,0:0:0:0:
298,192,109428,1,0,0:0:0:0:
128,192,109563,1,0,0:0:0:0:
384,192,109563,1,0,0:0:0:0:
469,192,109563,1,0,0:0:0:0:
469,192,109698,1,0,0:0:0:0:
384,192,109698,1,0,0:0:0:0:
128,192,109698,1,0,0:0:0:0:
298,192,109833,1,0,0:0:0:0:
213,192,109833,1,0,0:0:0:0:
128,192,109968,1,0,0:0:0:0:
42,192,109968,1,0,0:0:0:0:
384,192,109968,1,0,0:0:0:0:
384,192,110104,1,0,0:0:0:0:
128,192,110104,1,0,0:0:0:0:
42,192,110104,1,0,0:0:0:0:
298,192,110171,1,0,0:0:0:0:
213,192,110171,1,0,0:0:0:0:
469,192,110239,1,0,0:0:0:0:
128,192,110239,1,0,0:0:0:0:
384,192,110239,1,0,0:0:0:0:
128,192,110374,1,0,0:0:0:0:
469,192,110374,1,0,0:0:0:0:
384,192,110374,1,0,0:0:0:0:
213,192,110509,1,0,0:0:0:0:
298,192,110509,1,0,0:0:0:0:
42,192,110644,1,0,0:0:0:0:
128,192,110644,1,0,0:0:0:0:
384,192,110644,1,0,0:0:0:0:
384,192,110779,1,0,0:0:0:0:
128,192,110779,1,0,0:0:0:0:
42,192,110779,1,0,0:0:0:0:
213,192,110914,1,0,0:0:0:0:
298,192,110914,1,0,0:0:0:0:
384,192,111049,1,0,0:0:0:0:
469,192,111049,1,0,0:0:0:0:
128,192,111049,1,0,0:0:0:0:
128,192,111185,1,0,0:0:0:0:
384,192,111185,1,0,0:0:0:0:
469,192,111185,1,0,0:0:0:0:
298,192,111252,1,0,0:0:0:0:
213,192,111252,1,0,0:0:0:0:
128,192,111320,1,0,0:0:0:0:
469,192,111320,128,0,111455:0:0:0:0:
42,192,111320,128,0,111522:0:0:0:0:
384,192,111387,128,0,111522:0:0:0:0:
298,192,111455,128,0,111590:0:0:0:0:
128,192,111455,1,0,0:0:0:0:
213,192,111522,128,0,111590:0:0:0:0:
384,192,111590,1,0,0:0:0:0:
42,192,111590,128,0,111725:0:0:0:0:
469,192,111590,128,0,111793:0:0:0:0:
128,192,111658,128,0,111793:0:0:0:0:
213,192,111725,128,0,111860:0:0:0:0:
384,192,111725,1,0,0:0:0:0:
298,192,111793,128,0,111860:0:0:0:0:
128,192,111860,1,0,0:0:0:0:
469,192,111860,128,0,111995:0:0:0:0:
42,192,111860,128,0,112063:0:0:0:0:
384,192,111928,128,0,112063:0:0:0:0:
298,192,111995,128,0,112131:0:0:0:0:
128,192,111995,1,0,0:0:0:0:
213,192,112063,128,0,112131:0:0:0:0:
384,192,112131,1,0,0:0:0:0:
42,192,112131,128,0,112266:0:0:0:0:
469,192,112131,128,0,112333:0:0:0:0:
128,192,112198,128,0,112333:0:0:0:0:
213,192,112266,128,0,112401:0:0:0:0:
384,192,112266,1,0,0:0:0:0:
298,192,112333,128,0,112401:0:0:0:0:
42,192,112401,1,0,0:0:0:0:
469,192,112401,1,0,0:0:0:0:
213,192,112468,1,0,0:0:0:0:
469,192,112536,1,0,0:0:0:0:
213,192,112604,1,0,0:0:0:0:
384,192,112671,1,0,0:0:0:0:
128,192,112739,1,0,0:0:0:0:
384,192,112806,1,0,0:0:0:0:
128,192,112874,1,0,0:0:0:0:
298,192,112941,1,0,0:0:0:0:
42,192,113009,1,0,0:0:0:0:
298,192,113077,1,0,0:0:0:0:
42,192,113144,1,0,0:0:0:0:
213,192,113212,128,0,113482:0:0:0:0:
128,192,113482,1,0,0:0:0:0:
42,192,113482,1,0,0:0:0:0:
469,192,113482,1,0,0:0:0:0:
298,192,113482,1,0,0:0:0:0:
298,192,113685,1,0,0:0:0:0:
298,192,113887,1,0,0:0:0:0:
384,192,114022,1,0,0:0:0:0:
384,192,114225,1,0,0:0:0:0:
384,192,114428,1,0,0:0:0:0:
128,192,114563,1,0,0:0:0:0:
128,192,114766,1,0,0:0:0:0:
128,192,114968,1,0,0:0:0:0:
213,192,115104,1,0,0:0:0:0:
213,192,115306,1,0,0:0:0:0:
213,192,115509,1,0,0:0:0:0:
298,192,115644,1,0,0:0:0:0:
298,192,115847,1,0,0:0:0:0:
298,192,116049,1,0,0:0:0:0:
384,192,116185,1,0,0:0:0:0:
384,192,116387,1,0,0:0:0:0:
384,192,116590,1,0,0:0:0:0:
469,192,116725,1,0,0:0:0:0:
128,192,116860,1,0,0:0:0:0:
384,192,116995,1,0,0:0:0:0:
128,192,117131,1,0,0:0:0:0:
298,192,117266,1,0,0:0:0:0:
42,192,117401,1,0,0:0:0:0:
384,192,117536,1,0,0:0:0:0:
42,192,117671,1,0,0:0:0:0:
213,192,117806,1,0,0:0:0:0:
213,192,118009,1,0,0:0:0:0:
213,192,118212,1,0,0:0:0:0:
384,192,118347,1,0,0:0:0:0:
384,192,118549,1,0,0:0:0:0:
384,192,118752,1,0,0:0:0:0:
42,192,118887,1,0,0:0:0:0:
42,192,119090,1,0,0:0:0:0:
42,192,119293,1,0,0:0:0:0:
213,192,119428,1,0,0:0:0:0:
213,192,119631,1,0,0:0:0:0:
213,192,119833,1,0,0:0:0:0:
384,192,119968,128,0,120509:0:0:0:0:
298,192,120374,1,0,0:0:0:0:
213,192,120441,1,0,0:0:0:0:
42,192,120509,1,0,0:0:0:0:
469,192,120509,1,0,0:0:0:0:
128,192,120509,1,0,0:0:0:0:
384,192,120577,1,0,0:0:0:0:
298,192,120644,1,0,0:0:0:0:
213,192,120712,1,0,0:0:0:0:
298,192,120779,1,0,0:0:0:0:
213,192,120847,1,0,0:0:0:0:
128,192,120914,1,0,0:0:0:0:
42,192,120982,5,0,0:0:0:0:
384,192,121049,1,0,0:0:0:0:
469,192,121049,1,0,0:0:0:0:
213,192,121049,1,0,0:0:0:0:
128,192,121117,1,0,0:0:0:0:
42,192,121185,1,0,0:0:0:0:
384,192,121185,1,0,0:0:0:0:
469,192,121185,1,0,0:0:0:0:
298,192,121252,1,0,0:0:0:0:
213,192,121320,1,0,0:0:0:0:
384,192,121455,1,0,0:0:0:0:
128,192,121455,1,0,0:0:0:0:
469,192,121455,1,0,0:0:0:0:
298,192,121590,1,0,0:0:0:0:
384,192,121725,1,0,0:0:0:0:
128,192,121725,1,0,0:0:0:0:
469,192,121725,1,0,0:0:0:0:
42,192,121860,1,0,0:0:0:0:
128,192,121995,1,0,0:0:0:0:
469,192,121995,1,0,0:0:0:0:
384,192,121995,1,0,0:0:0:0:
213,192,122131,5,0,0:0:0:0:
42,192,122131,1,0,0:0:0:0:
469,192,122131,1,0,0:0:0:0:
384,192,122198,1,0,0:0:0:0:
298,192,122266,1,0,0:0:0:0:
469,192,122333,1,0,0:0:0:0:
213,192,122333,1,0,0:0:0:0:
42,192,122401,1,0,0:0:0:0:
128,192,122401,1,0,0:0:0:0:
384,192,122401,1,0,0:0:0:0:
469,192,122536,1,0,0:0:0:0:
213,192,122536,1,0,0:0:0:0:
298,192,122604,1,0,0:0:0:0:
384,192,122671,1,0,0:0:0:0:
128,192,122671,1,0,0:0:0:0:
213,192,122739,1,0,0:0:0:0:
298,192,122806,1,0,0:0:0:0:
128,192,122874,1,0,0:0:0:0:
384,192,122874,1,0,0:0:0:0:
469,192,122941,1,0,0:0:0:0:
213,192,122941,1,0,0:0:0:0:
42,192,122941,1,0,0:0:0:0:
384,192,123077,1,0,0:0:0:0:
128,192,123077,1,0,0:0:0:0:
213,192,123144,1,0,0:0:0:0:
298,192,123212,1,0,0:0:0:0:
469,192,123212,1,0,0:0:0:0:
42,192,123212,1,0,0:0:0:0:
128,192,123279,1,0,0:0:0:0:
213,192,123347,1,0,0:0:0:0:
42,192,123414,1,0,0:0:0:0:
298,192,123414,1,0,0:0:0:0:
469,192,123482,1,0,0:0:0:0:
384,192,123482,1,0,0:0:0:0:
128,192,123482,1,0,0:0:0:0:
42,192,123617,1,0,0:0:0:0:
298,192,123617,1,0,0:0:0:0:
213,192,123685,1,0,0:0:0:0:
128,192,123752,1,0,0:0:0:0:
384,192,123752,1,0,0:0:0:0:
298,192,123820,1,0,0:0:0:0:
213,192,123887,1,0,0:0:0:0:
384,192,123955,1,0,0:0:0:0:
128,192,123955,1,0,0:0:0:0:
42,192,124022,1,0,0:0:0:0:
298,192,124022,1,0,0:0:0:0:
469,192,124022,1,0,0:0:0:0:
128,192,124158,1,0,0:0:0:0:
384,192,124158,1,0,0:0:0:0:
298,192,124225,1,0,0:0:0:0:
213,192,124293,1,0,0:0:0:0:
42,192,124293,1,0,0:0:0:0:
469,192,124293,1,0,0:0:0:0:
384,192,124360,1,0,0:0:0:0:
298,192,124428,1,0,0:0:0:0:
469,192,124495,1,0,0:0:0:0:
213,192,124495,1,0,0:0:0:0:
42,192,124563,1,0,0:0:0:0:
128,192,124563,1,0,0:0:0:0:
384,192,124563,1,0,0:0:0:0:
469,192,124698,1,0,0:0:0:0:
213,192,124698,1,0,0:0:0:0:
298,192,124766,1,0,0:0:0:0:
384,192,124833,1,0,0:0:0:0:
128,192,124833,1,0,0:0:0:0:
213,192,124901,1,0,0:0:0:0:
298,192,124968,1,0,0:0:0:0:
128,192,125036,1,0,0:0:0:0:
384,192,125036,1,0,0:0:0:0:
42,192,125104,1,0,0:0:0:0:
469,192,125104,1,0,0:0:0:0:
213,192,125104,1,0,0:0:0:0:
384,192,125239,1,0,0:0:0:0:
128,192,125239,1,0,0:0:0:0:
213,192,125306,1,0,0:0:0:0:
298,192,125374,1,0,0:0:0:0:
469,192,125374,1,0,0:0:0:0:
42,192,125374,1,0,0:0:0:0:
298,192,125509,1,0,0:0:0:0:
469,192,125509,1,0,0:0:0:0:
128,192,125644,1,0,0:0:0:0:
42,192,125644,1,0,0:0:0:0:
384,192,125644,1,0,0:0:0:0:
128,192,125779,1,0,0:0:0:0:
42,192,125779,1,0,0:0:0:0:
213,192,125847,1,0,0:0:0:0:
298,192,125914,1,0,0:0:0:0:
469,192,125914,1,0,0:0:0:0:
384,192,125914,1,0,0:0:0:0:
128,192,125982,1,0,0:0:0:0:
42,192,125982,1,0,0:0:0:0:
213,192,125982,1,0,0:0:0:0:
298,192,126049,1,0,0:0:0:0:
384,192,126117,1,0,0:0:0:0:
42,192,126185,1,0,0:0:0:0:
128,192,126185,1,0,0:0:0:0:
469,192,126185,1,0,0:0:0:0:
213,192,126320,1,0,0:0:0:0:
384,192,126320,1,0,0:0:0:0:
298,192,126387,1,0,0:0:0:0:
42,192,126455,1,0,0:0:0:0:
384,192,126455,1,0,0:0:0:0:
469,192,126455,1,0,0:0:0:0:
128,192,126522,1,0,0:0:0:0:
213,192,126590,1,0,0:0:0:0:
469,192,126590,1,0,0:0:0:0:
298,192,126658,1,0,0:0:0:0:
384,192,126725,1,0,0:0:0:0:
128,192,126725,1,0,0:0:0:0:
42,192,126725,1,0,0:0:0:0:
469,192,126793,1,0,0:0:0:0:
384,192,126860,1,0,0:0:0:0:
42,192,126860,1,0,0:0:0:0:
298,192,126928,1,0,0:0:0:0:
213,192,126995,1,0,0:0:0:0:
469,192,126995,1,0,0:0:0:0:
384,192,126995,1,0,0:0:0:0:
128,192,127063,1,0,0:0:0:0:
42,192,127131,1,0,0:0:0:0:
298,192,127131,1,0,0:0:0:0:
128,192,127198,1,0,0:0:0:0:
213,192,127266,1,0,0:0:0:0:
469,192,127266,1,0,0:0:0:0:
384,192,127266,1,0,0:0:0:0:
298,192,127333,1,0,0:0:0:0:
384,192,127401,1,0,0:0:0:0:
42,192,127401,1,0,0:0:0:0:
213,192,127468,1,0,0:0:0:0:
469,192,127536,1,0,0:0:0:0:
42,192,127536,1,0,0:0:0:0:
128,192,127536,1,0,0:0:0:0:
384,192,127604,1,0,0:0:0:0:
42,192,127671,1,0,0:0:0:0:
298,192,127671,1,0,0:0:0:0:
213,192,127739,1,0,0:0:0:0:
469,192,127806,1,0,0:0:0:0:
128,192,127806,1,0,0:0:0:0:
384,192,127806,1,0,0:0:0:0:
42,192,127874,1,0,0:0:0:0:
128,192,127941,1,0,0:0:0:0:
469,192,127941,1,0,0:0:0:0:
213,192,128009,1,0,0:0:0:0:
42,192,128077,1,0,0:0:0:0:
128,192,128077,1,0,0:0:0:0:
298,192,128077,1,0,0:0:0:0:
384,192,128144,1,0,0:0:0:0:
213,192,128212,1,0,0:0:0:0:
469,192,128212,1,0,0:0:0:0:
384,192,128279,1,0,0:0:0:0:
128,192,128347,1,0,0:0:0:0:
298,192,128347,1,0,0:0:0:0:
42,192,128347,1,0,0:0:0:0:
213,192,128414,1,0,0:0:0:0:
42,192,128482,1,0,0:0:0:0:
128,192,128482,1,0,0:0:0:0:
298,192,128549,1,0,0:0:0:0:
469,192,128617,1,0,0:0:0:0:
384,192,128617,1,0,0:0:0:0:
42,192,128617,1,0,0:0:0:0:
213,192,128685,1,0,0:0:0:0:
384,192,128752,1,0,0:0:0:0:
469,192,128752,1,0,0:0:0:0:
298,192,128752,1,0,0:0:0:0:
128,192,128820,1,0,0:0:0:0:
384,192,128887,1,0,0:0:0:0:
469,192,128887,1,0,0:0:0:0:
298,192,128887,1,0,0:0:0:0:
128,192,128955,1,0,0:0:0:0:
384,192,129022,1,0,0:0:0:0:
469,192,129022,1,0,0:0:0:0:
42,192,129022,1,0,0:0:0:0:
213,192,129090,1,0,0:0:0:0:
128,192,129158,1,0,0:0:0:0:
42,192,129158,1,0,0:0:0:0:
469,192,129158,1,0,0:0:0:0:
298,192,129225,1,0,0:0:0:0:
128,192,129293,1,0,0:0:0:0:
42,192,129293,1,0,0:0:0:0:
213,192,129293,1,0,0:0:0:0:
384,192,129360,1,0,0:0:0:0:
128,192,129428,1,0,0:0:0:0:
42,192,129428,1,0,0:0:0:0:
213,192,129428,1,0,0:0:0:0:
298,192,129495,1,0,0:0:0:0:
128,192,129563,1,0,0:0:0:0:
42,192,129563,1,0,0:0:0:0:
469,192,129563,1,0,0:0:0:0:
213,192,129631,1,0,0:0:0:0:
384,192,129698,1,0,0:0:0:0:
469,192,129698,1,0,0:0:0:0:
298,192,129698,1,0,0:0:0:0:
128,192,129766,1,0,0:0:0:0:
42,192,129766,1,0,0:0:0:0:
384,192,129833,1,0,0:0:0:0:
469,192,129833,1,0,0:0:0:0:
213,192,129833,1,0,0:0:0:0:
128,192,129901,1,0,0:0:0:0:
42,192,129901,1,0,0:0:0:0:
469,192,129968,1,0,0:0:0:0:
384,192,129968,1,0,0:0:0:0:
298,192,129968,1,0,0:0:0:0:
128,192,130036,1,0,0:0:0:0:
42,192,130036,1,0,0:0:0:0:
384,192,130104,1,0,0:0:0:0:
469,192,130104,1,0,0:0:0:0:
213,192,130104,1,0,0:0:0:0:
128,192,130171,1,0,0:0:0:0:
42,192,130171,1,0,0:0:0:0:
298,192,130239,1,0,0:0:0:0:
469,192,130239,1,0,0:0:0:0:
384,192,130239,1,0,0:0:0:0:
213,192,130306,1,0,0:0:0:0:
42,192,130306,1,0,0:0:0:0:
128,192,130306,1,0,0:0:0:0:
298,192,130374,1,0,0:0:0:0:
469,192,130374,1,0,0:0:0:0:
384,192,130374,1,0,0:0:0:0:
42,192,130441,1,0,0:0:0:0:
213,192,130441,1,0,0:0:0:0:
128,192,130441,1,0,0:0:0:0:
298,192,130509,1,0,0:0:0:0:
469,192,130509,1,0,0:0:0:0:
384,192,130509,1,0,0:0:0:0:
213,192,130577,1,0,0:0:0:0:
42,192,130577,1,0,0:0:0:0:
128,192,130577,1,0,0:0:0:0:
298,192,130644,1,0,0:0:0:0:
469,192,130644,1,0,0:0:0:0:
384,192,130644,1,0,0:0:0:0:
213,192,130712,1,0,0:0:0:0:
42,192,130712,1,0,0:0:0:0:
128,192,130712,1,0,0:0:0:0:
384,192,130779,1,0,0:0:0:0:
298,192,130847,1,0,0:0:0:0:
213,192,130914,1,0,0:0:0:0:
128,192,130982,1,0,0:0:0:0:
213,192,131049,1,0,0:0:0:0:
128,192,131140,1,0,0:0:0:0:
42,192,131230,1,0,0:0:0:0:
298,192,131320,1,0,0:0:0:0:
469,192,131320,1,0,0:0:0:0:
298,192,131455,1,0,0:0:0:0:
213,192,131590,1,0,0:0:0:0:
384,192,131590,1,0,0:0:0:0:
213,192,131725,1,0,0:0:0:0:
384,192,131860,5,0,0:0:0:0:
469,192,131860,1,0,0:0:0:0:
42,192,131860,1,0,0:0:0:0:
42,192,131995,1,0,0:0:0:0:
298,192,131995,1,0,0:0:0:0:
42,192,132131,1,0,0:0:0:0:
213,192,132131,1,0,0:0:0:0:
42,192,132266,1,0,0:0:0:0:
298,192,132266,1,0,0:0:0:0:
42,192,132401,128,0,132671:0:0:0:0:
384,192,132401,1,0,0:0:0:0:
469,192,132401,128,0,132671:0:0:0:0:
213,192,132671,1,0,0:0:0:0:
213,192,132806,128,0,132941:0:0:0:0:
298,192,132941,5,0,0:0:0:0:
469,192,132941,1,0,0:0:0:0:
42,192,132941,1,0,0:0:0:0:
128,192,133009,1,0,0:0:0:0:
213,192,133077,1,0,0:0:0:0:
298,192,133144,1,0,0:0:0:0:
42,192,133144,1,0,0:0:0:0:
128,192,133212,1,0,0:0:0:0:
384,192,133212,1,0,0:0:0:0:
469,192,133212,1,0,0:0:0:0:
213,192,133279,1,0,0:0:0:0:
384,192,133347,1,0,0:0:0:0:
128,192,133347,1,0,0:0:0:0:
298,192,133414,1,0,0:0:0:0:
213,192,133482,1,0,0:0:0:0:
42,192,133482,1,0,0:0:0:0:
469,192,133482,1,0,0:0:0:0:
384,192,133549,1,0,0:0:0:0:
298,192,133617,1,0,0:0:0:0:
469,192,133685,1,0,0:0:0:0:
213,192,133685,1,0,0:0:0:0:
384,192,133752,1,0,0:0:0:0:
128,192,133752,1,0,0:0:0:0:
42,192,133752,1,0,0:0:0:0:
298,192,133820,1,0,0:0:0:0:
384,192,133887,1,0,0:0:0:0:
128,192,133887,1,0,0:0:0:0:
213,192,133955,1,0,0:0:0:0:
298,192,134022,1,0,0:0:0:0:
469,192,134022,1,0,0:0:0:0:
42,192,134022,1,0,0:0:0:0:
213,192,134090,1,0,0:0:0:0:
128,192,134158,1,0,0:0:0:0:
42,192,134225,1,0,0:0:0:0:
298,192,134225,1,0,0:0:0:0:
384,192,134293,1,0,0:0:0:0:
128,192,134293,1,0,0:0:0:0:
469,192,134293,1,0,0:0:0:0:
213,192,134360,1,0,0:0:0:0:
298,192,134428,1,0,0:0:0:0:
42,192,134428,1,0,0:0:0:0:
384,192,134495,1,0,0:0:0:0:
213,192,134563,1,0,0:0:0:0:
42,192,134563,1,0,0:0:0:0:
469,192,134563,1,0,0:0:0:0:
298,192,134631,1,0,0:0:0:0:
384,192,134698,1,0,0:0:0:0:
469,192,134766,1,0,0:0:0:0:
213,192,134766,1,0,0:0:0:0:
384,192,134833,1,0,0:0:0:0:
128,192,134833,1,0,0:0:0:0:
42,192,134833,1,0,0:0:0:0:
298,192,134901,1,0,0:0:0:0:
213,192,134968,1,0,0:0:0:0:
469,192,134968,1,0,0:0:0:0:
128,192,135036,1,0,0:0:0:0:
469,192,135104,5,0,0:0:0:0:
384,192,135104,1,0,0:0:0:0:
42,192,135104,1,0,0:0:0:0:
213,192,135171,1,0,0:0:0:0:
298,192,135239,1,0,0:0:0:0:
384,192,135306,1,0,0:0:0:0:
128,192,135306,1,0,0:0:0:0:
42,192,135374,1,0,0:0:0:0:
469,192,135374,1,0,0:0:0:0:
298,192,135374,1,0,0:0:0:0:
128,192,135441,1,0,0:0:0:0:
384,192,135509,1,0,0:0:0:0:
213,192,135509,1,0,0:0:0:0:
298,192,135577,1,0,0:0:0:0:
128,192,135644,1,0,0:0:0:0:
42,192,135644,1,0,0:0:0:0:
469,192,135644,1,0,0:0:0:0:
298,192,135712,1,0,0:0:0:0:
213,192,135779,1,0,0:0:0:0:
384,192,135847,1,0,0:0:0:0:
128,192,135847,1,0,0:0:0:0:
469,192,135914,1,0,0:0:0:0:
42,192,135914,1,0,0:0:0:0:
213,192,135914,1,0,0:0:0:0:
384,192,135982,1,0,0:0:0:0:
298,192,136049,1,0,0:0:0:0:
128,192,136049,1,0,0:0:0:0:
213,192,136117,1,0,0:0:0:0:
384,192,136185,1,0,0:0:0:0:
469,192,136185,1,0,0:0:0:0:
42,192,136185,1,0,0:0:0:0:
128,192,136252,1,0,0:0:0:0:
213,192,136320,1,0,0:0:0:0:
469,192,136320,1,0,0:0:0:0:
298,192,136387,1,0,0:0:0:0:
128,192,136455,1,0,0:0:0:0:
42,192,136455,1,0,0:0:0:0:
469,192,136455,1,0,0:0:0:0:
384,192,136522,1,0,0:0:0:0:
298,192,136590,1,0,0:0:0:0:
42,192,136590,1,0,0:0:0:0:
213,192,136658,1,0,0:0:0:0:
42,192,136725,1,0,0:0:0:0:
384,192,136725,1,0,0:0:0:0:
469,192,136725,1,0,0:0:0:0:
128,192,136793,1,0,0:0:0:0:
213,192,136860,1,0,0:0:0:0:
384,192,136860,1,0,0:0:0:0:
298,192,136928,1,0,0:0:0:0:
128,192,136995,1,0,0:0:0:0:
469,192,136995,1,0,0:0:0:0:
42,192,136995,1,0,0:0:0:0:
384,192,137063,1,0,0:0:0:0:
298,192,137131,1,0,0:0:0:0:
128,192,137131,1,0,0:0:0:0:
213,192,137198,1,0,0:0:0:0:
298,192,137266,5,0,0:0:0:0:
469,192,137266,1,0,0:0:0:0:
42,192,137266,1,0,0:0:0:0:
128,192,137333,1,0,0:0:0:0:
213,192,137401,1,0,0:0:0:0:
298,192,137468,1,0,0:0:0:0:
42,192,137468,1,0,0:0:0:0:
128,192,137536,1,0,0:0:0:0:
384,192,137536,1,0,0:0:0:0:
469,192,137536,1,0,0:0:0:0:
213,192,137604,1,0,0:0:0:0:
384,192,137671,1,0,0:0:0:0:
128,192,137671,1,0,0:0:0:0:
298,192,137739,1,0,0:0:0:0:
213,192,137806,1,0,0:0:0:0:
42,192,137806,1,0,0:0:0:0:
469,192,137806,1,0,0:0:0:0:
384,192,137874,1,0,0:0:0:0:
298,192,137941,1,0,0:0:0:0:
469,192,138009,1,0,0:0:0:0:
213,192,138009,1,0,0:0:0:0:
384,192,138077,1,0,0:0:0:0:
128,192,138077,1,0,0:0:0:0:
42,192,138077,1,0,0:0:0:0:
298,192,138144,1,0,0:0:0:0:
384,192,138212,1,0,0:0:0:0:
128,192,138212,1,0,0:0:0:0:
213,192,138279,1,0,0:0:0:0:
298,192,138347,1,0,0:0:0:0:
469,192,138347,1,0,0:0:0:0:
42,192,138347,1,0,0:0:0:0:
213,192,138414,1,0,0:0:0:0:
128,192,138482,1,0,0:0:0:0:
42,192,138549,1,0,0:0:0:0:
298,192,138549,1,0,0:0:0:0:
384,192,138617,1,0,0:0:0:0:
128,192,138617,1,0,0:0:0:0:
469,192,138617,1,0,0:0:0:0:
213,192,138685,1,0,0:0:0:0:
298,192,138752,1,0,0:0:0:0:
42,192,138752,1,0,0:0:0:0:
384,192,138820,1,0,0:0:0:0:
213,192,138887,1,0,0:0:0:0:
42,192,138887,1,0,0:0:0:0:
469,192,138887,1,0,0:0:0:0:
298,192,138955,1,0,0:0:0:0:
384,192,139022,1,0,0:0:0:0:
128,192,139022,1,0,0:0:0:0:
469,192,139090,1,0,0:0:0:0:
213,192,139090,1,0,0:0:0:0:
384,192,139158,1,0,0:0:0:0:
128,192,139158,1,0,0:0:0:0:
42,192,139158,1,0,0:0:0:0:
298,192,139225,1,0,0:0:0:0:
213,192,139293,1,0,0:0:0:0:
469,192,139293,1,0,0:0:0:0:
384,192,139293,1,0,0:0:0:0:
128,192,139360,1,0,0:0:0:0:
298,192,139428,1,0,0:0:0:0:
469,192,139428,1,0,0:0:0:0:
42,192,139428,128,0,139495:0:0:0:0:
128,192,139495,128,0,139563:0:0:0:0:
213,192,139563,128,0,139631:0:0:0:0:
298,192,139631,128,0,139698:0:0:0:0:
469,192,139698,1,0,0:0:0:0:
384,192,139698,1,0,0:0:0:0:
213,192,139698,128,0,139833:0:0:0:0:
42,192,139833,128,0,139901:0:0:0:0:
128,192,139901,128,0,139968:0:0:0:0:
469,192,139968,1,0,0:0:0:0:
384,192,139968,1,0,0:0:0:0:
213,192,139968,128,0,140036:0:0:0:0:
298,192,140036,128,0,140104:0:0:0:0:
213,192,140104,128,0,140239:0:0:0:0:
469,192,140239,1,0,0:0:0:0:
298,192,140239,1,0,0:0:0:0:
42,192,140239,128,0,140306:0:0:0:0:
128,192,140306,128,0,140374:0:0:0:0:
213,192,140374,128,0,140441:0:0:0:0:
298,192,140441,128,0,140509:0:0:0:0:
469,192,140509,1,0,0:0:0:0:
384,192,140509,1,0,0:0:0:0:
213,192,140509,128,0,140577:0:0:0:0:
128,192,140577,128,0,140644:0:0:0:0:
42,192,140644,128,0,140779:0:0:0:0:
128,192,140712,128,0,140847:0:0:0:0:
469,192,140779,1,0,0:0:0:0:
384,192,140779,1,0,0:0:0:0:
213,192,140779,128,0,140914:0:0:0:0:
298,192,140847,128,0,140982:0:0:0:0:
384,192,140914,128,0,141049:0:0:0:0:
469,192,140982,128,0,141049:0:0:0:0:
128,192,141049,1,0,0:0:0:0:
42,192,141049,1,0,0:0:0:0:
298,192,141049,128,0,141320:0:0:0:0:
213,192,141185,128,0,141522:0:0:0:0:
384,192,141320,1,0,0:0:0:0:
469,192,141320,128,0,141522:0:0:0:0:
42,192,141320,128,0,141522:0:0:0:0:
298,192,141455,1,0,0:0:0:0:
213,192,141590,5,0,0:0:0:0:
42,192,141590,1,0,0:0:0:0:
469,192,141590,1,0,0:0:0:0:
384,192,141658,1,0,0:0:0:0:
298,192,141725,1,0,0:0:0:0:
213,192,141793,1,0,0:0:0:0:
469,192,141793,1,0,0:0:0:0:
384,192,141860,1,0,0:0:0:0:
128,192,141860,1,0,0:0:0:0:
42,192,141860,1,0,0:0:0:0:
298,192,141928,1,0,0:0:0:0:
128,192,141995,1,0,0:0:0:0:
384,192,141995,1,0,0:0:0:0:
213,192,142063,1,0,0:0:0:0:
298,192,142131,1,0,0:0:0:0:
469,192,142131,1,0,0:0:0:0:
42,192,142131,1,0,0:0:0:0:
128,192,142198,1,0,0:0:0:0:
213,192,142266,1,0,0:0:0:0:
42,192,142333,1,0,0:0:0:0:
298,192,142333,1,0,0:0:0:0:
128,192,142401,1,0,0:0:0:0:
384,192,142401,1,0,0:0:0:0:
469,192,142401,1,0,0:0:0:0:
213,192,142468,1,0,0:0:0:0:
128,192,142536,1,0,0:0:0:0:
384,192,142536,1,0,0:0:0:0:
298,192,142604,1,0,0:0:0:0:
213,192,142671,1,0,0:0:0:0:
42,192,142671,1,0,0:0:0:0:
469,192,142671,1,0,0:0:0:0:
298,192,142739,1,0,0:0:0:0:
384,192,142806,1,0,0:0:0:0:
469,192,142874,1,0,0:0:0:0:
213,192,142874,1,0,0:0:0:0:
128,192,142941,1,0,0:0:0:0:
384,192,142941,1,0,0:0:0:0:
42,192,142941,1,0,0:0:0:0:
298,192,143009,1,0,0:0:0:0:
213,192,143077,1,0,0:0:0:0:
469,192,143077,1,0,0:0:0:0:
128,192,143144,1,0,0:0:0:0:
298,192,143212,1,0,0:0:0:0:
469,192,143212,1,0,0:0:0:0:
42,192,143212,1,0,0:0:0:0:
213,192,143279,1,0,0:0:0:0:
128,192,143347,1,0,0:0:0:0:
42,192,143414,1,0,0:0:0:0:
298,192,143414,1,0,0:0:0:0:
128,192,143482,1,0,0:0:0:0:
384,192,143482,1,0,0:0:0:0:
469,192,143482,1,0,0:0:0:0:
213,192,143549,1,0,0:0:0:0:
298,192,143617,1,0,0:0:0:0:
42,192,143617,1,0,0:0:0:0:
384,192,143685,1,0,0:0:0:0:
42,192,143752,5,0,0:0:0:0:
128,192,143752,1,0,0:0:0:0:
469,192,143752,1,0,0:0:0:0:
298,192,143820,1,0,0:0:0:0:
213,192,143887,1,0,0:0:0:0:
128,192,143955,1,0,0:0:0:0:
384,192,143955,1,0,0:0:0:0:
469,192,144022,1,0,0:0:0:0:
42,192,144022,1,0,0:0:0:0:
213,192,144022,1,0,0:0:0:0:
384,192,144090,1,0,0:0:0:0:
128,192,144158,1,0,0:0:0:0:
298,192,144158,1,0,0:0:0:0:
213,192,144225,1,0,0:0:0:0:
384,192,144293,1,0,0:0:0:0:
469,192,144293,1,0,0:0:0:0:
42,192,144293,1,0,0:0:0:0:
213,192,144360,1,0,0:0:0:0:
298,192,144428,1,0,0:0:0:0:
128,192,144495,1,0,0:0:0:0:
384,192,144495,1,0,0:0:0:0:
42,192,144563,1,0,0:0:0:0:
469,192,144563,1,0,0:0:0:0:
298,192,144563,1,0,0:0:0:0:
128,192,144631,1,0,0:0:0:0:
213,192,144698,1,0,0:0:0:0:
384,192,144698,1,0,0:0:0:0:
298,192,144766,1,0,0:0:0:0:
128,192,144833,1,0,0:0:0:0:
42,192,144833,1,0,0:0:0:0:
469,192,144833,1,0,0:0:0:0:
384,192,144901,1,0,0:0:0:0:
298,192,144968,1,0,0:0:0:0:
128,192,144968,1,0,0:0:0:0:
213,192,145036,1,0,0:0:0:0:
384,192,145104,1,0,0:0:0:0:
469,192,145104,1,0,0:0:0:0:
42,192,145104,1,0,0:0:0:0:
128,192,145171,1,0,0:0:0:0:
213,192,145239,1,0,0:0:0:0:
384,192,145239,1,0,0:0:0:0:
298,192,145306,1,0,0:0:0:0:
469,192,145374,1,0,0:0:0:0:
128,192,145374,1,0,0:0:0:0:
42,192,145374,1,0,0:0:0:0:
384,192,145441,1,0,0:0:0:0:
298,192,145509,1,0,0:0:0:0:
42,192,145509,1,0,0:0:0:0:
213,192,145577,1,0,0:0:0:0:
384,192,145644,1,0,0:0:0:0:
42,192,145644,1,0,0:0:0:0:
469,192,145644,1,0,0:0:0:0:
128,192,145712,1,0,0:0:0:0:
213,192,145779,1,0,0:0:0:0:
469,192,145779,1,0,0:0:0:0:
298,192,145847,1,0,0:0:0:0:
213,192,145914,5,0,0:0:0:0:
42,192,145914,1,0,0:0:0:0:
469,192,145914,1,0,0:0:0:0:
384,192,145982,1,0,0:0:0:0:
298,192,146049,1,0,0:0:0:0:
213,192,146117,1,0,0:0:0:0:
469,192,146117,1,0,0:0:0:0:
384,192,146185,1,0,0:0:0:0:
128,192,146185,1,0,0:0:0:0:
42,192,146185,1,0,0:0:0:0:
298,192,146252,1,0,0:0:0:0:
128,192,146320,1,0,0:0:0:0:
384,192,146320,1,0,0:0:0:0:
213,192,146387,1,0,0:0:0:0:
298,192,146455,1,0,0:0:0:0:
469,192,146455,1,0,0:0:0:0:
42,192,146455,1,0,0:0:0:0:
128,192,146522,1,0,0:0:0:0:
213,192,146590,1,0,0:0:0:0:
42,192,146658,1,0,0:0:0:0:
298,192,146658,1,0,0:0:0:0:
128,192,146725,1,0,0:0:0:0:
384,192,146725,1,0,0:0:0:0:
469,192,146725,1,0,0:0:0:0:
213,192,146793,1,0,0:0:0:0:
128,192,146860,1,0,0:0:0:0:
384,192,146860,1,0,0:0:0:0:
298,192,146928,1,0,0:0:0:0:
213,192,146995,1,0,0:0:0:0:
42,192,146995,1,0,0:0:0:0:
469,192,146995,1,0,0:0:0:0:
298,192,147063,1,0,0:0:0:0:
384,192,147131,1,0,0:0:0:0:
469,192,147198,1,0,0:0:0:0:
213,192,147198,1,0,0:0:0:0:
128,192,147266,1,0,0:0:0:0:
384,192,147266,1,0,0:0:0:0:
42,192,147266,1,0,0:0:0:0:
298,192,147333,1,0,0:0:0:0:
213,192,147401,1,0,0:0:0:0:
469,192,147401,1,0,0:0:0:0:
128,192,147468,1,0,0:0:0:0:
298,192,147536,1,0,0:0:0:0:
469,192,147536,1,0,0:0:0:0:
42,192,147536,1,0,0:0:0:0:
213,192,147604,1,0,0:0:0:0:
128,192,147671,1,0,0:0:0:0:
384,192,147671,1,0,0:0:0:0:
42,192,147739,1,0,0:0:0:0:
298,192,147739,1,0,0:0:0:0:
128,192,147806,1,0,0:0:0:0:
384,192,147806,1,0,0:0:0:0:
469,192,147806,1,0,0:0:0:0:
213,192,147874,1,0,0:0:0:0:
298,192,147941,1,0,0:0:0:0:
42,192,147941,1,0,0:0:0:0:
128,192,147941,1,0,0:0:0:0:
384,192,148009,1,0,0:0:0:0:
128,192,148077,1,0,0:0:0:0:
42,192,148077,1,0,0:0:0:0:
469,192,148077,128,0,148144:0:0:0:0:
384,192,148144,128,0,148212:0:0:0:0:
213,192,148144,1,0,0:0:0:0:
298,192,148212,128,0,148279:0:0:0:0:
128,192,148212,1,0,0:0:0:0:
213,192,148279,128,0,148347:0:0:0:0:
298,192,148347,128,0,148482:0:0:0:0:
42,192,148347,1,0,0:0:0:0:
128,192,148482,1,0,0:0:0:0:
469,192,148482,128,0,148549:0:0:0:0:
384,192,148549,128,0,148617:0:0:0:0:
128,192,148617,1,0,0:0:0:0:
42,192,148617,1,0,0:0:0:0:
298,192,148617,128,0,148685:0:0:0:0:
213,192,148685,128,0,148752:0:0:0:0:
298,192,148752,128,0,148887:0:0:0:0:
128,192,148752,1,0,0:0:0:0:
469,192,148887,128,0,148955:0:0:0:0:
42,192,148887,1,0,0:0:0:0:
384,192,148955,128,0,149022:0:0:0:0:
42,192,149022,1,0,0:0:0:0:
128,192,149022,1,0,0:0:0:0:
298,192,149022,128,0,149090:0:0:0:0:
213,192,149090,128,0,149158:0:0:0:0:
298,192,149158,128,0,149293:0:0:0:0:
42,192,149158,1,0,0:0:0:0:
384,192,149225,128,0,149360:0:0:0:0:
128,192,149293,1,0,0:0:0:0:
469,192,149293,128,0,149428:0:0:0:0:
42,192,149428,128,0,149563:0:0:0:0:
128,192,149428,128,0,149495:0:0:0:0:
384,192,149428,128,0,149563:0:0:0:0:
298,192,149495,128,0,149631:0:0:0:0:
469,192,149563,1,0,0:0:0:0:
213,192,149563,128,0,149698:0:0:0:0:
128,192,149631,128,0,149766:0:0:0:0:
384,192,149698,1,0,0:0:0:0:
42,192,149698,128,0,149766:0:0:0:0:
384,192,149833,128,0,149901:0:0:0:0:
469,192,149833,128,0,149968:0:0:0:0:
128,192,149833,128,0,149968:0:0:0:0:
213,192,149901,128,0,150036:0:0:0:0:
42,192,149968,1,0,0:0:0:0:
298,192,149968,128,0,150104:0:0:0:0:
384,192,150036,128,0,150171:0:0:0:0:
128,192,150104,1,0,0:0:0:0:
469,192,150104,128,0,150171:0:0:0:0:
42,192,150239,128,0,150306:0:0:0:0:
213,192,150239,128,0,150306:0:0:0:0:
469,192,150239,128,0,150306:0:0:0:0:
469,192,150509,128,0,150644:0:0:0:0:
42,192,150509,1,0,0:0:0:0:
298,192,150509,1,0,0:0:0:0:
128,192,150644,1,0,0:0:0:0:
298,192,150644,1,0,0:0:0:0:
384,192,150712,1,0,0:0:0:0:
469,192,150779,128,0,150914:0:0:0:0:
213,192,150779,1,0,0:0:0:0:
42,192,150779,1,0,0:0:0:0:
42,192,150914,1,0,0:0:0:0:
469,192,151049,128,0,151185:0:0:0:0:
384,192,151049,1,0,0:0:0:0:
213,192,151049,1,0,0:0:0:0:
128,192,151117,1,0,0:0:0:0:
42,192,151185,1,0,0:0:0:0:
298,192,151320,128,0,151455:0:0:0:0:
128,192,151320,1,0,0:0:0:0:
469,192,151320,1,0,0:0:0:0:
384,192,151455,1,0,0:0:0:0:
128,192,151455,1,0,0:0:0:0:
213,192,151522,1,0,0:0:0:0:
298,192,151590,128,0,151725:0:0:0:0:
42,192,151590,1,0,0:0:0:0:
469,192,151590,1,0,0:0:0:0:
213,192,151725,1,0,0:0:0:0:
128,192,151725,1,0,0:0:0:0:
213,192,151860,128,0,151995:0:0:0:0:
384,192,151860,1,0,0:0:0:0:
469,192,151860,1,0,0:0:0:0:
42,192,151860,1,0,0:0:0:0:
128,192,151995,1,0,0:0:0:0:
384,192,151995,1,0,0:0:0:0:
213,192,152131,128,0,152266:0:0:0:0:
128,192,152131,1,0,0:0:0:0:
42,192,152131,1,0,0:0:0:0:
298,192,152266,1,0,0:0:0:0:
384,192,152333,1,0,0:0:0:0:
42,192,152401,128,0,152536:0:0:0:0:
469,192,152401,1,0,0:0:0:0:
128,192,152401,1,0,0:0:0:0:
213,192,152468,1,0,0:0:0:0:
298,192,152536,1,0,0:0:0:0:
42,192,152671,128,0,152806:0:0:0:0:
213,192,152671,1,0,0:0:0:0:
384,192,152671,1,0,0:0:0:0:
469,192,152806,1,0,0:0:0:0:
213,192,152806,1,0,0:0:0:0:
128,192,152874,1,0,0:0:0:0:
42,192,152941,128,0,153077:0:0:0:0:
298,192,152941,1,0,0:0:0:0:
469,192,152941,1,0,0:0:0:0:
298,192,153077,1,0,0:0:0:0:
42,192,153212,128,0,153347:0:0:0:0:
213,192,153212,1,0,0:0:0:0:
469,192,153212,1,0,0:0:0:0:
298,192,153279,1,0,0:0:0:0:
384,192,153347,1,0,0:0:0:0:
213,192,153482,128,0,153617:0:0:0:0:
42,192,153482,1,0,0:0:0:0:
469,192,153482,1,0,0:0:0:0:
42,192,153617,1,0,0:0:0:0:
384,192,153617,1,0,0:0:0:0:
298,192,153685,1,0,0:0:0:0:
213,192,153752,128,0,153887:0:0:0:0:
128,192,153752,1,0,0:0:0:0:
469,192,153752,1,0,0:0:0:0:
384,192,153887,1,0,0:0:0:0:
42,192,153887,1,0,0:0:0:0:
298,192,154022,128,0,154158:0:0:0:0:
42,192,154022,1,0,0:0:0:0:
469,192,154022,1,0,0:0:0:0:
213,192,154022,1,0,0:0:0:0:
128,192,154158,1,0,0:0:0:0:
384,192,154158,1,0,0:0:0:0:
298,192,154293,128,0,154428:0:0:0:0:
469,192,154293,1,0,0:0:0:0:
128,192,154293,1,0,0:0:0:0:
213,192,154428,1,0,0:0:0:0:
469,192,154428,1,0,0:0:0:0:
128,192,154495,1,0,0:0:0:0:
42,192,154563,1,0,0:0:0:0:
384,192,154563,1,0,0:0:0:0:
469,192,154563,128,0,154698:0:0:0:0:
298,192,154631,1,0,0:0:0:0:
213,192,154698,1,0,0:0:0:0:
469,192,154833,128,0,154968:0:0:0:0:
42,192,154833,1,0,0:0:0:0:
298,192,154833,1,0,0:0:0:0:
128,192,154968,1,0,0:0:0:0:
298,192,154968,1,0,0:0:0:0:
384,192,155036,1,0,0:0:0:0:
469,192,155104,128,0,155239:0:0:0:0:
213,192,155104,1,0,0:0:0:0:
42,192,155104,1,0,0:0:0:0:
42,192,155239,1,0,0:0:0:0:
469,192,155374,128,0,155509:0:0:0:0:
384,192,155374,1,0,0:0:0:0:
213,192,155374,1,0,0:0:0:0:
128,192,155441,1,0,0:0:0:0:
42,192,155509,1,0,0:0:0:0:
298,192,155644,128,0,155779:0:0:0:0:
128,192,155644,1,0,0:0:0:0:
469,192,155644,1,0,0:0:0:0:
384,192,155779,1,0,0:0:0:0:
128,192,155779,1,0,0:0:0:0:
213,192,155847,1,0,0:0:0:0:
298,192,155914,128,0,156049:0:0:0:0:
42,192,155914,1,0,0:0:0:0:
469,192,155914,1,0,0:0:0:0:
213,192,156049,1,0,0:0:0:0:
128,192,156049,1,0,0:0:0:0:
213,192,156185,128,0,156320:0:0:0:0:
384,192,156185,1,0,0:0:0:0:
469,192,156185,1,0,0:0:0:0:
42,192,156185,1,0,0:0:0:0:
128,192,156320,1,0,0:0:0:0:
384,192,156320,1,0,0:0:0:0:
213,192,156455,128,0,156590:0:0:0:0:
128,192,156455,1,0,0:0:0:0:
42,192,156455,1,0,0:0:0:0:
298,192,156590,1,0,0:0:0:0:
384,192,156658,1,0,0:0:0:0:
42,192,156725,128,0,156860:0:0:0:0:
469,192,156725,1,0,0:0:0:0:
128,192,156725,1,0,0:0:0:0:
213,192,156793,1,0,0:0:0:0:
298,192,156860,1,0,0:0:0:0:
42,192,156995,128,0,157131:0:0:0:0:
213,192,156995,1,0,0:0:0:0:
384,192,156995,1,0,0:0:0:0:
469,192,157131,1,0,0:0:0:0:
213,192,157131,1,0,0:0:0:0:
128,192,157198,1,0,0:0:0:0:
42,192,157266,128,0,157401:0:0:0:0:
298,192,157266,1,0,0:0:0:0:
469,192,157266,1,0,0:0:0:0:
298,192,157401,1,0,0:0:0:0:
42,192,157536,128,0,157671:0:0:0:0:
213,192,157536,1,0,0:0:0:0:
384,192,157536,1,0,0:0:0:0:
469,192,157604,1,0,0:0:0:0:
298,192,157671,1,0,0:0:0:0:
128,192,157671,1,0,0:0:0:0:
384,192,157739,1,0,0:0:0:0:
42,192,157806,128,0,158009:0:0:0:0:
469,192,157806,1,0,0:0:0:0:
213,192,157806,128,0,158009:0:0:0:0:
42,192,158077,1,0,0:0:0:0:
213,192,158077,1,0,0:0:0:0:
469,192,158077,1,0,0:0:0:0:
213,192,158212,1,0,0:0:0:0:
42,192,158212,1,0,0:0:0:0:
42,192,158347,1,0,0:0:0:0:
213,192,158347,1,0,0:0:0:0:
469,192,158347,1,0,0:0:0:0:
213,192,158482,1,0,0:0:0:0:
42,192,158482,1,0,0:0:0:0:
298,192,158549,1,0,0:0:0:0:
384,192,158549,1,0,0:0:0:0:
469,192,158617,1,0,0:0:0:0:
213,192,158617,1,0,0:0:0:0:
42,192,158617,1,0,0:0:0:0:
298,192,158752,1,0,0:0:0:0:
128,192,158752,1,0,0:0:0:0:
384,192,158820,1,0,0:0:0:0:
298,192,158887,1,0,0:0:0:0:
42,192,158887,1,0,0:0:0:0:
469,192,158887,128,0,159022:0:0:0:0:
128,192,158955,1,0,0:0:0:0:
213,192,159022,1,0,0:0:0:0:
469,192,159158,128,0,159293:0:0:0:0:
42,192,159158,1,0,0:0:0:0:
298,192,159158,1,0,0:0:0:0:
128,192,159293,1,0,0:0:0:0:
298,192,159293,1,0,0:0:0:0:
384,192,159360,1,0,0:0:0:0:
469,192,159428,128,0,159563:0:0:0:0:
213,192,159428,1,0,0:0:0:0:
42,192,159428,1,0,0:0:0:0:
42,192,159563,1,0,0:0:0:0:
469,192,159698,128,0,159833:0:0:0:0:
384,192,159698,1,0,0:0:0:0:
213,192,159698,1,0,0:0:0:0:
128,192,159766,1,0,0:0:0:0:
42,192,159833,1,0,0:0:0:0:
298,192,159968,128,0,160104:0:0:0:0:
128,192,159968,1,0,0:0:0:0:
469,192,159968,1,0,0:0:0:0:
384,192,160104,1,0,0:0:0:0:
128,192,160104,1,0,0:0:0:0:
213,192,160171,1,0,0:0:0:0:
298,192,160239,128,0,160374:0:0:0:0:
42,192,160239,1,0,0:0:0:0:
469,192,160239,1,0,0:0:0:0:
213,192,160374,1,0,0:0:0:0:
128,192,160374,1,0,0:0:0:0:
213,192,160509,128,0,160644:0:0:0:0:
384,192,160509,1,0,0:0:0:0:
469,192,160509,1,0,0:0:0:0:
42,192,160509,1,0,0:0:0:0:
128,192,160644,1,0,0:0:0:0:
384,192,160644,1,0,0:0:0:0:
213,192,160779,128,0,160914:0:0:0:0:
128,192,160779,1,0,0:0:0:0:
42,192,160779,1,0,0:0:0:0:
298,192,160914,1,0,0:0:0:0:
384,192,160982,1,0,0:0:0:0:
42,192,161049,128,0,161185:0:0:0:0:
469,192,161049,1,0,0:0:0:0:
128,192,161049,1,0,0:0:0:0:
213,192,161117,1,0,0:0:0:0:
298,192,161185,1,0,0:0:0:0:
42,192,161320,128,0,161455:0:0:0:0:
213,192,161320,1,0,0:0:0:0:
384,192,161320,1,0,0:0:0:0:
469,192,161455,1,0,0:0:0:0:
213,192,161455,1,0,0:0:0:0:
128,192,161522,1,0,0:0:0:0:
42,192,161590,128,0,161725:0:0:0:0:
298,192,161590,1,0,0:0:0:0:
469,192,161590,1,0,0:0:0:0:
298,192,161725,1,0,0:0:0:0:
42,192,161860,128,0,161995:0:0:0:0:
213,192,161860,1,0,0:0:0:0:
469,192,161860,1,0,0:0:0:0:
298,192,161928,1,0,0:0:0:0:
384,192,161995,1,0,0:0:0:0:
213,192,162131,128,0,162266:0:0:0:0:
42,192,162131,1,0,0:0:0:0:
469,192,162131,1,0,0:0:0:0:
42,192,162266,1,0,0:0:0:0:
384,192,162266,1,0,0:0:0:0:
298,192,162333,1,0,0:0:0:0:
213,192,162401,128,0,162536:0:0:0:0:
128,192,162401,1,0,0:0:0:0:
469,192,162401,1,0,0:0:0:0:
384,192,162536,1,0,0:0:0:0:
42,192,162536,1,0,0:0:0:0:
298,192,162671,128,0,162806:0:0:0:0:
42,192,162671,1,0,0:0:0:0:
469,192,162671,1,0,0:0:0:0:
213,192,162671,1,0,0:0:0:0:
128,192,162806,1,0,0:0:0:0:
384,192,162806,1,0,0:0:0:0:
298,192,162941,128,0,163077:0:0:0:0:
469,192,162941,1,0,0:0:0:0:
128,192,162941,1,0,0:0:0:0:
213,192,163077,1,0,0:0:0:0:
128,192,163144,1,0,0:0:0:0:
42,192,163212,1,0,0:0:0:0:
384,192,163212,1,0,0:0:0:0:
469,192,163212,128,0,163347:0:0:0:0:
298,192,163279,1,0,0:0:0:0:
42,192,163347,1,0,0:0:0:0:
213,192,163347,1,0,0:0:0:0:
469,192,163482,128,0,163617:0:0:0:0:
42,192,163482,1,0,0:0:0:0:
298,192,163482,1,0,0:0:0:0:
128,192,163617,1,0,0:0:0:0:
298,192,163617,1,0,0:0:0:0:
384,192,163685,1,0,0:0:0:0:
469,192,163752,128,0,163887:0:0:0:0:
213,192,163752,1,0,0:0:0:0:
42,192,163752,1,0,0:0:0:0:
42,192,163887,1,0,0:0:0:0:
469,192,164022,128,0,164158:0:0:0:0:
384,192,164022,1,0,0:0:0:0:
213,192,164022,1,0,0:0:0:0:
128,192,164090,1,0,0:0:0:0:
42,192,164158,1,0,0:0:0:0:
298,192,164293,128,0,164428:0:0:0:0:
128,192,164293,1,0,0:0:0:0:
469,192,164293,1,0,0:0:0:0:
384,192,164428,1,0,0:0:0:0:
128,192,164428,1,0,0:0:0:0:
213,192,164495,1,0,0:0:0:0:
298,192,164563,128,0,164698:0:0:0:0:
42,192,164563,1,0,0:0:0:0:
469,192,164563,1,0,0:0:0:0:
213,192,164698,1,0,0:0:0:0:
128,192,164698,1,0,0:0:0:0:
213,192,164833,128,0,164968:0:0:0:0:
384,192,164833,1,0,0:0:0:0:
469,192,164833,1,0,0:0:0:0:
42,192,164833,1,0,0:0:0:0:
128,192,164968,1,0,0:0:0:0:
384,192,164968,1,0,0:0:0:0:
213,192,165104,128,0,165239:0:0:0:0:
128,192,165104,1,0,0:0:0:0:
42,192,165104,1,0,0:0:0:0:
298,192,165239,1,0,0:0:0:0:
384,192,165306,1,0,0:0:0:0:
42,192,165374,128,0,165644:0:0:0:0:
469,192,165374,1,0,0:0:0:0:
213,192,165374,128,0,165509:0:0:0:0:
469,192,165509,1,0,0:0:0:0:
298,192,165509,128,0,165644:0:0:0:0:
213,192,165644,1,0,0:0:0:0:
384,192,165644,128,0,165779:0:0:0:0:
469,192,165779,128,0,166049:0:0:0:0:
42,192,165779,1,0,0:0:0:0:
298,192,165779,128,0,165914:0:0:0:0:
42,192,165914,1,0,0:0:0:0:
213,192,165914,128,0,166049:0:0:0:0:
298,192,166049,1,0,0:0:0:0:
384,192,166049,1,0,0:0:0:0:
128,192,166049,128,0,166185:0:0:0:0:
384,192,166185,1,0,0:0:0:0:
42,192,166185,128,0,166252:0:0:0:0:
469,192,166185,128,0,166995:0:0:0:0:
213,192,166252,128,0,166320:0:0:0:0:
128,192,166320,128,0,166387:0:0:0:0:
298,192,166387,128,0,166455:0:0:0:0:
213,192,166455,128,0,166522:0:0:0:0:
384,192,166522,128,0,166590:0:0:0:0:
42,192,166590,128,0,166658:0:0:0:0:
213,192,166658,128,0,166725:0:0:0:0:
128,192,166725,128,0,166793:0:0:0:0:
298,192,166793,128,0,166860:0:0:0:0:
213,192,166860,128,0,166928:0:0:0:0:
384,192,166928,128,0,166995:0:0:0:0:
42,192,166995,128,0,167468:0:0:0:0:
213,192,167131,128,0,167468:0:0:0:0:
384,192,167266,128,0,167468:0:0:0:0:
469,192,167401,128,0,167468:0:0:0:0:
384,192,167536,1,0,0:0:0:0:
469,192,167536,1,0,0:0:0:0:
42,192,167536,128,0,167941:0:0:0:0:
128,192,167604,128,0,167739:0:0:0:0:
213,192,167671,128,0,167806:0:0:0:0:
298,192,167739,128,0,167806:0:0:0:0:
128,192,167806,1,0,0:0:0:0:
469,192,167806,128,0,168212:0:0:0:0:
384,192,167874,128,0,168009:0:0:0:0:
298,192,167941,128,0,168077:0:0:0:0:
213,192,168009,128,0,168077:0:0:0:0:
42,192,168077,128,0,168482:0:0:0:0:
128,192,168077,1,0,0:0:0:0:
384,192,168077,1,0,0:0:0:0:
213,192,168212,1,0,0:0:0:0:
128,192,168212,128,0,168482:0:0:0:0:
384,192,168347,1,0,0:0:0:0:
469,192,168347,128,0,168617:0:0:0:0:
298,192,168482,1,0,0:0:0:0:
384,192,168482,128,0,168617:0:0:0:0:
213,192,168617,128,0,169022:0:0:0:0:
42,192,168617,128,0,169158:0:0:0:0:
128,192,168617,1,0,0:0:0:0:
469,192,168752,128,0,168887:0:0:0:0:
128,192,168887,1,0,0:0:0:0:
298,192,168887,1,0,0:0:0:0:
469,192,169022,128,0,169158:0:0:0:0:
384,192,169158,1,0,0:0:0:0:
213,192,169158,1,0,0:0:0:0:
128,192,169158,1,0,0:0:0:0:
128,192,169293,1,0,0:0:0:0:
213,192,169293,1,0,0:0:0:0:
384,192,169293,1,0,0:0:0:0:
298,192,169428,1,0,0:0:0:0:
42,192,169428,1,0,0:0:0:0:
469,192,169428,1,0,0:0:0:0:
298,192,169563,128,0,169698:0:0:0:0:
213,192,169631,128,0,169698:0:0:0:0:
128,192,169698,1,0,0:0:0:0:
42,192,169698,1,0,0:0:0:0:
469,192,169698,128,0,170104:0:0:0:0:
384,192,169766,128,0,169901:0:0:0:0:
298,192,169833,128,0,169968:0:0:0:0:
213,192,169901,128,0,169968:0:0:0:0:
384,192,169968,1,0,0:0:0:0:
42,192,169968,128,0,170374:0:0:0:0:
128,192,170036,128,0,170171:0:0:0:0:
213,192,170104,128,0,170239:0:0:0:0:
298,192,170171,128,0,170239:0:0:0:0:
469,192,170239,128,0,170644:0:0:0:0:
384,192,170239,1,0,0:0:0:0:
128,192,170239,1,0,0:0:0:0:
298,192,170374,1,0,0:0:0:0:
384,192,170374,128,0,170644:0:0:0:0:
42,192,170509,1,0,0:0:0:0:
213,192,170509,128,0,170779:0:0:0:0:
128,192,170644,1,0,0:0:0:0:
42,192,170644,128,0,170779:0:0:0:0:
128,192,170779,128,0,171185:0:0:0:0:
469,192,170779,128,0,171185:0:0:0:0:
298,192,170779,1,0,0:0:0:0:
384,192,170914,128,0,171252:0:0:0:0:
42,192,171049,1,0,0:0:0:0:
298,192,171049,128,0,171320:0:0:0:0:
213,192,171185,1,0,0:0:0:0:
42,192,171320,1,0,0:0:0:0:
469,192,171320,1,0,0:0:0:0:
128,192,171320,128,0,171410:0:0:0:0:
213,192,171365,128,0,171455:0:0:0:0:
298,192,171410,128,0,171500:0:0:0:0:
384,192,171455,128,0,171545:0:0:0:0:
213,192,171590,1,0,0:0:0:0:
469,192,171590,128,0,171725:0:0:0:0:
42,192,171590,128,0,171725:0:0:0:0:
213,192,171725,128,0,171860:0:0:0:0:
298,192,171793,128,0,171860:0:0:0:0:
384,192,171860,1,0,0:0:0:0:
469,192,171860,1,0,0:0:0:0:
42,192,171860,128,0,172266:0:0:0:0:
128,192,171928,128,0,172063:0:0:0:0:
213,192,171995,128,0,172131:0:0:0:0:
298,192,172063,128,0,172131:0:0:0:0:
128,192,172131,1,0,0:0:0:0:
469,192,172131,128,0,172536:0:0:0:0:
384,192,172198,128,0,172333:0:0:0:0:
298,192,172266,128,0,172401:0:0:0:0:
213,192,172333,128,0,172401:0:0:0:0:
42,192,172401,128,0,172806:0:0:0:0:
128,192,172401,1,0,0:0:0:0:
384,192,172401,1,0,0:0:0:0:
213,192,172536,1,0,0:0:0:0:
128,192,172536,128,0,172806:0:0:0:0:
384,192,172671,1,0,0:0:0:0:
469,192,172671,128,0,172941:0:0:0:0:
298,192,172806,1,0,0:0:0:0:
384,192,172806,128,0,172941:0:0:0:0:
213,192,172941,128,0,173482:0:0:0:0:
42,192,172941,128,0,173482:0:0:0:0:
128,192,172941,1,0,0:0:0:0:
469,192,173077,128,0,173212:0:0:0:0:
128,192,173212,1,0,0:0:0:0:
298,192,173212,1,0,0:0:0:0:
384,192,173347,128,0,173887:0:0:0:0:
128,192,173482,1,0,0:0:0:0:
469,192,173482,128,0,173887:0:0:0:0:
298,192,173617,128,0,173887:0:0:0:0:
42,192,173752,128,0,174022:0:0:0:0:
128,192,173752,1,0,0:0:0:0:
213,192,173887,128,0,174022:0:0:0:0:
469,192,174022,1,0,0:0:0:0:
128,192,174022,128,0,174293:0:0:0:0:
384,192,174022,128,0,174293:0:0:0:0:
42,192,174293,1,0,0:0:0:0:
469,192,174293,128,0,174495:0:0:0:0:
298,192,174428,1,0,0:0:0:0:
469,192,174563,128,0,174766:0:0:0:0:
128,192,174563,1,0,0:0:0:0:
42,192,174563,1,0,0:0:0:0:
384,192,174563,1,0,0:0:0:0:
298,192,174698,1,0,0:0:0:0:
469,192,174833,128,0,175036:0:0:0:0:
42,192,174833,1,0,0:0:0:0:
298,192,174968,1,0,0:0:0:0:
469,192,175104,128,0,175306:0:0:0:0:
42,192,175104,1,0,0:0:0:0:
213,192,175104,1,0,0:0:0:0:
298,192,175239,1,0,0:0:0:0:
213,192,175306,1,0,0:0:0:0:
384,192,175374,1,0,0:0:0:0:
469,192,175374,128,0,175577:0:0:0:0:
128,192,175441,1,0,0:0:0:0:
298,192,175509,1,0,0:0:0:0:
213,192,175577,1,0,0:0:0:0:
469,192,175644,128,0,175847:0:0:0:0:
384,192,175644,1,0,0:0:0:0:
128,192,175644,1,0,0:0:0:0:
42,192,175644,128,0,176117:0:0:0:0:
213,192,175779,128,0,176117:0:0:0:0:
384,192,175914,128,0,176117:0:0:0:0:
298,192,175914,1,0,0:0:0:0:
469,192,176049,128,0,176117:0:0:0:0:
298,192,176049,1,0,0:0:0:0:
384,192,176185,1,0,0:0:0:0:
469,192,176185,1,0,0:0:0:0:
42,192,176185,128,0,176590:0:0:0:0:
128,192,176252,128,0,176387:0:0:0:0:
213,192,176320,128,0,176455:0:0:0:0:
298,192,176387,128,0,176455:0:0:0:0:
128,192,176455,1,0,0:0:0:0:
469,192,176455,128,0,176860:0:0:0:0:
384,192,176522,128,0,176658:0:0:0:0:
298,192,176590,128,0,176725:0:0:0:0:
213,192,176658,128,0,176725:0:0:0:0:
42,192,176725,128,0,177131:0:0:0:0:
128,192,176725,1,0,0:0:0:0:
384,192,176725,1,0,0:0:0:0:
213,192,176860,1,0,0:0:0:0:
128,192,176860,128,0,177131:0:0:0:0:
384,192,176995,1,0,0:0:0:0:
469,192,176995,128,0,177266:0:0:0:0:
298,192,177131,1,0,0:0:0:0:
384,192,177131,128,0,177266:0:0:0:0:
213,192,177266,128,0,177671:0:0:0:0:
42,192,177266,128,0,177806:0:0:0:0:
128,192,177266,1,0,0:0:0:0:
469,192,177401,128,0,177536:0:0:0:0:
128,192,177536,1,0,0:0:0:0:
298,192,177536,1,0,0:0:0:0:
469,192,177671,128,0,177806:0:0:0:0:
128,192,177806,1,0,0:0:0:0:
384,192,177806,128,0,177896:0:0:0:0:
298,192,177851,128,0,177941:0:0:0:0:
213,192,177896,128,0,177986:0:0:0:0:
128,192,177941,128,0,178031:0:0:0:0:
298,192,178077,1,0,0:0:0:0:
42,192,178077,128,0,178212:0:0:0:0:
469,192,178077,128,0,178212:0:0:0:0:
298,192,178212,128,0,178347:0:0:0:0:
213,192,178279,128,0,178347:0:0:0:0:
128,192,178347,1,0,0:0:0:0:
42,192,178347,1,0,0:0:0:0:
469,192,178347,128,0,178752:0:0:0:0:
384,192,178414,128,0,178549:0:0:0:0:
298,192,178482,128,0,178617:0:0:0:0:
213,192,178549,128,0,178617:0:0:0:0:
384,192,178617,1,0,0:0:0:0:
42,192,178617,128,0,179022:0:0:0:0:
128,192,178685,128,0,178820:0:0:0:0:
213,192,178752,128,0,178887:0:0:0:0:
298,192,178820,128,0,178887:0:0:0:0:
469,192,178887,128,0,179293:0:0:0:0:
384,192,178887,1,0,0:0:0:0:
128,192,178887,1,0,0:0:0:0:
298,192,179022,1,0,0:0:0:0:
384,192,179022,128,0,179293:0:0:0:0:
42,192,179158,1,0,0:0:0:0:
213,192,179158,128,0,179428:0:0:0:0:
128,192,179293,1,0,0:0:0:0:
42,192,179293,128,0,179428:0:0:0:0:
128,192,179428,128,0,179833:0:0:0:0:
469,192,179428,128,0,179968:0:0:0:0:
298,192,179428,1,0,0:0:0:0:
384,192,179563,128,0,179833:0:0:0:0:
42,192,179698,1,0,0:0:0:0:
213,192,179698,1,0,0:0:0:0:
298,192,179833,1,0,0:0:0:0:
213,192,179901,1,0,0:0:0:0:
42,192,179968,1,0,0:0:0:0:
128,192,179968,1,0,0:0:0:0:
384,192,180036,1,0,0:0:0:0:
469,192,180036,1,0,0:0:0:0:
128,192,180104,1,0,0:0:0:0:
42,192,180104,1,0,0:0:0:0:
384,192,180171,1,0,0:0:0:0:
469,192,180171,1,0,0:0:0:0:
128,192,180239,1,0,0:0:0:0:
42,192,180239,1,0,0:0:0:0:
298,192,180239,128,0,180509:0:0:0:0:
42,192,180374,128,0,180509:0:0:0:0:
128,192,180441,128,0,180509:0:0:0:0:
384,192,180509,1,0,0:0:0:0:
469,192,180509,1,0,0:0:0:0:
213,192,180509,128,0,180914:0:0:0:0:
298,192,180712,1,0,0:0:0:0:
469,192,180779,1,0,0:0:0:0:
384,192,180779,1,0,0:0:0:0:
128,192,180779,1,0,0:0:0:0:
384,192,180914,1,0,0:0:0:0:
42,192,180914,128,0,181049:0:0:0:0:
128,192,180982,128,0,181049:0:0:0:0:
469,192,181049,1,0,0:0:0:0:
298,192,181049,128,0,181185:0:0:0:0:
213,192,181185,128,0,181320:0:0:0:0:
469,192,181252,1,0,0:0:0:0:
384,192,181320,1,0,0:0:0:0:
298,192,181320,1,0,0:0:0:0:
128,192,181320,128,0,181455:0:0:0:0:
384,192,181455,1,0,0:0:0:0:
42,192,181455,128,0,181590:0:0:0:0:
298,192,181590,1,0,0:0:0:0:
469,192,181590,1,0,0:0:0:0:
213,192,181590,128,0,181725:0:0:0:0:
384,192,181725,1,0,0:0:0:0:
42,192,181725,128,0,181860:0:0:0:0:
298,192,181793,1,0,0:0:0:0:
469,192,181860,1,0,0:0:0:0:
128,192,181860,1,0,0:0:0:0:
384,192,181860,1,0,0:0:0:0:
213,192,181928,1,0,0:0:0:0:
298,192,181995,1,0,0:0:0:0:
42,192,181995,128,0,182131:0:0:0:0:
128,192,182063,128,0,182131:0:0:0:0:
384,192,182131,1,0,0:0:0:0:
213,192,182131,128,0,182266:0:0:0:0:
469,192,182131,1,0,0:0:0:0:
384,192,182266,1,0,0:0:0:0:
42,192,182266,128,0,182401:0:0:0:0:
298,192,182333,1,0,0:0:0:0:
213,192,182401,1,0,0:0:0:0:
469,192,182401,128,0,182536:0:0:0:0:
128,192,182468,1,0,0:0:0:0:
298,192,182536,128,0,182671:0:0:0:0:
42,192,182536,1,0,0:0:0:0:
128,192,182671,1,0,0:0:0:0:
42,192,182671,1,0,0:0:0:0:
384,192,182671,128,0,183144:0:0:0:0:
469,192,182671,1,0,0:0:0:0:
298,192,182806,128,0,183144:0:0:0:0:
213,192,182941,128,0,183144:0:0:0:0:
128,192,183077,128,0,183144:0:0:0:0:
42,192,183212,1,0,0:0:0:0:
469,192,183212,1,0,0:0:0:0:
298,192,183212,1,0,0:0:0:0:
128,192,183279,1,0,0:0:0:0:
384,192,183279,1,0,0:0:0:0:
213,192,183347,1,0,0:0:0:0:
469,192,183347,1,0,0:0:0:0:
213,192,183482,1,0,0:0:0:0:
469,192,183482,1,0,0:0:0:0:
384,192,183549,1,0,0:0:0:0:
128,192,183549,1,0,0:0:0:0:
298,192,183617,1,0,0:0:0:0:
42,192,183617,1,0,0:0:0:0:
42,192,183752,1,0,0:0:0:0:
213,192,183752,1,0,0:0:0:0:
469,192,183752,1,0,0:0:0:0:
298,192,183797,1,0,0:0:0:0:
384,192,183842,1,0,0:0:0:0:
128,192,183887,1,0,0:0:0:0:
213,192,183932,1,0,0:0:0:0:
298,192,183977,1,0,0:0:0:0:
384,192,184022,1,0,0:0:0:0:
42,192,184022,128,0,184158:0:0:0:0:
384,192,184293,1,0,0:0:0:0:
469,192,184293,1,0,0:0:0:0:
42,192,184293,1,0,0:0:0:0:
298,192,184360,1,0,0:0:0:0:
42,192,184428,1,0,0:0:0:0:
298,192,184495,1,0,0:0:0:0:
128,192,184563,1,0,0:0:0:0:
384,192,184631,1,0,0:0:0:0:
128,192,184698,1,0,0:0:0:0:
384,192,184766,1,0,0:0:0:0:
42,192,184833,1,0,0:0:0:0:
469,192,184833,128,0,185239:0:0:0:0:
213,192,184833,128,0,184968:0:0:0:0:
298,192,184901,128,0,185036:0:0:0:0:
384,192,184968,128,0,185104:0:0:0:0:
128,192,185036,128,0,185171:0:0:0:0:
213,192,185104,128,0,185239:0:0:0:0:
298,192,185171,128,0,185306:0:0:0:0:
42,192,185239,128,0,185374:0:0:0:0:
128,192,185306,128,0,185374:0:0:0:0:
213,192,185374,1,0,0:0:0:0:
384,192,185374,1,0,0:0:0:0:
469,192,185374,1,0,0:0:0:0:
213,192,185464,1,0,0:0:0:0:
42,192,185464,1,0,0:0:0:0:
384,192,185554,1,0,0:0:0:0:
469,192,185554,1,0,0:0:0:0:
128,192,185644,1,0,0:0:0:0:
42,192,185644,1,0,0:0:0:0:
298,192,185644,1,0,0:0:0:0:
298,192,185734,1,0,0:0:0:0:
469,192,185734,1,0,0:0:0:0:
128,192,185824,1,0,0:0:0:0:
42,192,185824,1,0,0:0:0:0:
213,192,185914,1,0,0:0:0:0:
298,192,185914,128,0,186905:0:0:0:0:
469,192,185914,128,0,186905:0:0:0:0:
42,192,186995,128,0,187131:0:0:0:0:
128,192,186995,128,0,187131:0:0:0:0:
298,192,186995,128,0,187131:0:0:0:0:
469,192,186995,128,0,187131:0:0:0:0:
384,192,187266,128,0,187468:0:0:0:0:
384,192,187536,128,0,187739:0:0:0:0:
384,192,187806,128,0,188009:0:0:0:0:
384,192,188077,128,0,188279:0:0:0:0:
213,192,188077,128,0,188279:0:0:0:0:
384,192,188347,128,0,188549:0:0:0:0:
213,192,188347,128,0,188549:0:0:0:0:
384,192,188617,128,0,188820:0:0:0:0:
213,192,188617,128,0,188820:0:0:0:0:
42,192,188617,128,0,188820:0:0:0:0:
384,192,188887,128,0,189090:0:0:0:0:
213,192,188887,128,0,189090:0:0:0:0:
42,192,188887,128,0,189090:0:0:0:0:
384,192,189158,1,0,0:0:0:0:
469,192,189158,128,0,189360:0:0:0:0:
42,192,189158,128,0,189293:0:0:0:0:
128,192,189225,128,0,189360:0:0:0:0:
213,192,189293,128,0,189428:0:0:0:0:
298,192,189360,128,0,189495:0:0:0:0:
384,192,189428,128,0,189631:0:0:0:0:
469,192,189428,1,0,0:0:0:0:
128,192,189428,128,0,189563:0:0:0:0:
42,192,189495,128,0,189563:0:0:0:0:
213,192,189563,128,0,189698:0:0:0:0:
128,192,189631,128,0,189698:0:0:0:0:
469,192,189698,128,0,189901:0:0:0:0:
384,192,189698,1,0,0:0:0:0:
298,192,189698,128,0,189833:0:0:0:0:
213,192,189766,128,0,189901:0:0:0:0:
128,192,189833,128,0,189968:0:0:0:0:
42,192,189901,128,0,190036:0:0:0:0:
384,192,189968,128,0,190171:0:0:0:0:
469,192,189968,1,0,0:0:0:0:
213,192,189968,128,0,190104:0:0:0:0:
298,192,190036,128,0,190104:0:0:0:0:
128,192,190104,128,0,190239:0:0:0:0:
213,192,190171,128,0,190239:0:0:0:0:
42,192,190239,1,0,0:0:0:0:
469,192,190239,1,0,0:0:0:0:
128,192,190306,1,0,0:0:0:0:
213,192,190374,1,0,0:0:0:0:
298,192,190441,1,0,0:0:0:0:
128,192,190509,1,0,0:0:0:0:
213,192,190577,1,0,0:0:0:0:
298,192,190644,1,0,0:0:0:0:
384,192,190712,1,0,0:0:0:0:
42,192,190779,128,0,190914:0:0:0:0:
128,192,190813,128,0,190914:0:0:0:0:
298,192,190914,1,0,0:0:0:0:
469,192,191049,128,0,191185:0:0:0:0:
384,192,191083,128,0,191185:0:0:0:0:
213,192,191185,1,0,0:0:0:0:
128,192,191320,1,0,0:0:0:0:
42,192,191320,1,0,0:0:0:0:
384,192,191320,1,0,0:0:0:0:
469,192,191320,1,0,0:0:0:0:
298,192,191320,1,0,0:0:0:0:
42,192,191590,128,0,191725:0:0:0:0:
213,192,191590,128,0,191725:0:0:0:0:
298,192,191590,128,0,191725:0:0:0:0:
469,192,191590,128,0,191725:0:0:0:0:
42,192,191860,5,0,0:0:0:0:
128,192,191860,1,0,0:0:0:0:
469,192,191860,128,0,192063:0:0:0:0:
384,192,191928,128,0,192063:0:0:0:0:
298,192,191995,128,0,192063:0:0:0:0:
213,192,192063,1,0,0:0:0:0:
384,192,192131,1,0,0:0:0:0:
469,192,192131,1,0,0:0:0:0:
128,192,192131,128,0,192333:0:0:0:0:
213,192,192198,128,0,192333:0:0:0:0:
298,192,192266,128,0,192333:0:0:0:0:
384,192,192333,1,0,0:0:0:0:
128,192,192401,1,0,0:0:0:0:
42,192,192401,1,0,0:0:0:0:
469,192,192401,128,0,192604:0:0:0:0:
384,192,192468,128,0,192604:0:0:0:0:
298,192,192536,128,0,192604:0:0:0:0:
213,192,192604,1,0,0:0:0:0:
384,192,192671,1,0,0:0:0:0:
469,192,192671,1,0,0:0:0:0:
128,192,192671,128,0,192874:0:0:0:0:
213,192,192739,128,0,192874:0:0:0:0:
298,192,192806,128,0,192874:0:0:0:0:
384,192,192874,1,0,0:0:0:0:
128,192,192941,1,0,0:0:0:0:
42,192,192941,1,0,0:0:0:0:
469,192,192941,128,0,193144:0:0:0:0:
384,192,193009,128,0,193144:0:0:0:0:
298,192,193077,128,0,193144:0:0:0:0:
213,192,193144,1,0,0:0:0:0:
128,192,193212,1,0,0:0:0:0:
384,192,193212,1,0,0:0:0:0:
469,192,193212,1,0,0:0:0:0:
128,192,193347,1,0,0:0:0:0:
298,192,193347,1,0,0:0:0:0:
213,192,193482,1,0,0:0:0:0:
42,192,193482,1,0,0:0:0:0:
384,192,193482,1,0,0:0:0:0:
469,192,193482,1,0,0:0:0:0:
128,192,193752,1,0,0:0:0:0:
42,192,193752,1,0,0:0:0:0:
384,192,193752,128,0,193955:0:0:0:0:
298,192,193820,128,0,193955:0:0:0:0:
213,192,193887,128,0,193955:0:0:0:0:
128,192,193955,1,0,0:0:0:0:
384,192,194022,1,0,0:0:0:0:
469,192,194022,1,0,0:0:0:0:
42,192,194022,128,0,194225:0:0:0:0:
128,192,194090,128,0,194225:0:0:0:0:
213,192,194158,128,0,194225:0:0:0:0:
298,192,194225,1,0,0:0:0:0:
128,192,194293,1,0,0:0:0:0:
42,192,194293,1,0,0:0:0:0:
384,192,194293,128,0,194495:0:0:0:0:
298,192,194360,128,0,194495:0:0:0:0:
213,192,194428,128,0,194495:0:0:0:0:
128,192,194495,1,0,0:0:0:0:
384,192,194563,1,0,0:0:0:0:
469,192,194563,1,0,0:0:0:0:
42,192,194563,128,0,194766:0:0:0:0:
128,192,194631,128,0,194766:0:0:0:0:
213,192,194698,128,0,194766:0:0:0:0:
298,192,194766,1,0,0:0:0:0:
384,192,194833,1,0,0:0:0:0:
128,192,194833,1,0,0:0:0:0:
42,192,194833,1,0,0:0:0:0:
298,192,194968,1,0,0:0:0:0:
42,192,194968,1,0,0:0:0:0:
128,192,195104,1,0,0:0:0:0:
384,192,195104,1,0,0:0:0:0:
213,192,195239,1,0,0:0:0:0:
469,192,195239,1,0,0:0:0:0:
128,192,195306,1,0,0:0:0:0:
384,192,195306,1,0,0:0:0:0:
298,192,195374,1,0,0:0:0:0:
42,192,195374,1,0,0:0:0:0:
469,192,195374,1,0,0:0:0:0:
213,192,195509,1,0,0:0:0:0:
128,192,195644,128,0,195847:0:0:0:0:
42,192,195644,128,0,195847:0:0:0:0:
384,192,195644,128,0,195847:0:0:0:0:
469,192,195644,128,0,195847:0:0:0:0:
128,192,195914,128,0,196117:0:0:0:0:
128,192,196185,128,0,196387:0:0:0:0:
469,192,196185,1,0,0:0:0:0:
384,192,196218,1,0,0:0:0:0:
298,192,196320,1,0,0:0:0:0:
128,192,196455,128,0,196658:0:0:0:0:
298,192,196455,128,0,196725:0:0:0:0:
469,192,196455,128,0,196725:0:0:0:0:
128,192,196725,128,0,196928:0:0:0:0:
128,192,196995,128,0,197198:0:0:0:0:
384,192,196995,1,0,0:0:0:0:
128,192,197266,128,0,197468:0:0:0:0:
298,192,197266,1,0,0:0:0:0:
384,192,197299,1,0,0:0:0:0:
469,192,197401,1,0,0:0:0:0:
384,192,197536,1,0,0:0:0:0:
213,192,197536,1,0,0:0:0:0:
298,192,197671,1,0,0:0:0:0:
128,192,197671,1,0,0:0:0:0:
42,192,197806,128,0,198009:0:0:0:0:
384,192,197806,128,0,198009:0:0:0:0:
469,192,197806,128,0,198009:0:0:0:0:
213,192,197806,128,0,198009:0:0:0:0:
128,192,198077,1,0,0:0:0:0:
384,192,198077,1,0,0:0:0:0:
128,192,198212,1,0,0:0:0:0:
128,192,198347,1,0,0:0:0:0:
469,192,198347,1,0,0:0:0:0:
384,192,198381,1,0,0:0:0:0:
128,192,198482,1,0,0:0:0:0:
42,192,198617,128,0,198820:0:0:0:0:
213,192,198617,128,0,198820:0:0:0:0:
298,192,198617,128,0,198820:0:0:0:0:
469,192,198617,128,0,198820:0:0:0:0:
42,192,198887,1,0,0:0:0:0:
213,192,198887,1,0,0:0:0:0:
469,192,198955,1,0,0:0:0:0:
384,192,198955,1,0,0:0:0:0:
213,192,199022,1,0,0:0:0:0:
42,192,199022,1,0,0:0:0:0:
384,192,199090,1,0,0:0:0:0:
469,192,199090,1,0,0:0:0:0:
298,192,199158,1,0,0:0:0:0:
128,192,199158,1,0,0:0:0:0:
128,192,199293,1,0,0:0:0:0:
298,192,199428,1,0,0:0:0:0:
384,192,199428,1,0,0:0:0:0:
469,192,199428,1,0,0:0:0:0:
128,192,199563,1,0,0:0:0:0:
42,192,199563,1,0,0:0:0:0:
213,192,199631,1,0,0:0:0:0:
298,192,199631,1,0,0:0:0:0:
384,192,199631,1,0,0:0:0:0:
42,192,199833,128,0,200036:0:0:0:0:
213,192,199833,128,0,200036:0:0:0:0:
384,192,199833,128,0,200036:0:0:0:0:
469,192,199833,128,0,200036:0:0:0:0:
469,192,200104,1,0,0:0:0:0:
213,192,200104,1,0,0:0:0:0:
42,192,200104,1,0,0:0:0:0:
298,192,200239,128,0,200374:0:0:0:0:
42,192,200239,128,0,200374:0:0:0:0:
469,192,200239,128,0,200374:0:0:0:0:
42,192,200509,128,0,200644:0:0:0:0:
469,192,200509,1,0,0:0:0:0:
384,192,200509,1,0,0:0:0:0:
128,192,200577,128,0,200712:0:0:0:0:
213,192,200644,128,0,200779:0:0:0:0:
298,192,200712,128,0,200779:0:0:0:0:
384,192,200779,128,0,200914:0:0:0:0:
469,192,200779,1,0,0:0:0:0:
42,192,200779,1,0,0:0:0:0:
298,192,200847,128,0,200982:0:0:0:0:
213,192,200914,128,0,201049:0:0:0:0:
128,192,200982,128,0,201049:0:0:0:0:
42,192,201049,128,0,201185:0:0:0:0:
469,192,201049,1,0,0:0:0:0:
384,192,201049,1,0,0:0:0:0:
128,192,201117,128,0,201252:0:0:0:0:
213,192,201185,128,0,201320:0:0:0:0:
298,192,201252,128,0,201320:0:0:0:0:
384,192,201320,128,0,201455:0:0:0:0:
469,192,201320,1,0,0:0:0:0:
42,192,201320,1,0,0:0:0:0:
298,192,201387,128,0,201522:0:0:0:0:
213,192,201455,128,0,201590:0:0:0:0:
128,192,201522,128,0,201590:0:0:0:0:
469,192,201590,1,0,0:0:0:0:
384,192,201590,1,0,0:0:0:0:
42,192,201590,128,0,201725:0:0:0:0:
128,192,201658,128,0,201793:0:0:0:0:
213,192,201725,128,0,201860:0:0:0:0:
298,192,201793,128,0,201860:0:0:0:0:
384,192,201860,1,0,0:0:0:0:
128,192,201860,1,0,0:0:0:0:
42,192,201860,1,0,0:0:0:0:
213,192,201995,1,0,0:0:0:0:
384,192,201995,128,0,202198:0:0:0:0:
128,192,201995,128,0,202198:0:0:0:0:
384,192,202266,1,0,0:0:0:0:
128,192,202266,1,0,0:0:0:0:
469,192,202401,1,0,0:0:0:0:
42,192,202401,1,0,0:0:0:0:
128,192,202401,128,0,202536:0:0:0:0:
384,192,202401,1,0,0:0:0:0:
213,192,202468,128,0,202604:0:0:0:0:
298,192,202536,128,0,202671:0:0:0:0:
384,192,202604,128,0,202671:0:0:0:0:
128,192,202671,1,0,0:0:0:0:
42,192,202671,1,0,0:0:0:0:
469,192,202671,128,0,202806:0:0:0:0:
384,192,202739,128,0,202874:0:0:0:0:
298,192,202806,128,0,202941:0:0:0:0:
213,192,202874,128,0,202941:0:0:0:0:
469,192,202941,1,0,0:0:0:0:
42,192,202941,1,0,0:0:0:0:
128,192,202941,128,0,203077:0:0:0:0:
213,192,203009,128,0,203144:0:0:0:0:
298,192,203077,128,0,203212:0:0:0:0:
384,192,203144,128,0,203212:0:0:0:0:
469,192,203212,128,0,203347:0:0:0:0:
128,192,203212,1,0,0:0:0:0:
42,192,203212,1,0,0:0:0:0:
384,192,203279,128,0,203414:0:0:0:0:
298,192,203347,128,0,203482:0:0:0:0:
128,192,203414,1,0,0:0:0:0:
42,192,203414,1,0,0:0:0:0:
213,192,203414,128,0,203482:0:0:0:0:
469,192,203482,1,0,0:0:0:0:
384,192,203482,1,0,0:0:0:0:
42,192,203617,1,0,0:0:0:0:
128,192,203617,1,0,0:0:0:0:
469,192,203617,1,0,0:0:0:0:
298,192,203752,128,0,204225:0:0:0:0:
213,192,203887,128,0,204225:0:0:0:0:
128,192,204022,128,0,204225:0:0:0:0:
42,192,204158,128,0,204225:0:0:0:0:
298,192,204293,1,0,0:0:0:0:
469,192,204293,1,0,0:0:0:0:
42,192,204293,128,0,204563:0:0:0:0:
128,192,204360,128,0,204563:0:0:0:0:
213,192,204428,128,0,204563:0:0:0:0:
298,192,204495,128,0,204563:0:0:0:0:
384,192,204563,128,0,204833:0:0:0:0:
128,192,204833,1,0,0:0:0:0:
42,192,204833,1,0,0:0:0:0:
213,192,204833,1,0,0:0:0:0:
42,192,204968,1,0,0:0:0:0:
384,192,205036,1,0,0:0:0:0:
298,192,205036,1,0,0:0:0:0:
469,192,205036,1,0,0:0:0:0:
213,192,205104,1,0,0:0:0:0:
128,192,205104,1,0,0:0:0:0:
384,192,205239,1,0,0:0:0:0:
298,192,205239,1,0,0:0:0:0:
213,192,205239,1,0,0:0:0:0:
128,192,205306,1,0,0:0:0:0:
42,192,205306,1,0,0:0:0:0:
298,192,205374,1,0,0:0:0:0:
384,192,205374,1,0,0:0:0:0:
469,192,205374,1,0,0:0:0:0:
128,192,205577,1,0,0:0:0:0:
213,192,205577,1,0,0:0:0:0:
42,192,205577,1,0,0:0:0:0:
384,192,205644,1,0,0:0:0:0:
298,192,205644,1,0,0:0:0:0:
128,192,205779,1,0,0:0:0:0:
213,192,205779,1,0,0:0:0:0:
298,192,205779,1,0,0:0:0:0:
384,192,205847,1,0,0:0:0:0:
469,192,205847,1,0,0:0:0:0:
213,192,205914,1,0,0:0:0:0:
128,192,205914,1,0,0:0:0:0:
42,192,205914,1,0,0:0:0:0:
42,192,206049,1,0,0:0:0:0:
469,192,206117,1,0,0:0:0:0:
298,192,206117,1,0,0:0:0:0:
384,192,206117,1,0,0:0:0:0:
213,192,206185,1,0,0:0:0:0:
128,192,206185,1,0,0:0:0:0:
298,192,206320,1,0,0:0:0:0:
384,192,206320,1,0,0:0:0:0:
213,192,206320,1,0,0:0:0:0:
42,192,206387,1,0,0:0:0:0:
128,192,206387,1,0,0:0:0:0:
469,192,206455,128,0,206658:0:0:0:0:
384,192,206455,128,0,206590:0:0:0:0:
298,192,206455,128,0,206522:0:0:0:0:
42,192,206522,128,0,206725:0:0:0:0:
128,192,206590,128,0,206725:0:0:0:0:
213,192,206658,128,0,206725:0:0:0:0:
384,192,206725,1,0,0:0:0:0:
298,192,206793,1,0,0:0:0:0:
42,192,206860,128,0,207063:0:0:0:0:
128,192,206860,128,0,206995:0:0:0:0:
213,192,206860,128,0,206928:0:0:0:0:
469,192,206928,128,0,207131:0:0:0:0:
384,192,206995,128,0,207131:0:0:0:0:
298,192,207063,128,0,207131:0:0:0:0:
128,192,207131,1,0,0:0:0:0:
213,192,207198,1,0,0:0:0:0:
469,192,207266,128,0,207468:0:0:0:0:
298,192,207266,128,0,207333:0:0:0:0:
384,192,207266,128,0,207401:0:0:0:0:
42,192,207333,128,0,207536:0:0:0:0:
128,192,207401,128,0,207536:0:0:0:0:
213,192,207468,128,0,207536:0:0:0:0:
384,192,207536,1,0,0:0:0:0:
298,192,207604,1,0,0:0:0:0:
42,192,207671,128,0,207874:0:0:0:0:
128,192,207671,128,0,207806:0:0:0:0:
213,192,207671,128,0,207739:0:0:0:0:
469,192,207739,128,0,207941:0:0:0:0:
384,192,207806,128,0,207941:0:0:0:0:
298,192,207874,128,0,207941:0:0:0:0:
128,192,207941,1,0,0:0:0:0:
213,192,208009,1,0,0:0:0:0:
42,192,208077,128,0,208212:0:0:0:0:
128,192,208144,128,0,208279:0:0:0:0:
213,192,208212,128,0,208347:0:0:0:0:
298,192,208279,128,0,208414:0:0:0:0:
128,192,208347,128,0,208414:0:0:0:0:
213,192,208414,128,0,208482:0:0:0:0:
298,192,208482,128,0,208549:0:0:0:0:
384,192,208549,128,0,208617:0:0:0:0:
42,192,208617,1,0,0:0:0:0:
213,192,208617,1,0,0:0:0:0:
469,192,208617,1,0,0:0:0:0:
42,192,208820,1,0,0:0:0:0:
213,192,208820,1,0,0:0:0:0:
469,192,208820,1,0,0:0:0:0:
213,192,209022,1,0,0:0:0:0:
42,192,209022,1,0,0:0:0:0:
128,192,209022,1,0,0:0:0:0:
384,192,209090,1,0,0:0:0:0:
469,192,209090,1,0,0:0:0:0:
298,192,209090,1,0,0:0:0:0:
384,192,209225,1,0,0:0:0:0:
469,192,209225,1,0,0:0:0:0:
298,192,209225,1,0,0:0:0:0:
213,192,209293,1,0,0:0:0:0:
42,192,209293,1,0,0:0:0:0:
128,192,209293,1,0,0:0:0:0:
469,192,209428,1,0,0:0:0:0:
384,192,209428,1,0,0:0:0:0:
298,192,209428,1,0,0:0:0:0:
42,192,209495,1,0,0:0:0:0:
128,192,209495,1,0,0:0:0:0:
384,192,209563,1,0,0:0:0:0:
469,192,209563,1,0,0:0:0:0:
213,192,209631,1,0,0:0:0:0:
128,192,209631,1,0,0:0:0:0:
298,192,209698,1,0,0:0:0:0:
42,192,209698,1,0,0:0:0:0:
469,192,209698,1,0,0:0:0:0:
298,192,209901,1,0,0:0:0:0:
42,192,209901,1,0,0:0:0:0:
469,192,209901,1,0,0:0:0:0:
213,192,210104,1,0,0:0:0:0:
128,192,210104,1,0,0:0:0:0:
42,192,210104,1,0,0:0:0:0:
384,192,210171,1,0,0:0:0:0:
469,192,210171,1,0,0:0:0:0:
298,192,210171,1,0,0:0:0:0:
298,192,210306,1,0,0:0:0:0:
384,192,210306,1,0,0:0:0:0:
469,192,210306,1,0,0:0:0:0:
42,192,210441,1,0,0:0:0:0:
213,192,210441,1,0,0:0:0:0:
128,192,210441,1,0,0:0:0:0:
384,192,210509,1,0,0:0:0:0:
469,192,210509,1,0,0:0:0:0:
42,192,210577,1,0,0:0:0:0:
128,192,210577,1,0,0:0:0:0:
384,192,210644,1,0,0:0:0:0:
298,192,210644,1,0,0:0:0:0:
469,192,210644,1,0,0:0:0:0:
128,192,210779,1,0,0:0:0:0:
42,192,210779,1,0,0:0:0:0:
384,192,210779,1,0,0:0:0:0:
384,192,210982,1,0,0:0:0:0:
128,192,210982,1,0,0:0:0:0:
42,192,210982,1,0,0:0:0:0:
298,192,211185,1,0,0:0:0:0:
469,192,211185,1,0,0:0:0:0:
384,192,211185,1,0,0:0:0:0:
128,192,211252,1,0,0:0:0:0:
42,192,211252,1,0,0:0:0:0:
213,192,211252,1,0,0:0:0:0:
128,192,211387,1,0,0:0:0:0:
42,192,211387,1,0,0:0:0:0:
213,192,211387,1,0,0:0:0:0:
298,192,211455,1,0,0:0:0:0:
469,192,211455,1,0,0:0:0:0:
384,192,211455,1,0,0:0:0:0:
213,192,211590,1,0,0:0:0:0:
128,192,211590,1,0,0:0:0:0:
42,192,211590,1,0,0:0:0:0:
384,192,211658,1,0,0:0:0:0:
469,192,211658,1,0,0:0:0:0:
128,192,211725,1,0,0:0:0:0:
42,192,211725,1,0,0:0:0:0:
298,192,211793,1,0,0:0:0:0:
384,192,211793,1,0,0:0:0:0:
213,192,211860,1,0,0:0:0:0:
469,192,211860,1,0,0:0:0:0:
42,192,211860,1,0,0:0:0:0:
298,192,211950,1,0,0:0:0:0:
128,192,211950,1,0,0:0:0:0:
213,192,212040,1,0,0:0:0:0:
384,192,212040,1,0,0:0:0:0:
298,192,212131,1,0,0:0:0:0:
469,192,212131,1,0,0:0:0:0:
42,192,212131,1,0,0:0:0:0:
42,192,212266,1,0,0:0:0:0:
298,192,212266,1,0,0:0:0:0:
469,192,212266,1,0,0:0:0:0:
384,192,212468,1,0,0:0:0:0:
298,192,212468,1,0,0:0:0:0:
469,192,212468,1,0,0:0:0:0:
128,192,212536,1,0,0:0:0:0:
42,192,212536,1,0,0:0:0:0:
469,192,212604,1,0,0:0:0:0:
384,192,212604,1,0,0:0:0:0:
213,192,212671,1,0,0:0:0:0:
128,192,212671,1,0,0:0:0:0:
42,192,212671,1,0,0:0:0:0:
213,192,212806,1,0,0:0:0:0:
298,192,212941,1,0,0:0:0:0:
42,192,212941,1,0,0:0:0:0:
128,192,212941,1,0,0:0:0:0:
298,192,213144,1,0,0:0:0:0:
42,192,213144,1,0,0:0:0:0:
128,192,213144,1,0,0:0:0:0:
213,192,213347,1,0,0:0:0:0:
42,192,213347,1,0,0:0:0:0:
128,192,213347,1,0,0:0:0:0:
384,192,213414,1,0,0:0:0:0:
469,192,213414,1,0,0:0:0:0:
298,192,213414,1,0,0:0:0:0:
384,192,213549,1,0,0:0:0:0:
469,192,213549,1,0,0:0:0:0:
298,192,213549,1,0,0:0:0:0:
213,192,213617,1,0,0:0:0:0:
42,192,213617,1,0,0:0:0:0:
128,192,213617,1,0,0:0:0:0:
469,192,213752,1,0,0:0:0:0:
384,192,213752,1,0,0:0:0:0:
298,192,213752,1,0,0:0:0:0:
42,192,213820,1,0,0:0:0:0:
128,192,213820,1,0,0:0:0:0:
384,192,213887,1,0,0:0:0:0:
469,192,213887,1,0,0:0:0:0:
213,192,213955,1,0,0:0:0:0:
128,192,213955,1,0,0:0:0:0:
298,192,214022,1,0,0:0:0:0:
42,192,214022,1,0,0:0:0:0:
469,192,214022,1,0,0:0:0:0:
298,192,214225,1,0,0:0:0:0:
469,192,214225,1,0,0:0:0:0:
42,192,214225,1,0,0:0:0:0:
298,192,214428,1,0,0:0:0:0:
384,192,214428,1,0,0:0:0:0:
469,192,214428,1,0,0:0:0:0:
128,192,214495,1,0,0:0:0:0:
42,192,214495,1,0,0:0:0:0:
213,192,214495,1,0,0:0:0:0:
213,192,214631,1,0,0:0:0:0:
128,192,214631,1,0,0:0:0:0:
42,192,214631,1,0,0:0:0:0:
213,192,214766,1,0,0:0:0:0:
298,192,214766,1,0,0:0:0:0:
384,192,214766,1,0,0:0:0:0:
128,192,214833,1,0,0:0:0:0:
42,192,214833,1,0,0:0:0:0:
469,192,214901,1,0,0:0:0:0:
384,192,214901,1,0,0:0:0:0:
213,192,214968,1,0,0:0:0:0:
298,192,214968,1,0,0:0:0:0:
128,192,214968,1,0,0:0:0:0:
384,192,215104,1,0,0:0:0:0:
298,192,215104,1,0,0:0:0:0:
42,192,215104,1,0,0:0:0:0:
469,192,215239,1,0,0:0:0:0:
213,192,215239,1,0,0:0:0:0:
384,192,215306,1,0,0:0:0:0:
128,192,215306,1,0,0:0:0:0:
42,192,215374,1,0,0:0:0:0:
298,192,215374,1,0,0:0:0:0:
128,192,215441,1,0,0:0:0:0:
384,192,215441,1,0,0:0:0:0:
213,192,215509,1,0,0:0:0:0:
469,192,215509,1,0,0:0:0:0:
42,192,215509,1,0,0:0:0:0:
42,192,215644,1,0,0:0:0:0:
298,192,215644,1,0,0:0:0:0:
384,192,215712,1,0,0:0:0:0:
128,192,215712,1,0,0:0:0:0:
213,192,215779,1,0,0:0:0:0:
469,192,215779,1,0,0:0:0:0:
384,192,215847,1,0,0:0:0:0:
128,192,215847,1,0,0:0:0:0:
298,192,215914,1,0,0:0:0:0:
42,192,215914,1,0,0:0:0:0:
469,192,215914,1,0,0:0:0:0:
213,192,216049,1,0,0:0:0:0:
128,192,216049,1,0,0:0:0:0:
298,192,216117,1,0,0:0:0:0:
384,192,216117,1,0,0:0:0:0:
213,192,216185,1,0,0:0:0:0:
128,192,216185,1,0,0:0:0:0:
298,192,216252,1,0,0:0:0:0:
384,192,216252,1,0,0:0:0:0:
128,192,216320,1,0,0:0:0:0:
42,192,216320,1,0,0:0:0:0:
469,192,216320,128,0,217198:0:0:0:0:
384,192,216590,128,0,216725:0:0:0:0:
42,192,216725,128,0,217198:0:0:0:0:
128,192,216860,128,0,217198:0:0:0:0:
213,192,216995,128,0,217198:0:0:0:0:
298,192,217131,128,0,217198:0:0:0:0:
128,192,217266,1,0,0:0:0:0:
42,192,217266,128,0,217806:0:0:0:0:
469,192,217266,1,0,0:0:0:0:
298,192,217266,1,0,0:0:0:0:
384,192,217401,1,0,0:0:0:0:
384,192,217536,1,0,0:0:0:0:
213,192,217671,1,0,0:0:0:0:
128,192,217671,128,0,217806:0:0:0:0:
298,192,217806,1,0,0:0:0:0:
469,192,217806,1,0,0:0:0:0:
213,192,217941,1,0,0:0:0:0:
128,192,218077,1,0,0:0:0:0:
384,192,218077,128,0,218212:0:0:0:0:
128,192,218212,1,0,0:0:0:0:
42,192,218347,1,0,0:0:0:0:
213,192,218347,1,0,0:0:0:0:
469,192,218347,128,0,218752:0:0:0:0:
298,192,218482,1,0,0:0:0:0:
128,192,218482,128,0,218617:0:0:0:0:
298,192,218617,1,0,0:0:0:0:
128,192,218752,1,0,0:0:0:0:
42,192,218752,128,0,219158:0:0:0:0:
384,192,218887,1,0,0:0:0:0:
213,192,218887,128,0,219158:0:0:0:0:
469,192,218887,1,0,0:0:0:0:
128,192,219022,128,0,219158:0:0:0:0:
469,192,219022,1,0,0:0:0:0:
298,192,219158,1,0,0:0:0:0:
128,192,219293,1,0,0:0:0:0:
298,192,219293,128,0,219428:0:0:0:0:
384,192,219360,128,0,219428:0:0:0:0:
42,192,219428,1,0,0:0:0:0:
469,192,219428,128,0,219968:0:0:0:0:
213,192,219428,1,0,0:0:0:0:
128,192,219563,1,0,0:0:0:0:
128,192,219698,1,0,0:0:0:0:
298,192,219833,1,0,0:0:0:0:
384,192,219833,128,0,219968:0:0:0:0:
213,192,219968,1,0,0:0:0:0:
42,192,219968,1,0,0:0:0:0:
298,192,220104,1,0,0:0:0:0:
384,192,220239,1,0,0:0:0:0:
128,192,220239,128,0,220374:0:0:0:0:
384,192,220374,1,0,0:0:0:0:
469,192,220509,1,0,0:0:0:0:
298,192,220509,1,0,0:0:0:0:
42,192,220509,128,0,220914:0:0:0:0:
213,192,220644,1,0,0:0:0:0:
384,192,220644,128,0,220779:0:0:0:0:
213,192,220779,1,0,0:0:0:0:
384,192,220914,1,0,0:0:0:0:
469,192,220914,128,0,221320:0:0:0:0:
128,192,221049,1,0,0:0:0:0:
298,192,221049,128,0,221320:0:0:0:0:
42,192,221049,1,0,0:0:0:0:
384,192,221185,128,0,221320:0:0:0:0:
42,192,221185,1,0,0:0:0:0:
213,192,221320,1,0,0:0:0:0:
384,192,221455,1,0,0:0:0:0:
213,192,221455,128,0,221590:0:0:0:0:
128,192,221522,128,0,221590:0:0:0:0:
298,192,221590,1,0,0:0:0:0:
469,192,221590,128,0,221995:0:0:0:0:
42,192,221590,1,0,0:0:0:0:
213,192,221658,1,0,0:0:0:0:
128,192,221725,1,0,0:0:0:0:
42,192,221793,1,0,0:0:0:0:
128,192,221860,1,0,0:0:0:0:
213,192,221928,1,0,0:0:0:0:
298,192,221995,1,0,0:0:0:0:
42,192,221995,128,0,222131:0:0:0:0:
384,192,222063,1,0,0:0:0:0:
469,192,222131,1,0,0:0:0:0:
298,192,222131,1,0,0:0:0:0:
42,192,222198,1,0,0:0:0:0:
128,192,222266,1,0,0:0:0:0:
213,192,222333,1,0,0:0:0:0:
42,192,222401,1,0,0:0:0:0:
469,192,222401,128,0,222536:0:0:0:0:
298,192,222468,1,0,0:0:0:0:
384,192,222536,1,0,0:0:0:0:
469,192,222604,1,0,0:0:0:0:
213,192,222671,1,0,0:0:0:0:
128,192,222671,1,0,0:0:0:0:
42,192,222671,128,0,223077:0:0:0:0:
298,192,222739,1,0,0:0:0:0:
384,192,222806,1,0,0:0:0:0:
128,192,222806,128,0,222941:0:0:0:0:
469,192,222874,1,0,0:0:0:0:
384,192,222941,1,0,0:0:0:0:
298,192,223009,1,0,0:0:0:0:
213,192,223077,1,0,0:0:0:0:
469,192,223077,128,0,223212:0:0:0:0:
128,192,223144,1,0,0:0:0:0:
42,192,223212,1,0,0:0:0:0:
298,192,223212,128,0,223347:0:0:0:0:
469,192,223279,1,0,0:0:0:0:
384,192,223347,1,0,0:0:0:0:
128,192,223347,128,0,223482:0:0:0:0:
298,192,223414,1,0,0:0:0:0:
42,192,223482,1,0,0:0:0:0:
469,192,223482,1,0,0:0:0:0:
213,192,223549,1,0,0:0:0:0:
128,192,223617,1,0,0:0:0:0:
298,192,223617,128,0,223685:0:0:0:0:
42,192,223685,1,0,0:0:0:0:
384,192,223685,128,0,223752:0:0:0:0:
128,192,223752,1,0,0:0:0:0:
298,192,223752,1,0,0:0:0:0:
469,192,223752,128,0,224022:0:0:0:0:
128,192,223887,1,0,0:0:0:0:
298,192,223887,1,0,0:0:0:0:
128,192,224022,1,0,0:0:0:0:
298,192,224022,1,0,0:0:0:0:
213,192,224158,1,0,0:0:0:0:
384,192,224158,1,0,0:0:0:0:
42,192,224158,128,0,224428:0:0:0:0:
384,192,224293,1,0,0:0:0:0:
213,192,224293,1,0,0:0:0:0:
384,192,224428,1,0,0:0:0:0:
213,192,224428,1,0,0:0:0:0:
469,192,224428,1,0,0:0:0:0:
469,192,224563,128,0,225374:0:0:0:0:
298,192,224563,128,0,225374:0:0:0:0:
128,192,224563,128,0,225374:0:0:0:0:
42,192,224563,128,0,225374:0:0:0:0:
