osu file format v14

[General]
AudioFilename: audio.mp3
AudioLeadIn: 0
PreviewTime: 168463
Countdown: 0
SampleSet: Soft
StackLeniency: 0.7
Mode: 3
LetterboxInBreaks: 0
SpecialStyle: 0
WidescreenStoryboard: 0

[Editor]
DistanceSpacing: 0.4
BeatDivisor: 4
GridSize: 32
TimelineZoom: 2.3

[Metadata]
Title:Speedrun
TitleUnicode:Speedrun
Artist:Camellia
ArtistUnicode:Camellia
Creator:KakaoPraY
Version:Dont Stop Smashing!!
Source:
Tags:Camellia KakaoPraY EDM Speedcore dump jumpstream Camellia Dva Overwatch
BeatmapID:1647622
BeatmapSetID:784828

[Difficulty]
HPDrainRate:8
CircleSize:4
OverallDifficulty:8
ApproachRate:5
SliderMultiplier:1.4
SliderTickRate:1

[Events]
//Background and Video events
0,0,"131.jpg",0,0
//Break Periods
2,22289,26164
2,117234,130340
//Storyboard Layer 0 (Background)
//Storyboard Layer 1 (Fail)
//Storyboard Layer 2 (Pass)
//Storyboard Layer 3 (Foreground)
//Storyboard Layer 4 (Overlay)
//Storyboard Sound Samples

[TimingPoints]
991,329.67032967033,4,2,0,20,1,0
64617,-100,4,2,0,20,0,1
74837,-100,4,2,0,20,0,0
75166,-100,4,2,0,20,0,1
80111,-100,4,2,0,20,0,0
169782,-100,4,2,0,20,0,1
180331,-100,4,2,0,20,0,0
180661,-100,4,2,0,20,0,1
190881,-100,4,2,0,20,0,0
222859,-100,4,2,0,20,0,1
233078,-100,4,2,0,20,0,0
233408,-100,4,2,0,20,0,1
242309,-100,4,2,0,20,0,0

[HitObjects]
64,192,991,5,0,0:0:0:0:
448,192,991,1,0,0:0:0:0:
320,192,1073,1,0,0:0:0:0:
192,192,1155,1,0,0:0:0:0:
64,192,1238,1,0,0:0:0:0:
320,192,1320,1,0,0:0:0:0:
448,192,1320,1,0,0:0:0:0:
192,192,1403,1,0,0:0:0:0:
64,192,1485,1,0,0:0:0:0:
320,192,1567,1,0,0:0:0:0:
448,192,1650,1,0,0:0:0:0:
64,192,1650,1,0,0:0:0:0:
192,192,1815,1,0,0:0:0:0:
320,192,1815,1,0,0:0:0:0:
320,192,1980,1,0,0:0:0:0:
448,192,1980,1,0,0:0:0:0:
192,192,2062,1,0,0:0:0:0:
64,192,2144,1,0,0:0:0:0:
448,192,2227,1,0,0:0:0:0:
320,192,2309,1,0,0:0:0:0:
64,192,2309,1,0,0:0:0:0:
192,192,2392,1,0,0:0:0:0:
320,192,2474,1,0,0:0:0:0:
448,192,2556,1,0,0:0:0:0:
64,192,2639,1,0,0:0:0:0:
192,192,2639,1,0,0:0:0:0:
320,192,2721,1,0,0:0:0:0:
448,192,2804,1,0,0:0:0:0:
64,192,2886,1,0,0:0:0:0:
448,192,2969,1,0,0:0:0:0:
320,192,2969,1,0,0:0:0:0:
192,192,3133,1,0,0:0:0:0:
320,192,3133,1,0,0:0:0:0:
64,192,3298,1,0,0:0:0:0:
192,192,3298,1,0,0:0:0:0:
320,192,3381,1,0,0:0:0:0:
448,192,3463,1,0,0:0:0:0:
64,192,3545,1,0,0:0:0:0:
192,192,3628,1,0,0:0:0:0:
320,192,3628,1,0,0:0:0:0:
448,192,3710,1,0,0:0:0:0:
64,192,3793,1,0,0:0:0:0:
192,192,3875,1,0,0:0:0:0:
448,192,3958,1,0,0:0:0:0:
320,192,3958,1,0,0:0:0:0:
192,192,4040,1,0,0:0:0:0:
64,192,4122,1,0,0:0:0:0:
448,192,4205,1,0,0:0:0:0:
192,192,4287,1,0,0:0:0:0:
64,192,4287,1,0,0:0:0:0:
192,192,4452,1,0,0:0:0:0:
320,192,4452,1,0,0:0:0:0:
320,192,4617,1,0,0:0:0:0:
448,192,4617,1,0,0:0:0:0:
192,192,4699,1,0,0:0:0:0:
64,192,4782,1,0,0:0:0:0:
448,192,4864,1,0,0:0:0:0:
320,192,4947,1,0,0:0:0:0:
64,192,4947,1,0,0:0:0:0:
192,192,5029,1,0,0:0:0:0:
320,192,5111,1,0,0:0:0:0:
448,192,5194,1,0,0:0:0:0:
192,192,5276,1,0,0:0:0:0:
64,192,5276,1,0,0:0:0:0:
320,192,5359,1,0,0:0:0:0:
448,192,5441,1,0,0:0:0:0:
192,192,5523,1,0,0:0:0:0:
448,192,5606,1,0,0:0:0:0:
320,192,5606,1,0,0:0:0:0:
320,192,5771,1,0,0:0:0:0:
192,192,5771,1,0,0:0:0:0:
64,192,5936,1,0,0:0:0:0:
192,192,5936,1,0,0:0:0:0:
320,192,6018,1,0,0:0:0:0:
192,192,6100,1,0,0:0:0:0:
64,192,6183,1,0,0:0:0:0:
448,192,6265,1,0,0:0:0:0:
320,192,6265,1,0,0:0:0:0:
192,192,6348,1,0,0:0:0:0:
320,192,6430,1,0,0:0:0:0:
448,192,6512,1,0,0:0:0:0:
64,192,6595,1,0,0:0:0:0:
192,192,6595,1,0,0:0:0:0:
320,192,6677,1,0,0:0:0:0:
192,192,6760,1,0,0:0:0:0:
64,192,6842,1,0,0:0:0:0:
448,192,6925,1,0,0:0:0:0:
320,192,6925,1,0,0:0:0:0:
192,192,7089,1,0,0:0:0:0:
320,192,7089,1,0,0:0:0:0:
192,192,7254,1,0,0:0:0:0:
64,192,7254,1,0,0:0:0:0:
320,192,7337,1,0,0:0:0:0:
448,192,7419,1,0,0:0:0:0:
64,192,7501,1,0,0:0:0:0:
192,192,7584,1,0,0:0:0:0:
448,192,7584,1,0,0:0:0:0:
64,192,7666,1,0,0:0:0:0:
448,192,7749,1,0,0:0:0:0:
320,192,7831,1,0,0:0:0:0:
192,192,7914,1,0,0:0:0:0:
64,192,7914,1,0,0:0:0:0:
320,192,7996,1,0,0:0:0:0:
448,192,8078,1,0,0:0:0:0:
320,192,8161,1,0,0:0:0:0:
64,192,8243,1,0,0:0:0:0:
192,192,8243,1,0,0:0:0:0:
192,192,8408,1,0,0:0:0:0:
320,192,8408,1,0,0:0:0:0:
320,192,8573,1,0,0:0:0:0:
448,192,8573,1,0,0:0:0:0:
192,192,8655,1,0,0:0:0:0:
64,192,8738,1,0,0:0:0:0:
448,192,8820,1,0,0:0:0:0:
320,192,8903,1,0,0:0:0:0:
64,192,8903,1,0,0:0:0:0:
192,192,8985,1,0,0:0:0:0:
320,192,9067,1,0,0:0:0:0:
448,192,9150,1,0,0:0:0:0:
64,192,9232,1,0,0:0:0:0:
192,192,9232,1,0,0:0:0:0:
320,192,9315,1,0,0:0:0:0:
448,192,9397,1,0,0:0:0:0:
192,192,9480,1,0,0:0:0:0:
320,192,9562,1,0,0:0:0:0:
448,192,9562,1,0,0:0:0:0:
320,192,9727,1,0,0:0:0:0:
192,192,9727,1,0,0:0:0:0:
64,192,9892,1,0,0:0:0:0:
192,192,9892,1,0,0:0:0:0:
448,192,9974,1,0,0:0:0:0:
64,192,10056,1,0,0:0:0:0:
192,192,10098,1,0,0:0:0:0:
448,192,10139,1,0,0:0:0:0:
320,192,10180,1,0,0:0:0:0:
192,192,10221,1,0,0:0:0:0:
64,192,10262,1,0,0:0:0:0:
448,192,10304,1,0,0:0:0:0:
320,192,10345,1,0,0:0:0:0:
192,192,10386,1,0,0:0:0:0:
64,192,10386,1,0,0:0:0:0:
320,192,10551,1,0,0:0:0:0:
448,192,10551,1,0,0:0:0:0:
448,192,10716,1,0,0:0:0:0:
192,192,10716,1,0,0:0:0:0:
64,192,10881,1,0,0:0:0:0:
192,192,10881,1,0,0:0:0:0:
448,192,11045,1,0,0:0:0:0:
320,192,11045,1,0,0:0:0:0:
192,192,11128,1,0,0:0:0:0:
64,192,11210,1,0,0:0:0:0:
448,192,11210,1,0,0:0:0:0:
320,192,11293,1,0,0:0:0:0:
192,192,11375,1,0,0:0:0:0:
64,192,11375,1,0,0:0:0:0:
320,192,11458,1,0,0:0:0:0:
448,192,11540,1,0,0:0:0:0:
192,192,11540,1,0,0:0:0:0:
64,192,11595,1,0,0:0:0:0:
192,192,11650,1,0,0:0:0:0:
448,192,11705,1,0,0:0:0:0:
320,192,11760,1,0,0:0:0:0:
192,192,11815,1,0,0:0:0:0:
64,192,11870,1,0,0:0:0:0:
448,192,11870,1,0,0:0:0:0:
64,192,12034,1,0,0:0:0:0:
192,192,12089,1,0,0:0:0:0:
448,192,12144,1,0,0:0:0:0:
320,192,12199,1,0,0:0:0:0:
64,192,12199,1,0,0:0:0:0:
64,192,12364,1,0,0:0:0:0:
192,192,12419,1,0,0:0:0:0:
320,192,12529,1,0,0:0:0:0:
448,192,12529,1,0,0:0:0:0:
448,192,12694,1,0,0:0:0:0:
320,192,12749,1,0,0:0:0:0:
192,192,12859,1,0,0:0:0:0:
64,192,12859,1,0,0:0:0:0:
320,192,12914,1,0,0:0:0:0:
448,192,12969,1,0,0:0:0:0:
64,192,13023,1,0,0:0:0:0:
192,192,13078,1,0,0:0:0:0:
448,192,13133,1,0,0:0:0:0:
320,192,13188,1,0,0:0:0:0:
64,192,13188,1,0,0:0:0:0:
192,192,13353,1,0,0:0:0:0:
320,192,13408,1,0,0:0:0:0:
64,192,13463,1,0,0:0:0:0:
192,192,13518,1,0,0:0:0:0:
448,192,13518,1,0,0:0:0:0:
448,192,13683,1,0,0:0:0:0:
320,192,13738,1,0,0:0:0:0:
192,192,13848,1,0,0:0:0:0:
64,192,13848,1,0,0:0:0:0:
64,192,14012,1,0,0:0:0:0:
192,192,14067,1,0,0:0:0:0:
320,192,14177,1,0,0:0:0:0:
448,192,14177,1,0,0:0:0:0:
64,192,14232,1,0,0:0:0:0:
192,192,14287,1,0,0:0:0:0:
448,192,14342,1,0,0:0:0:0:
64,192,14397,1,0,0:0:0:0:
320,192,14452,1,0,0:0:0:0:
448,192,14507,1,0,0:0:0:0:
192,192,14507,1,0,0:0:0:0:
448,192,14672,1,0,0:0:0:0:
320,192,14727,1,0,0:0:0:0:
64,192,14782,1,0,0:0:0:0:
192,192,14837,1,0,0:0:0:0:
448,192,14837,1,0,0:0:0:0:
64,192,15001,1,0,0:0:0:0:
192,192,15056,1,0,0:0:0:0:
448,192,15166,1,0,0:0:0:0:
320,192,15166,1,0,0:0:0:0:
448,192,15331,1,0,0:0:0:0:
320,192,15386,1,0,0:0:0:0:
192,192,15496,1,0,0:0:0:0:
64,192,15496,1,0,0:0:0:0:
448,192,15551,1,0,0:0:0:0:
320,192,15606,1,0,0:0:0:0:
64,192,15661,1,0,0:0:0:0:
192,192,15716,1,0,0:0:0:0:
320,192,15771,1,0,0:0:0:0:
448,192,15826,1,0,0:0:0:0:
64,192,15826,1,0,0:0:0:0:
320,192,15991,1,0,0:0:0:0:
192,192,16045,1,0,0:0:0:0:
448,192,16100,1,0,0:0:0:0:
320,192,16155,1,0,0:0:0:0:
64,192,16155,1,0,0:0:0:0:
64,192,16320,1,0,0:0:0:0:
192,192,16375,1,0,0:0:0:0:
320,192,16485,1,0,0:0:0:0:
448,192,16485,1,0,0:0:0:0:
448,192,16650,1,0,0:0:0:0:
320,192,16705,1,0,0:0:0:0:
192,192,16815,1,0,0:0:0:0:
64,192,16815,1,0,0:0:0:0:
448,192,16815,1,0,0:0:0:0:
320,192,16870,1,0,0:0:0:0:
64,192,16925,1,0,0:0:0:0:
448,192,16980,1,0,0:0:0:0:
320,192,16980,1,0,0:0:0:0:
192,192,17034,1,0,0:0:0:0:
320,192,17089,1,0,0:0:0:0:
448,192,17144,1,0,0:0:0:0:
64,192,17144,1,0,0:0:0:0:
192,192,17144,1,0,0:0:0:0:
448,192,17309,1,0,0:0:0:0:
192,192,17309,1,0,0:0:0:0:
320,192,17364,1,0,0:0:0:0:
192,192,17419,1,0,0:0:0:0:
64,192,17474,1,0,0:0:0:0:
320,192,17474,1,0,0:0:0:0:
448,192,17474,1,0,0:0:0:0:
192,192,17529,1,0,0:0:0:0:
64,192,17584,1,0,0:0:0:0:
448,192,17639,1,0,0:0:0:0:
320,192,17639,1,0,0:0:0:0:
64,192,17804,1,0,0:0:0:0:
192,192,17804,1,0,0:0:0:0:
448,192,17804,1,0,0:0:0:0:
320,192,17969,1,0,0:0:0:0:
448,192,17969,1,0,0:0:0:0:
64,192,18133,1,0,0:0:0:0:
448,192,18133,1,0,0:0:0:0:
320,192,18133,1,0,0:0:0:0:
192,192,18188,1,0,0:0:0:0:
320,192,18243,1,0,0:0:0:0:
448,192,18298,1,0,0:0:0:0:
64,192,18298,1,0,0:0:0:0:
192,192,18353,1,0,0:0:0:0:
320,192,18408,1,0,0:0:0:0:
448,192,18463,1,0,0:0:0:0:
192,192,18463,1,0,0:0:0:0:
64,192,18463,1,0,0:0:0:0:
448,192,18628,1,0,0:0:0:0:
320,192,18628,1,0,0:0:0:0:
64,192,18628,1,0,0:0:0:0:
192,192,18683,1,0,0:0:0:0:
64,192,18738,1,0,0:0:0:0:
448,192,18793,1,0,0:0:0:0:
320,192,18793,1,0,0:0:0:0:
192,192,18848,1,0,0:0:0:0:
64,192,18903,1,0,0:0:0:0:
448,192,18958,1,0,0:0:0:0:
320,192,18958,1,0,0:0:0:0:
192,192,18958,1,0,0:0:0:0:
64,192,19122,1,0,0:0:0:0:
192,192,19122,1,0,0:0:0:0:
64,192,19287,1,0,0:0:0:0:
320,192,19287,1,0,0:0:0:0:
192,192,19287,1,0,0:0:0:0:
320,192,19452,1,0,0:0:0:0:
448,192,19452,1,0,0:0:0:0:
64,192,19534,1,0,0:0:0:0:
192,192,19534,1,0,0:0:0:0:
320,192,19617,1,0,0:0:0:0:
448,192,19617,1,0,0:0:0:0:
64,192,19699,1,0,0:0:0:0:
192,192,19699,1,0,0:0:0:0:
320,192,19782,1,0,0:0:0:0:
448,192,19782,1,0,0:0:0:0:
64,192,19864,1,0,0:0:0:0:
192,192,19864,1,0,0:0:0:0:
320,192,19947,1,0,0:0:0:0:
448,192,19947,1,0,0:0:0:0:
64,192,20029,1,0,0:0:0:0:
192,192,20029,1,0,0:0:0:0:
320,192,20111,1,0,0:0:0:0:
448,192,20111,1,0,0:0:0:0:
64,192,20194,1,0,0:0:0:0:
192,192,20194,1,0,0:0:0:0:
320,192,20276,1,0,0:0:0:0:
448,192,20276,1,0,0:0:0:0:
64,192,20359,1,0,0:0:0:0:
192,192,20359,1,0,0:0:0:0:
320,192,20441,1,0,0:0:0:0:
448,192,20441,1,0,0:0:0:0:
64,192,20523,1,0,0:0:0:0:
192,192,20523,1,0,0:0:0:0:
320,192,20606,1,0,0:0:0:0:
448,192,20606,1,0,0:0:0:0:
64,192,20688,1,0,0:0:0:0:
192,192,20688,1,0,0:0:0:0:
448,192,20771,128,0,20853:0:0:0:0:
320,192,20771,1,0,0:0:0:0:
320,192,21018,128,0,21100:0:0:0:0:
192,192,21265,128,0,21348:0:0:0:0:
64,192,21512,128,0,21595:0:0:0:0:
192,192,21760,128,0,21842:0:0:0:0:
320,192,21842,128,0,21925:0:0:0:0:
448,192,21925,128,0,22007:0:0:0:0:
64,192,22007,128,0,22089:0:0:0:0:
192,192,22089,1,0,0:0:0:0:
320,192,22089,1,0,0:0:0:0:
192,192,27364,5,0,0:0:0:0:
448,192,27529,1,0,0:0:0:0:
320,192,27694,1,0,0:0:0:0:
192,192,27859,128,0,28106:0:0:0:0:
448,192,28188,1,0,0:0:0:0:
320,192,28353,1,0,0:0:0:0:
192,192,28518,128,0,28600:0:0:0:0:
64,192,28683,1,0,0:0:0:0:
448,192,28848,1,0,0:0:0:0:
320,192,29012,1,0,0:0:0:0:
192,192,29177,128,0,29425:0:0:0:0:
320,192,29507,1,0,0:0:0:0:
192,192,29672,1,0,0:0:0:0:
320,192,29837,128,0,29919:0:0:0:0:
192,192,30001,128,0,30084:0:0:0:0:
448,192,30166,1,0,0:0:0:0:
64,192,30331,1,0,0:0:0:0:
192,192,30496,128,0,30743:0:0:0:0:
64,192,30826,1,0,0:0:0:0:
192,192,30991,1,0,0:0:0:0:
320,192,31155,1,0,0:0:0:0:
192,192,31320,128,0,31403:0:0:0:0:
320,192,31485,1,0,0:0:0:0:
448,192,31650,1,0,0:0:0:0:
192,192,31815,128,0,32062:0:0:0:0:
448,192,32144,1,0,0:0:0:0:
192,192,32309,1,0,0:0:0:0:
320,192,32474,1,0,0:0:0:0:
64,192,32639,128,0,32721:0:0:0:0:
320,192,32804,1,0,0:0:0:0:
192,192,32969,1,0,0:0:0:0:
64,192,33133,128,0,33381:0:0:0:0:
320,192,33463,1,0,0:0:0:0:
192,192,33628,1,0,0:0:0:0:
320,192,33793,128,0,33875:0:0:0:0:
64,192,33958,128,0,34040:0:0:0:0:
448,192,34122,1,0,0:0:0:0:
320,192,34287,1,0,0:0:0:0:
192,192,34452,128,0,34699:0:0:0:0:
320,192,34782,1,0,0:0:0:0:
192,192,34947,1,0,0:0:0:0:
320,192,35111,128,0,35194:0:0:0:0:
64,192,35276,128,0,35359:0:0:0:0:
320,192,35441,1,0,0:0:0:0:
192,192,35606,1,0,0:0:0:0:
64,192,35771,128,0,36018:0:0:0:0:
192,192,36100,1,0,0:0:0:0:
320,192,36265,1,0,0:0:0:0:
448,192,36430,1,0,0:0:0:0:
192,192,36595,128,0,36677:0:0:0:0:
320,192,36760,1,0,0:0:0:0:
448,192,36925,1,0,0:0:0:0:
192,192,37089,128,0,37337:0:0:0:0:
320,192,37419,1,0,0:0:0:0:
64,192,37584,1,0,0:0:0:0:
192,192,37749,1,0,0:0:0:0:
64,192,37914,1,0,0:0:0:0:
64,192,38078,1,0,0:0:0:0:
64,192,38243,1,0,0:0:0:0:
320,192,38408,1,0,0:0:0:0:
320,192,38573,1,0,0:0:0:0:
320,192,38738,1,0,0:0:0:0:
320,192,38903,1,0,0:0:0:0:
320,192,39067,1,0,0:0:0:0:
192,192,39232,1,0,0:0:0:0:
192,192,39397,1,0,0:0:0:0:
192,192,39562,1,0,0:0:0:0:
320,192,39727,1,0,0:0:0:0:
320,192,39892,1,0,0:0:0:0:
320,192,40056,1,0,0:0:0:0:
320,192,40221,1,0,0:0:0:0:
320,192,40386,1,0,0:0:0:0:
192,192,40551,1,0,0:0:0:0:
192,192,40716,1,0,0:0:0:0:
192,192,40881,1,0,0:0:0:0:
320,192,41045,1,0,0:0:0:0:
320,192,41210,1,0,0:0:0:0:
320,192,41375,1,0,0:0:0:0:
320,192,41540,1,0,0:0:0:0:
320,192,41705,1,0,0:0:0:0:
192,192,41870,1,0,0:0:0:0:
192,192,42034,1,0,0:0:0:0:
192,192,42199,1,0,0:0:0:0:
320,192,42199,128,0,42364:0:0:0:0:
64,192,42364,1,0,0:0:0:0:
448,192,42364,1,0,0:0:0:0:
64,192,42447,1,0,0:0:0:0:
192,192,42447,1,0,0:0:0:0:
448,192,42529,1,0,0:0:0:0:
320,192,42570,1,0,0:0:0:0:
64,192,42611,1,0,0:0:0:0:
192,192,42653,1,0,0:0:0:0:
320,192,42694,1,0,0:0:0:0:
448,192,42735,1,0,0:0:0:0:
64,192,42776,1,0,0:0:0:0:
192,192,42817,1,0,0:0:0:0:
448,192,42859,1,0,0:0:0:0:
320,192,42900,1,0,0:0:0:0:
192,192,42941,1,0,0:0:0:0:
64,192,42982,1,0,0:0:0:0:
448,192,43023,1,0,0:0:0:0:
320,192,43065,1,0,0:0:0:0:
64,192,43106,1,0,0:0:0:0:
192,192,43147,1,0,0:0:0:0:
320,192,43188,1,0,0:0:0:0:
448,192,43188,1,0,0:0:0:0:
64,192,43271,1,0,0:0:0:0:
192,192,43353,1,0,0:0:0:0:
320,192,43436,1,0,0:0:0:0:
448,192,43518,1,0,0:0:0:0:
64,192,43518,1,0,0:0:0:0:
320,192,43600,1,0,0:0:0:0:
192,192,43683,1,0,0:0:0:0:
64,192,43765,1,0,0:0:0:0:
320,192,43848,1,0,0:0:0:0:
192,192,43848,1,0,0:0:0:0:
448,192,43930,1,0,0:0:0:0:
64,192,44012,1,0,0:0:0:0:
192,192,44095,1,0,0:0:0:0:
320,192,44177,1,0,0:0:0:0:
448,192,44177,1,0,0:0:0:0:
192,192,44260,1,0,0:0:0:0:
64,192,44342,1,0,0:0:0:0:
320,192,44425,1,0,0:0:0:0:
448,192,44507,1,0,0:0:0:0:
192,192,44507,1,0,0:0:0:0:
64,192,44589,1,0,0:0:0:0:
192,192,44672,1,0,0:0:0:0:
448,192,44754,1,0,0:0:0:0:
320,192,44837,1,0,0:0:0:0:
64,192,44837,1,0,0:0:0:0:
192,192,44919,1,0,0:0:0:0:
64,192,45001,1,0,0:0:0:0:
448,192,45084,1,0,0:0:0:0:
320,192,45166,1,0,0:0:0:0:
192,192,45166,1,0,0:0:0:0:
64,192,45249,1,0,0:0:0:0:
192,192,45331,1,0,0:0:0:0:
320,192,45414,1,0,0:0:0:0:
64,192,45496,1,0,0:0:0:0:
192,192,45496,1,0,0:0:0:0:
320,192,45661,1,0,0:0:0:0:
192,192,45743,1,0,0:0:0:0:
448,192,45826,1,0,0:0:0:0:
320,192,45826,1,0,0:0:0:0:
192,192,45908,1,0,0:0:0:0:
64,192,45991,1,0,0:0:0:0:
320,192,46073,1,0,0:0:0:0:
448,192,46155,1,0,0:0:0:0:
192,192,46155,1,0,0:0:0:0:
64,192,46238,1,0,0:0:0:0:
192,192,46320,1,0,0:0:0:0:
320,192,46403,1,0,0:0:0:0:
448,192,46485,1,0,0:0:0:0:
64,192,46485,1,0,0:0:0:0:
192,192,46567,1,0,0:0:0:0:
320,192,46650,1,0,0:0:0:0:
448,192,46732,1,0,0:0:0:0:
192,192,46815,1,0,0:0:0:0:
64,192,46815,1,0,0:0:0:0:
320,192,46897,1,0,0:0:0:0:
192,192,46980,1,0,0:0:0:0:
64,192,47062,1,0,0:0:0:0:
448,192,47144,1,0,0:0:0:0:
192,192,47144,1,0,0:0:0:0:
320,192,47227,1,0,0:0:0:0:
448,192,47309,1,0,0:0:0:0:
64,192,47309,1,0,0:0:0:0:
192,192,47392,1,0,0:0:0:0:
320,192,47474,1,0,0:0:0:0:
64,192,47474,1,0,0:0:0:0:
192,192,47556,1,0,0:0:0:0:
448,192,47639,1,0,0:0:0:0:
320,192,47721,1,0,0:0:0:0:
192,192,47804,1,0,0:0:0:0:
448,192,47804,1,0,0:0:0:0:
64,192,47886,1,0,0:0:0:0:
192,192,47969,1,0,0:0:0:0:
448,192,48051,1,0,0:0:0:0:
64,192,48133,1,0,0:0:0:0:
320,192,48133,1,0,0:0:0:0:
192,192,48175,1,0,0:0:0:0:
448,192,48216,1,0,0:0:0:0:
320,192,48257,1,0,0:0:0:0:
64,192,48298,1,0,0:0:0:0:
192,192,48339,1,0,0:0:0:0:
448,192,48381,1,0,0:0:0:0:
320,192,48422,1,0,0:0:0:0:
192,192,48463,1,0,0:0:0:0:
64,192,48463,1,0,0:0:0:0:
320,192,48545,1,0,0:0:0:0:
448,192,48628,1,0,0:0:0:0:
64,192,48710,1,0,0:0:0:0:
192,192,48793,1,0,0:0:0:0:
320,192,48793,1,0,0:0:0:0:
448,192,48875,1,0,0:0:0:0:
320,192,48958,1,0,0:0:0:0:
192,192,49040,1,0,0:0:0:0:
64,192,49122,1,0,0:0:0:0:
448,192,49122,1,0,0:0:0:0:
320,192,49205,1,0,0:0:0:0:
192,192,49287,1,0,0:0:0:0:
320,192,49370,1,0,0:0:0:0:
448,192,49452,1,0,0:0:0:0:
64,192,49452,1,0,0:0:0:0:
192,192,49534,1,0,0:0:0:0:
320,192,49617,1,0,0:0:0:0:
448,192,49699,1,0,0:0:0:0:
192,192,49782,1,0,0:0:0:0:
64,192,49782,1,0,0:0:0:0:
320,192,49864,1,0,0:0:0:0:
448,192,49947,1,0,0:0:0:0:
192,192,50029,1,0,0:0:0:0:
64,192,50111,1,0,0:0:0:0:
448,192,50111,1,0,0:0:0:0:
320,192,50194,1,0,0:0:0:0:
192,192,50276,1,0,0:0:0:0:
64,192,50359,1,0,0:0:0:0:
448,192,50441,1,0,0:0:0:0:
320,192,50441,1,0,0:0:0:0:
192,192,50523,1,0,0:0:0:0:
64,192,50606,1,0,0:0:0:0:
320,192,50688,1,0,0:0:0:0:
192,192,50771,1,0,0:0:0:0:
64,192,50771,1,0,0:0:0:0:
192,192,50936,1,0,0:0:0:0:
320,192,51018,1,0,0:0:0:0:
192,192,51100,1,0,0:0:0:0:
64,192,51100,1,0,0:0:0:0:
320,192,51183,1,0,0:0:0:0:
448,192,51265,1,0,0:0:0:0:
320,192,51348,1,0,0:0:0:0:
192,192,51430,1,0,0:0:0:0:
64,192,51430,1,0,0:0:0:0:
320,192,51512,1,0,0:0:0:0:
448,192,51595,1,0,0:0:0:0:
192,192,51677,1,0,0:0:0:0:
64,192,51760,1,0,0:0:0:0:
448,192,51760,1,0,0:0:0:0:
320,192,51842,1,0,0:0:0:0:
192,192,51925,1,0,0:0:0:0:
448,192,52007,1,0,0:0:0:0:
64,192,52089,1,0,0:0:0:0:
320,192,52089,1,0,0:0:0:0:
192,192,52172,1,0,0:0:0:0:
448,192,52172,1,0,0:0:0:0:
320,192,52254,1,0,0:0:0:0:
64,192,52254,1,0,0:0:0:0:
448,192,52337,1,0,0:0:0:0:
192,192,52337,1,0,0:0:0:0:
64,192,52419,1,0,0:0:0:0:
192,192,52474,1,0,0:0:0:0:
320,192,52529,1,0,0:0:0:0:
448,192,52584,1,0,0:0:0:0:
64,192,52584,1,0,0:0:0:0:
192,192,52749,1,0,0:0:0:0:
320,192,52749,1,0,0:0:0:0:
192,192,52914,1,0,0:0:0:0:
64,192,52914,1,0,0:0:0:0:
320,192,52969,1,0,0:0:0:0:
192,192,53023,1,0,0:0:0:0:
64,192,53078,1,0,0:0:0:0:
448,192,53078,1,0,0:0:0:0:
320,192,53133,1,0,0:0:0:0:
192,192,53188,1,0,0:0:0:0:
64,192,53243,1,0,0:0:0:0:
448,192,53243,1,0,0:0:0:0:
320,192,53298,1,0,0:0:0:0:
192,192,53353,1,0,0:0:0:0:
64,192,53408,1,0,0:0:0:0:
320,192,53463,1,0,0:0:0:0:
448,192,53518,1,0,0:0:0:0:
64,192,53573,1,0,0:0:0:0:
192,192,53573,1,0,0:0:0:0:
320,192,53628,1,0,0:0:0:0:
448,192,53683,1,0,0:0:0:0:
64,192,53738,1,0,0:0:0:0:
192,192,53738,1,0,0:0:0:0:
192,192,54067,1,0,0:0:0:0:
64,192,54067,1,0,0:0:0:0:
64,192,54397,1,0,0:0:0:0:
192,192,54397,1,0,0:0:0:0:
64,192,54562,1,0,0:0:0:0:
192,192,54562,1,0,0:0:0:0:
64,192,54727,1,0,0:0:0:0:
192,192,54727,1,0,0:0:0:0:
320,192,54809,1,0,0:0:0:0:
448,192,54809,1,0,0:0:0:0:
64,192,54892,1,0,0:0:0:0:
192,192,54892,1,0,0:0:0:0:
320,192,54974,1,0,0:0:0:0:
448,192,54974,1,0,0:0:0:0:
320,192,55056,1,0,0:0:0:0:
448,192,55056,1,0,0:0:0:0:
320,192,55386,1,0,0:0:0:0:
448,192,55386,1,0,0:0:0:0:
320,192,55716,1,0,0:0:0:0:
448,192,55716,1,0,0:0:0:0:
320,192,55963,1,0,0:0:0:0:
448,192,55963,1,0,0:0:0:0:
320,192,56210,1,0,0:0:0:0:
448,192,56210,1,0,0:0:0:0:
64,192,56375,1,0,0:0:0:0:
192,192,56375,1,0,0:0:0:0:
64,192,56705,1,0,0:0:0:0:
192,192,56705,1,0,0:0:0:0:
64,192,57034,1,0,0:0:0:0:
192,192,57034,1,0,0:0:0:0:
64,192,57199,1,0,0:0:0:0:
192,192,57199,1,0,0:0:0:0:
64,192,57364,1,0,0:0:0:0:
192,192,57364,1,0,0:0:0:0:
320,192,57447,1,0,0:0:0:0:
448,192,57447,1,0,0:0:0:0:
64,192,57529,1,0,0:0:0:0:
192,192,57529,1,0,0:0:0:0:
320,192,57611,1,0,0:0:0:0:
448,192,57611,1,0,0:0:0:0:
320,192,57694,1,0,0:0:0:0:
448,192,57694,1,0,0:0:0:0:
320,192,58023,1,0,0:0:0:0:
448,192,58023,1,0,0:0:0:0:
320,192,58353,1,0,0:0:0:0:
448,192,58353,1,0,0:0:0:0:
448,192,58600,1,0,0:0:0:0:
64,192,58683,1,0,0:0:0:0:
320,192,58765,1,0,0:0:0:0:
192,192,58848,1,0,0:0:0:0:
64,192,58930,1,0,0:0:0:0:
448,192,59012,1,0,0:0:0:0:
320,192,59012,1,0,0:0:0:0:
192,192,59095,1,0,0:0:0:0:
64,192,59177,1,0,0:0:0:0:
448,192,59177,1,0,0:0:0:0:
320,192,59260,1,0,0:0:0:0:
192,192,59342,1,0,0:0:0:0:
64,192,59342,1,0,0:0:0:0:
320,192,59425,1,0,0:0:0:0:
448,192,59507,1,0,0:0:0:0:
64,192,59507,1,0,0:0:0:0:
192,192,59589,1,0,0:0:0:0:
320,192,59672,1,0,0:0:0:0:
448,192,59672,1,0,0:0:0:0:
192,192,59754,1,0,0:0:0:0:
64,192,59837,1,0,0:0:0:0:
448,192,59837,1,0,0:0:0:0:
320,192,59919,1,0,0:0:0:0:
192,192,60001,1,0,0:0:0:0:
64,192,60001,1,0,0:0:0:0:
320,192,60084,1,0,0:0:0:0:
448,192,60166,1,0,0:0:0:0:
64,192,60166,1,0,0:0:0:0:
192,192,60249,1,0,0:0:0:0:
320,192,60331,1,0,0:0:0:0:
448,192,60331,1,0,0:0:0:0:
192,192,60414,1,0,0:0:0:0:
64,192,60496,1,0,0:0:0:0:
448,192,60496,1,0,0:0:0:0:
320,192,60578,1,0,0:0:0:0:
192,192,60661,1,0,0:0:0:0:
64,192,60661,1,0,0:0:0:0:
320,192,60743,1,0,0:0:0:0:
448,192,60826,1,0,0:0:0:0:
64,192,60826,1,0,0:0:0:0:
192,192,60908,1,0,0:0:0:0:
320,192,60991,1,0,0:0:0:0:
448,192,60991,1,0,0:0:0:0:
192,192,61073,1,0,0:0:0:0:
64,192,61155,1,0,0:0:0:0:
448,192,61155,1,0,0:0:0:0:
320,192,61238,1,0,0:0:0:0:
192,192,61320,1,0,0:0:0:0:
64,192,61320,1,0,0:0:0:0:
320,192,61403,1,0,0:0:0:0:
448,192,61485,1,0,0:0:0:0:
64,192,61485,1,0,0:0:0:0:
192,192,61567,1,0,0:0:0:0:
320,192,61650,1,0,0:0:0:0:
448,192,61650,1,0,0:0:0:0:
64,192,61732,1,0,0:0:0:0:
192,192,61732,1,0,0:0:0:0:
320,192,61815,1,0,0:0:0:0:
448,192,61815,1,0,0:0:0:0:
64,192,61897,1,0,0:0:0:0:
192,192,61897,1,0,0:0:0:0:
320,192,61980,1,0,0:0:0:0:
448,192,61980,1,0,0:0:0:0:
64,192,62062,1,0,0:0:0:0:
192,192,62062,1,0,0:0:0:0:
320,192,62144,1,0,0:0:0:0:
448,192,62144,1,0,0:0:0:0:
64,192,62227,1,0,0:0:0:0:
192,192,62227,1,0,0:0:0:0:
320,192,62309,1,0,0:0:0:0:
448,192,62309,1,0,0:0:0:0:
320,192,62392,1,0,0:0:0:0:
448,192,62392,1,0,0:0:0:0:
64,192,62474,1,0,0:0:0:0:
192,192,62474,1,0,0:0:0:0:
64,192,62556,1,0,0:0:0:0:
192,192,62556,1,0,0:0:0:0:
320,192,62639,1,0,0:0:0:0:
448,192,62639,1,0,0:0:0:0:
320,192,62721,1,0,0:0:0:0:
448,192,62721,1,0,0:0:0:0:
64,192,62804,1,0,0:0:0:0:
192,192,62804,1,0,0:0:0:0:
64,192,62886,1,0,0:0:0:0:
192,192,62886,1,0,0:0:0:0:
448,192,62969,1,0,0:0:0:0:
320,192,62969,1,0,0:0:0:0:
192,192,63051,1,0,0:0:0:0:
64,192,63133,1,0,0:0:0:0:
320,192,63216,1,0,0:0:0:0:
448,192,63298,1,0,0:0:0:0:
64,192,63381,1,0,0:0:0:0:
192,192,63463,1,0,0:0:0:0:
320,192,63545,1,0,0:0:0:0:
448,192,63628,1,0,0:0:0:0:
64,192,63710,1,0,0:0:0:0:
192,192,63793,1,0,0:0:0:0:
448,192,63875,1,0,0:0:0:0:
320,192,63958,1,0,0:0:0:0:
192,192,64040,1,0,0:0:0:0:
64,192,64122,1,0,0:0:0:0:
448,192,64205,1,0,0:0:0:0:
320,192,64287,1,0,0:0:0:0:
192,192,64287,1,0,0:0:0:0:
64,192,64287,1,0,0:0:0:0:
448,192,64617,1,0,0:0:0:0:
320,192,64617,1,0,0:0:0:0:
192,192,64658,1,0,0:0:0:0:
64,192,64699,1,0,0:0:0:0:
320,192,64741,1,0,0:0:0:0:
448,192,64782,1,0,0:0:0:0:
64,192,64823,1,0,0:0:0:0:
192,192,64864,1,0,0:0:0:0:
320,192,64905,1,0,0:0:0:0:
64,192,64947,1,0,0:0:0:0:
448,192,64988,1,0,0:0:0:0:
320,192,65029,1,0,0:0:0:0:
64,192,65070,1,0,0:0:0:0:
192,192,65111,1,0,0:0:0:0:
448,192,65153,1,0,0:0:0:0:
320,192,65194,1,0,0:0:0:0:
192,192,65235,1,0,0:0:0:0:
448,192,65276,1,0,0:0:0:0:
64,192,65317,1,0,0:0:0:0:
192,192,65359,1,0,0:0:0:0:
320,192,65400,1,0,0:0:0:0:
448,192,65441,1,0,0:0:0:0:
192,192,65482,1,0,0:0:0:0:
64,192,65523,1,0,0:0:0:0:
448,192,65565,1,0,0:0:0:0:
320,192,65606,1,0,0:0:0:0:
192,192,65647,1,0,0:0:0:0:
64,192,65688,1,0,0:0:0:0:
320,192,65730,1,0,0:0:0:0:
448,192,65771,1,0,0:0:0:0:
192,192,65812,1,0,0:0:0:0:
64,192,65853,1,0,0:0:0:0:
320,192,65894,1,0,0:0:0:0:
448,192,65936,1,0,0:0:0:0:
64,192,65977,1,0,0:0:0:0:
192,192,66018,1,0,0:0:0:0:
320,192,66059,1,0,0:0:0:0:
448,192,66100,1,0,0:0:0:0:
192,192,66142,1,0,0:0:0:0:
320,192,66183,1,0,0:0:0:0:
448,192,66224,1,0,0:0:0:0:
64,192,66265,1,0,0:0:0:0:
192,192,66306,1,0,0:0:0:0:
448,192,66348,1,0,0:0:0:0:
320,192,66389,1,0,0:0:0:0:
64,192,66430,1,0,0:0:0:0:
192,192,66471,1,0,0:0:0:0:
320,192,66512,1,0,0:0:0:0:
448,192,66554,1,0,0:0:0:0:
192,192,66595,1,0,0:0:0:0:
64,192,66636,1,0,0:0:0:0:
448,192,66677,1,0,0:0:0:0:
320,192,66719,1,0,0:0:0:0:
192,192,66760,1,0,0:0:0:0:
320,192,66801,1,0,0:0:0:0:
448,192,66842,1,0,0:0:0:0:
64,192,66883,1,0,0:0:0:0:
192,192,66925,1,0,0:0:0:0:
320,192,66925,1,0,0:0:0:0:
320,192,67007,1,0,0:0:0:0:
192,192,67089,1,0,0:0:0:0:
448,192,67089,1,0,0:0:0:0:
192,192,67172,1,0,0:0:0:0:
64,192,67254,1,0,0:0:0:0:
320,192,67254,1,0,0:0:0:0:
320,192,67337,1,0,0:0:0:0:
448,192,67419,1,0,0:0:0:0:
192,192,67419,1,0,0:0:0:0:
448,192,67501,1,0,0:0:0:0:
64,192,67584,1,0,0:0:0:0:
320,192,67584,1,0,0:0:0:0:
64,192,67666,1,0,0:0:0:0:
192,192,67749,1,0,0:0:0:0:
320,192,67749,1,0,0:0:0:0:
320,192,67831,1,0,0:0:0:0:
448,192,67914,1,0,0:0:0:0:
192,192,67914,1,0,0:0:0:0:
192,192,67996,1,0,0:0:0:0:
64,192,68078,1,0,0:0:0:0:
448,192,68078,1,0,0:0:0:0:
448,192,68161,1,0,0:0:0:0:
320,192,68243,1,0,0:0:0:0:
64,192,68243,1,0,0:0:0:0:
64,192,68326,1,0,0:0:0:0:
192,192,68408,1,0,0:0:0:0:
448,192,68408,1,0,0:0:0:0:
448,192,68491,1,0,0:0:0:0:
320,192,68573,1,0,0:0:0:0:
64,192,68573,1,0,0:0:0:0:
64,192,68655,1,0,0:0:0:0:
192,192,68738,1,0,0:0:0:0:
320,192,68738,1,0,0:0:0:0:
320,192,68820,1,0,0:0:0:0:
448,192,68903,1,0,0:0:0:0:
192,192,68903,1,0,0:0:0:0:
192,192,68985,1,0,0:0:0:0:
64,192,69067,1,0,0:0:0:0:
320,192,69067,1,0,0:0:0:0:
320,192,69150,1,0,0:0:0:0:
192,192,69232,128,0,69480:0:0:0:0:
448,192,69232,128,0,69480:0:0:0:0:
192,192,69562,1,0,0:0:0:0:
448,192,69562,1,0,0:0:0:0:
448,192,69727,128,0,69892:0:0:0:0:
64,192,69892,1,0,0:0:0:0:
192,192,69892,1,0,0:0:0:0:
320,192,69933,1,0,0:0:0:0:
448,192,69974,1,0,0:0:0:0:
192,192,70015,1,0,0:0:0:0:
64,192,70056,1,0,0:0:0:0:
448,192,70098,1,0,0:0:0:0:
320,192,70139,1,0,0:0:0:0:
192,192,70180,1,0,0:0:0:0:
64,192,70221,1,0,0:0:0:0:
448,192,70262,1,0,0:0:0:0:
320,192,70304,1,0,0:0:0:0:
192,192,70345,1,0,0:0:0:0:
448,192,70386,1,0,0:0:0:0:
64,192,70427,1,0,0:0:0:0:
192,192,70469,1,0,0:0:0:0:
320,192,70510,1,0,0:0:0:0:
448,192,70551,1,0,0:0:0:0:
192,192,70592,1,0,0:0:0:0:
64,192,70633,1,0,0:0:0:0:
448,192,70675,1,0,0:0:0:0:
320,192,70716,1,0,0:0:0:0:
64,192,70757,1,0,0:0:0:0:
192,192,70798,1,0,0:0:0:0:
320,192,70839,1,0,0:0:0:0:
448,192,70881,1,0,0:0:0:0:
64,192,70922,1,0,0:0:0:0:
192,192,70963,1,0,0:0:0:0:
448,192,71004,1,0,0:0:0:0:
320,192,71045,1,0,0:0:0:0:
64,192,71087,1,0,0:0:0:0:
192,192,71128,1,0,0:0:0:0:
448,192,71169,1,0,0:0:0:0:
320,192,71210,1,0,0:0:0:0:
64,192,71251,1,0,0:0:0:0:
448,192,71293,1,0,0:0:0:0:
320,192,71334,1,0,0:0:0:0:
192,192,71375,1,0,0:0:0:0:
64,192,71416,1,0,0:0:0:0:
448,192,71458,1,0,0:0:0:0:
320,192,71499,1,0,0:0:0:0:
192,192,71540,1,0,0:0:0:0:
448,192,71581,1,0,0:0:0:0:
64,192,71622,1,0,0:0:0:0:
192,192,71664,1,0,0:0:0:0:
320,192,71705,1,0,0:0:0:0:
64,192,71746,1,0,0:0:0:0:
448,192,71787,1,0,0:0:0:0:
320,192,71828,1,0,0:0:0:0:
192,192,71870,1,0,0:0:0:0:
448,192,71911,1,0,0:0:0:0:
64,192,71952,1,0,0:0:0:0:
192,192,71993,1,0,0:0:0:0:
320,192,72034,1,0,0:0:0:0:
448,192,72076,1,0,0:0:0:0:
64,192,72117,1,0,0:0:0:0:
192,192,72158,1,0,0:0:0:0:
320,192,72199,1,0,0:0:0:0:
448,192,72199,1,0,0:0:0:0:
320,192,72282,1,0,0:0:0:0:
64,192,72364,1,0,0:0:0:0:
192,192,72364,1,0,0:0:0:0:
192,192,72447,1,0,0:0:0:0:
448,192,72529,1,0,0:0:0:0:
320,192,72529,1,0,0:0:0:0:
448,192,72611,1,0,0:0:0:0:
64,192,72694,1,0,0:0:0:0:
192,192,72694,1,0,0:0:0:0:
64,192,72776,1,0,0:0:0:0:
192,192,72859,1,0,0:0:0:0:
448,192,72859,1,0,0:0:0:0:
192,192,72941,1,0,0:0:0:0:
320,192,73023,1,0,0:0:0:0:
64,192,73023,1,0,0:0:0:0:
320,192,73106,1,0,0:0:0:0:
192,192,73188,1,0,0:0:0:0:
448,192,73188,1,0,0:0:0:0:
320,192,73271,1,0,0:0:0:0:
192,192,73353,1,0,0:0:0:0:
64,192,73436,1,0,0:0:0:0:
320,192,73518,1,0,0:0:0:0:
448,192,73518,1,0,0:0:0:0:
192,192,73518,1,0,0:0:0:0:
448,192,73683,1,0,0:0:0:0:
448,192,73848,1,0,0:0:0:0:
320,192,74012,1,0,0:0:0:0:
192,192,74012,1,0,0:0:0:0:
64,192,74012,1,0,0:0:0:0:
192,192,74095,1,0,0:0:0:0:
320,192,74177,1,0,0:0:0:0:
448,192,74342,1,0,0:0:0:0:
320,192,74342,1,0,0:0:0:0:
192,192,74342,1,0,0:0:0:0:
320,192,74425,1,0,0:0:0:0:
192,192,74507,1,0,0:0:0:0:
64,192,74507,1,0,0:0:0:0:
448,192,74589,1,0,0:0:0:0:
320,192,74589,1,0,0:0:0:0:
64,192,74672,1,0,0:0:0:0:
192,192,74672,1,0,0:0:0:0:
320,192,74754,1,0,0:0:0:0:
192,192,74754,1,0,0:0:0:0:
320,192,74837,128,0,75001:0:0:0:0:
448,192,74837,128,0,75001:0:0:0:0:
64,192,75166,1,0,0:0:0:0:
192,192,75166,1,0,0:0:0:0:
320,192,75331,1,0,0:0:0:0:
448,192,75331,1,0,0:0:0:0:
192,192,75496,1,0,0:0:0:0:
64,192,75496,1,0,0:0:0:0:
192,192,75578,1,0,0:0:0:0:
448,192,75661,1,0,0:0:0:0:
320,192,75661,1,0,0:0:0:0:
320,192,75743,1,0,0:0:0:0:
64,192,75826,1,0,0:0:0:0:
192,192,75826,1,0,0:0:0:0:
448,192,76155,1,0,0:0:0:0:
320,192,76155,1,0,0:0:0:0:
64,192,76485,1,0,0:0:0:0:
192,192,76485,1,0,0:0:0:0:
448,192,76650,1,0,0:0:0:0:
320,192,76705,1,0,0:0:0:0:
192,192,76760,1,0,0:0:0:0:
64,192,76815,1,0,0:0:0:0:
448,192,76815,1,0,0:0:0:0:
192,192,76980,1,0,0:0:0:0:
448,192,76980,1,0,0:0:0:0:
320,192,77144,1,0,0:0:0:0:
64,192,77144,1,0,0:0:0:0:
192,192,77309,1,0,0:0:0:0:
448,192,77474,1,0,0:0:0:0:
64,192,77474,1,0,0:0:0:0:
320,192,77556,1,0,0:0:0:0:
192,192,77639,1,0,0:0:0:0:
320,192,77721,1,0,0:0:0:0:
448,192,77804,1,0,0:0:0:0:
64,192,77804,1,0,0:0:0:0:
192,192,77886,1,0,0:0:0:0:
320,192,77969,1,0,0:0:0:0:
192,192,78051,1,0,0:0:0:0:
64,192,78133,1,0,0:0:0:0:
448,192,78133,1,0,0:0:0:0:
320,192,78216,1,0,0:0:0:0:
192,192,78298,1,0,0:0:0:0:
320,192,78381,1,0,0:0:0:0:
448,192,78463,1,0,0:0:0:0:
64,192,78463,1,0,0:0:0:0:
192,192,78545,1,0,0:0:0:0:
320,192,78628,1,0,0:0:0:0:
192,192,78710,1,0,0:0:0:0:
64,192,78793,1,0,0:0:0:0:
448,192,78793,1,0,0:0:0:0:
320,192,78875,1,0,0:0:0:0:
192,192,78958,1,0,0:0:0:0:
64,192,78958,1,0,0:0:0:0:
320,192,79040,1,0,0:0:0:0:
448,192,79122,1,0,0:0:0:0:
64,192,79122,1,0,0:0:0:0:
192,192,79205,1,0,0:0:0:0:
320,192,79287,1,0,0:0:0:0:
448,192,79287,1,0,0:0:0:0:
192,192,79370,1,0,0:0:0:0:
64,192,79452,1,0,0:0:0:0:
448,192,79452,1,0,0:0:0:0:
320,192,79452,1,0,0:0:0:0:
192,192,79534,1,0,0:0:0:0:
320,192,79534,1,0,0:0:0:0:
64,192,79617,1,0,0:0:0:0:
192,192,79617,1,0,0:0:0:0:
320,192,79699,1,0,0:0:0:0:
448,192,79699,1,0,0:0:0:0:
64,192,79782,1,0,0:0:0:0:
192,192,79782,1,0,0:0:0:0:
192,192,79864,1,0,0:0:0:0:
320,192,79864,1,0,0:0:0:0:
320,192,79947,1,0,0:0:0:0:
448,192,79947,1,0,0:0:0:0:
192,192,80029,1,0,0:0:0:0:
64,192,80029,1,0,0:0:0:0:
448,192,80111,1,0,0:0:0:0:
320,192,80111,1,0,0:0:0:0:
64,192,80111,1,0,0:0:0:0:
320,192,80276,1,0,0:0:0:0:
192,192,80276,1,0,0:0:0:0:
64,192,80441,1,0,0:0:0:0:
192,192,80441,1,0,0:0:0:0:
448,192,80441,1,0,0:0:0:0:
448,192,80606,1,0,0:0:0:0:
320,192,80606,1,0,0:0:0:0:
64,192,80771,1,0,0:0:0:0:
320,192,80771,1,0,0:0:0:0:
192,192,80771,1,0,0:0:0:0:
448,192,80936,1,0,0:0:0:0:
320,192,80936,1,0,0:0:0:0:
192,192,80936,1,0,0:0:0:0:
192,192,81100,1,0,0:0:0:0:
64,192,81100,1,0,0:0:0:0:
320,192,81183,1,0,0:0:0:0:
448,192,81183,1,0,0:0:0:0:
64,192,81265,1,0,0:0:0:0:
192,192,81265,1,0,0:0:0:0:
320,192,81348,1,0,0:0:0:0:
448,192,81348,1,0,0:0:0:0:
64,192,81430,1,0,0:0:0:0:
192,192,81430,1,0,0:0:0:0:
448,192,81430,1,0,0:0:0:0:
320,192,81595,1,0,0:0:0:0:
64,192,81595,1,0,0:0:0:0:
448,192,81760,1,0,0:0:0:0:
320,192,81760,1,0,0:0:0:0:
192,192,81760,1,0,0:0:0:0:
448,192,81925,1,0,0:0:0:0:
192,192,81925,1,0,0:0:0:0:
64,192,82089,1,0,0:0:0:0:
192,192,82089,1,0,0:0:0:0:
320,192,82089,1,0,0:0:0:0:
64,192,82254,1,0,0:0:0:0:
320,192,82254,1,0,0:0:0:0:
192,192,82254,1,0,0:0:0:0:
448,192,82419,1,0,0:0:0:0:
320,192,82419,1,0,0:0:0:0:
64,192,82419,1,0,0:0:0:0:
448,192,82584,1,0,0:0:0:0:
64,192,82584,1,0,0:0:0:0:
192,192,82584,1,0,0:0:0:0:
448,192,82749,1,0,0:0:0:0:
320,192,82749,1,0,0:0:0:0:
192,192,82831,1,0,0:0:0:0:
64,192,82831,1,0,0:0:0:0:
320,192,82914,1,0,0:0:0:0:
448,192,82914,1,0,0:0:0:0:
64,192,82996,1,0,0:0:0:0:
192,192,82996,1,0,0:0:0:0:
320,192,83078,1,0,0:0:0:0:
448,192,83078,1,0,0:0:0:0:
64,192,83161,1,0,0:0:0:0:
192,192,83161,1,0,0:0:0:0:
320,192,83243,1,0,0:0:0:0:
448,192,83243,1,0,0:0:0:0:
64,192,83326,1,0,0:0:0:0:
192,192,83326,1,0,0:0:0:0:
448,192,83408,1,0,0:0:0:0:
320,192,83449,1,0,0:0:0:0:
64,192,83491,1,0,0:0:0:0:
192,192,83532,1,0,0:0:0:0:
320,192,83573,1,0,0:0:0:0:
448,192,83614,1,0,0:0:0:0:
64,192,83655,1,0,0:0:0:0:
192,192,83697,1,0,0:0:0:0:
448,192,83738,1,0,0:0:0:0:
320,192,83779,1,0,0:0:0:0:
192,192,83820,1,0,0:0:0:0:
64,192,83861,1,0,0:0:0:0:
448,192,83903,1,0,0:0:0:0:
320,192,83944,1,0,0:0:0:0:
64,192,83985,1,0,0:0:0:0:
192,192,84026,1,0,0:0:0:0:
448,192,84067,1,0,0:0:0:0:
320,192,84067,1,0,0:0:0:0:
64,192,85386,128,0,85716:0:0:0:0:
448,192,85386,128,0,85716:0:0:0:0:
192,192,85716,1,0,0:0:0:0:
320,192,85881,1,0,0:0:0:0:
448,192,86045,1,0,0:0:0:0:
192,192,86045,1,0,0:0:0:0:
64,192,86128,1,0,0:0:0:0:
448,192,86210,1,0,0:0:0:0:
192,192,86210,1,0,0:0:0:0:
320,192,86293,1,0,0:0:0:0:
192,192,86375,1,0,0:0:0:0:
64,192,86375,1,0,0:0:0:0:
320,192,86458,1,0,0:0:0:0:
448,192,86540,1,0,0:0:0:0:
192,192,86540,1,0,0:0:0:0:
64,192,86622,1,0,0:0:0:0:
320,192,86705,1,0,0:0:0:0:
448,192,86705,1,0,0:0:0:0:
64,192,86870,1,0,0:0:0:0:
192,192,86952,1,0,0:0:0:0:
320,192,87034,1,0,0:0:0:0:
448,192,87034,1,0,0:0:0:0:
192,192,87117,1,0,0:0:0:0:
64,192,87199,1,0,0:0:0:0:
448,192,87199,1,0,0:0:0:0:
320,192,87282,1,0,0:0:0:0:
192,192,87364,1,0,0:0:0:0:
64,192,87364,1,0,0:0:0:0:
320,192,87447,1,0,0:0:0:0:
448,192,87529,1,0,0:0:0:0:
192,192,87529,1,0,0:0:0:0:
320,192,87611,1,0,0:0:0:0:
192,192,87694,1,0,0:0:0:0:
64,192,87694,1,0,0:0:0:0:
320,192,87776,1,0,0:0:0:0:
448,192,87859,1,0,0:0:0:0:
64,192,87859,1,0,0:0:0:0:
192,192,87941,1,0,0:0:0:0:
320,192,88023,1,0,0:0:0:0:
448,192,88023,1,0,0:0:0:0:
192,192,88106,1,0,0:0:0:0:
64,192,88106,1,0,0:0:0:0:
320,192,88188,1,0,0:0:0:0:
448,192,88188,1,0,0:0:0:0:
64,192,88353,1,0,0:0:0:0:
192,192,88353,1,0,0:0:0:0:
320,192,88436,1,0,0:0:0:0:
448,192,88436,1,0,0:0:0:0:
64,192,88518,1,0,0:0:0:0:
192,192,88518,1,0,0:0:0:0:
448,192,88683,1,0,0:0:0:0:
192,192,88683,1,0,0:0:0:0:
192,192,88765,1,0,0:0:0:0:
320,192,88765,1,0,0:0:0:0:
64,192,88848,1,0,0:0:0:0:
320,192,88848,1,0,0:0:0:0:
64,192,89012,128,0,89177:0:0:0:0:
320,192,89012,128,0,89177:0:0:0:0:
192,192,89177,1,0,0:0:0:0:
448,192,89260,1,0,0:0:0:0:
64,192,89342,1,0,0:0:0:0:
320,192,89342,1,0,0:0:0:0:
64,192,89507,1,0,0:0:0:0:
320,192,89507,1,0,0:0:0:0:
192,192,89589,1,0,0:0:0:0:
320,192,89589,1,0,0:0:0:0:
192,192,89672,1,0,0:0:0:0:
448,192,89672,1,0,0:0:0:0:
320,192,89754,1,0,0:0:0:0:
64,192,89837,1,0,0:0:0:0:
192,192,89837,1,0,0:0:0:0:
320,192,90001,1,0,0:0:0:0:
448,192,90001,1,0,0:0:0:0:
192,192,90166,1,0,0:0:0:0:
64,192,90331,1,0,0:0:0:0:
320,192,90331,1,0,0:0:0:0:
192,192,90414,1,0,0:0:0:0:
448,192,90414,1,0,0:0:0:0:
64,192,90496,1,0,0:0:0:0:
320,192,90496,1,0,0:0:0:0:
192,192,90578,1,0,0:0:0:0:
448,192,90578,1,0,0:0:0:0:
320,192,90661,1,0,0:0:0:0:
192,192,90661,1,0,0:0:0:0:
64,192,90661,1,0,0:0:0:0:
192,192,90826,1,0,0:0:0:0:
320,192,90908,1,0,0:0:0:0:
448,192,90991,1,0,0:0:0:0:
64,192,90991,1,0,0:0:0:0:
320,192,91155,1,0,0:0:0:0:
64,192,91320,1,0,0:0:0:0:
192,192,91320,1,0,0:0:0:0:
320,192,91403,1,0,0:0:0:0:
448,192,91485,1,0,0:0:0:0:
192,192,91485,1,0,0:0:0:0:
64,192,91567,1,0,0:0:0:0:
448,192,91650,1,0,0:0:0:0:
320,192,91650,1,0,0:0:0:0:
192,192,91732,1,0,0:0:0:0:
64,192,91815,1,0,0:0:0:0:
320,192,91815,1,0,0:0:0:0:
448,192,91897,1,0,0:0:0:0:
64,192,91980,1,0,0:0:0:0:
192,192,91980,1,0,0:0:0:0:
320,192,92062,1,0,0:0:0:0:
448,192,92144,1,0,0:0:0:0:
192,192,92144,1,0,0:0:0:0:
320,192,92227,1,0,0:0:0:0:
192,192,92309,1,0,0:0:0:0:
64,192,92309,1,0,0:0:0:0:
320,192,92392,1,0,0:0:0:0:
448,192,92474,1,0,0:0:0:0:
64,192,92474,1,0,0:0:0:0:
192,192,92556,1,0,0:0:0:0:
320,192,92639,1,0,0:0:0:0:
448,192,92639,1,0,0:0:0:0:
192,192,92721,1,0,0:0:0:0:
64,192,92804,1,0,0:0:0:0:
320,192,92804,1,0,0:0:0:0:
448,192,92886,1,0,0:0:0:0:
320,192,92969,1,0,0:0:0:0:
192,192,92969,128,0,93051:0:0:0:0:
320,192,93133,128,0,93216:0:0:0:0:
192,192,93133,1,0,0:0:0:0:
64,192,93298,128,0,93628:0:0:0:0:
448,192,93298,128,0,93628:0:0:0:0:
192,192,93628,1,0,0:0:0:0:
320,192,93710,1,0,0:0:0:0:
448,192,93793,1,0,0:0:0:0:
64,192,93793,1,0,0:0:0:0:
320,192,93875,1,0,0:0:0:0:
64,192,93958,1,0,0:0:0:0:
448,192,93958,1,0,0:0:0:0:
192,192,94040,1,0,0:0:0:0:
448,192,94122,1,0,0:0:0:0:
64,192,94122,1,0,0:0:0:0:
320,192,94205,1,0,0:0:0:0:
192,192,94287,1,0,0:0:0:0:
64,192,94287,1,0,0:0:0:0:
192,192,94370,1,0,0:0:0:0:
320,192,94370,1,0,0:0:0:0:
320,192,94452,1,0,0:0:0:0:
448,192,94452,1,0,0:0:0:0:
192,192,94534,1,0,0:0:0:0:
64,192,94534,1,0,0:0:0:0:
448,192,94617,1,0,0:0:0:0:
64,192,94617,1,0,0:0:0:0:
320,192,94617,1,0,0:0:0:0:
192,192,94782,1,0,0:0:0:0:
320,192,94782,1,0,0:0:0:0:
64,192,94947,1,0,0:0:0:0:
192,192,94947,1,0,0:0:0:0:
448,192,95111,1,0,0:0:0:0:
320,192,95111,1,0,0:0:0:0:
64,192,95276,1,0,0:0:0:0:
192,192,95276,1,0,0:0:0:0:
320,192,95441,1,0,0:0:0:0:
448,192,95441,128,0,95606:0:0:0:0:
320,192,95606,1,0,0:0:0:0:
192,192,95661,1,0,0:0:0:0:
448,192,95716,1,0,0:0:0:0:
192,192,95771,1,0,0:0:0:0:
448,192,95826,1,0,0:0:0:0:
192,192,95881,1,0,0:0:0:0:
448,192,95936,128,0,96183:0:0:0:0:
64,192,95936,128,0,96183:0:0:0:0:
192,192,96265,1,0,0:0:0:0:
320,192,96265,1,0,0:0:0:0:
448,192,96348,1,0,0:0:0:0:
64,192,96430,1,0,0:0:0:0:
192,192,96430,1,0,0:0:0:0:
320,192,96512,1,0,0:0:0:0:
448,192,96595,1,0,0:0:0:0:
64,192,96595,1,0,0:0:0:0:
320,192,96677,1,0,0:0:0:0:
192,192,96760,1,0,0:0:0:0:
64,192,96760,1,0,0:0:0:0:
320,192,96842,1,0,0:0:0:0:
448,192,96925,1,0,0:0:0:0:
192,192,96925,1,0,0:0:0:0:
64,192,97007,1,0,0:0:0:0:
448,192,97089,1,0,0:0:0:0:
320,192,97089,1,0,0:0:0:0:
192,192,97172,1,0,0:0:0:0:
64,192,97254,1,0,0:0:0:0:
448,192,97254,1,0,0:0:0:0:
320,192,97419,1,0,0:0:0:0:
448,192,97419,1,0,0:0:0:0:
192,192,97501,1,0,0:0:0:0:
64,192,97584,1,0,0:0:0:0:
320,192,97584,1,0,0:0:0:0:
448,192,97666,1,0,0:0:0:0:
320,192,97749,1,0,0:0:0:0:
192,192,97749,1,0,0:0:0:0:
64,192,97831,1,0,0:0:0:0:
192,192,97914,1,0,0:0:0:0:
448,192,97914,1,0,0:0:0:0:
320,192,97996,1,0,0:0:0:0:
192,192,98078,1,0,0:0:0:0:
64,192,98078,1,0,0:0:0:0:
320,192,98161,1,0,0:0:0:0:
448,192,98243,1,0,0:0:0:0:
64,192,98243,1,0,0:0:0:0:
192,192,98326,1,0,0:0:0:0:
320,192,98408,1,0,0:0:0:0:
448,192,98408,1,0,0:0:0:0:
192,192,98491,1,0,0:0:0:0:
64,192,98573,1,0,0:0:0:0:
320,192,98573,1,0,0:0:0:0:
192,192,98655,1,0,0:0:0:0:
448,192,98655,1,0,0:0:0:0:
320,192,98738,1,0,0:0:0:0:
64,192,98738,1,0,0:0:0:0:
448,192,98903,1,0,0:0:0:0:
192,192,98903,1,0,0:0:0:0:
320,192,98985,1,0,0:0:0:0:
64,192,98985,1,0,0:0:0:0:
192,192,99067,1,0,0:0:0:0:
448,192,99067,1,0,0:0:0:0:
448,192,99232,1,0,0:0:0:0:
320,192,99232,1,0,0:0:0:0:
192,192,99315,1,0,0:0:0:0:
320,192,99315,1,0,0:0:0:0:
64,192,99397,1,0,0:0:0:0:
192,192,99397,1,0,0:0:0:0:
448,192,99562,1,0,0:0:0:0:
320,192,99562,1,0,0:0:0:0:
192,192,99562,1,0,0:0:0:0:
320,192,99644,1,0,0:0:0:0:
192,192,99727,1,0,0:0:0:0:
64,192,99727,1,0,0:0:0:0:
448,192,99892,1,0,0:0:0:0:
192,192,99892,1,0,0:0:0:0:
320,192,99974,1,0,0:0:0:0:
64,192,99974,1,0,0:0:0:0:
192,192,100056,1,0,0:0:0:0:
448,192,100056,1,0,0:0:0:0:
320,192,100139,1,0,0:0:0:0:
64,192,100139,1,0,0:0:0:0:
192,192,100221,1,0,0:0:0:0:
448,192,100221,1,0,0:0:0:0:
320,192,100304,1,0,0:0:0:0:
192,192,100386,1,0,0:0:0:0:
64,192,100386,1,0,0:0:0:0:
320,192,100469,1,0,0:0:0:0:
448,192,100551,1,0,0:0:0:0:
64,192,100551,1,0,0:0:0:0:
192,192,100633,1,0,0:0:0:0:
320,192,100716,1,0,0:0:0:0:
448,192,100716,1,0,0:0:0:0:
192,192,100798,1,0,0:0:0:0:
64,192,100881,1,0,0:0:0:0:
320,192,100881,1,0,0:0:0:0:
448,192,100963,1,0,0:0:0:0:
64,192,101045,1,0,0:0:0:0:
320,192,101045,1,0,0:0:0:0:
192,192,101087,1,0,0:0:0:0:
320,192,101128,1,0,0:0:0:0:
448,192,101169,1,0,0:0:0:0:
64,192,101210,1,0,0:0:0:0:
192,192,101210,1,0,0:0:0:0:
192,192,101375,1,0,0:0:0:0:
448,192,101540,1,0,0:0:0:0:
320,192,101540,1,0,0:0:0:0:
320,192,101705,1,0,0:0:0:0:
64,192,101870,128,0,102199:0:0:0:0:
192,192,101870,1,0,0:0:0:0:
320,192,102199,1,0,0:0:0:0:
448,192,102199,1,0,0:0:0:0:
448,192,102364,1,0,0:0:0:0:
320,192,102405,1,0,0:0:0:0:
64,192,102447,1,0,0:0:0:0:
192,192,102488,1,0,0:0:0:0:
320,192,102529,1,0,0:0:0:0:
448,192,102570,1,0,0:0:0:0:
64,192,102611,1,0,0:0:0:0:
192,192,102653,1,0,0:0:0:0:
448,192,102694,1,0,0:0:0:0:
320,192,102735,1,0,0:0:0:0:
192,192,102776,1,0,0:0:0:0:
64,192,102817,1,0,0:0:0:0:
448,192,102859,1,0,0:0:0:0:
320,192,102900,1,0,0:0:0:0:
64,192,102941,1,0,0:0:0:0:
192,192,102982,1,0,0:0:0:0:
320,192,103023,1,0,0:0:0:0:
448,192,103065,1,0,0:0:0:0:
64,192,103106,1,0,0:0:0:0:
192,192,103147,1,0,0:0:0:0:
448,192,103188,1,0,0:0:0:0:
320,192,103230,1,0,0:0:0:0:
192,192,103271,1,0,0:0:0:0:
64,192,103312,1,0,0:0:0:0:
448,192,103353,1,0,0:0:0:0:
320,192,103394,1,0,0:0:0:0:
64,192,103436,1,0,0:0:0:0:
192,192,103477,1,0,0:0:0:0:
320,192,103518,1,0,0:0:0:0:
448,192,103559,1,0,0:0:0:0:
64,192,103600,1,0,0:0:0:0:
192,192,103642,1,0,0:0:0:0:
448,192,103683,1,0,0:0:0:0:
320,192,103724,1,0,0:0:0:0:
192,192,103765,1,0,0:0:0:0:
64,192,103806,1,0,0:0:0:0:
320,192,103848,1,0,0:0:0:0:
448,192,103848,1,0,0:0:0:0:
320,192,103930,1,0,0:0:0:0:
64,192,104012,1,0,0:0:0:0:
448,192,104012,1,0,0:0:0:0:
192,192,104095,1,0,0:0:0:0:
320,192,104177,1,0,0:0:0:0:
448,192,104177,1,0,0:0:0:0:
64,192,104177,1,0,0:0:0:0:
448,192,104342,1,0,0:0:0:0:
320,192,104342,1,0,0:0:0:0:
320,192,104425,1,0,0:0:0:0:
448,192,104425,1,0,0:0:0:0:
448,192,104507,1,0,0:0:0:0:
192,192,104507,1,0,0:0:0:0:
64,192,104507,1,0,0:0:0:0:
64,192,104672,1,0,0:0:0:0:
192,192,104672,1,0,0:0:0:0:
64,192,104754,1,0,0:0:0:0:
192,192,104754,1,0,0:0:0:0:
64,192,104837,1,0,0:0:0:0:
320,192,104837,1,0,0:0:0:0:
448,192,104837,1,0,0:0:0:0:
192,192,105001,1,0,0:0:0:0:
320,192,105001,1,0,0:0:0:0:
192,192,105084,1,0,0:0:0:0:
320,192,105084,1,0,0:0:0:0:
448,192,105166,1,0,0:0:0:0:
320,192,105166,1,0,0:0:0:0:
64,192,105166,1,0,0:0:0:0:
64,192,106155,1,0,0:0:0:0:
192,192,106238,1,0,0:0:0:0:
320,192,106320,1,0,0:0:0:0:
192,192,106403,1,0,0:0:0:0:
64,192,106485,1,0,0:0:0:0:
320,192,106485,1,0,0:0:0:0:
448,192,106485,1,0,0:0:0:0:
192,192,106567,1,0,0:0:0:0:
320,192,106650,1,0,0:0:0:0:
448,192,106650,1,0,0:0:0:0:
192,192,106732,1,0,0:0:0:0:
64,192,106815,1,0,0:0:0:0:
320,192,106815,1,0,0:0:0:0:
448,192,106897,1,0,0:0:0:0:
64,192,106980,1,0,0:0:0:0:
192,192,106980,1,0,0:0:0:0:
320,192,107062,1,0,0:0:0:0:
448,192,107144,1,0,0:0:0:0:
64,192,107144,1,0,0:0:0:0:
192,192,107227,1,0,0:0:0:0:
320,192,107309,1,0,0:0:0:0:
448,192,107309,1,0,0:0:0:0:
192,192,107392,1,0,0:0:0:0:
320,192,107474,1,0,0:0:0:0:
64,192,107474,1,0,0:0:0:0:
192,192,107556,1,0,0:0:0:0:
320,192,107639,1,0,0:0:0:0:
64,192,107639,1,0,0:0:0:0:
448,192,107721,1,0,0:0:0:0:
320,192,107804,1,0,0:0:0:0:
192,192,107804,1,0,0:0:0:0:
64,192,107886,1,0,0:0:0:0:
448,192,107969,1,0,0:0:0:0:
320,192,107969,1,0,0:0:0:0:
192,192,108051,1,0,0:0:0:0:
64,192,108133,1,0,0:0:0:0:
448,192,108133,1,0,0:0:0:0:
320,192,108216,1,0,0:0:0:0:
192,192,108298,1,0,0:0:0:0:
64,192,108298,1,0,0:0:0:0:
320,192,108381,1,0,0:0:0:0:
192,192,108463,1,0,0:0:0:0:
448,192,108463,1,0,0:0:0:0:
320,192,108545,1,0,0:0:0:0:
64,192,108628,1,0,0:0:0:0:
448,192,108628,1,0,0:0:0:0:
192,192,108710,1,0,0:0:0:0:
320,192,108793,1,0,0:0:0:0:
448,192,108793,128,0,109040:0:0:0:0:
64,192,109122,1,0,0:0:0:0:
192,192,109122,1,0,0:0:0:0:
320,192,109205,1,0,0:0:0:0:
448,192,109205,1,0,0:0:0:0:
64,192,109287,1,0,0:0:0:0:
192,192,109287,1,0,0:0:0:0:
448,192,109452,1,0,0:0:0:0:
320,192,109452,1,0,0:0:0:0:
64,192,109534,1,0,0:0:0:0:
192,192,109534,1,0,0:0:0:0:
320,192,109617,1,0,0:0:0:0:
448,192,109617,1,0,0:0:0:0:
64,192,109782,1,0,0:0:0:0:
192,192,109782,1,0,0:0:0:0:
192,192,109864,1,0,0:0:0:0:
320,192,109864,1,0,0:0:0:0:
320,192,109947,1,0,0:0:0:0:
448,192,109947,1,0,0:0:0:0:
192,192,110029,1,0,0:0:0:0:
64,192,110111,1,0,0:0:0:0:
448,192,110111,128,0,110276:0:0:0:0:
320,192,110276,1,0,0:0:0:0:
64,192,110441,1,0,0:0:0:0:
192,192,110441,1,0,0:0:0:0:
448,192,110523,1,0,0:0:0:0:
320,192,110523,1,0,0:0:0:0:
64,192,110606,1,0,0:0:0:0:
192,192,110606,1,0,0:0:0:0:
448,192,110771,1,0,0:0:0:0:
320,192,110771,1,0,0:0:0:0:
64,192,110853,1,0,0:0:0:0:
192,192,110853,1,0,0:0:0:0:
320,192,110936,1,0,0:0:0:0:
448,192,110936,1,0,0:0:0:0:
192,192,111100,1,0,0:0:0:0:
64,192,111100,1,0,0:0:0:0:
192,192,111183,1,0,0:0:0:0:
320,192,111183,1,0,0:0:0:0:
320,192,111265,1,0,0:0:0:0:
448,192,111265,1,0,0:0:0:0:
64,192,111348,1,0,0:0:0:0:
192,192,111348,1,0,0:0:0:0:
448,192,111430,1,0,0:0:0:0:
320,192,111512,1,0,0:0:0:0:
192,192,111595,1,0,0:0:0:0:
64,192,111677,1,0,0:0:0:0:
448,192,111760,128,0,111925:0:0:0:0:
320,192,111760,128,0,111925:0:0:0:0:
64,192,111925,1,0,0:0:0:0:
64,192,112089,1,0,0:0:0:0:
448,192,112089,1,0,0:0:0:0:
320,192,112089,1,0,0:0:0:0:
192,192,112172,1,0,0:0:0:0:
320,192,112254,1,0,0:0:0:0:
448,192,112254,1,0,0:0:0:0:
192,192,112337,1,0,0:0:0:0:
64,192,112419,1,0,0:0:0:0:
320,192,112419,1,0,0:0:0:0:
448,192,112501,1,0,0:0:0:0:
320,192,112584,1,0,0:0:0:0:
192,192,112584,1,0,0:0:0:0:
64,192,112666,1,0,0:0:0:0:
448,192,112749,1,0,0:0:0:0:
320,192,112749,1,0,0:0:0:0:
192,192,112831,1,0,0:0:0:0:
64,192,112914,1,0,0:0:0:0:
448,192,112914,1,0,0:0:0:0:
192,192,112996,1,0,0:0:0:0:
320,192,113078,1,0,0:0:0:0:
448,192,113078,1,0,0:0:0:0:
192,192,113161,1,0,0:0:0:0:
64,192,113243,1,0,0:0:0:0:
448,192,113243,1,0,0:0:0:0:
192,192,113326,1,0,0:0:0:0:
320,192,113408,1,0,0:0:0:0:
448,192,113408,1,0,0:0:0:0:
192,192,113491,1,0,0:0:0:0:
64,192,113573,1,0,0:0:0:0:
448,192,113573,1,0,0:0:0:0:
320,192,113655,1,0,0:0:0:0:
192,192,113738,1,0,0:0:0:0:
64,192,113738,1,0,0:0:0:0:
448,192,113820,1,0,0:0:0:0:
320,192,113903,1,0,0:0:0:0:
192,192,113903,1,0,0:0:0:0:
64,192,113985,1,0,0:0:0:0:
448,192,114067,1,0,0:0:0:0:
320,192,114067,1,0,0:0:0:0:
192,192,114150,1,0,0:0:0:0:
64,192,114232,1,0,0:0:0:0:
448,192,114232,1,0,0:0:0:0:
320,192,114315,1,0,0:0:0:0:
192,192,114397,1,0,0:0:0:0:
64,192,114397,1,0,0:0:0:0:
448,192,114397,1,0,0:0:0:0:
448,192,114644,1,0,0:0:0:0:
320,192,114644,1,0,0:0:0:0:
64,192,114644,1,0,0:0:0:0:
64,192,114892,1,0,0:0:0:0:
192,192,114892,1,0,0:0:0:0:
320,192,114892,1,0,0:0:0:0:
192,192,115139,1,0,0:0:0:0:
320,192,115139,1,0,0:0:0:0:
448,192,115139,1,0,0:0:0:0:
448,192,115386,1,0,0:0:0:0:
320,192,115386,1,0,0:0:0:0:
64,192,115469,1,0,0:0:0:0:
192,192,115469,1,0,0:0:0:0:
320,192,115551,1,0,0:0:0:0:
448,192,115551,1,0,0:0:0:0:
64,192,115633,1,0,0:0:0:0:
192,192,115633,1,0,0:0:0:0:
448,192,115716,1,0,0:0:0:0:
64,192,115716,1,0,0:0:0:0:
192,192,115757,1,0,0:0:0:0:
320,192,115798,1,0,0:0:0:0:
448,192,115839,1,0,0:0:0:0:
64,192,115881,1,0,0:0:0:0:
192,192,115922,1,0,0:0:0:0:
320,192,115963,1,0,0:0:0:0:
448,192,116004,1,0,0:0:0:0:
64,192,116045,1,0,0:0:0:0:
192,192,116087,1,0,0:0:0:0:
320,192,116128,1,0,0:0:0:0:
448,192,116169,1,0,0:0:0:0:
64,192,116210,1,0,0:0:0:0:
192,192,116251,1,0,0:0:0:0:
320,192,116293,1,0,0:0:0:0:
448,192,116334,1,0,0:0:0:0:
64,192,116375,1,0,0:0:0:0:
192,192,116416,1,0,0:0:0:0:
320,192,116458,1,0,0:0:0:0:
448,192,116499,1,0,0:0:0:0:
64,192,116540,1,0,0:0:0:0:
192,192,116581,1,0,0:0:0:0:
320,192,116622,1,0,0:0:0:0:
448,192,116664,1,0,0:0:0:0:
64,192,116705,1,0,0:0:0:0:
192,192,116746,1,0,0:0:0:0:
320,192,116787,1,0,0:0:0:0:
448,192,116828,1,0,0:0:0:0:
64,192,116870,1,0,0:0:0:0:
192,192,116911,1,0,0:0:0:0:
320,192,116952,1,0,0:0:0:0:
448,192,116993,1,0,0:0:0:0:
320,192,117034,1,0,0:0:0:0:
192,192,117034,1,0,0:0:0:0:
64,192,117034,1,0,0:0:0:0:
448,192,131540,132,0,132034:0:0:0:0:
192,192,132034,128,0,132529:0:0:0:0:
64,192,132529,128,0,132859:0:0:0:0:
448,192,132859,128,0,133353:0:0:0:0:
320,192,133353,128,0,134095:0:0:0:0:
448,192,134177,128,0,134672:0:0:0:0:
192,192,134672,128,0,135166:0:0:0:0:
448,192,135166,128,0,135414:0:0:0:0:
320,192,135414,128,0,135496:0:0:0:0:
192,192,135496,128,0,135908:0:0:0:0:
320,192,135661,1,0,0:0:0:0:
320,192,135826,1,0,0:0:0:0:
192,192,135991,128,0,136815:0:0:0:0:
320,192,135991,1,0,0:0:0:0:
320,192,136155,1,0,0:0:0:0:
320,192,136320,1,0,0:0:0:0:
320,192,136485,1,0,0:0:0:0:
320,192,136650,1,0,0:0:0:0:
320,192,136815,1,0,0:0:0:0:
64,192,136815,1,0,0:0:0:0:
64,192,136980,1,0,0:0:0:0:
320,192,136980,1,0,0:0:0:0:
64,192,137144,1,0,0:0:0:0:
448,192,137144,1,0,0:0:0:0:
192,192,137186,1,0,0:0:0:0:
320,192,137227,1,0,0:0:0:0:
448,192,137268,1,0,0:0:0:0:
64,192,137309,1,0,0:0:0:0:
320,192,137392,1,0,0:0:0:0:
64,192,137474,1,0,0:0:0:0:
192,192,137474,128,0,137556:0:0:0:0:
320,192,137556,128,0,137639:0:0:0:0:
448,192,137639,128,0,137721:0:0:0:0:
64,192,137721,128,0,137804:0:0:0:0:
192,192,137804,128,0,137886:0:0:0:0:
320,192,137886,128,0,137969:0:0:0:0:
448,192,137969,128,0,138051:0:0:0:0:
320,192,138051,128,0,138133:0:0:0:0:
192,192,138133,1,0,0:0:0:0:
64,192,138133,1,0,0:0:0:0:
448,192,138216,1,0,0:0:0:0:
320,192,138298,1,0,0:0:0:0:
192,192,138381,1,0,0:0:0:0:
64,192,138463,1,0,0:0:0:0:
448,192,138463,1,0,0:0:0:0:
192,192,138545,1,0,0:0:0:0:
320,192,138628,1,0,0:0:0:0:
448,192,138710,1,0,0:0:0:0:
192,192,138793,1,0,0:0:0:0:
320,192,138793,1,0,0:0:0:0:
64,192,138875,1,0,0:0:0:0:
448,192,138958,1,0,0:0:0:0:
320,192,139040,1,0,0:0:0:0:
192,192,139122,1,0,0:0:0:0:
64,192,139122,1,0,0:0:0:0:
320,192,139205,1,0,0:0:0:0:
448,192,139287,1,0,0:0:0:0:
192,192,139370,1,0,0:0:0:0:
64,192,139452,1,0,0:0:0:0:
320,192,139452,1,0,0:0:0:0:
448,192,139534,1,0,0:0:0:0:
320,192,139617,1,0,0:0:0:0:
64,192,139699,1,0,0:0:0:0:
192,192,139782,1,0,0:0:0:0:
448,192,139782,1,0,0:0:0:0:
320,192,139864,1,0,0:0:0:0:
448,192,139947,1,0,0:0:0:0:
64,192,140029,1,0,0:0:0:0:
192,192,140111,1,0,0:0:0:0:
320,192,140111,1,0,0:0:0:0:
448,192,140194,1,0,0:0:0:0:
320,192,140276,1,0,0:0:0:0:
192,192,140359,1,0,0:0:0:0:
448,192,140441,1,0,0:0:0:0:
320,192,140441,1,0,0:0:0:0:
192,192,140523,1,0,0:0:0:0:
64,192,140606,1,0,0:0:0:0:
448,192,140606,1,0,0:0:0:0:
320,192,140688,1,0,0:0:0:0:
64,192,140771,1,0,0:0:0:0:
192,192,140771,1,0,0:0:0:0:
320,192,140853,1,0,0:0:0:0:
448,192,140936,1,0,0:0:0:0:
192,192,141018,1,0,0:0:0:0:
64,192,141100,1,0,0:0:0:0:
320,192,141100,1,0,0:0:0:0:
448,192,141183,1,0,0:0:0:0:
320,192,141265,1,0,0:0:0:0:
192,192,141348,1,0,0:0:0:0:
64,192,141430,1,0,0:0:0:0:
448,192,141430,1,0,0:0:0:0:
320,192,141512,1,0,0:0:0:0:
192,192,141595,1,0,0:0:0:0:
64,192,141677,1,0,0:0:0:0:
320,192,141760,1,0,0:0:0:0:
448,192,141760,1,0,0:0:0:0:
192,192,141842,1,0,0:0:0:0:
320,192,141925,1,0,0:0:0:0:
448,192,142007,1,0,0:0:0:0:
64,192,142089,1,0,0:0:0:0:
320,192,142089,1,0,0:0:0:0:
192,192,142172,1,0,0:0:0:0:
64,192,142254,1,0,0:0:0:0:
448,192,142254,1,0,0:0:0:0:
320,192,142337,1,0,0:0:0:0:
192,192,142419,1,0,0:0:0:0:
448,192,142419,1,0,0:0:0:0:
320,192,142501,1,0,0:0:0:0:
64,192,142584,1,0,0:0:0:0:
192,192,142666,1,0,0:0:0:0:
320,192,142749,1,0,0:0:0:0:
64,192,142749,1,0,0:0:0:0:
448,192,142831,1,0,0:0:0:0:
320,192,142914,1,0,0:0:0:0:
64,192,142996,1,0,0:0:0:0:
448,192,143078,1,0,0:0:0:0:
192,192,143078,1,0,0:0:0:0:
320,192,143120,1,0,0:0:0:0:
64,192,143161,1,0,0:0:0:0:
192,192,143202,1,0,0:0:0:0:
448,192,143243,1,0,0:0:0:0:
320,192,143284,1,0,0:0:0:0:
64,192,143326,1,0,0:0:0:0:
192,192,143367,1,0,0:0:0:0:
320,192,143408,1,0,0:0:0:0:
448,192,143408,1,0,0:0:0:0:
192,192,143491,1,0,0:0:0:0:
64,192,143573,1,0,0:0:0:0:
448,192,143655,1,0,0:0:0:0:
320,192,143738,1,0,0:0:0:0:
192,192,143738,1,0,0:0:0:0:
64,192,143820,1,0,0:0:0:0:
192,192,143903,1,0,0:0:0:0:
320,192,143985,1,0,0:0:0:0:
448,192,144067,1,0,0:0:0:0:
64,192,144067,1,0,0:0:0:0:
192,192,144150,1,0,0:0:0:0:
320,192,144232,1,0,0:0:0:0:
192,192,144315,1,0,0:0:0:0:
64,192,144397,1,0,0:0:0:0:
448,192,144397,1,0,0:0:0:0:
320,192,144480,1,0,0:0:0:0:
192,192,144562,1,0,0:0:0:0:
64,192,144644,1,0,0:0:0:0:
320,192,144727,1,0,0:0:0:0:
448,192,144727,1,0,0:0:0:0:
192,192,144809,1,0,0:0:0:0:
64,192,144892,1,0,0:0:0:0:
320,192,144974,1,0,0:0:0:0:
448,192,145056,1,0,0:0:0:0:
64,192,145056,1,0,0:0:0:0:
192,192,145139,1,0,0:0:0:0:
320,192,145221,1,0,0:0:0:0:
448,192,145304,1,0,0:0:0:0:
64,192,145386,1,0,0:0:0:0:
192,192,145386,1,0,0:0:0:0:
320,192,145469,1,0,0:0:0:0:
448,192,145551,1,0,0:0:0:0:
192,192,145633,1,0,0:0:0:0:
320,192,145716,1,0,0:0:0:0:
448,192,145716,1,0,0:0:0:0:
192,192,145798,1,0,0:0:0:0:
64,192,145881,1,0,0:0:0:0:
448,192,145881,1,0,0:0:0:0:
192,192,145963,1,0,0:0:0:0:
320,192,146045,1,0,0:0:0:0:
448,192,146045,1,0,0:0:0:0:
192,192,146128,1,0,0:0:0:0:
64,192,146210,1,0,0:0:0:0:
192,192,146293,1,0,0:0:0:0:
320,192,146375,1,0,0:0:0:0:
448,192,146375,1,0,0:0:0:0:
192,192,146458,1,0,0:0:0:0:
64,192,146540,1,0,0:0:0:0:
320,192,146622,1,0,0:0:0:0:
448,192,146705,1,0,0:0:0:0:
64,192,146705,1,0,0:0:0:0:
192,192,146787,1,0,0:0:0:0:
320,192,146870,1,0,0:0:0:0:
448,192,146952,1,0,0:0:0:0:
448,192,147034,1,0,0:0:0:0:
64,192,147034,1,0,0:0:0:0:
192,192,147117,1,0,0:0:0:0:
320,192,147117,1,0,0:0:0:0:
448,192,147199,1,0,0:0:0:0:
64,192,147199,1,0,0:0:0:0:
192,192,147282,1,0,0:0:0:0:
448,192,147364,1,0,0:0:0:0:
320,192,147364,1,0,0:0:0:0:
192,192,147447,1,0,0:0:0:0:
64,192,147447,1,0,0:0:0:0:
448,192,147529,1,0,0:0:0:0:
320,192,147529,1,0,0:0:0:0:
64,192,147611,1,0,0:0:0:0:
192,192,147611,1,0,0:0:0:0:
448,192,147694,1,0,0:0:0:0:
320,192,147694,1,0,0:0:0:0:
192,192,147776,1,0,0:0:0:0:
64,192,147776,1,0,0:0:0:0:
320,192,147859,1,0,0:0:0:0:
448,192,147859,1,0,0:0:0:0:
192,192,147941,1,0,0:0:0:0:
64,192,147941,1,0,0:0:0:0:
448,192,148023,1,0,0:0:0:0:
64,192,148023,1,0,0:0:0:0:
192,192,148065,1,0,0:0:0:0:
320,192,148106,1,0,0:0:0:0:
448,192,148147,1,0,0:0:0:0:
64,192,148188,1,0,0:0:0:0:
192,192,148230,1,0,0:0:0:0:
448,192,148271,1,0,0:0:0:0:
320,192,148312,1,0,0:0:0:0:
192,192,148353,1,0,0:0:0:0:
64,192,148394,1,0,0:0:0:0:
448,192,148436,1,0,0:0:0:0:
320,192,148477,1,0,0:0:0:0:
64,192,148518,1,0,0:0:0:0:
192,192,148559,1,0,0:0:0:0:
320,192,148600,1,0,0:0:0:0:
448,192,148642,1,0,0:0:0:0:
64,192,148683,1,0,0:0:0:0:
192,192,148683,1,0,0:0:0:0:
320,192,148683,1,0,0:0:0:0:
64,192,149012,1,0,0:0:0:0:
192,192,149012,1,0,0:0:0:0:
320,192,149012,1,0,0:0:0:0:
64,192,149342,1,0,0:0:0:0:
192,192,149342,1,0,0:0:0:0:
320,192,149342,1,0,0:0:0:0:
64,192,149507,1,0,0:0:0:0:
192,192,149507,1,0,0:0:0:0:
320,192,149507,1,0,0:0:0:0:
64,192,149672,1,0,0:0:0:0:
192,192,149672,1,0,0:0:0:0:
320,192,149672,1,0,0:0:0:0:
64,192,150001,1,0,0:0:0:0:
192,192,150001,1,0,0:0:0:0:
320,192,150001,1,0,0:0:0:0:
448,192,150331,128,0,150414:0:0:0:0:
448,192,150661,128,0,150743:0:0:0:0:
448,192,150908,128,0,150991:0:0:0:0:
448,192,151155,128,0,151238:0:0:0:0:
64,192,151320,1,0,0:0:0:0:
192,192,151320,1,0,0:0:0:0:
320,192,151320,1,0,0:0:0:0:
64,192,151650,1,0,0:0:0:0:
192,192,151650,1,0,0:0:0:0:
320,192,151650,1,0,0:0:0:0:
64,192,151980,1,0,0:0:0:0:
192,192,151980,1,0,0:0:0:0:
320,192,151980,1,0,0:0:0:0:
64,192,152144,1,0,0:0:0:0:
192,192,152144,1,0,0:0:0:0:
320,192,152144,1,0,0:0:0:0:
64,192,152309,1,0,0:0:0:0:
192,192,152309,1,0,0:0:0:0:
320,192,152309,1,0,0:0:0:0:
64,192,152639,1,0,0:0:0:0:
320,192,152639,1,0,0:0:0:0:
192,192,152639,1,0,0:0:0:0:
448,192,152969,128,0,153051:0:0:0:0:
448,192,153298,128,0,153381:0:0:0:0:
448,192,153545,128,0,153628:0:0:0:0:
448,192,153793,128,0,153875:0:0:0:0:
64,192,153958,1,0,0:0:0:0:
320,192,153958,1,0,0:0:0:0:
192,192,153958,1,0,0:0:0:0:
64,192,154287,1,0,0:0:0:0:
192,192,154287,1,0,0:0:0:0:
320,192,154287,1,0,0:0:0:0:
64,192,154617,1,0,0:0:0:0:
192,192,154617,1,0,0:0:0:0:
320,192,154617,1,0,0:0:0:0:
64,192,154782,1,0,0:0:0:0:
192,192,154782,1,0,0:0:0:0:
320,192,154782,1,0,0:0:0:0:
64,192,154947,1,0,0:0:0:0:
320,192,154947,1,0,0:0:0:0:
192,192,155029,1,0,0:0:0:0:
448,192,155029,1,0,0:0:0:0:
64,192,155111,1,0,0:0:0:0:
320,192,155111,1,0,0:0:0:0:
192,192,155194,1,0,0:0:0:0:
448,192,155194,1,0,0:0:0:0:
448,192,155276,1,0,0:0:0:0:
320,192,155276,1,0,0:0:0:0:
192,192,155276,1,0,0:0:0:0:
192,192,155606,1,0,0:0:0:0:
320,192,155606,1,0,0:0:0:0:
448,192,155606,1,0,0:0:0:0:
192,192,155936,1,0,0:0:0:0:
320,192,155936,1,0,0:0:0:0:
448,192,155936,1,0,0:0:0:0:
448,192,156100,1,0,0:0:0:0:
320,192,156100,1,0,0:0:0:0:
192,192,156100,1,0,0:0:0:0:
448,192,156265,1,0,0:0:0:0:
192,192,156265,1,0,0:0:0:0:
64,192,156348,1,0,0:0:0:0:
320,192,156348,1,0,0:0:0:0:
192,192,156430,1,0,0:0:0:0:
448,192,156430,1,0,0:0:0:0:
320,192,156512,1,0,0:0:0:0:
64,192,156512,1,0,0:0:0:0:
64,192,156595,1,0,0:0:0:0:
192,192,156595,1,0,0:0:0:0:
320,192,156595,1,0,0:0:0:0:
64,192,156925,1,0,0:0:0:0:
192,192,156925,1,0,0:0:0:0:
320,192,156925,1,0,0:0:0:0:
64,192,157254,1,0,0:0:0:0:
192,192,157254,1,0,0:0:0:0:
320,192,157254,1,0,0:0:0:0:
320,192,157419,1,0,0:0:0:0:
192,192,157419,1,0,0:0:0:0:
64,192,157419,1,0,0:0:0:0:
64,192,157584,1,0,0:0:0:0:
320,192,157584,1,0,0:0:0:0:
192,192,157666,1,0,0:0:0:0:
448,192,157666,1,0,0:0:0:0:
64,192,157749,1,0,0:0:0:0:
320,192,157749,1,0,0:0:0:0:
192,192,157831,1,0,0:0:0:0:
448,192,157831,1,0,0:0:0:0:
448,192,157914,1,0,0:0:0:0:
320,192,157914,1,0,0:0:0:0:
192,192,157914,1,0,0:0:0:0:
192,192,158243,1,0,0:0:0:0:
448,192,158243,1,0,0:0:0:0:
192,192,158573,1,0,0:0:0:0:
320,192,158573,1,0,0:0:0:0:
448,192,158573,1,0,0:0:0:0:
448,192,158738,1,0,0:0:0:0:
320,192,158738,1,0,0:0:0:0:
192,192,158738,1,0,0:0:0:0:
448,192,158903,1,0,0:0:0:0:
320,192,158944,1,0,0:0:0:0:
192,192,158985,1,0,0:0:0:0:
64,192,159026,1,0,0:0:0:0:
448,192,159067,1,0,0:0:0:0:
320,192,159109,1,0,0:0:0:0:
192,192,159150,1,0,0:0:0:0:
64,192,159191,1,0,0:0:0:0:
448,192,159232,1,0,0:0:0:0:
320,192,159232,1,0,0:0:0:0:
192,192,159232,1,0,0:0:0:0:
320,192,159315,1,0,0:0:0:0:
64,192,159397,1,0,0:0:0:0:
192,192,159397,1,0,0:0:0:0:
320,192,159397,1,0,0:0:0:0:
192,192,159480,1,0,0:0:0:0:
448,192,159562,1,0,0:0:0:0:
320,192,159562,1,0,0:0:0:0:
64,192,159562,1,0,0:0:0:0:
448,192,159644,1,0,0:0:0:0:
64,192,159727,1,0,0:0:0:0:
192,192,159727,1,0,0:0:0:0:
448,192,159727,1,0,0:0:0:0:
64,192,159809,1,0,0:0:0:0:
192,192,159892,1,0,0:0:0:0:
320,192,159892,1,0,0:0:0:0:
448,192,159892,1,0,0:0:0:0:
448,192,159974,1,0,0:0:0:0:
64,192,160056,1,0,0:0:0:0:
192,192,160056,1,0,0:0:0:0:
320,192,160056,1,0,0:0:0:0:
64,192,160139,1,0,0:0:0:0:
448,192,160221,1,0,0:0:0:0:
320,192,160221,1,0,0:0:0:0:
192,192,160221,1,0,0:0:0:0:
448,192,160304,1,0,0:0:0:0:
320,192,160304,1,0,0:0:0:0:
64,192,160386,1,0,0:0:0:0:
192,192,160386,1,0,0:0:0:0:
64,192,160469,1,0,0:0:0:0:
192,192,160469,1,0,0:0:0:0:
448,192,160551,1,0,0:0:0:0:
320,192,160551,1,0,0:0:0:0:
192,192,160551,1,0,0:0:0:0:
64,192,160716,1,0,0:0:0:0:
320,192,160716,1,0,0:0:0:0:
448,192,160881,1,0,0:0:0:0:
320,192,160881,1,0,0:0:0:0:
64,192,160881,1,0,0:0:0:0:
192,192,161045,1,0,0:0:0:0:
448,192,161045,1,0,0:0:0:0:
448,192,161210,1,0,0:0:0:0:
192,192,161210,1,0,0:0:0:0:
64,192,161293,1,0,0:0:0:0:
320,192,161293,1,0,0:0:0:0:
192,192,161375,1,0,0:0:0:0:
448,192,161375,1,0,0:0:0:0:
320,192,161458,1,0,0:0:0:0:
64,192,161458,1,0,0:0:0:0:
192,192,161540,1,0,0:0:0:0:
320,192,161540,1,0,0:0:0:0:
448,192,161540,1,0,0:0:0:0:
64,192,161705,1,0,0:0:0:0:
192,192,161705,1,0,0:0:0:0:
448,192,161870,1,0,0:0:0:0:
320,192,161870,1,0,0:0:0:0:
192,192,161870,1,0,0:0:0:0:
320,192,161952,1,0,0:0:0:0:
64,192,162034,1,0,0:0:0:0:
192,192,162034,1,0,0:0:0:0:
320,192,162034,1,0,0:0:0:0:
192,192,162117,1,0,0:0:0:0:
448,192,162199,1,0,0:0:0:0:
320,192,162199,1,0,0:0:0:0:
64,192,162199,1,0,0:0:0:0:
448,192,162282,1,0,0:0:0:0:
64,192,162364,1,0,0:0:0:0:
192,192,162364,1,0,0:0:0:0:
448,192,162364,1,0,0:0:0:0:
64,192,162447,1,0,0:0:0:0:
192,192,162529,1,0,0:0:0:0:
320,192,162529,1,0,0:0:0:0:
448,192,162529,1,0,0:0:0:0:
320,192,162611,1,0,0:0:0:0:
64,192,162694,1,0,0:0:0:0:
192,192,162694,1,0,0:0:0:0:
320,192,162694,1,0,0:0:0:0:
192,192,162776,1,0,0:0:0:0:
448,192,162859,1,0,0:0:0:0:
64,192,162859,1,0,0:0:0:0:
192,192,162941,1,0,0:0:0:0:
320,192,162941,1,0,0:0:0:0:
64,192,163023,1,0,0:0:0:0:
448,192,163023,1,0,0:0:0:0:
192,192,163106,1,0,0:0:0:0:
320,192,163106,1,0,0:0:0:0:
64,192,163188,1,0,0:0:0:0:
448,192,163188,1,0,0:0:0:0:
320,192,163188,1,0,0:0:0:0:
64,192,163271,1,0,0:0:0:0:
64,192,163353,1,0,0:0:0:0:
192,192,163353,1,0,0:0:0:0:
448,192,163353,1,0,0:0:0:0:
448,192,163436,1,0,0:0:0:0:
64,192,163518,1,0,0:0:0:0:
192,192,163518,1,0,0:0:0:0:
320,192,163518,1,0,0:0:0:0:
192,192,163600,1,0,0:0:0:0:
448,192,163683,1,0,0:0:0:0:
320,192,163683,1,0,0:0:0:0:
192,192,163683,1,0,0:0:0:0:
320,192,163765,1,0,0:0:0:0:
64,192,163848,1,0,0:0:0:0:
192,192,163848,1,0,0:0:0:0:
192,192,163930,1,0,0:0:0:0:
320,192,163930,1,0,0:0:0:0:
320,192,164012,1,0,0:0:0:0:
448,192,164012,1,0,0:0:0:0:
64,192,164095,1,0,0:0:0:0:
192,192,164095,1,0,0:0:0:0:
448,192,164177,128,0,164342:0:0:0:0:
64,192,164177,128,0,164342:0:0:0:0:
320,192,164342,1,0,0:0:0:0:
64,192,164507,1,0,0:0:0:0:
192,192,164507,1,0,0:0:0:0:
320,192,164589,1,0,0:0:0:0:
448,192,164589,1,0,0:0:0:0:
64,192,164672,1,0,0:0:0:0:
192,192,164672,1,0,0:0:0:0:
320,192,164754,1,0,0:0:0:0:
448,192,164754,1,0,0:0:0:0:
64,192,164837,1,0,0:0:0:0:
192,192,164837,1,0,0:0:0:0:
192,192,164919,1,0,0:0:0:0:
192,192,165001,1,0,0:0:0:0:
192,192,165084,1,0,0:0:0:0:
448,192,165166,1,0,0:0:0:0:
320,192,165166,1,0,0:0:0:0:
64,192,165249,1,0,0:0:0:0:
192,192,165249,1,0,0:0:0:0:
320,192,165331,1,0,0:0:0:0:
448,192,165331,1,0,0:0:0:0:
64,192,165414,1,0,0:0:0:0:
192,192,165414,1,0,0:0:0:0:
448,192,165496,1,0,0:0:0:0:
320,192,165496,128,0,165826:0:0:0:0:
64,192,165826,1,0,0:0:0:0:
192,192,165826,1,0,0:0:0:0:
320,192,165908,1,0,0:0:0:0:
448,192,165908,1,0,0:0:0:0:
64,192,165991,1,0,0:0:0:0:
192,192,165991,1,0,0:0:0:0:
320,192,166073,1,0,0:0:0:0:
448,192,166073,1,0,0:0:0:0:
64,192,166155,1,0,0:0:0:0:
192,192,166155,128,0,166485:0:0:0:0:
448,192,166485,1,0,0:0:0:0:
320,192,166485,1,0,0:0:0:0:
64,192,166567,1,0,0:0:0:0:
192,192,166567,1,0,0:0:0:0:
320,192,166650,1,0,0:0:0:0:
448,192,166650,1,0,0:0:0:0:
64,192,166732,1,0,0:0:0:0:
192,192,166732,1,0,0:0:0:0:
448,192,166815,1,0,0:0:0:0:
320,192,166815,128,0,167144:0:0:0:0:
64,192,167144,1,0,0:0:0:0:
192,192,167144,1,0,0:0:0:0:
192,192,167227,1,0,0:0:0:0:
320,192,167227,1,0,0:0:0:0:
320,192,167309,1,0,0:0:0:0:
448,192,167309,1,0,0:0:0:0:
64,192,167392,1,0,0:0:0:0:
192,192,167392,1,0,0:0:0:0:
448,192,167474,1,0,0:0:0:0:
320,192,167474,1,0,0:0:0:0:
320,192,167556,1,0,0:0:0:0:
192,192,167556,1,0,0:0:0:0:
192,192,167639,1,0,0:0:0:0:
64,192,167639,1,0,0:0:0:0:
320,192,167721,1,0,0:0:0:0:
448,192,167804,1,0,0:0:0:0:
64,192,167804,1,0,0:0:0:0:
192,192,167886,1,0,0:0:0:0:
320,192,167886,1,0,0:0:0:0:
64,192,167969,1,0,0:0:0:0:
448,192,167969,1,0,0:0:0:0:
192,192,168051,1,0,0:0:0:0:
320,192,168051,1,0,0:0:0:0:
64,192,168133,1,0,0:0:0:0:
448,192,168133,1,0,0:0:0:0:
192,192,168216,1,0,0:0:0:0:
320,192,168216,1,0,0:0:0:0:
64,192,168298,1,0,0:0:0:0:
448,192,168298,1,0,0:0:0:0:
192,192,168381,1,0,0:0:0:0:
320,192,168381,1,0,0:0:0:0:
64,192,168463,1,0,0:0:0:0:
448,192,168463,1,0,0:0:0:0:
64,192,169782,1,0,0:0:0:0:
448,192,169782,1,0,0:0:0:0:
320,192,169782,1,0,0:0:0:0:
192,192,169864,1,0,0:0:0:0:
320,192,169947,1,0,0:0:0:0:
448,192,170029,1,0,0:0:0:0:
64,192,170111,1,0,0:0:0:0:
192,192,170111,1,0,0:0:0:0:
320,192,170111,1,0,0:0:0:0:
448,192,170111,1,0,0:0:0:0:
192,192,170194,1,0,0:0:0:0:
64,192,170276,1,0,0:0:0:0:
448,192,170359,1,0,0:0:0:0:
192,192,170441,1,0,0:0:0:0:
64,192,170441,1,0,0:0:0:0:
448,192,170441,1,0,0:0:0:0:
320,192,170523,1,0,0:0:0:0:
192,192,170606,1,0,0:0:0:0:
64,192,170688,1,0,0:0:0:0:
64,192,170771,1,0,0:0:0:0:
192,192,170771,1,0,0:0:0:0:
320,192,170771,1,0,0:0:0:0:
448,192,170771,1,0,0:0:0:0:
192,192,170853,1,0,0:0:0:0:
320,192,170936,1,0,0:0:0:0:
64,192,171018,1,0,0:0:0:0:
192,192,171100,1,0,0:0:0:0:
320,192,171100,1,0,0:0:0:0:
448,192,171100,1,0,0:0:0:0:
320,192,171183,1,0,0:0:0:0:
192,192,171265,1,0,0:0:0:0:
64,192,171348,1,0,0:0:0:0:
448,192,171430,1,0,0:0:0:0:
320,192,171430,1,0,0:0:0:0:
192,192,171430,1,0,0:0:0:0:
64,192,171430,1,0,0:0:0:0:
320,192,171512,1,0,0:0:0:0:
192,192,171595,1,0,0:0:0:0:
320,192,171677,1,0,0:0:0:0:
448,192,171760,1,0,0:0:0:0:
192,192,171760,1,0,0:0:0:0:
64,192,171760,1,0,0:0:0:0:
320,192,171842,1,0,0:0:0:0:
448,192,171925,1,0,0:0:0:0:
64,192,172007,1,0,0:0:0:0:
192,192,172089,1,0,0:0:0:0:
320,192,172089,1,0,0:0:0:0:
448,192,172089,1,0,0:0:0:0:
64,192,172089,1,0,0:0:0:0:
448,192,172172,1,0,0:0:0:0:
320,192,172254,1,0,0:0:0:0:
64,192,172337,1,0,0:0:0:0:
192,192,172419,1,0,0:0:0:0:
320,192,172419,1,0,0:0:0:0:
448,192,172419,1,0,0:0:0:0:
64,192,172501,1,0,0:0:0:0:
448,192,172584,1,0,0:0:0:0:
320,192,172666,1,0,0:0:0:0:
64,192,172749,1,0,0:0:0:0:
192,192,172749,1,0,0:0:0:0:
320,192,172749,1,0,0:0:0:0:
448,192,172749,1,0,0:0:0:0:
192,192,172831,1,0,0:0:0:0:
320,192,172914,1,0,0:0:0:0:
448,192,172996,1,0,0:0:0:0:
64,192,173078,1,0,0:0:0:0:
192,192,173078,1,0,0:0:0:0:
320,192,173078,1,0,0:0:0:0:
192,192,173161,1,0,0:0:0:0:
320,192,173243,1,0,0:0:0:0:
448,192,173326,1,0,0:0:0:0:
320,192,173408,1,0,0:0:0:0:
192,192,173408,1,0,0:0:0:0:
64,192,173408,1,0,0:0:0:0:
448,192,173408,1,0,0:0:0:0:
192,192,173491,1,0,0:0:0:0:
64,192,173573,1,0,0:0:0:0:
448,192,173655,1,0,0:0:0:0:
320,192,173738,1,0,0:0:0:0:
192,192,173738,1,0,0:0:0:0:
64,192,173738,1,0,0:0:0:0:
192,192,173820,1,0,0:0:0:0:
320,192,173903,1,0,0:0:0:0:
448,192,173985,1,0,0:0:0:0:
64,192,174067,1,0,0:0:0:0:
192,192,174067,1,0,0:0:0:0:
320,192,174067,1,0,0:0:0:0:
448,192,174067,1,0,0:0:0:0:
64,192,174150,1,0,0:0:0:0:
192,192,174232,1,0,0:0:0:0:
320,192,174315,1,0,0:0:0:0:
448,192,174397,1,0,0:0:0:0:
192,192,174397,1,0,0:0:0:0:
64,192,174397,1,0,0:0:0:0:
192,192,174480,1,0,0:0:0:0:
320,192,174562,1,0,0:0:0:0:
448,192,174644,1,0,0:0:0:0:
64,192,174727,1,0,0:0:0:0:
192,192,174727,1,0,0:0:0:0:
320,192,174727,1,0,0:0:0:0:
448,192,174727,1,0,0:0:0:0:
320,192,174809,1,0,0:0:0:0:
192,192,174892,1,0,0:0:0:0:
448,192,174974,1,0,0:0:0:0:
320,192,175056,1,0,0:0:0:0:
192,192,175056,1,0,0:0:0:0:
64,192,175056,1,0,0:0:0:0:
192,192,175221,1,0,0:0:0:0:
320,192,175221,1,0,0:0:0:0:
448,192,175221,1,0,0:0:0:0:
320,192,175386,1,0,0:0:0:0:
192,192,175386,1,0,0:0:0:0:
64,192,175386,1,0,0:0:0:0:
448,192,175386,1,0,0:0:0:0:
192,192,175469,1,0,0:0:0:0:
320,192,175551,1,0,0:0:0:0:
448,192,175633,1,0,0:0:0:0:
64,192,175716,1,0,0:0:0:0:
448,192,175716,1,0,0:0:0:0:
192,192,175716,1,0,0:0:0:0:
192,192,175798,1,0,0:0:0:0:
320,192,175881,1,0,0:0:0:0:
192,192,175963,1,0,0:0:0:0:
448,192,176045,1,0,0:0:0:0:
320,192,176045,1,0,0:0:0:0:
64,192,176045,1,0,0:0:0:0:
192,192,176045,1,0,0:0:0:0:
320,192,176128,1,0,0:0:0:0:
192,192,176210,1,0,0:0:0:0:
64,192,176293,1,0,0:0:0:0:
64,192,176375,1,0,0:0:0:0:
448,192,176375,1,0,0:0:0:0:
320,192,176375,1,0,0:0:0:0:
192,192,176458,1,0,0:0:0:0:
320,192,176540,1,0,0:0:0:0:
448,192,176622,1,0,0:0:0:0:
64,192,176705,1,0,0:0:0:0:
192,192,176705,1,0,0:0:0:0:
320,192,176705,1,0,0:0:0:0:
448,192,176705,1,0,0:0:0:0:
192,192,176787,1,0,0:0:0:0:
320,192,176870,1,0,0:0:0:0:
192,192,176952,1,0,0:0:0:0:
64,192,177034,1,0,0:0:0:0:
448,192,177034,1,0,0:0:0:0:
320,192,177034,1,0,0:0:0:0:
64,192,177117,1,0,0:0:0:0:
192,192,177199,1,0,0:0:0:0:
320,192,177282,1,0,0:0:0:0:
448,192,177364,1,0,0:0:0:0:
320,192,177364,1,0,0:0:0:0:
64,192,177364,1,0,0:0:0:0:
192,192,177364,1,0,0:0:0:0:
448,192,177447,1,0,0:0:0:0:
320,192,177529,1,0,0:0:0:0:
192,192,177611,1,0,0:0:0:0:
64,192,177694,1,0,0:0:0:0:
320,192,177694,1,0,0:0:0:0:
448,192,177694,1,0,0:0:0:0:
192,192,177694,1,0,0:0:0:0:
320,192,177776,1,0,0:0:0:0:
64,192,177941,1,0,0:0:0:0:
192,192,177941,1,0,0:0:0:0:
320,192,177941,1,0,0:0:0:0:
448,192,177941,1,0,0:0:0:0:
192,192,178023,1,0,0:0:0:0:
64,192,178188,1,0,0:0:0:0:
320,192,178188,1,0,0:0:0:0:
448,192,178188,1,0,0:0:0:0:
192,192,178188,1,0,0:0:0:0:
320,192,178271,1,0,0:0:0:0:
64,192,178518,1,0,0:0:0:0:
192,192,178518,1,0,0:0:0:0:
448,192,178518,1,0,0:0:0:0:
320,192,178518,1,0,0:0:0:0:
192,192,178600,1,0,0:0:0:0:
448,192,178683,1,0,0:0:0:0:
320,192,178683,1,0,0:0:0:0:
64,192,178683,1,0,0:0:0:0:
192,192,178683,1,0,0:0:0:0:
320,192,178765,1,0,0:0:0:0:
192,192,178848,1,0,0:0:0:0:
64,192,178930,1,0,0:0:0:0:
448,192,179012,1,0,0:0:0:0:
320,192,179012,1,0,0:0:0:0:
192,192,179095,1,0,0:0:0:0:
64,192,179177,1,0,0:0:0:0:
320,192,179177,1,0,0:0:0:0:
192,192,179260,1,0,0:0:0:0:
320,192,179342,1,0,0:0:0:0:
448,192,179342,1,0,0:0:0:0:
64,192,179342,1,0,0:0:0:0:
192,192,179425,1,0,0:0:0:0:
448,192,179507,1,0,0:0:0:0:
64,192,179507,1,0,0:0:0:0:
320,192,179589,1,0,0:0:0:0:
192,192,179672,1,0,0:0:0:0:
64,192,179672,1,0,0:0:0:0:
448,192,179672,1,0,0:0:0:0:
320,192,179754,1,0,0:0:0:0:
192,192,179837,1,0,0:0:0:0:
64,192,179837,1,0,0:0:0:0:
320,192,179919,1,0,0:0:0:0:
192,192,180001,1,0,0:0:0:0:
64,192,180001,1,0,0:0:0:0:
448,192,180001,1,0,0:0:0:0:
320,192,180084,1,0,0:0:0:0:
448,192,180166,1,0,0:0:0:0:
64,192,180166,1,0,0:0:0:0:
192,192,180249,1,0,0:0:0:0:
320,192,180331,1,0,0:0:0:0:
448,192,180331,1,0,0:0:0:0:
64,192,180331,1,0,0:0:0:0:
64,192,180661,1,0,0:0:0:0:
192,192,180661,1,0,0:0:0:0:
448,192,180661,1,0,0:0:0:0:
320,192,180661,1,0,0:0:0:0:
320,192,180743,1,0,0:0:0:0:
192,192,180826,1,0,0:0:0:0:
64,192,180908,1,0,0:0:0:0:
320,192,180991,1,0,0:0:0:0:
448,192,180991,1,0,0:0:0:0:
64,192,180991,1,0,0:0:0:0:
192,192,181073,1,0,0:0:0:0:
320,192,181155,1,0,0:0:0:0:
448,192,181238,1,0,0:0:0:0:
192,192,181320,1,0,0:0:0:0:
320,192,181320,1,0,0:0:0:0:
448,192,181320,1,0,0:0:0:0:
64,192,181320,1,0,0:0:0:0:
320,192,181403,1,0,0:0:0:0:
64,192,181485,1,0,0:0:0:0:
192,192,181567,1,0,0:0:0:0:
320,192,181650,1,0,0:0:0:0:
448,192,181650,1,0,0:0:0:0:
64,192,181650,1,0,0:0:0:0:
320,192,181732,1,0,0:0:0:0:
448,192,181815,1,0,0:0:0:0:
64,192,181897,1,0,0:0:0:0:
192,192,181980,1,0,0:0:0:0:
320,192,181980,1,0,0:0:0:0:
448,192,181980,1,0,0:0:0:0:
64,192,181980,1,0,0:0:0:0:
448,192,182062,1,0,0:0:0:0:
320,192,182144,1,0,0:0:0:0:
192,192,182227,1,0,0:0:0:0:
64,192,182309,1,0,0:0:0:0:
320,192,182309,1,0,0:0:0:0:
448,192,182309,1,0,0:0:0:0:
192,192,182392,1,0,0:0:0:0:
320,192,182474,1,0,0:0:0:0:
448,192,182556,1,0,0:0:0:0:
64,192,182639,1,0,0:0:0:0:
192,192,182639,1,0,0:0:0:0:
320,192,182639,1,0,0:0:0:0:
448,192,182639,1,0,0:0:0:0:
192,192,182721,1,0,0:0:0:0:
320,192,182804,1,0,0:0:0:0:
64,192,182886,1,0,0:0:0:0:
448,192,182969,1,0,0:0:0:0:
320,192,182969,1,0,0:0:0:0:
192,192,182969,1,0,0:0:0:0:
448,192,183051,1,0,0:0:0:0:
320,192,183133,1,0,0:0:0:0:
64,192,183216,1,0,0:0:0:0:
64,192,183298,1,0,0:0:0:0:
192,192,183298,1,0,0:0:0:0:
320,192,183298,1,0,0:0:0:0:
448,192,183298,1,0,0:0:0:0:
192,192,183381,1,0,0:0:0:0:
320,192,183463,1,0,0:0:0:0:
448,192,183545,1,0,0:0:0:0:
64,192,183628,1,0,0:0:0:0:
192,192,183628,1,0,0:0:0:0:
320,192,183628,1,0,0:0:0:0:
320,192,183710,1,0,0:0:0:0:
448,192,183793,1,0,0:0:0:0:
192,192,183875,1,0,0:0:0:0:
448,192,183958,1,0,0:0:0:0:
320,192,183958,1,0,0:0:0:0:
64,192,183958,1,0,0:0:0:0:
448,192,184040,1,0,0:0:0:0:
320,192,184122,1,0,0:0:0:0:
192,192,184205,1,0,0:0:0:0:
64,192,184287,1,0,0:0:0:0:
192,192,184287,1,0,0:0:0:0:
320,192,184287,1,0,0:0:0:0:
448,192,184287,1,0,0:0:0:0:
320,192,184370,1,0,0:0:0:0:
64,192,184452,5,0,0:0:0:0:
192,192,184534,1,0,0:0:0:0:
320,192,184617,1,0,0:0:0:0:
448,192,184617,1,0,0:0:0:0:
64,192,184617,1,0,0:0:0:0:
320,192,184699,1,0,0:0:0:0:
448,192,184782,1,0,0:0:0:0:
64,192,184864,1,0,0:0:0:0:
192,192,184947,1,0,0:0:0:0:
320,192,184947,1,0,0:0:0:0:
448,192,184947,1,0,0:0:0:0:
64,192,184947,1,0,0:0:0:0:
448,192,185029,1,0,0:0:0:0:
320,192,185111,1,0,0:0:0:0:
192,192,185194,1,0,0:0:0:0:
448,192,185276,1,0,0:0:0:0:
320,192,185276,1,0,0:0:0:0:
64,192,185276,1,0,0:0:0:0:
64,192,185359,1,0,0:0:0:0:
192,192,185441,1,0,0:0:0:0:
320,192,185523,1,0,0:0:0:0:
320,192,185606,5,0,0:0:0:0:
448,192,185606,1,0,0:0:0:0:
192,192,185606,1,0,0:0:0:0:
64,192,185606,1,0,0:0:0:0:
64,192,185688,1,0,0:0:0:0:
192,192,185771,1,0,0:0:0:0:
320,192,185853,1,0,0:0:0:0:
448,192,185936,1,0,0:0:0:0:
320,192,185936,1,0,0:0:0:0:
192,192,185936,1,0,0:0:0:0:
64,192,185936,1,0,0:0:0:0:
448,192,186018,1,0,0:0:0:0:
320,192,186100,1,0,0:0:0:0:
192,192,186183,1,0,0:0:0:0:
64,192,186265,1,0,0:0:0:0:
192,192,186265,1,0,0:0:0:0:
320,192,186265,1,0,0:0:0:0:
448,192,186265,1,0,0:0:0:0:
64,192,186512,1,0,0:0:0:0:
192,192,186512,1,0,0:0:0:0:
448,192,186512,1,0,0:0:0:0:
320,192,186512,1,0,0:0:0:0:
448,192,186760,1,0,0:0:0:0:
320,192,186760,1,0,0:0:0:0:
192,192,186760,1,0,0:0:0:0:
64,192,186760,1,0,0:0:0:0:
64,192,186925,1,0,0:0:0:0:
192,192,186925,1,0,0:0:0:0:
320,192,187007,1,0,0:0:0:0:
448,192,187089,1,0,0:0:0:0:
64,192,187089,1,0,0:0:0:0:
192,192,187089,1,0,0:0:0:0:
448,192,187254,1,0,0:0:0:0:
320,192,187254,1,0,0:0:0:0:
192,192,187254,1,0,0:0:0:0:
64,192,187254,1,0,0:0:0:0:
448,192,187337,1,0,0:0:0:0:
320,192,187419,1,0,0:0:0:0:
192,192,187501,1,0,0:0:0:0:
64,192,187584,1,0,0:0:0:0:
192,192,187584,1,0,0:0:0:0:
320,192,187584,1,0,0:0:0:0:
448,192,187584,1,0,0:0:0:0:
64,192,187831,1,0,0:0:0:0:
320,192,187831,1,0,0:0:0:0:
448,192,187831,1,0,0:0:0:0:
192,192,187831,1,0,0:0:0:0:
448,192,188078,1,0,0:0:0:0:
320,192,188078,1,0,0:0:0:0:
192,192,188078,1,0,0:0:0:0:
64,192,188078,1,0,0:0:0:0:
64,192,188243,1,0,0:0:0:0:
192,192,188243,1,0,0:0:0:0:
320,192,188243,1,0,0:0:0:0:
448,192,188243,1,0,0:0:0:0:
64,192,188408,1,0,0:0:0:0:
320,192,188408,1,0,0:0:0:0:
192,192,188491,1,0,0:0:0:0:
448,192,188491,1,0,0:0:0:0:
320,192,188573,1,0,0:0:0:0:
64,192,188573,1,0,0:0:0:0:
192,192,188655,1,0,0:0:0:0:
448,192,188655,1,0,0:0:0:0:
320,192,188738,1,0,0:0:0:0:
64,192,188738,1,0,0:0:0:0:
192,192,188820,1,0,0:0:0:0:
448,192,188820,1,0,0:0:0:0:
320,192,188903,1,0,0:0:0:0:
192,192,188903,1,0,0:0:0:0:
448,192,188903,1,0,0:0:0:0:
448,192,189067,1,0,0:0:0:0:
192,192,189067,1,0,0:0:0:0:
320,192,189150,1,0,0:0:0:0:
64,192,189150,1,0,0:0:0:0:
192,192,189232,1,0,0:0:0:0:
448,192,189232,1,0,0:0:0:0:
320,192,189315,1,0,0:0:0:0:
64,192,189315,1,0,0:0:0:0:
192,192,189397,1,0,0:0:0:0:
448,192,189397,1,0,0:0:0:0:
320,192,189480,1,0,0:0:0:0:
64,192,189480,1,0,0:0:0:0:
64,192,189562,1,0,0:0:0:0:
192,192,189562,1,0,0:0:0:0:
320,192,189562,1,0,0:0:0:0:
448,192,189644,1,0,0:0:0:0:
64,192,189727,1,0,0:0:0:0:
192,192,189809,1,0,0:0:0:0:
320,192,189892,1,0,0:0:0:0:
448,192,189974,1,0,0:0:0:0:
64,192,190056,1,0,0:0:0:0:
192,192,190139,1,0,0:0:0:0:
448,192,190221,1,0,0:0:0:0:
320,192,190304,1,0,0:0:0:0:
192,192,190386,1,0,0:0:0:0:
64,192,190469,1,0,0:0:0:0:
448,192,190551,1,0,0:0:0:0:
320,192,190633,1,0,0:0:0:0:
192,192,190716,1,0,0:0:0:0:
64,192,190798,1,0,0:0:0:0:
448,192,190881,1,0,0:0:0:0:
320,192,190881,1,0,0:0:0:0:
192,192,190963,1,0,0:0:0:0:
64,192,191045,1,0,0:0:0:0:
448,192,191128,1,0,0:0:0:0:
320,192,191210,1,0,0:0:0:0:
192,192,191210,1,0,0:0:0:0:
64,192,191293,1,0,0:0:0:0:
192,192,191375,1,0,0:0:0:0:
320,192,191458,1,0,0:0:0:0:
448,192,191540,1,0,0:0:0:0:
64,192,191540,1,0,0:0:0:0:
192,192,191622,1,0,0:0:0:0:
320,192,191705,1,0,0:0:0:0:
192,192,191787,1,0,0:0:0:0:
64,192,191870,1,0,0:0:0:0:
448,192,191870,1,0,0:0:0:0:
320,192,191952,1,0,0:0:0:0:
64,192,192034,1,0,0:0:0:0:
192,192,192117,1,0,0:0:0:0:
320,192,192199,1,0,0:0:0:0:
448,192,192199,1,0,0:0:0:0:
192,192,192282,1,0,0:0:0:0:
64,192,192364,1,0,0:0:0:0:
448,192,192447,1,0,0:0:0:0:
320,192,192529,1,0,0:0:0:0:
192,192,192529,1,0,0:0:0:0:
64,192,192611,1,0,0:0:0:0:
448,192,192694,1,0,0:0:0:0:
64,192,192776,1,0,0:0:0:0:
192,192,192859,1,0,0:0:0:0:
448,192,192859,1,0,0:0:0:0:
320,192,192941,1,0,0:0:0:0:
448,192,193023,1,0,0:0:0:0:
192,192,193106,1,0,0:0:0:0:
448,192,193188,1,0,0:0:0:0:
64,192,193188,1,0,0:0:0:0:
320,192,193271,1,0,0:0:0:0:
192,192,193353,1,0,0:0:0:0:
64,192,193436,1,0,0:0:0:0:
448,192,193518,1,0,0:0:0:0:
320,192,193518,1,0,0:0:0:0:
192,192,193600,1,0,0:0:0:0:
64,192,193683,1,0,0:0:0:0:
192,192,193765,1,0,0:0:0:0:
320,192,193848,1,0,0:0:0:0:
448,192,193848,1,0,0:0:0:0:
64,192,193930,1,0,0:0:0:0:
192,192,194012,1,0,0:0:0:0:
320,192,194095,1,0,0:0:0:0:
448,192,194177,1,0,0:0:0:0:
64,192,194177,1,0,0:0:0:0:
192,192,194260,1,0,0:0:0:0:
320,192,194342,1,0,0:0:0:0:
192,192,194425,1,0,0:0:0:0:
64,192,194507,1,0,0:0:0:0:
320,192,194507,1,0,0:0:0:0:
448,192,194589,1,0,0:0:0:0:
64,192,194672,1,0,0:0:0:0:
192,192,194754,1,0,0:0:0:0:
320,192,194837,1,0,0:0:0:0:
448,192,194837,1,0,0:0:0:0:
192,192,194919,1,0,0:0:0:0:
64,192,195001,1,0,0:0:0:0:
448,192,195084,1,0,0:0:0:0:
320,192,195166,1,0,0:0:0:0:
192,192,195166,1,0,0:0:0:0:
64,192,195249,1,0,0:0:0:0:
448,192,195331,1,0,0:0:0:0:
320,192,195414,1,0,0:0:0:0:
192,192,195496,1,0,0:0:0:0:
64,192,195496,1,0,0:0:0:0:
320,192,195578,1,0,0:0:0:0:
448,192,195661,1,0,0:0:0:0:
320,192,195743,1,0,0:0:0:0:
192,192,195826,1,0,0:0:0:0:
64,192,195826,1,0,0:0:0:0:
320,192,195908,1,0,0:0:0:0:
192,192,195991,1,0,0:0:0:0:
64,192,196073,1,0,0:0:0:0:
320,192,196155,1,0,0:0:0:0:
448,192,196155,1,0,0:0:0:0:
192,192,196238,1,0,0:0:0:0:
320,192,196320,1,0,0:0:0:0:
448,192,196403,1,0,0:0:0:0:
64,192,196485,1,0,0:0:0:0:
192,192,196485,1,0,0:0:0:0:
320,192,196567,1,0,0:0:0:0:
448,192,196650,1,0,0:0:0:0:
192,192,196732,1,0,0:0:0:0:
320,192,196815,1,0,0:0:0:0:
64,192,196815,1,0,0:0:0:0:
448,192,196897,1,0,0:0:0:0:
320,192,196980,1,0,0:0:0:0:
192,192,197062,1,0,0:0:0:0:
64,192,197144,1,0,0:0:0:0:
448,192,197144,1,0,0:0:0:0:
192,192,197227,1,0,0:0:0:0:
320,192,197309,1,0,0:0:0:0:
448,192,197392,1,0,0:0:0:0:
192,192,197474,1,0,0:0:0:0:
64,192,197474,1,0,0:0:0:0:
320,192,197556,1,0,0:0:0:0:
448,192,197639,1,0,0:0:0:0:
64,192,197721,1,0,0:0:0:0:
192,192,197804,1,0,0:0:0:0:
320,192,197804,1,0,0:0:0:0:
448,192,197886,1,0,0:0:0:0:
320,192,197969,1,0,0:0:0:0:
192,192,198051,1,0,0:0:0:0:
64,192,198133,1,0,0:0:0:0:
448,192,198133,1,0,0:0:0:0:
192,192,198216,1,0,0:0:0:0:
320,192,198298,1,0,0:0:0:0:
192,192,198381,1,0,0:0:0:0:
448,192,198463,1,0,0:0:0:0:
64,192,198463,1,0,0:0:0:0:
320,192,198545,1,0,0:0:0:0:
192,192,198628,1,0,0:0:0:0:
64,192,198710,1,0,0:0:0:0:
320,192,198793,1,0,0:0:0:0:
448,192,198793,1,0,0:0:0:0:
192,192,198875,1,0,0:0:0:0:
64,192,198958,1,0,0:0:0:0:
320,192,199040,1,0,0:0:0:0:
448,192,199122,1,0,0:0:0:0:
192,192,199122,1,0,0:0:0:0:
64,192,199205,1,0,0:0:0:0:
192,192,199287,1,0,0:0:0:0:
320,192,199370,1,0,0:0:0:0:
448,192,199452,1,0,0:0:0:0:
64,192,199452,1,0,0:0:0:0:
320,192,199534,1,0,0:0:0:0:
64,192,199617,1,0,0:0:0:0:
192,192,199699,1,0,0:0:0:0:
320,192,199782,1,0,0:0:0:0:
448,192,199782,1,0,0:0:0:0:
192,192,199864,1,0,0:0:0:0:
64,192,199947,1,0,0:0:0:0:
320,192,200029,1,0,0:0:0:0:
448,192,200111,1,0,0:0:0:0:
64,192,200111,1,0,0:0:0:0:
192,192,200194,1,0,0:0:0:0:
320,192,200276,1,0,0:0:0:0:
448,192,200276,1,0,0:0:0:0:
192,192,200359,1,0,0:0:0:0:
64,192,200441,1,0,0:0:0:0:
320,192,200441,1,0,0:0:0:0:
448,192,200523,1,0,0:0:0:0:
320,192,200606,1,0,0:0:0:0:
192,192,200606,1,0,0:0:0:0:
64,192,200688,1,0,0:0:0:0:
448,192,200771,1,0,0:0:0:0:
192,192,200771,1,0,0:0:0:0:
320,192,200853,1,0,0:0:0:0:
448,192,200936,1,0,0:0:0:0:
64,192,200936,1,0,0:0:0:0:
192,192,201018,1,0,0:0:0:0:
320,192,201100,1,0,0:0:0:0:
448,192,201100,1,0,0:0:0:0:
192,192,201183,1,0,0:0:0:0:
64,192,201183,1,0,0:0:0:0:
320,192,201265,1,0,0:0:0:0:
448,192,201265,1,0,0:0:0:0:
64,192,201348,1,0,0:0:0:0:
192,192,201348,1,0,0:0:0:0:
448,192,201430,1,0,0:0:0:0:
320,192,201430,1,0,0:0:0:0:
192,192,201430,1,0,0:0:0:0:
192,192,201512,1,0,0:0:0:0:
320,192,201595,1,0,0:0:0:0:
448,192,201677,1,0,0:0:0:0:
192,192,201760,1,0,0:0:0:0:
64,192,201760,1,0,0:0:0:0:
320,192,201760,1,0,0:0:0:0:
320,192,201842,1,0,0:0:0:0:
192,192,201925,1,0,0:0:0:0:
64,192,202007,1,0,0:0:0:0:
448,192,202089,1,0,0:0:0:0:
320,192,202089,1,0,0:0:0:0:
192,192,202089,1,0,0:0:0:0:
320,192,202172,1,0,0:0:0:0:
64,192,202254,1,0,0:0:0:0:
192,192,202254,1,0,0:0:0:0:
320,192,202254,1,0,0:0:0:0:
192,192,202337,1,0,0:0:0:0:
448,192,202419,1,0,0:0:0:0:
320,192,202419,1,0,0:0:0:0:
64,192,202501,1,0,0:0:0:0:
192,192,202501,1,0,0:0:0:0:
320,192,202584,1,0,0:0:0:0:
448,192,202584,1,0,0:0:0:0:
64,192,202666,1,0,0:0:0:0:
192,192,202666,1,0,0:0:0:0:
320,192,202749,1,0,0:0:0:0:
448,192,202749,1,0,0:0:0:0:
192,192,202831,1,0,0:0:0:0:
64,192,202914,1,0,0:0:0:0:
448,192,202996,1,0,0:0:0:0:
320,192,203078,128,0,203161:0:0:0:0:
64,192,203078,128,0,203161:0:0:0:0:
192,192,203243,1,0,0:0:0:0:
448,192,203408,128,0,203491:0:0:0:0:
192,192,203408,128,0,203491:0:0:0:0:
320,192,203573,1,0,0:0:0:0:
192,192,203655,128,0,203738:0:0:0:0:
448,192,203655,128,0,203738:0:0:0:0:
320,192,203820,1,0,0:0:0:0:
192,192,203903,128,0,203985:0:0:0:0:
448,192,203903,128,0,203985:0:0:0:0:
64,192,204067,1,0,0:0:0:0:
192,192,204067,1,0,0:0:0:0:
320,192,204067,1,0,0:0:0:0:
192,192,204150,1,0,0:0:0:0:
320,192,204232,1,0,0:0:0:0:
448,192,204315,1,0,0:0:0:0:
448,192,204397,1,0,0:0:0:0:
320,192,204397,1,0,0:0:0:0:
192,192,204397,1,0,0:0:0:0:
320,192,204480,1,0,0:0:0:0:
192,192,204562,1,0,0:0:0:0:
64,192,204644,1,0,0:0:0:0:
448,192,204727,1,0,0:0:0:0:
320,192,204727,1,0,0:0:0:0:
192,192,204727,1,0,0:0:0:0:
320,192,204809,1,0,0:0:0:0:
64,192,204892,1,0,0:0:0:0:
192,192,204892,1,0,0:0:0:0:
320,192,204892,1,0,0:0:0:0:
192,192,204974,1,0,0:0:0:0:
448,192,205056,1,0,0:0:0:0:
320,192,205056,1,0,0:0:0:0:
64,192,205139,1,0,0:0:0:0:
192,192,205139,1,0,0:0:0:0:
320,192,205221,1,0,0:0:0:0:
448,192,205221,1,0,0:0:0:0:
64,192,205304,1,0,0:0:0:0:
192,192,205304,1,0,0:0:0:0:
320,192,205386,1,0,0:0:0:0:
448,192,205386,1,0,0:0:0:0:
64,192,205386,1,0,0:0:0:0:
192,192,205469,1,0,0:0:0:0:
320,192,205551,1,0,0:0:0:0:
448,192,205633,1,0,0:0:0:0:
64,192,205716,128,0,205798:0:0:0:0:
192,192,205716,128,0,205798:0:0:0:0:
320,192,205881,1,0,0:0:0:0:
448,192,205963,1,0,0:0:0:0:
64,192,206045,128,0,206622:0:0:0:0:
192,192,206045,128,0,206622:0:0:0:0:
448,192,206705,1,0,0:0:0:0:
64,192,206705,1,0,0:0:0:0:
192,192,206787,1,0,0:0:0:0:
320,192,206870,1,0,0:0:0:0:
448,192,206870,1,0,0:0:0:0:
192,192,206952,1,0,0:0:0:0:
64,192,207034,1,0,0:0:0:0:
448,192,207034,1,0,0:0:0:0:
320,192,207117,1,0,0:0:0:0:
192,192,207199,1,0,0:0:0:0:
64,192,207199,1,0,0:0:0:0:
320,192,207282,1,0,0:0:0:0:
448,192,207364,1,0,0:0:0:0:
64,192,207364,1,0,0:0:0:0:
192,192,207447,1,0,0:0:0:0:
320,192,207447,1,0,0:0:0:0:
64,192,207529,1,0,0:0:0:0:
448,192,207529,1,0,0:0:0:0:
192,192,207611,1,0,0:0:0:0:
320,192,207611,1,0,0:0:0:0:
64,192,207694,128,0,207941:0:0:0:0:
448,192,207694,128,0,207941:0:0:0:0:
64,192,208023,1,0,0:0:0:0:
448,192,208023,1,0,0:0:0:0:
320,192,208106,1,0,0:0:0:0:
192,192,208188,1,0,0:0:0:0:
64,192,208188,1,0,0:0:0:0:
320,192,208271,1,0,0:0:0:0:
448,192,208353,1,0,0:0:0:0:
64,192,208353,1,0,0:0:0:0:
192,192,208436,1,0,0:0:0:0:
320,192,208518,1,0,0:0:0:0:
448,192,208518,1,0,0:0:0:0:
192,192,208600,1,0,0:0:0:0:
64,192,208683,1,0,0:0:0:0:
448,192,208683,1,0,0:0:0:0:
320,192,208765,1,0,0:0:0:0:
192,192,208765,1,0,0:0:0:0:
64,192,208848,1,0,0:0:0:0:
448,192,208848,1,0,0:0:0:0:
192,192,208930,1,0,0:0:0:0:
320,192,208930,1,0,0:0:0:0:
64,192,209012,128,0,209342:0:0:0:0:
448,192,209012,128,0,209342:0:0:0:0:
192,192,209342,1,0,0:0:0:0:
320,192,209342,1,0,0:0:0:0:
64,192,209425,1,0,0:0:0:0:
448,192,209425,1,0,0:0:0:0:
192,192,209507,1,0,0:0:0:0:
320,192,209507,1,0,0:0:0:0:
64,192,209589,1,0,0:0:0:0:
448,192,209589,1,0,0:0:0:0:
320,192,209672,1,0,0:0:0:0:
192,192,209672,1,0,0:0:0:0:
448,192,209754,1,0,0:0:0:0:
64,192,209837,1,0,0:0:0:0:
448,192,209919,1,0,0:0:0:0:
64,192,210001,1,0,0:0:0:0:
192,192,210001,1,0,0:0:0:0:
320,192,210084,1,0,0:0:0:0:
448,192,210084,1,0,0:0:0:0:
64,192,210166,1,0,0:0:0:0:
192,192,210166,1,0,0:0:0:0:
320,192,210249,1,0,0:0:0:0:
448,192,210249,1,0,0:0:0:0:
64,192,210331,1,0,0:0:0:0:
192,192,210372,1,0,0:0:0:0:
448,192,210414,1,0,0:0:0:0:
320,192,210455,1,0,0:0:0:0:
64,192,210496,1,0,0:0:0:0:
448,192,210537,1,0,0:0:0:0:
192,192,210537,1,0,0:0:0:0:
320,192,210578,1,0,0:0:0:0:
64,192,210620,1,0,0:0:0:0:
192,192,210661,1,0,0:0:0:0:
448,192,210661,1,0,0:0:0:0:
64,192,211980,1,0,0:0:0:0:
192,192,211980,1,0,0:0:0:0:
320,192,211980,1,0,0:0:0:0:
448,192,211980,1,0,0:0:0:0:
64,192,212309,1,0,0:0:0:0:
192,192,212309,1,0,0:0:0:0:
320,192,212309,1,0,0:0:0:0:
448,192,212309,1,0,0:0:0:0:
64,192,212639,1,0,0:0:0:0:
192,192,212639,1,0,0:0:0:0:
320,192,212639,1,0,0:0:0:0:
448,192,212639,1,0,0:0:0:0:
448,192,212804,1,0,0:0:0:0:
320,192,212804,1,0,0:0:0:0:
64,192,212804,1,0,0:0:0:0:
192,192,212804,1,0,0:0:0:0:
64,192,212969,1,0,0:0:0:0:
192,192,212969,1,0,0:0:0:0:
320,192,212969,1,0,0:0:0:0:
448,192,213051,1,0,0:0:0:0:
320,192,213051,1,0,0:0:0:0:
192,192,213133,1,0,0:0:0:0:
64,192,213133,1,0,0:0:0:0:
320,192,213216,1,0,0:0:0:0:
448,192,213216,1,0,0:0:0:0:
64,192,213298,1,0,0:0:0:0:
192,192,213298,1,0,0:0:0:0:
320,192,213298,1,0,0:0:0:0:
448,192,213298,1,0,0:0:0:0:
64,192,213628,128,0,213710:0:0:0:0:
448,192,213628,128,0,213710:0:0:0:0:
64,192,213958,128,0,214040:0:0:0:0:
448,192,213958,128,0,214040:0:0:0:0:
448,192,214205,128,0,214287:0:0:0:0:
64,192,214205,128,0,214287:0:0:0:0:
64,192,214452,128,0,214534:0:0:0:0:
448,192,214452,128,0,214534:0:0:0:0:
64,192,214617,1,0,0:0:0:0:
192,192,214617,1,0,0:0:0:0:
320,192,214617,1,0,0:0:0:0:
448,192,214617,1,0,0:0:0:0:
448,192,214947,1,0,0:0:0:0:
192,192,214947,1,0,0:0:0:0:
320,192,214947,1,0,0:0:0:0:
64,192,214947,1,0,0:0:0:0:
64,192,215276,1,0,0:0:0:0:
192,192,215276,1,0,0:0:0:0:
320,192,215276,1,0,0:0:0:0:
448,192,215276,1,0,0:0:0:0:
448,192,215441,1,0,0:0:0:0:
320,192,215441,1,0,0:0:0:0:
192,192,215441,1,0,0:0:0:0:
64,192,215441,1,0,0:0:0:0:
448,192,215606,1,0,0:0:0:0:
320,192,215606,1,0,0:0:0:0:
192,192,215606,1,0,0:0:0:0:
64,192,215688,1,0,0:0:0:0:
192,192,215688,1,0,0:0:0:0:
448,192,215771,1,0,0:0:0:0:
320,192,215771,1,0,0:0:0:0:
64,192,215853,1,0,0:0:0:0:
192,192,215853,1,0,0:0:0:0:
64,192,215936,1,0,0:0:0:0:
192,192,215936,1,0,0:0:0:0:
320,192,215936,1,0,0:0:0:0:
448,192,215936,1,0,0:0:0:0:
64,192,216265,128,0,216348:0:0:0:0:
448,192,216265,128,0,216348:0:0:0:0:
64,192,216595,128,0,216677:0:0:0:0:
448,192,216595,128,0,216677:0:0:0:0:
320,192,216760,1,0,0:0:0:0:
192,192,216760,1,0,0:0:0:0:
64,192,216842,1,0,0:0:0:0:
320,192,216842,1,0,0:0:0:0:
192,192,216925,1,0,0:0:0:0:
448,192,216925,1,0,0:0:0:0:
192,192,217007,1,0,0:0:0:0:
64,192,217007,1,0,0:0:0:0:
320,192,217089,1,0,0:0:0:0:
448,192,217089,1,0,0:0:0:0:
192,192,217172,1,0,0:0:0:0:
64,192,217172,1,0,0:0:0:0:
448,192,217254,1,0,0:0:0:0:
64,192,217254,1,0,0:0:0:0:
320,192,217254,1,0,0:0:0:0:
192,192,217337,1,0,0:0:0:0:
320,192,217419,1,0,0:0:0:0:
448,192,217419,1,0,0:0:0:0:
192,192,217501,1,0,0:0:0:0:
64,192,217584,1,0,0:0:0:0:
320,192,217584,1,0,0:0:0:0:
448,192,217666,1,0,0:0:0:0:
320,192,217749,1,0,0:0:0:0:
192,192,217749,1,0,0:0:0:0:
64,192,217831,1,0,0:0:0:0:
448,192,217914,1,0,0:0:0:0:
320,192,217914,1,0,0:0:0:0:
192,192,217996,1,0,0:0:0:0:
64,192,218078,1,0,0:0:0:0:
448,192,218078,1,0,0:0:0:0:
192,192,218161,1,0,0:0:0:0:
320,192,218243,1,0,0:0:0:0:
448,192,218243,1,0,0:0:0:0:
192,192,218326,1,0,0:0:0:0:
64,192,218408,1,0,0:0:0:0:
320,192,218408,1,0,0:0:0:0:
448,192,218491,1,0,0:0:0:0:
320,192,218573,1,0,0:0:0:0:
192,192,218573,1,0,0:0:0:0:
64,192,218655,1,0,0:0:0:0:
192,192,218738,1,0,0:0:0:0:
448,192,218738,1,0,0:0:0:0:
320,192,218820,1,0,0:0:0:0:
448,192,218903,1,0,0:0:0:0:
64,192,218903,1,0,0:0:0:0:
192,192,218985,1,0,0:0:0:0:
320,192,219067,1,0,0:0:0:0:
448,192,219067,1,0,0:0:0:0:
192,192,219150,1,0,0:0:0:0:
64,192,219232,1,0,0:0:0:0:
320,192,219232,1,0,0:0:0:0:
448,192,219315,1,0,0:0:0:0:
320,192,219397,1,0,0:0:0:0:
192,192,219397,1,0,0:0:0:0:
64,192,219480,1,0,0:0:0:0:
192,192,219562,1,0,0:0:0:0:
448,192,219562,1,0,0:0:0:0:
320,192,219644,1,0,0:0:0:0:
192,192,219727,1,0,0:0:0:0:
64,192,219727,1,0,0:0:0:0:
320,192,219809,1,0,0:0:0:0:
448,192,219892,1,0,0:0:0:0:
64,192,219892,1,0,0:0:0:0:
192,192,219974,1,0,0:0:0:0:
320,192,219974,1,0,0:0:0:0:
64,192,220056,1,0,0:0:0:0:
448,192,220056,1,0,0:0:0:0:
192,192,220139,1,0,0:0:0:0:
320,192,220139,1,0,0:0:0:0:
64,192,220221,1,0,0:0:0:0:
448,192,220221,1,0,0:0:0:0:
192,192,220304,1,0,0:0:0:0:
320,192,220304,1,0,0:0:0:0:
64,192,220386,1,0,0:0:0:0:
448,192,220386,1,0,0:0:0:0:
320,192,220469,1,0,0:0:0:0:
64,192,220551,1,0,0:0:0:0:
192,192,220551,1,0,0:0:0:0:
320,192,220633,1,0,0:0:0:0:
448,192,220633,1,0,0:0:0:0:
64,192,220716,1,0,0:0:0:0:
192,192,220716,1,0,0:0:0:0:
320,192,220798,1,0,0:0:0:0:
448,192,220798,1,0,0:0:0:0:
192,192,220881,1,0,0:0:0:0:
64,192,220881,1,0,0:0:0:0:
320,192,220963,1,0,0:0:0:0:
448,192,220963,1,0,0:0:0:0:
64,192,221045,1,0,0:0:0:0:
192,192,221045,1,0,0:0:0:0:
320,192,221128,1,0,0:0:0:0:
448,192,221128,1,0,0:0:0:0:
64,192,221210,1,0,0:0:0:0:
192,192,221210,1,0,0:0:0:0:
64,192,222529,1,0,0:0:0:0:
192,192,222529,1,0,0:0:0:0:
64,192,222694,1,0,0:0:0:0:
192,192,222694,1,0,0:0:0:0:
64,192,222859,1,0,0:0:0:0:
192,192,222859,1,0,0:0:0:0:
320,192,222900,1,0,0:0:0:0:
448,192,222941,1,0,0:0:0:0:
64,192,222982,1,0,0:0:0:0:
192,192,223023,1,0,0:0:0:0:
320,192,223023,1,0,0:0:0:0:
448,192,223065,1,0,0:0:0:0:
192,192,223106,1,0,0:0:0:0:
64,192,223147,1,0,0:0:0:0:
448,192,223188,1,0,0:0:0:0:
320,192,223188,1,0,0:0:0:0:
64,192,223230,1,0,0:0:0:0:
192,192,223271,1,0,0:0:0:0:
448,192,223312,1,0,0:0:0:0:
320,192,223353,1,0,0:0:0:0:
192,192,223353,1,0,0:0:0:0:
64,192,223394,1,0,0:0:0:0:
448,192,223436,1,0,0:0:0:0:
320,192,223477,1,0,0:0:0:0:
192,192,223518,1,0,0:0:0:0:
64,192,223518,1,0,0:0:0:0:
320,192,223559,1,0,0:0:0:0:
448,192,223600,1,0,0:0:0:0:
64,192,223642,1,0,0:0:0:0:
192,192,223683,1,0,0:0:0:0:
320,192,223683,1,0,0:0:0:0:
448,192,223724,1,0,0:0:0:0:
64,192,223765,1,0,0:0:0:0:
192,192,223806,1,0,0:0:0:0:
320,192,223848,1,0,0:0:0:0:
448,192,223848,1,0,0:0:0:0:
192,192,223889,1,0,0:0:0:0:
64,192,223930,1,0,0:0:0:0:
448,192,223971,1,0,0:0:0:0:
320,192,224012,1,0,0:0:0:0:
192,192,224012,1,0,0:0:0:0:
64,192,224054,1,0,0:0:0:0:
448,192,224095,1,0,0:0:0:0:
320,192,224136,1,0,0:0:0:0:
192,192,224177,1,0,0:0:0:0:
64,192,224177,1,0,0:0:0:0:
320,192,224219,1,0,0:0:0:0:
448,192,224260,1,0,0:0:0:0:
64,192,224301,1,0,0:0:0:0:
192,192,224342,1,0,0:0:0:0:
320,192,224342,1,0,0:0:0:0:
448,192,224383,1,0,0:0:0:0:
64,192,224425,1,0,0:0:0:0:
192,192,224466,1,0,0:0:0:0:
320,192,224507,1,0,0:0:0:0:
448,192,224507,1,0,0:0:0:0:
192,192,224548,1,0,0:0:0:0:
64,192,224589,1,0,0:0:0:0:
448,192,224631,1,0,0:0:0:0:
320,192,224672,1,0,0:0:0:0:
192,192,224672,1,0,0:0:0:0:
64,192,224713,1,0,0:0:0:0:
448,192,224754,1,0,0:0:0:0:
320,192,224795,1,0,0:0:0:0:
192,192,224837,1,0,0:0:0:0:
64,192,224837,1,0,0:0:0:0:
320,192,224878,1,0,0:0:0:0:
448,192,224919,1,0,0:0:0:0:
64,192,224960,1,0,0:0:0:0:
192,192,225001,1,0,0:0:0:0:
320,192,225001,1,0,0:0:0:0:
448,192,225043,1,0,0:0:0:0:
64,192,225084,1,0,0:0:0:0:
192,192,225125,1,0,0:0:0:0:
320,192,225166,1,0,0:0:0:0:
448,192,225166,1,0,0:0:0:0:
192,192,225249,1,0,0:0:0:0:
64,192,225331,1,0,0:0:0:0:
192,192,225414,1,0,0:0:0:0:
64,192,225496,1,0,0:0:0:0:
448,192,225496,1,0,0:0:0:0:
192,192,225578,1,0,0:0:0:0:
320,192,225661,1,0,0:0:0:0:
192,192,225743,1,0,0:0:0:0:
64,192,225826,1,0,0:0:0:0:
448,192,225826,1,0,0:0:0:0:
320,192,225908,1,0,0:0:0:0:
192,192,225991,1,0,0:0:0:0:
320,192,226073,1,0,0:0:0:0:
448,192,226155,1,0,0:0:0:0:
64,192,226155,1,0,0:0:0:0:
192,192,226238,1,0,0:0:0:0:
320,192,226320,1,0,0:0:0:0:
192,192,226403,1,0,0:0:0:0:
64,192,226485,1,0,0:0:0:0:
448,192,226485,1,0,0:0:0:0:
320,192,226567,1,0,0:0:0:0:
192,192,226650,1,0,0:0:0:0:
320,192,226732,1,0,0:0:0:0:
448,192,226815,1,0,0:0:0:0:
64,192,226815,1,0,0:0:0:0:
192,192,226897,1,0,0:0:0:0:
320,192,226980,1,0,0:0:0:0:
448,192,226980,1,0,0:0:0:0:
192,192,227062,1,0,0:0:0:0:
64,192,227144,1,0,0:0:0:0:
448,192,227144,1,0,0:0:0:0:
320,192,227227,1,0,0:0:0:0:
192,192,227309,1,0,0:0:0:0:
64,192,227309,1,0,0:0:0:0:
320,192,227392,1,0,0:0:0:0:
448,192,227474,1,0,0:0:0:0:
64,192,227474,1,0,0:0:0:0:
192,192,227556,1,0,0:0:0:0:
320,192,227639,1,0,0:0:0:0:
192,192,227721,1,0,0:0:0:0:
64,192,227804,1,0,0:0:0:0:
192,192,227886,1,0,0:0:0:0:
320,192,227969,1,0,0:0:0:0:
192,192,228051,1,0,0:0:0:0:
448,192,228133,1,0,0:0:0:0:
320,192,228133,1,0,0:0:0:0:
192,192,228175,1,0,0:0:0:0:
64,192,228216,1,0,0:0:0:0:
448,192,228257,1,0,0:0:0:0:
320,192,228298,1,0,0:0:0:0:
192,192,228298,1,0,0:0:0:0:
64,192,228339,1,0,0:0:0:0:
320,192,228381,1,0,0:0:0:0:
448,192,228422,1,0,0:0:0:0:
64,192,228463,1,0,0:0:0:0:
192,192,228463,1,0,0:0:0:0:
448,192,228504,1,0,0:0:0:0:
320,192,228545,1,0,0:0:0:0:
64,192,228587,1,0,0:0:0:0:
192,192,228628,1,0,0:0:0:0:
320,192,228628,1,0,0:0:0:0:
448,192,228669,1,0,0:0:0:0:
64,192,228710,1,0,0:0:0:0:
192,192,228751,1,0,0:0:0:0:
320,192,228793,1,0,0:0:0:0:
448,192,228793,1,0,0:0:0:0:
192,192,228834,1,0,0:0:0:0:
64,192,228875,1,0,0:0:0:0:
448,192,228916,1,0,0:0:0:0:
320,192,228958,1,0,0:0:0:0:
192,192,228958,1,0,0:0:0:0:
64,192,228999,1,0,0:0:0:0:
448,192,229040,1,0,0:0:0:0:
320,192,229081,1,0,0:0:0:0:
192,192,229122,1,0,0:0:0:0:
64,192,229122,1,0,0:0:0:0:
320,192,229164,1,0,0:0:0:0:
448,192,229205,1,0,0:0:0:0:
64,192,229246,1,0,0:0:0:0:
192,192,229287,1,0,0:0:0:0:
320,192,229287,1,0,0:0:0:0:
448,192,229328,1,0,0:0:0:0:
64,192,229370,1,0,0:0:0:0:
192,192,229411,1,0,0:0:0:0:
320,192,229452,1,0,0:0:0:0:
448,192,229452,1,0,0:0:0:0:
192,192,229493,1,0,0:0:0:0:
64,192,229534,1,0,0:0:0:0:
448,192,229576,1,0,0:0:0:0:
320,192,229617,1,0,0:0:0:0:
192,192,229617,1,0,0:0:0:0:
64,192,229658,1,0,0:0:0:0:
448,192,229699,1,0,0:0:0:0:
320,192,229741,1,0,0:0:0:0:
192,192,229782,1,0,0:0:0:0:
64,192,229782,1,0,0:0:0:0:
320,192,229823,1,0,0:0:0:0:
448,192,229864,1,0,0:0:0:0:
64,192,229905,1,0,0:0:0:0:
192,192,229947,1,0,0:0:0:0:
320,192,229947,1,0,0:0:0:0:
448,192,229988,1,0,0:0:0:0:
64,192,230029,1,0,0:0:0:0:
192,192,230070,1,0,0:0:0:0:
320,192,230111,1,0,0:0:0:0:
448,192,230111,1,0,0:0:0:0:
320,192,230221,1,0,0:0:0:0:
192,192,230221,1,0,0:0:0:0:
64,192,230331,1,0,0:0:0:0:
192,192,230331,1,0,0:0:0:0:
192,192,230441,1,0,0:0:0:0:
320,192,230441,1,0,0:0:0:0:
448,192,230441,1,0,0:0:0:0:
320,192,230551,1,0,0:0:0:0:
64,192,230551,1,0,0:0:0:0:
192,192,230661,1,0,0:0:0:0:
448,192,230661,1,0,0:0:0:0:
320,192,230771,1,0,0:0:0:0:
192,192,230771,1,0,0:0:0:0:
64,192,230881,1,0,0:0:0:0:
320,192,230881,1,0,0:0:0:0:
448,192,230881,1,0,0:0:0:0:
192,192,230991,1,0,0:0:0:0:
320,192,230991,1,0,0:0:0:0:
448,192,231100,1,0,0:0:0:0:
64,192,231100,1,0,0:0:0:0:
64,192,231210,1,0,0:0:0:0:
192,192,231210,1,0,0:0:0:0:
448,192,231320,1,0,0:0:0:0:
192,192,231320,1,0,0:0:0:0:
320,192,231320,1,0,0:0:0:0:
320,192,231430,1,0,0:0:0:0:
64,192,231430,1,0,0:0:0:0:
192,192,231540,1,0,0:0:0:0:
64,192,231540,1,0,0:0:0:0:
320,192,231650,1,0,0:0:0:0:
448,192,231650,1,0,0:0:0:0:
64,192,231760,1,0,0:0:0:0:
192,192,231760,1,0,0:0:0:0:
320,192,231760,1,0,0:0:0:0:
320,192,232007,1,0,0:0:0:0:
192,192,232089,1,0,0:0:0:0:
320,192,232089,1,0,0:0:0:0:
448,192,232089,1,0,0:0:0:0:
320,192,232309,1,0,0:0:0:0:
192,192,232309,1,0,0:0:0:0:
64,192,232309,1,0,0:0:0:0:
192,192,232419,1,0,0:0:0:0:
320,192,232529,1,0,0:0:0:0:
64,192,232639,1,0,0:0:0:0:
192,192,232639,1,0,0:0:0:0:
320,192,232639,1,0,0:0:0:0:
448,192,232749,1,0,0:0:0:0:
192,192,232749,1,0,0:0:0:0:
320,192,232831,1,0,0:0:0:0:
64,192,232831,1,0,0:0:0:0:
448,192,232914,1,0,0:0:0:0:
192,192,232914,1,0,0:0:0:0:
320,192,232996,1,0,0:0:0:0:
64,192,232996,1,0,0:0:0:0:
448,192,233078,128,0,233326:0:0:0:0:
64,192,233078,128,0,233326:0:0:0:0:
192,192,233408,1,0,0:0:0:0:
64,192,233408,1,0,0:0:0:0:
320,192,233449,1,0,0:0:0:0:
448,192,233491,1,0,0:0:0:0:
64,192,233532,1,0,0:0:0:0:
320,192,233573,1,0,0:0:0:0:
192,192,233573,1,0,0:0:0:0:
448,192,233614,1,0,0:0:0:0:
192,192,233655,1,0,0:0:0:0:
64,192,233697,1,0,0:0:0:0:
320,192,233738,1,0,0:0:0:0:
448,192,233738,1,0,0:0:0:0:
64,192,233779,1,0,0:0:0:0:
192,192,233820,1,0,0:0:0:0:
448,192,233861,1,0,0:0:0:0:
192,192,233903,1,0,0:0:0:0:
320,192,233903,1,0,0:0:0:0:
64,192,233944,1,0,0:0:0:0:
448,192,233985,1,0,0:0:0:0:
320,192,234026,1,0,0:0:0:0:
64,192,234067,1,0,0:0:0:0:
192,192,234067,1,0,0:0:0:0:
320,192,234109,1,0,0:0:0:0:
448,192,234150,1,0,0:0:0:0:
64,192,234191,1,0,0:0:0:0:
320,192,234232,1,0,0:0:0:0:
192,192,234232,1,0,0:0:0:0:
448,192,234273,1,0,0:0:0:0:
64,192,234315,1,0,0:0:0:0:
192,192,234356,1,0,0:0:0:0:
448,192,234397,1,0,0:0:0:0:
320,192,234397,1,0,0:0:0:0:
192,192,234438,1,0,0:0:0:0:
64,192,234480,1,0,0:0:0:0:
448,192,234521,5,0,0:0:0:0:
192,192,234562,1,0,0:0:0:0:
320,192,234562,1,0,0:0:0:0:
64,192,234603,1,0,0:0:0:0:
448,192,234644,1,0,0:0:0:0:
320,192,234686,1,0,0:0:0:0:
64,192,234727,1,0,0:0:0:0:
192,192,234727,1,0,0:0:0:0:
320,192,234768,1,0,0:0:0:0:
448,192,234809,1,0,0:0:0:0:
64,192,234850,1,0,0:0:0:0:
320,192,234892,1,0,0:0:0:0:
192,192,234892,1,0,0:0:0:0:
448,192,234933,1,0,0:0:0:0:
64,192,234974,1,0,0:0:0:0:
192,192,235015,1,0,0:0:0:0:
448,192,235056,1,0,0:0:0:0:
320,192,235056,1,0,0:0:0:0:
192,192,235098,1,0,0:0:0:0:
64,192,235139,1,0,0:0:0:0:
448,192,235180,1,0,0:0:0:0:
192,192,235221,1,0,0:0:0:0:
320,192,235221,1,0,0:0:0:0:
64,192,235262,1,0,0:0:0:0:
448,192,235304,1,0,0:0:0:0:
320,192,235345,1,0,0:0:0:0:
64,192,235386,1,0,0:0:0:0:
192,192,235386,1,0,0:0:0:0:
320,192,235427,1,0,0:0:0:0:
448,192,235469,1,0,0:0:0:0:
64,192,235510,1,0,0:0:0:0:
320,192,235551,1,0,0:0:0:0:
192,192,235551,1,0,0:0:0:0:
448,192,235592,1,0,0:0:0:0:
64,192,235633,1,0,0:0:0:0:
192,192,235675,1,0,0:0:0:0:
448,192,235716,1,0,0:0:0:0:
320,192,235757,1,0,0:0:0:0:
192,192,235798,1,0,0:0:0:0:
64,192,235839,1,0,0:0:0:0:
320,192,235881,1,0,0:0:0:0:
448,192,235881,1,0,0:0:0:0:
192,192,235922,1,0,0:0:0:0:
64,192,235963,1,0,0:0:0:0:
448,192,236004,1,0,0:0:0:0:
320,192,236045,1,0,0:0:0:0:
192,192,236045,1,0,0:0:0:0:
64,192,236087,1,0,0:0:0:0:
448,192,236128,1,0,0:0:0:0:
320,192,236169,1,0,0:0:0:0:
192,192,236210,1,0,0:0:0:0:
64,192,236210,1,0,0:0:0:0:
320,192,236293,1,0,0:0:0:0:
320,192,236375,1,0,0:0:0:0:
448,192,236375,1,0,0:0:0:0:
64,192,236375,1,0,0:0:0:0:
64,192,236705,1,0,0:0:0:0:
192,192,236705,1,0,0:0:0:0:
320,192,236746,1,0,0:0:0:0:
448,192,236787,1,0,0:0:0:0:
192,192,236787,1,0,0:0:0:0:
64,192,236828,1,0,0:0:0:0:
448,192,236870,1,0,0:0:0:0:
320,192,236870,1,0,0:0:0:0:
192,192,236911,1,0,0:0:0:0:
64,192,236952,1,0,0:0:0:0:
448,192,236952,1,0,0:0:0:0:
320,192,236993,1,0,0:0:0:0:
192,192,237034,1,0,0:0:0:0:
64,192,237034,1,0,0:0:0:0:
320,192,237076,1,0,0:0:0:0:
448,192,237117,1,0,0:0:0:0:
192,192,237117,1,0,0:0:0:0:
64,192,237158,1,0,0:0:0:0:
448,192,237199,1,0,0:0:0:0:
320,192,237199,1,0,0:0:0:0:
192,192,237241,1,0,0:0:0:0:
64,192,237282,1,0,0:0:0:0:
448,192,237282,1,0,0:0:0:0:
320,192,237323,1,0,0:0:0:0:
192,192,237364,1,0,0:0:0:0:
64,192,237364,1,0,0:0:0:0:
320,192,237405,1,0,0:0:0:0:
448,192,237447,1,0,0:0:0:0:
192,192,237447,1,0,0:0:0:0:
64,192,237488,1,0,0:0:0:0:
448,192,237529,1,0,0:0:0:0:
320,192,237529,1,0,0:0:0:0:
192,192,237570,1,0,0:0:0:0:
64,192,237611,1,0,0:0:0:0:
448,192,237611,1,0,0:0:0:0:
320,192,237653,1,0,0:0:0:0:
192,192,237694,1,0,0:0:0:0:
64,192,237694,1,0,0:0:0:0:
320,192,237735,1,0,0:0:0:0:
448,192,237776,1,0,0:0:0:0:
192,192,237776,1,0,0:0:0:0:
64,192,237817,1,0,0:0:0:0:
448,192,237859,1,0,0:0:0:0:
320,192,237859,1,0,0:0:0:0:
192,192,237900,1,0,0:0:0:0:
64,192,237941,1,0,0:0:0:0:
448,192,237941,1,0,0:0:0:0:
320,192,237982,1,0,0:0:0:0:
192,192,238023,1,0,0:0:0:0:
64,192,238023,1,0,0:0:0:0:
320,192,238065,1,0,0:0:0:0:
448,192,238106,1,0,0:0:0:0:
192,192,238106,1,0,0:0:0:0:
64,192,238147,1,0,0:0:0:0:
320,192,238188,1,0,0:0:0:0:
448,192,238188,1,0,0:0:0:0:
192,192,238230,1,0,0:0:0:0:
64,192,238271,1,0,0:0:0:0:
448,192,238271,1,0,0:0:0:0:
320,192,238312,1,0,0:0:0:0:
192,192,238353,1,0,0:0:0:0:
64,192,238353,1,0,0:0:0:0:
448,192,238353,1,0,0:0:0:0:
192,192,238518,1,0,0:0:0:0:
64,192,238518,1,0,0:0:0:0:
448,192,238683,1,0,0:0:0:0:
320,192,238683,1,0,0:0:0:0:
64,192,238683,1,0,0:0:0:0:
448,192,238848,1,0,0:0:0:0:
320,192,238848,1,0,0:0:0:0:
64,192,239012,1,0,0:0:0:0:
192,192,239012,1,0,0:0:0:0:
448,192,239012,1,0,0:0:0:0:
64,192,239177,1,0,0:0:0:0:
320,192,239177,1,0,0:0:0:0:
448,192,239177,1,0,0:0:0:0:
192,192,239342,1,0,0:0:0:0:
320,192,239342,1,0,0:0:0:0:
448,192,239342,1,0,0:0:0:0:
64,192,239425,1,0,0:0:0:0:
192,192,239425,1,0,0:0:0:0:
320,192,239507,1,0,0:0:0:0:
448,192,239507,1,0,0:0:0:0:
192,192,239589,1,0,0:0:0:0:
64,192,239589,1,0,0:0:0:0:
64,192,239672,1,0,0:0:0:0:
448,192,239672,1,0,0:0:0:0:
320,192,239672,1,0,0:0:0:0:
192,192,239754,1,0,0:0:0:0:
320,192,239837,1,0,0:0:0:0:
448,192,239837,1,0,0:0:0:0:
64,192,239837,1,0,0:0:0:0:
192,192,240001,1,0,0:0:0:0:
64,192,240001,1,0,0:0:0:0:
448,192,240001,1,0,0:0:0:0:
320,192,240166,1,0,0:0:0:0:
448,192,240166,1,0,0:0:0:0:
64,192,240331,1,0,0:0:0:0:
192,192,240331,1,0,0:0:0:0:
320,192,240372,1,0,0:0:0:0:
448,192,240414,1,0,0:0:0:0:
192,192,240414,1,0,0:0:0:0:
64,192,240455,1,0,0:0:0:0:
448,192,240496,1,0,0:0:0:0:
320,192,240496,1,0,0:0:0:0:
192,192,240537,1,0,0:0:0:0:
64,192,240578,1,0,0:0:0:0:
448,192,240578,1,0,0:0:0:0:
320,192,240620,1,0,0:0:0:0:
192,192,240661,1,0,0:0:0:0:
64,192,240661,1,0,0:0:0:0:
320,192,240702,1,0,0:0:0:0:
448,192,240743,1,0,0:0:0:0:
192,192,240743,1,0,0:0:0:0:
64,192,240784,1,0,0:0:0:0:
320,192,240826,1,0,0:0:0:0:
448,192,240826,1,0,0:0:0:0:
64,192,240867,1,0,0:0:0:0:
192,192,240908,1,0,0:0:0:0:
448,192,240908,1,0,0:0:0:0:
320,192,240949,1,0,0:0:0:0:
192,192,240991,1,0,0:0:0:0:
64,192,240991,1,0,0:0:0:0:
320,192,241073,1,0,0:0:0:0:
448,192,241155,1,0,0:0:0:0:
192,192,241155,1,0,0:0:0:0:
320,192,241238,1,0,0:0:0:0:
64,192,241320,1,0,0:0:0:0:
192,192,241320,1,0,0:0:0:0:
320,192,241403,1,0,0:0:0:0:
192,192,241485,1,0,0:0:0:0:
448,192,241485,1,0,0:0:0:0:
64,192,241567,1,0,0:0:0:0:
192,192,241650,1,0,0:0:0:0:
320,192,241650,1,0,0:0:0:0:
448,192,241732,1,0,0:0:0:0:
64,192,241732,1,0,0:0:0:0:
192,192,241815,1,0,0:0:0:0:
320,192,241815,1,0,0:0:0:0:
448,192,241897,1,0,0:0:0:0:
64,192,241897,1,0,0:0:0:0:
64,192,241980,1,0,0:0:0:0:
192,192,241980,1,0,0:0:0:0:
320,192,242021,1,0,0:0:0:0:
448,192,242062,1,0,0:0:0:0:
192,192,242062,1,0,0:0:0:0:
64,192,242103,1,0,0:0:0:0:
448,192,242144,1,0,0:0:0:0:
320,192,242144,1,0,0:0:0:0:
192,192,242186,1,0,0:0:0:0:
64,192,242227,1,0,0:0:0:0:
448,192,242227,1,0,0:0:0:0:
320,192,242268,1,0,0:0:0:0:
64,192,242309,128,0,243628:0:0:0:0:
192,192,242309,128,0,243628:0:0:0:0:
320,192,243628,1,0,0:0:0:0:
448,192,243628,1,0,0:0:0:0:
