osu file format v14

[General]
AudioFilename: audio.mp3
AudioLeadIn: 0
PreviewTime: 199780
Countdown: 0
SampleSet: Soft
StackLeniency: 0.2
Mode: 0
LetterboxInBreaks: 0
WidescreenStoryboard: 0

[Editor]
Bookmarks: 9834,37590,63712,89834,114608,136676,158745,180814,202883,224825,246768,268101,289199,310068,327659,344669,363869,383069,402269,421469,440669,458954,476731,494185,510595,534970
DistanceSpacing: 0.2
BeatDivisor: 4
GridSize: 32
TimelineZoom: 2

[Metadata]
Title:Songs Compilation 2
TitleUnicode:Songs Compilation 2
Artist:Camellia
ArtistUnicode:かめりあ
Creator:LowComboFC
Version:Infinity
Source:
Tags:kannabis kultivation planet shaper self-similarity azisai feelin sky tabata no uta nirvana binaryheaven bass weapon lazerflame senbonzakura kancollestep diffraction speedrun drumstep4 chrono diver fragment crossroads of chrono completeness under incompleteness ultimate ascension what the cat encryption reality distortion put' l'da ice path spider dance darkness overload ghost bangin burst blastix riotz dj genki long ver sound voltex iii gravity wars beatmania iidx 22 pendual meganto meteor remix insane inflame edp presents ravemania speed toby fox undertale lcfc [ drop ] winber1 revurii flezlin ameth rianno foxygrandpa neilperry underforest sing den0saur lama poluna evilelvis kaifin xlolicore-
BeatmapID:1279282
BeatmapSetID:605486

[Difficulty]
HPDrainRate:4.5
CircleSize:4
OverallDifficulty:9
ApproachRate:9.7
SliderMultiplier:1.9
SliderTickRate:1

[Events]
//Background and Video events
0,0,"BG.png",0,0
//Break Periods
2,90034,136181
2,158945,180319
2,202911,246273
2,310268,327164
2,383194,458459
2,476931,493690
2,510730,534475
//Storyboard Layer 0 (Background)
//Storyboard Layer 1 (Fail)
//Storyboard Layer 2 (Pass)
//Storyboard Layer 3 (Foreground)
//Storyboard Sound Samples

[TimingPoints]
39,408.163265306122,4,2,0,100,1,0
9834,-66.6666666666667,4,2,0,100,0,0
11467,-50,4,2,0,100,0,0
11875,-66.6666666666667,4,2,0,100,0,0
13508,-50,4,2,0,100,0,0
13916,-66.6666666666667,4,2,0,100,0,0
14732,-57.1428571428571,4,2,0,100,0,0
15447,-66.6666666666667,4,2,0,100,0,0
17998,-50,4,2,0,100,0,0
18406,-66.6666666666667,4,2,0,100,0,0
20038,-50,4,2,0,100,0,0
20447,-66.6666666666667,4,2,0,100,0,0
21263,-57.1428571428571,4,2,0,100,0,0
21977,-66.6666666666667,4,2,0,100,0,0
24222,-50,4,2,0,100,0,0
24936,-66.6666666666667,4,2,0,100,0,0
26569,-50,4,2,0,100,0,0
26977,-66.6666666666667,4,2,0,100,0,0
27794,-57.1428571428571,4,2,0,100,0,0
28508,-66.6666666666667,4,2,0,100,0,0
31059,-133.333333333333,4,2,0,100,0,0
31467,-50,4,2,0,100,0,0
31875,-66.6666666666667,4,2,0,100,0,0
33100,-50,4,2,0,100,0,0
33508,-66.6666666666667,4,2,0,100,0,0
34324,-57.1428571428571,4,2,0,100,0,0
35141,-50,4,2,0,100,0,0
35957,-66.6666666666667,4,2,0,100,0,0
37283,-50,4,2,0,100,0,0
37590,-66.6666666666667,4,2,0,100,0,0
39018,-55.5555555555556,4,2,0,100,0,0
39222,-66.6666666666667,4,2,0,100,0,0
43712,-58.8235294117647,4,2,0,100,0,0
44120,-66.6666666666667,4,2,0,100,0,0
45549,-55.5555555555556,4,2,0,100,0,0
45753,-66.6666666666667,4,2,0,100,0,0
48202,-125,4,2,0,100,0,0
48406,-100,4,2,0,100,0,0
48610,-83.3333333333333,4,2,0,100,0,0
48814,-71.4285714285714,4,2,0,100,0,0
49018,-62.5,4,2,0,100,0,0
49222,-66.6666666666667,4,2,0,100,0,0
50651,-62.5,4,2,0,100,0,0
51875,-52.6315789473684,4,2,0,100,0,0
52283,-62.5,4,2,0,100,0,0
62079,-58.8235294117647,4,2,0,100,0,0
63712,-133.333333333333,4,2,0,100,0,0
64120,-50,4,2,0,100,0,0
64426,-66.6666666666667,4,2,0,100,0,0
64834,-58.8235294117647,4,2,0,100,0,0
65141,-66.6666666666667,4,2,0,100,0,0
65651,-50,4,2,0,100,0,0
66569,-100,4,2,0,100,0,0
66773,-50,4,2,0,100,0,0
66977,-58.8235294117647,4,2,0,100,0,0
67998,-58.8235294117647,4,2,0,100,0,0
68508,-153.846153846154,4,2,0,100,0,0
69018,-50,4,2,0,100,0,0
69324,-66.6666666666667,4,2,0,100,0,0
70243,-133.333333333333,4,2,0,100,0,0
70651,-50,4,2,0,100,0,0
70957,-66.6666666666667,4,2,0,100,0,0
71365,-58.8235294117647,4,2,0,100,0,0
71671,-50,4,2,0,100,0,0
71875,-66.6666666666667,4,2,0,100,0,0
72283,-50,4,2,0,100,0,0
73100,-40,4,2,0,100,0,0
73508,-133.333333333333,4,2,0,100,0,0
73916,-50,4,2,0,100,0,0
74630,-58.8235294117647,4,2,0,100,0,0
75549,-50,4,2,0,100,0,0
76773,-100,4,2,0,100,0,0
77283,-66.6666666666667,4,2,0,100,0,0
77487,-100,4,2,0,100,0,0
78100,-100,4,2,0,100,0,0
78406,-66.6666666666667,4,2,0,100,0,0
79732,-40,4,2,0,100,0,0
80038,-100,4,2,0,100,0,0
80345,-50,4,2,0,100,0,0
80753,-66.6666666666667,4,2,0,100,0,0
82283,-40,4,2,0,100,0,0
83304,-133.333333333333,4,2,0,100,0,0
83712,-50,4,2,0,100,0,0
84018,-66.6666666666667,4,2,0,100,0,0
84426,-58.8235294117647,4,2,0,100,0,0
85447,-66.6666666666667,4,2,0,100,0,0
85651,-40,4,2,0,100,0,0
86161,-66.6666666666667,4,2,0,100,0,0
86365,-30,4,2,0,100,0,0
86569,-400,4,2,0,100,0,0
86977,-200,4,2,0,100,0,0
88202,-40,4,2,0,100,0,0
88406,-66.6666666666667,4,2,0,100,0,0
88610,-133.333333333333,4,2,0,100,0,0
88814,-40,4,2,0,100,0,0
89834,387.096774193548,4,2,0,100,1,0
114608,344.827586206897,4,2,0,100,1,0
136676,-33.3333333333333,4,2,0,100,0,0
137539,-133.333333333333,4,2,0,100,0,0
137711,-33.3333333333333,4,2,0,100,0,0
139780,-133.333333333333,4,2,0,100,0,0
140125,-50,4,2,0,100,0,0
140470,-33.3333333333333,4,2,0,100,0,0
141159,-100,4,2,0,100,0,0
141418,-33.3333333333333,4,2,0,100,0,0
141849,-100,4,2,0,100,0,0
142194,-33.3333333333333,4,2,0,100,0,0
142883,-50,4,2,0,100,0,0
143056,-33.3333333333333,4,2,0,100,0,0
144090,-100,4,2,0,100,0,0
144263,-33.3333333333333,4,2,0,100,0,0
144435,-200,4,2,0,100,0,0
144608,-33.3333333333333,4,2,0,100,0,0
145642,-200,4,2,0,100,0,0
147194,-50,4,2,0,100,0,0
147366,-40,4,2,0,100,0,0
147539,-33.3333333333333,4,2,0,100,0,0
147711,-50,4,2,0,100,0,0
148401,-33.3333333333333,4,2,0,100,0,0
151159,-100,4,2,0,100,0,0
151504,-33.3333333333333,4,2,0,100,0,0
153573,-50,4,2,0,100,0,0
153918,-100,4,2,0,100,0,0
154263,-50,4,2,0,100,0,0
155297,-58.8235294117647,4,2,0,100,0,0
155470,-71.4285714285714,4,2,0,100,0,0
155642,-90.9090909090909,4,2,0,100,0,0
155814,-125,4,2,0,100,0,0
155987,-200,4,2,0,100,0,0
156332,-66.6666666666667,4,2,0,100,0,0
156676,-52.6315789473684,4,2,0,100,0,0
157366,-33.3333333333333,4,2,0,100,0,0
158056,-133.333333333333,4,2,0,100,0,0
180814,-41.6666666666667,4,2,0,100,0,0
182021,-200,4,2,0,100,0,0
182194,-66.6666666666667,4,2,0,100,0,0
182366,-133.333333333333,4,2,0,100,0,0
182539,-200,4,2,0,100,0,0
182883,-41.6666666666667,4,2,0,100,0,0
183056,-33.3333333333333,4,2,0,100,0,0
183573,-55.5555555555556,4,2,0,100,0,0
184263,-41.6666666666667,4,2,0,100,0,0
184608,-133.333333333333,4,2,0,100,0,0
184952,-66.6666666666667,4,2,0,100,0,0
185125,-41.6666666666667,4,2,0,100,0,0
185383,-33.3333333333333,4,2,0,100,0,0
185642,-50,4,2,0,100,0,0
186332,-133.333333333333,4,2,0,100,0,0
187021,-41.6666666666667,4,2,0,100,0,0
187539,-200,4,2,0,100,0,0
187711,-66.6666666666667,4,2,0,100,0,0
188056,-200,4,2,0,100,0,0
188401,-41.6666666666667,4,2,0,100,0,0
188573,-33.3333333333333,4,2,0,100,0,0
188745,-200,4,2,0,100,0,0
189090,-41.6666666666667,4,2,0,100,0,0
191504,-33.3333333333333,4,2,0,100,0,0
191849,-41.6666666666667,4,2,0,100,0,0
193056,-200,4,2,0,100,0,0
193228,-66.6666666666667,4,2,0,100,0,0
193573,-200,4,2,0,100,0,0
193918,-41.6666666666667,4,2,0,100,0,0
194090,-33.3333333333333,4,2,0,100,0,0
194608,-125,4,2,0,100,0,0
195297,-41.6666666666667,4,2,0,100,0,0
195642,-100,4,2,0,100,0,0
195987,-66.6666666666667,4,2,0,100,0,0
196159,-41.6666666666667,4,2,0,100,0,0
196418,-33.3333333333333,4,2,0,100,0,0
196676,-50,4,2,0,100,0,0
197366,-200,4,2,0,100,0,0
197711,-50,4,2,0,100,0,0
198056,-200,4,2,0,100,0,0
198401,-50,4,2,0,100,0,0
198745,-200,4,2,0,100,0,0
199090,-50,4,2,0,100,0,0
200297,-133.333333333333,4,2,0,100,0,0
200470,-50,4,2,0,100,0,0
201159,-133.333333333333,4,2,0,100,0,0
202883,342.857142857143,4,2,0,100,1,0
246768,333.333333333333,4,2,0,100,1,0
246768,-100,4,2,0,100,0,0
247434,-200,4,2,0,100,0,0
247934,-151.515151515152,4,2,0,100,0,0
248434,-200,4,2,0,100,0,0
249434,-66.6666666666667,4,2,0,100,0,0
250434,-50,4,2,0,100,0,0
250768,-133.333333333333,4,2,0,100,0,0
251101,-66.6666666666667,4,2,0,100,0,0
251268,-66.6666666666667,4,2,0,100,0,0
252101,-50,4,2,0,100,0,0
252434,-25,4,2,0,100,0,0
253101,-50,4,2,0,100,0,0
253768,-66.6666666666667,4,2,0,100,0,0
254101,-40,4,2,0,100,0,0
255934,-66.6666666666667,4,2,0,100,0,0
256434,-50,4,2,0,100,0,0
256684,-100,4,2,0,100,0,0
256934,-50,4,2,0,100,0,0
257601,-100,4,2,0,100,0,0
258101,-200,4,2,0,100,0,0
258601,-151.515151515152,4,2,0,100,0,0
259101,-66.6666666666667,4,2,0,100,0,0
259934,-50,4,2,0,100,0,0
260101,-100,4,2,0,100,0,0
260768,-50,4,2,0,100,0,0
261018,-50,4,2,0,100,0,0
261434,-200,4,2,0,100,0,0
261767,-66.6666666666667,4,2,0,100,0,0
263101,-25,4,2,0,100,0,0
263268,-333.333333333333,4,2,0,100,0,0
263768,-100,4,2,0,100,0,0
264268,-33.3333333333333,4,2,0,100,0,0
264768,-40,4,2,0,100,0,0
266684,-100,4,2,0,100,0,0
267184,-50,4,2,0,100,0,0
268101,329.67032967033,4,2,0,100,1,0
268101,-200,4,2,0,100,0,0
268430,-50,4,2,0,100,0,0
268595,-57.1428571428571,4,2,0,100,0,0
269090,-50,4,2,0,100,0,0
269254,-57.1428571428571,4,2,0,100,0,0
269419,-66.6666666666667,4,2,0,100,0,0
269914,-50,4,2,0,100,0,0
270079,-133.333333333333,4,2,0,100,0,0
270243,-66.6666666666667,4,2,0,100,0,0
270408,-200,4,2,0,100,0,0
270738,-66.6666666666667,4,2,0,100,0,0
271562,-100,4,2,0,100,0,0
271727,-200,4,2,0,100,0,0
272057,-66.6666666666667,4,2,0,100,0,0
273046,-50,4,2,0,100,0,0
273375,-200,4,2,0,100,0,0
273705,-50,4,2,0,100,0,0
273870,-57.1428571428571,4,2,0,100,0,0
274364,-50,4,2,0,100,0,0
274529,-57.1428571428571,4,2,0,100,0,0
274694,-66.6666666666667,4,2,0,100,0,0
275188,-50,4,2,0,100,0,0
275353,-133.333333333333,4,2,0,100,0,0
275518,-66.6666666666667,4,2,0,100,0,0
275683,-50,4,2,0,100,0,0
276013,-57.1428571428571,4,2,0,100,0,0
277331,-100,4,2,0,100,0,0
278485,-50,4,2,0,100,0,0
278650,-133.333333333333,4,2,0,100,0,0
278980,-50,4,2,0,100,0,0
279144,-57.1428571428571,4,2,0,100,0,0
279639,-50,4,2,0,100,0,0
279804,-57.1428571428571,4,2,0,100,0,0
279969,-66.6666666666667,4,2,0,100,0,0
280463,-50,4,2,0,100,0,0
280628,-133.333333333333,4,2,0,100,0,0
280793,-66.6666666666667,4,2,0,100,0,0
280958,-200,4,2,0,100,0,0
281287,-66.6666666666667,4,2,0,100,0,0
282111,-100,4,2,0,100,0,0
282276,-200,4,2,0,100,0,0
282441,-50,4,2,0,100,0,0
282936,-66.6666666666667,4,2,0,100,0,0
283265,-100,4,2,0,100,0,0
283513,-50,4,2,0,100,0,0
283925,-200,4,2,0,100,0,0
284254,-333.333333333333,4,2,0,100,0,0
284584,-1000,4,2,0,100,0,0
284914,-50,4,2,0,100,0,0
285738,-33.3333333333333,4,2,0,100,0,0
285903,-66.6666666666667,4,2,0,100,0,0
286068,-40,4,2,0,100,0,0
286232,-50,4,2,0,100,0,0
286892,-100,4,2,0,100,0,0
287221,-50,4,2,0,100,0,0
287551,-33.3333333333333,4,2,0,100,0,0
287881,-1000,4,2,0,100,0,0
288870,-100,4,2,0,100,0,0
288952,-66.6666666666667,4,2,0,100,0,0
289035,-50,4,2,0,100,0,0
289117,-40,4,2,0,100,0,0
289199,326.086956521739,4,2,0,100,1,0
289199,-66.6666666666667,4,2,0,100,0,0
289362,-50,4,2,0,100,0,0
289851,-62.5,4,2,0,100,0,0
292459,-1000,4,2,0,100,0,0
292622,-54.054054054054,4,2,0,100,0,0
293112,-100,4,2,0,100,0,0
293438,-133.333333333333,4,2,0,100,0,0
293601,-80,4,2,0,100,0,0
293764,-62.5,4,2,0,100,0,0
296699,-68.9655172413793,4,2,0,100,0,0
297351,-58.8235294117647,4,2,0,100,0,0
297840,-66.6666666666667,4,2,0,100,0,0
298003,-55.5555555555556,4,2,0,100,0,0
298981,-66.6666666666667,4,2,0,100,0,0
299226,-55.5555555555556,4,2,0,100,0,0
299470,-90.9090909090909,4,2,0,100,0,0
299633,-500,4,2,0,100,0,0
299959,-62.5,4,2,0,100,0,0
303872,-66.6666666666667,4,2,0,100,0,0
304199,-62.5,4,2,0,100,0,0
305503,-55.5555555555556,4,2,0,100,0,0
305829,-62.5,4,2,0,100,0,0
308764,-55.5555555555556,4,2,0,100,0,0
308927,-66.6666666666667,4,2,0,100,0,0
309579,-55.5555555555556,4,2,0,100,0,0
310068,314.13612565445,4,2,0,100,1,0
327659,309.278350515464,4,2,0,100,1,0
327659,-66.6666666666667,4,2,0,100,0,0
344669,300,4,2,0,100,1,0
344669,-76.9230769230769,4,2,0,100,0,0
354269,-200,4,2,0,100,0,0
354569,-66.6666666666667,4,2,0,100,0,0
356519,-200,4,2,0,50,0,0
356669,-76.9230769230769,4,2,0,100,0,0
363869,-66.6666666666667,4,2,0,100,0,0
364169,-133.333333333333,4,2,0,100,0,0
364769,-66.6666666666667,4,2,0,100,0,0
365069,-333.333333333333,4,2,0,100,0,0
367469,-100,4,2,0,100,0,0
367769,-66.6666666666667,4,2,0,100,0,0
368069,-40,4,2,0,100,0,0
368369,-1000,4,2,0,100,0,0
368669,-66.6666666666667,4,2,0,100,0,0
369269,-133.333333333333,4,2,0,100,0,0
369569,-66.6666666666667,4,2,0,100,0,0
369869,-333.333333333333,4,2,0,100,0,0
371369,-40,4,2,0,100,0,0
371669,-66.6666666666667,4,2,0,100,0,0
372269,-40,4,2,0,100,0,0
373019,-50,4,2,0,100,0,0
373169,-100,4,2,0,100,0,0
373269,-333.333333333333,4,2,0,100,0,0
373469,-66.6666666666667,4,2,0,100,0,0
374069,-133.333333333333,4,2,0,100,0,0
374369,-66.6666666666667,4,2,0,100,0,0
374669,-333.333333333333,4,2,0,100,0,0
376169,-25,4,2,0,100,0,0
376469,-333.333333333333,4,2,0,100,0,0
376769,-100,4,2,0,100,0,0
377369,-66.6666666666667,4,2,0,100,0,0
377669,-40,4,2,0,100,0,0
377969,-33.3333333333333,4,2,0,100,0,0
378269,-50,4,2,0,100,0,0
378869,-133.333333333333,4,2,0,100,0,0
379169,-50,4,2,0,100,0,0
379469,-333.333333333333,4,2,0,100,0,0
379769,-133.333333333333,4,2,0,100,0,0
380069,-50,4,2,0,100,0,0
380669,-333.333333333333,4,2,0,100,0,0
380969,-133.333333333333,4,2,0,100,0,0
381269,-33.3333333333333,4,2,0,100,0,0
381494,-40,4,2,0,100,0,0
381719,-50,4,2,0,100,0,0
381869,-1000,4,2,0,100,0,0
382169,-100,4,2,0,100,0,0
440669,285.714285714286,4,2,0,100,1,0
458954,277.777777777778,4,2,0,100,1,0
458954,-66.6666666666667,4,2,0,100,0,0
459231,-80,4,2,0,100,0,0
459648,-66.6666666666667,4,2,0,100,0,0
460065,-80,4,2,0,100,0,0
461176,-66.6666666666667,4,2,0,100,0,0
461454,-100,4,2,0,100,0,0
461731,-66.6666666666667,4,2,0,100,0,0
463676,-80,4,2,0,100,0,0
464092,-66.6666666666667,4,2,0,100,0,0
464509,-80,4,2,0,100,0,0
465620,-57.1428571428571,4,2,0,100,0,0
465898,-100,4,2,0,100,0,0
466176,-66.6666666666667,4,2,0,100,0,0
466454,-57.1428571428571,4,2,0,100,0,0
466731,-100,4,2,0,100,0,0
467565,-66.6666666666667,4,2,0,100,0,0
468120,-80,4,2,0,100,0,0
468537,-66.6666666666667,4,2,0,100,0,0
468954,-80,4,2,0,100,0,0
470065,-66.6666666666667,4,2,0,100,0,0
470342,-100,4,2,0,100,0,0
470620,-66.6666666666667,4,2,0,100,0,0
472287,-100,4,2,0,100,0,0
476731,272.727272727273,4,2,0,100,1,0
494185,256.410256410256,4,2,0,100,1,0
499313,-133.333333333333,4,2,0,100,0,0
500338,-100,4,2,0,100,0,0
501620,-80,4,2,0,100,0,0
501877,-66.6666666666667,4,2,0,100,0,0
502133,-100,4,2,0,100,0,0
503415,-133.333333333333,4,2,0,100,0,0
504441,-100,4,2,0,100,0,0
505723,-133.333333333333,4,2,0,100,0,0
506236,-80,4,2,0,100,0,0
506492,-100,4,2,0,100,0,0
507518,-80,4,2,0,100,0,0
508031,-66.6666666666667,4,2,0,100,0,0
508543,-100,4,2,0,100,0,0
510338,-80,4,2,0,100,0,0
510595,234.375,4,2,0,100,1,0

[Colours]
Combo1 : 122,194,218
Combo2 : 231,180,109
Combo3 : 216,124,124
Combo4 : 124,216,152

[HitObjects]
256,192,4936,12,0,9630,0:0:0:0:
83,171,9834,6,0,B|50:143|50:143|67:241,1,142.500005435944
240,143,10141,2,0,B|261:105|261:105|278:204,1,142.500005435944
178,251,10447,2,0,L|164:172,1,71.2500027179719
141,40,10651,5,0,0:0:0:0:
126,35,10753,1,0,0:0:0:0:
220,26,10855,1,0,0:0:0:0:
314,17,10957,1,0,0:0:0:0:
348,32,11059,2,0,P|353:67|341:100,1,71.2500027179719
462,272,11263,2,0,P|466:237|454:204,1,71.2500027179719
165,180,11467,6,0,B|58:164|58:164|14:277|14:277|67:263,1,285
67,263,11875,6,0,L|54:341,1,71.2500027179719
266,333,12079,1,0,0:0:0:0:
322,281,12181,2,0,B|272:285|272:285|244:309|244:309|188:315,1,142.500005435944
165,180,12487,2,0,L|177:109,1,71.2500027179719
348,32,12692,5,0,0:0:0:0:
408,92,12794,1,0,0:0:0:0:
326,114,12896,1,0,0:0:0:0:
359,78,12998,5,0,0:0:0:0:
359,78,13100,1,0,0:0:0:0:
258,265,13304,2,0,P|253:299|265:332,1,71.2500027179719
497,221,13508,6,0,B|421:211|421:211|407:200|407:200|391:208|391:208|313:199,1,190
230,188,13814,1,0,0:0:0:0:
212,106,13916,6,0,L|223:35,1,71.2500027179719
496,68,14120,2,0,L|484:138,1,71.2500027179719
395,361,14324,2,0,B|381:328|381:328|395:295,1,71.2500027179719
481,334,14528,1,0,0:0:0:0:
481,334,14630,1,0,0:0:0:0:
302,376,14732,6,0,B|179:360|179:360|220:353,1,166.250001585484
295,116,15141,2,0,B|418:100|418:100|376:93,1,166.250001585484
489,171,15447,6,0,L|348:190,1,142.500005435944
201,145,15753,2,0,B|187:112|187:112|201:79,1,71.2500027179719
305,268,15957,2,0,L|234:258,1,71.2500027179719
25,130,16161,2,0,L|95:120,1,71.2500027179719
163,305,16365,6,0,P|95:315|55:260,1,142.500005435944
182,3,16773,2,0,L|201:146,1,142.500005435944
230,347,17181,1,0,0:0:0:0:
163,305,17283,2,0,L|306:324,1,142.500005435944
475,207,17590,2,0,P|407:197|367:252,1,142.500005435944
25,130,17998,6,0,B|83:144|115:101|115:101|163:190|270:169,1,285
270,169,18406,6,0,P|304:164|337:176,1,71.2500027179719
163,305,18610,1,0,0:0:0:0:
102,260,18712,2,0,B|151:264|151:264|180:288|180:288|235:294,1,142.500005435944
78,369,19018,2,0,L|-2:377,1,71.2500027179719
85,70,19222,5,0,0:0:0:0:
25,130,19324,1,0,0:0:0:0:
107,152,19426,1,0,0:0:0:0:
74,116,19528,5,0,0:0:0:0:
74,116,19630,1,0,0:0:0:0:
235,294,19834,2,0,P|269:298|302:286,1,71.2500027179719
454,163,20038,6,0,B|425:105|425:105|408:229,1,190
390,322,20345,1,0,0:0:0:0:
490,343,20447,6,0,L|499:272,1,71.2500027179719
313,170,20651,2,0,L|322:99,1,71.2500027179719
456,13,20855,2,0,B|423:-1|423:-1|390:12,1,71.2500027179719
426,104,21059,1,0,0:0:0:0:
426,104,21161,1,0,0:0:0:0:
212,133,21263,6,0,B|119:161|142:81|56:105,1,166.250001585484
300,251,21671,2,0,B|392:222|369:302|455:278,1,166.250001585484
278,330,21977,6,0,P|225:287|224:218,1,142.500005435944
374,220,22283,2,0,P|382:254|371:287,1,71.2500027179719
177,355,22487,2,0,L|106:343,1,71.2500027179719
94,152,22692,2,0,L|164:163,1,71.2500027179719
23,311,22896,5,0,0:0:0:0:
23,311,22998,1,0,0:0:0:0:
8,218,23202,5,0,0:0:0:0:
8,218,23304,1,0,0:0:0:0:
179,70,23508,5,0,0:0:0:0:
179,70,23610,1,0,0:0:0:0:
164,163,23814,5,0,0:0:0:0:
164,163,23916,2,0,L|15:139,1,142.500005435944
25,143,24222,6,0,B|105:89|105:89|164:163,1,190
309,339,24528,6,0,B|288:382|288:382|186:346|186:346|234:226,1,285
234,226,24936,6,0,L|308:218,1,71.2500027179719
476,206,25141,1,0,0:0:0:0:
461,129,25243,2,0,B|455:185|455:185|431:213|431:213|427:263,1,142.500005435944
341,131,25549,2,0,L|332:57,1,71.2500027179719
142,255,25753,5,0,0:0:0:0:
82,195,25855,1,0,0:0:0:0:
164,173,25957,1,0,0:0:0:0:
131,209,26059,5,0,0:0:0:0:
131,209,26161,1,0,0:0:0:0:
14,384,26365,2,0,L|22:310,1,71.2500027179719
52,25,26569,6,0,B|31:53|31:53|59:174|59:174|81:194,1,190
194,82,26875,1,0,0:0:0:0:
111,65,26977,6,0,L|126:134,1,71.2500027179719
87,313,27181,2,0,B|54:327|54:327|21:313,1,71.2500027179719
248,189,27385,1,0,0:0:0:0:
248,189,27487,1,0,0:0:0:0:
295,261,27590,2,0,L|279:330,1,71.2500027179719
46,188,27794,6,0,B|32:135|32:135|44:98|44:98|27:27,1,166.250001585484
266,28,28202,2,0,B|252:81|252:81|264:118|264:118|247:188,1,166.250001585484
148,233,28508,6,0,L|148:77,1,142.500005435944
266,28,28814,2,0,P|301:23|334:35,1,71.2500027179719
425,216,29018,2,0,L|353:204,1,71.2500027179719
148,90,29222,2,0,L|77:101,1,71.2500027179719
353,337,29426,6,0,P|421:347|461:292,1,142.500005435944
334,35,29834,2,0,L|315:178,1,142.500005435944
286,379,30242,1,0,0:0:0:0:
353,337,30344,2,0,L|210:356,1,142.500005435944
41,239,30651,2,0,P|109:229|149:284,1,142.500005435944
407,153,31059,6,0,B|354:141|354:141|314:175,1,106.875004076958
257,244,31467,6,0,B|277:80|277:80|212:110|212:110|235:152,1,285
235,152,31875,2,0,L|159:141,1,71.2500027179719
157,143,32028,1,0,0:0:0:0:
150,144,32079,1,0,0:0:0:0:
68,107,32181,1,0,0:0:0:0:
96,250,32284,5,0,0:0:0:0:
36,310,32386,1,0,0:0:0:0:
118,332,32488,1,0,0:0:0:0:
85,296,32590,5,0,0:0:0:0:
85,296,32692,1,0,0:0:0:0:
284,344,32896,2,0,P|319:349|353:337,1,71.2500027179719
490,197,33100,6,0,B|450:221|450:221|308:200,1,190
234,131,33406,1,0,0:0:0:0:
276,39,33508,6,0,B|309:25|309:25|342:38,1,71.2500027179719
490,197,33712,2,0,L|478:267,1,71.2500027179719
284,344,33916,2,0,L|272:274,1,71.2500027179719
382,293,34120,1,0,0:0:0:0:
382,293,34222,1,0,0:0:0:0:
179,358,34324,6,0,B|50:368|50:368|16:382,1,166.250001585484
308,200,34732,2,0,B|179:190|179:190|145:175,1,166.250001585484
64,125,35038,1,0,0:0:0:0:
110,70,35141,6,0,P|129:157|50:196,1,190
247,325,35447,2,0,P|228:238|308:200,1,190
90,366,35753,2,0,L|137:268,1,95
225,113,35957,5,0,0:0:0:0:
222,98,36059,1,0,0:0:0:0:
220,83,36161,1,0,0:0:0:0:
218,68,36263,2,0,L|181:60,1,35.625001358986
262,12,36365,6,0,L|412:-2,1,142.500005435944
458,170,36773,6,0,L|492:162,1,35.625001358986
456,184,36875,1,0,0:0:0:0:
454,199,36977,1,0,0:0:0:0:
417,260,37079,6,0,L|346:251,1,71.2500027179719
211,180,37283,6,0,B|135:200|135:200|168:355,1,237.5
254,378,37590,6,0,B|317:369|317:369|347:379|347:379|420:368,1,142.500005435944
412,376,37998,5,0,0:0:0:0:
463,214,38100,2,0,B|393:193|393:193|332:228,1,142.500005435944
404,288,38406,5,0,0:0:0:0:
374,8,38610,5,0,0:0:0:0:
384,104,38712,1,0,0:0:0:0:
374,8,38814,2,0,L|452:20,1,71.2500027179719
260,115,39018,6,0,L|211:107,1,42.7499986953736
156,48,39120,2,0,L|107:56,1,42.7499986953736
41,108,39222,6,0,B|47:162|47:162|44:178|44:178|53:190|53:190|63:249,1,142.500005435944
264,200,39630,2,0,B|257:254|257:254|261:270|261:270|251:282|251:282|242:341,1,142.500005435944
168,248,40038,5,0,0:0:0:0:
388,352,40141,2,0,B|421:326|421:326|294:337,1,142.500005435944
156,164,40447,5,0,0:0:0:0:
233,170,40549,1,0,0:0:0:0:
311,177,40651,1,0,0:0:0:0:
389,183,40753,1,0,0:0:0:0:
467,190,40855,1,0,0:0:0:0:
480,200,41059,6,0,L|471:162,1,35.625001358986
478,152,41161,2,0,L|469:114,1,35.625001358986
476,104,41263,2,0,L|456:9,1,71.2500027179719
356,152,41569,5,0,0:0:0:0:
488,72,41671,2,0,L|468:-23,1,71.2500027179719
336,168,41875,2,0,B|366:173|366:173|382:169|382:169|424:176,1,71.2500027179719
224,40,42079,6,0,L|136:56,1,71.2500027179719
133,48,42385,1,0,0:0:0:0:
208,208,42487,6,0,B|220:175|220:175|197:130,1,71.2500027179719
16,24,42692,2,0,L|32:112,1,71.2500027179719
220,204,42896,6,0,B|187:192|187:192|142:215,1,71.2500027179719
8,352,43100,2,0,L|96:336,1,71.2500027179719
284,360,43304,5,0,0:0:0:0:
291,351,43508,6,0,L|283:308,1,35.625001358986
470,292,43610,2,0,L|464:328,1,35.625001358986
376,380,43712,6,0,B|386:294|386:294|367:221|367:221|384:120,1,242.250004620552
411,67,44120,6,0,P|400:121|328:92,1,142.500005435944
332,80,44528,5,0,0:0:0:0:
500,128,44630,2,0,P|494:186|492:276,1,142.500005435944
504,356,44936,5,0,0:0:0:0:
296,240,45141,5,0,0:0:0:0:
408,224,45243,1,0,0:0:0:0:
296,240,45345,2,0,L|196:232,1,71.2500027179719
136,352,45549,6,0,L|86:348,1,42.7499986953736
32,280,45651,2,0,L|82:276,1,42.7499986953736
124,196,45753,6,0,B|142:127|142:127|80:56,1,142.500005435944
260,196,46161,2,0,B|278:265|278:265|216:336,1,142.500005435944
180,244,46569,5,0,0:0:0:0:
320,332,46671,2,0,L|468:320,1,142.500005435944
352,120,46977,5,0,0:0:0:0:
356,206,47079,1,0,0:0:0:0:
439,228,47181,1,0,0:0:0:0:
485,156,47283,1,0,0:0:0:0:
431,90,47385,1,0,0:0:0:0:
419,83,47590,6,0,L|360:88,1,35.625001358986
376,80,47692,2,0,L|317:85,1,35.625001358986
328,76,47794,1,0,0:0:0:0:
164,120,48100,5,0,0:0:0:0:
256,172,48202,2,0,L|265:105,1,38
52,128,48406,6,0,L|45:80,1,47.5
124,316,48610,6,0,L|132:256,1,56.9999982604981
180,20,48814,6,0,L|188:85,1,66.4999979705811
316,276,49018,6,0,B|282:284|282:284|230:260,1,76
344,157,49222,6,0,B|444:140|444:140|408:184,1,142.500005435944
408,316,49528,6,0,B|508:333|508:333|472:289,1,142.500005435944
420,64,49834,6,0,B|520:47|520:47|484:91,1,142.500005435944
328,192,50141,6,0,L|252:184,1,71.2500027179719
20,120,50345,5,0,0:0:0:0:
43,117,50447,1,0,0:0:0:0:
67,115,50549,1,0,0:0:0:0:
160,224,50651,6,0,P|172:303|111:354,1,152
24,284,51059,5,0,0:0:0:0:
99,275,51161,1,0,0:0:0:0:
175,267,51263,1,0,0:0:0:0:
250,259,51365,1,0,0:0:0:0:
416,338,51467,6,0,B|310:321|310:321|340:354,1,152
340,354,51773,1,0,0:0:0:0:
472,244,51875,6,0,L|462:151,1,90.2499975900651
332,40,52079,6,0,L|327:84,1,45.1249987950325
248,116,52181,2,0,L|244:72,1,45.1249987950325
164,33,52283,6,0,B|122:28|122:28|84:47,1,76
296,180,52487,2,0,L|386:170,1,76
136,116,52692,6,0,B|131:158|131:158|150:196,1,76
336,84,52896,2,0,L|326:-6,1,76
216,140,53100,5,0,0:0:0:0:
412,224,53202,2,0,L|422:134,1,76
216,140,53406,1,0,0:0:0:0:
56,312,53508,5,0,0:0:0:0:
47,236,53610,1,0,0:0:0:0:
39,160,53712,1,0,0:0:0:0:
30,85,53814,1,0,0:0:0:0:
160,300,54018,6,0,L|153:346,1,38
236,264,54120,6,0,L|230:226,1,38
336,328,54222,6,0,L|330:365,1,38
400,232,54324,6,0,L|388:156,1,76
512,284,54528,2,0,L|500:359,1,76
240,228,54732,6,0,B|284:232|284:232|328:209,1,76
504,72,54936,5,0,0:0:0:0:
428,65,55038,1,0,0:0:0:0:
352,58,55141,2,0,B|240:48|240:48|288:96,1,152
324,140,55447,5,0,0:0:0:0:
428,65,55549,6,0,B|436:28|436:28|416:-12,1,76
468,216,55753,2,0,B|476:253|476:253|456:293,1,76
184,176,55957,2,0,B|216:171|216:171|233:174|233:174|272:168,1,76
508,148,56161,5,0,0:0:0:0:
432,141,56263,1,0,0:0:0:0:
357,134,56365,1,0,0:0:0:0:
88,336,56569,5,0,0:0:0:0:
164,329,56671,1,0,0:0:0:0:
239,322,56773,6,0,B|295:316|295:316|260:300,1,76
88,336,56977,2,0,B|32:342|32:342|67:358,1,76
164,329,57181,5,0,0:0:0:0:
166,253,57283,1,0,0:0:0:0:
169,177,57385,1,0,0:0:0:0:
166,158,57487,1,0,0:0:0:0:
164,139,57589,1,0,0:0:0:0:
264,44,57692,5,0,0:0:0:0:
261,62,57794,1,0,0:0:0:0:
259,81,57896,1,0,0:0:0:0:
336,208,57998,5,0,0:0:0:0:
334,189,58100,1,0,0:0:0:0:
331,171,58202,1,0,0:0:0:0:
408,28,58304,5,0,0:0:0:0:
405,46,58406,1,0,0:0:0:0:
403,65,58508,1,0,0:0:0:0:
484,152,58610,5,0,0:0:0:0:
481,134,58712,1,0,0:0:0:0:
264,280,58814,5,0,0:0:0:0:
339,286,58916,1,0,0:0:0:0:
415,292,59018,1,0,0:0:0:0:
433,296,59120,1,0,0:0:0:0:
451,301,59222,1,0,0:0:0:0:
312,204,59324,5,0,0:0:0:0:
330,199,59426,1,0,0:0:0:0:
349,195,59528,1,0,0:0:0:0:
248,336,59630,5,0,0:0:0:0:
267,340,59732,1,0,0:0:0:0:
285,345,59834,1,0,0:0:0:0:
128,200,59936,5,0,0:0:0:0:
146,195,60038,1,0,0:0:0:0:
165,191,60140,1,0,0:0:0:0:
60,264,60243,5,0,0:0:0:0:
78,269,60345,1,0,0:0:0:0:
172,352,60447,6,0,B|136:367|136:367|69:350,1,76
252,256,60651,5,0,0:0:0:0:
280,260,60753,1,0,0:0:0:0:
152,340,60855,6,0,B|116:355|116:355|49:338,1,76
280,260,61059,5,0,0:0:0:0:
308,264,61161,1,0,0:0:0:0:
132,328,61263,6,0,B|96:343|96:343|29:326,1,76
308,264,61467,5,0,0:0:0:0:
336,268,61569,1,0,0:0:0:0:
512,124,61671,5,0,0:0:0:0:
436,129,61773,1,0,0:0:0:0:
360,135,61875,1,0,0:0:0:0:
284,140,61977,1,0,0:0:0:0:
160,200,62079,6,0,B|140:121|140:121|204:54,1,161.500003080368
380,116,62385,2,0,B|400:195|400:195|336:262,1,161.500003080368
260,148,62692,6,0,P|280:136|260:154,1,80.750001540184
176,300,62896,6,0,B|120:296|120:296|88:308|88:308|8:300,1,161.500003080368
264,352,63202,2,0,B|334:344|334:344|366:356|366:356|422:352,1,161.500003080368
200,212,63508,6,0,B|162:203|162:203|102:223,1,80.750001540184
56,164,63712,6,0,P|47:123|89:147,1,106.875004076958
166,37,64120,6,0,P|172:85|178:137,1,95
177,131,64324,1,0,0:0:0:0:
296,112,64426,2,0,P|297:77|300:36,1,71.2500027179719
166,37,64630,5,0,0:0:0:0:
296,112,64732,1,0,0:0:0:0:
432,80,64834,2,0,P|476:144|456:220,1,161.500003080368
320,232,65141,6,0,L|332:176,1,35.625001358986
292,224,65243,2,0,L|304:168,1,35.625001358986
268,216,65345,6,0,P|312:160|392:168,1,142.500005435944
454,220,65651,1,0,0:0:0:0:
372,340,65753,2,0,P|361:295|352:248,1,95
68,248,66059,6,0,P|79:293|88:340,1,95
224,276,66263,1,0,0:0:0:0:
224,276,66365,1,0,0:0:0:0:
224,276,66467,1,0,0:0:0:0:
156,168,66569,6,0,L|172:112,1,47.5
194,30,66773,2,0,L|150:185,1,142.5
132,192,66977,6,0,P|184:156|290:162,1,161.500003080368
458,291,67283,5,0,0:0:0:0:
364,304,67385,2,0,P|331:269|322:218,1,80.750001540184
321,238,67590,1,0,0:0:0:0:
415,147,67692,2,0,L|403:243,1,80.750001540184
308,100,67896,5,0,0:0:0:0:
348,8,67998,1,0,0:0:0:0:
360,32,68100,2,0,P|294:89|216:80,1,161.500003080368
144,40,68406,5,0,0:0:0:0:
192,208,68508,1,0,0:0:0:0:
64,320,68610,6,0,P|69:277|74:227,1,92.6249957599642
80,136,69018,6,0,L|184:124,1,95
174,125,69222,1,0,0:0:0:0:
248,256,69324,2,0,P|251:222|256:180,1,71.2500027179719
301,29,69528,1,0,0:0:0:0:
301,29,69630,2,0,P|304:66|309:109,1,71.2500027179719
84,56,69834,6,0,L|80:16,2,35.625001358986
301,29,70039,1,0,0:0:0:0:
174,125,70141,1,0,0:0:0:0:
384,100,70243,6,0,P|399:147|368:128,1,106.875004076958
464,200,70651,6,0,P|458:254|452:296,1,95
452,294,70855,1,0,0:0:0:0:
308,256,70957,2,0,P|302:219|298:184,1,71.2500027179719
368,324,71161,5,0,0:0:0:0:
224,368,71263,1,0,0:0:0:0:
168,216,71365,2,0,P|76:228|40:284,1,161.500003080368
224,368,71671,6,0,P|224:327|227:263,1,95
112,128,71875,2,0,B|76:104|76:104|92:224,1,142.500005435944
104,336,72181,5,0,0:0:0:0:
92,360,72283,2,0,P|133:336|153:287,1,95
444,276,72590,6,0,P|435:234|428:180,1,95
272,216,72794,1,0,0:0:0:0:
296,108,72896,2,0,P|305:66|312:12,1,95
471,97,73100,6,0,B|429:78|429:78|294:107|294:107|259:136|259:136|175:121|175:121|157:76,1,356.25
328,192,73508,6,0,P|381:180|436:170,1,106.875004076958
236,28,73916,2,0,P|258:73|232:136,1,95
176,200,74120,2,0,L|184:256,4,47.5
104,128,74426,5,0,0:0:0:0:
108,320,74528,1,0,0:0:0:0:
272,216,74630,2,0,B|232:204|232:204|112:236,1,161.500003080368
320,304,74936,6,0,L|316:348|316:348,1,40.375000770092
352,296,75038,2,0,L|348:340,1,40.375000770092
384,288,75141,6,0,P|432:232|396:144,1,161.500003080368
352,212,75447,1,0,0:0:0:0:
324,60,75549,2,0,B|364:86|364:86|424:72,1,95
140,152,75855,6,0,B|100:178|100:178|40:164,1,95
84,88,76059,1,0,0:0:0:0:
212,220,76161,5,0,0:0:0:0:
212,220,76263,1,0,0:0:0:0:
20,264,76365,2,0,L|66:274,2,47.5
164,332,76569,2,0,L|116:340,2,47.5
256,292,76773,6,0,P|329:304|366:363,1,142.5
465,190,77181,1,0,0:0:0:0:
449,219,77283,2,0,P|415:235|376:230,1,71.2500027179719
352,212,77487,1,0,0:0:0:0:
352,212,77692,5,0,0:0:0:0:
372,100,77794,1,0,0:0:0:0:
268,48,77896,1,0,0:0:0:0:
268,48,78100,6,0,L|276:120,2,47.5
200,232,78406,2,0,P|190:162|180:80,1,142.500005435944
181,90,78712,1,0,0:0:0:0:
92,56,78814,2,0,P|97:91|103:131,1,71.2500027179719
292,236,79120,6,0,P|287:201|281:161,1,71.2500027179719
112,216,79426,1,0,0:0:0:0:
84,344,79528,1,0,0:0:0:0:
212,304,79630,2,0,L|204:252,2,35.625001358986
84,344,79834,6,0,P|181:353|280:364,1,178.125
261,361,80038,6,0,P|305:350|368:336,1,95
436,316,80345,5,0,0:0:0:0:
384,160,80447,2,0,P|381:209|376:260,1,95
268,240,80651,1,0,0:0:0:0:
264,212,80753,2,0,P|260:176|256:136,1,71.2500027179719
168,68,80957,6,0,P|167:106|164:144,2,71.2500027179719
72,320,81365,1,0,0:0:0:0:
40,240,81467,1,0,0:0:0:0:
120,212,81569,1,0,0:0:0:0:
152,292,81671,6,0,P|226:300|316:304,1,142.500005435944
392,328,81977,1,0,0:0:0:0:
412,308,82079,1,0,0:0:0:0:
365,86,82283,6,0,B|353:43|353:43|439:90|439:90|433:150|360:167,1,237.5
306,263,82590,6,0,P|187:241|129:147,1,237.5
271,56,82896,6,0,B|306:185|306:185|225:195|212:144|212:144|180:33,1,356.25
365,86,83304,6,0,L|396:192,1,106.875004076958
484,236,83712,6,0,P|479:285|476:332,1,95
360,268,83916,1,0,0:0:0:0:
448,360,84018,2,0,P|452:326|456:288,1,71.2500027179719
472,152,84222,5,0,0:0:0:0:
280,192,84324,1,0,0:0:0:0:
360,268,84426,2,0,P|368:188|376:104,1,161.500003080368
288,60,84732,6,0,L|280:16,1,40.375000770092
256,68,84834,2,0,L|248:24,1,40.375000770092
204,140,84936,6,0,P|132:130|36:120,1,161.500003080368
111,49,85243,2,0,L|162:55,2,40.375000770092
144,220,85447,2,0,P|182:225|224:232,1,71.2500027179719
43,120,85651,2,0,P|116:129|172:135,1,118.75
368,40,85855,5,0,0:0:0:0:
441,206,85957,2,0,B|400:131|400:131|344:145|292:103,1,178.125
296,208,86161,6,0,B|329:219|350:252|350:252|346:222|335:203,1,106.875004076958
188,70,86365,6,0,B|238:108|215:174|215:174|194:234|244:285,1,237.5
264,296,86569,6,0,P|230:293|220:292,1,35.625
296,208,86977,2,0,L|322:205,1,23.75
204,172,87283,6,0,P|193:148|177:131,1,47.5
280,88,87590,2,0,L|278:126,1,23.75
360,144,87896,6,0,P|363:121|366:94,1,47.5
467,196,88202,6,0,B|429:179|429:179|275:212,1,178.125
240,276,88406,2,0,P|188:270|128:264,1,106.875004076958
133,264,88610,6,0,P|137:293|141:332,1,53.4375020384789
48,88,88814,6,0,L|56:28,2,59.375
152,128,89018,6,0,P|157:158|164:192,1,59.375
184,136,89120,2,0,P|189:166|196:200,1,59.375
260,56,89222,5,0,0:0:0:0:
360,224,89324,2,0,P|326:179|329:111,1,118.75
438,27,89528,5,0,0:0:0:0:
472,241,89630,2,0,P|420:247|352:217,1,118.75
348,42,89834,5,0,0:0:0:0:
66,101,136676,6,0,B|105:161|105:161|216:142,1,142.500005435944
283,197,136849,2,0,B|244:137|244:137|133:156,1,142.500005435944
66,101,137021,6,0,B|-25:274|-25:274|258:221,1,427.500016307831
190,10,137366,6,0,B|179:70|179:70|186:79|186:79|171:165,1,142.500005435944
34,15,137539,6,0,L|-26:0,1,35.625001358986
424,16,137711,6,0,B|239:-3|189:236|364:282|431:164|358:114,1,427.500016307831
481,166,138056,6,0,P|422:111|336:192,1,142.500005435944
438,384,138228,2,0,P|435:303|317:299,1,142.500005435944
219,379,138401,6,0,L|392:343,1,142.500005435944
367,123,138573,2,0,L|194:87,1,142.500005435944
133,32,138745,5,0,0:0:0:0:
132,20,138832,1,0,0:0:0:0:
135,15,138918,2,0,P|178:82|135:152,1,142.500005435944
89,384,139090,6,0,B|-29:335|-21:176|74:132|74:132|78:203|146:217,1,427.500016307831
89,384,139435,6,0,P|258:298|151:135,1,427.500016307831
118,300,139780,6,0,L|183:290,1,35.625001358986
354,358,139952,2,0,L|344:293,1,35.625001358986
40,228,140125,2,0,L|175:208,1,95
443,384,140297,2,0,L|423:249,1,95
197,28,140470,2,0,B|136:69|136:69|158:142,1,142.500005435944
134,215,140642,2,0,B|192:206|192:206|192:211|192:211|192:206|192:206|308:190,1,142.500005435944
496,163,140814,5,0,0:0:0:0:
211,22,140987,1,0,0:0:0:0:
225,371,141159,2,0,L|246:274,1,95
387,281,141418,6,0,B|309:309|261:246|261:246|213:182|134:214,1,285.000010871888
49,179,141676,2,0,P|40:237|117:298,1,142.500005435944
99,382,141849,6,0,L|163:364,1,47.5
339,211,142021,2,0,L|316:147,1,47.5
463,0,142194,6,0,B|177:40|177:40|132:229,1,427.500016307831
0,321,142539,2,0,B|127:340|127:340|148:328|148:328|280:348,1,285.000010871888
436,374,142797,1,0,0:0:0:0:
352,384,142883,2,0,L|372:260,1,95
95,68,143056,6,0,B|80:131|80:131|158:184,1,142.500005435944
279,347,143228,2,0,B|170:378|170:378|226:225|226:225|442:165,1,427.500016307831
371,184,143573,1,0,0:0:0:0:
361,82,143745,6,0,L|181:129,1,142.500005435944
352,384,143918,6,0,L|489:347,1,142.500005435944
413,277,144090,6,0,L|338:297,1,47.5
180,215,144263,6,0,P|242:349|300:324,1,213.750008153916
268,243,144435,6,0,L|239:265,1,35.625
102,384,144608,6,0,B|94:275|-2:200|-2:200|115:188|195:98,1,427.500016307831
334,80,144952,6,0,B|258:64|250:-12|250:-12|169:56|195:197|290:237,1,427.500016307831
399,133,145297,6,0,P|418:66|359:3,1,142.500005435944
109,136,145470,6,0,P|157:185|241:166,1,142.500005435944
326,214,145642,6,0,L|315:182,1,23.75
258,10,145814,5,0,0:0:0:0:
261,16,145901,1,0,0:0:0:0:
264,22,145987,1,0,0:0:0:0:
267,28,146073,1,0,0:0:0:0:
334,80,146159,5,0,0:0:0:0:
254,68,146245,1,0,0:0:0:0:
175,57,146331,1,0,0:0:0:0:
95,46,146417,1,0,0:0:0:0:
16,35,146504,5,0,0:0:0:0:
19,41,146590,1,0,0:0:0:0:
22,47,146676,1,0,0:0:0:0:
25,53,146762,1,0,0:0:0:0:
77,124,146849,5,0,0:0:0:0:
71,127,146935,1,0,0:0:0:0:
65,130,147021,1,0,0:0:0:0:
59,133,147107,1,0,0:0:0:0:
11,198,147194,6,0,P|62:190|107:239,1,95
176,221,147366,6,0,P|193:290|168:327,1,118.75
249,361,147539,6,0,L|77:385,1,142.500005435944
13,364,147711,6,0,L|42:262,1,95
136,45,147883,1,0,0:0:0:0:
136,45,148056,2,0,B|120:97|156:129|156:129|190:162|176:220,1,190
297,2,148314,1,0,0:0:0:0:
306,11,148401,6,0,P|292:63|204:59,1,142.500005435944
3,155,148573,2,0,P|69:150|95:212,1,142.500005435944
208,359,148745,2,0,L|172:203,1,142.500005435944
136,45,148918,1,0,0:0:0:0:
3,155,149090,6,0,P|28:216|95:212,1,142.500005435944
310,90,149263,2,0,P|303:156|238:172,1,142.500005435944
3,155,149435,2,0,B|121:128|165:240|165:240|217:355|353:316,1,427.500016307831
511,239,149780,6,0,L|329:209,1,142.500005435944
310,90,149952,2,0,L|450:113,1,142.500005435944
238,172,150125,2,0,B|193:115|193:115|215:37,1,142.500005435944
461,0,150297,2,0,B|506:57|506:57|484:135,1,142.500005435944
408,160,150470,5,0,0:0:0:0:
395,167,150556,5,0,0:0:0:0:
366,199,150642,5,0,0:0:0:0:
357,275,150728,5,0,0:0:0:0:
405,353,150814,6,0,L|248:381,1,142.500005435944
143,270,150987,5,0,0:0:0:0:
141,282,151073,1,0,0:0:0:0:
157,191,151159,2,0,L|167:126,2,47.5
68,332,151504,6,0,B|121:381|121:381|213:346,1,142.500005435944
235,102,151676,2,0,B|182:53|182:53|90:88,1,142.500005435944
23,145,151849,5,0,0:0:0:0:
28,142,151935,2,0,P|102:152|162:197,1,142.500005435944
320,310,152108,1,0,0:0:0:0:
315,307,152194,2,0,P|241:317|181:362,1,142.500005435944
23,261,152366,5,0,0:0:0:0:
17,266,152452,2,0,P|195:235|252:145,1,285.000010871888
132,0,152711,2,0,P|157:42|166:142,1,142.500005435944
431,103,152883,2,0,P|403:143|316:193,1,142.500005435944
70,384,153056,1,0,0:0:0:0:
70,384,153228,5,0,0:0:0:0:
54,379,153314,5,0,0:0:0:0:
21,340,153401,5,0,0:0:0:0:
20,265,153487,5,0,0:0:0:0:
91,209,153573,6,0,L|208:226,1,95
305,384,153745,1,0,0:0:0:0:
305,384,153832,1,0,0:0:0:0:
305,384,153918,2,0,L|292:338,1,47.5
248,157,154090,1,0,0:0:0:0:
195,311,154263,2,0,B|272:257|272:257|371:275,1,190
405,138,154608,6,0,L|298:206,1,95
248,142,154780,2,0,L|242:15,1,95
333,84,154952,1,0,0:0:0:0:
188,305,155125,6,0,L|124:403,1,95
133,235,155297,2,0,P|95:249|52:245,1,80.750001540184
277,323,155470,2,0,P|284:365|311:398,1,66.4999979705811
85,167,155642,2,0,L|71:94,1,52.2500015945435
363,331,155814,2,0,L|418:323,1,38
71,329,155987,6,0,L|-14:341,1,71.25
152,350,156332,6,0,B|163:314|163:314|119:250,1,71.2500027179719
19,154,156504,2,0,B|8:190|8:190|52:254,1,71.2500027179719
104,125,156676,6,0,L|124:35,1,90.2499975900651
61,297,156849,2,0,L|40:384,1,90.2499975900651
120,209,157021,6,0,B|162:204|162:204|173:206|173:206|235:198,1,90.2499975900651
291,203,157194,2,0,B|327:199|327:199|337:194|337:194|379:190,1,90.2499975900651
443,33,157366,6,0,B|409:16|409:16|361:59|404:120,1,142.500005435944
501,244,157539,2,0,B|532:223|532:223|519:159|445:166,1,142.500005435944
290,189,157711,2,0,B|292:226|292:226|353:247|384:179,1,142.500005435944
307,113,157883,6,0,L|96:75,1,142.500005435944
420,262,158056,6,0,L|438:312,1,35.625001358986,0|0,3:0|3:0,3:0:0:0:
488,93,158228,2,0,L|522:52,1,35.625001358986,0|0,3:0|3:0,3:0:0:0:
414,154,158401,5,0,0:0:0:0:
414,154,158487,1,0,0:0:0:0:
196,356,158659,1,0,0:0:0:0:
196,356,158745,1,0,0:0:0:0:
137,102,180814,6,0,B|176:69|156:-10|92:-8|3:43|0:147|148:287|193:278|193:278|181:210|213:167|213:167|298:184|321:280|255:323|255:323|274:294|267:244,1,797.999975646973
390,141,181504,6,0,B|427:130|428:96|428:96|398:104|384:140,1,113.999996520996
371,277,181676,1,0,0:0:0:0:
370,304,181763,1,0,0:0:0:0:
380,292,181849,1,0,0:0:0:0:
392,294,181935,1,0,0:0:0:0:
469,303,182021,2,0,L|501:305,1,23.75
287,288,182194,6,0,L|194:282,1,71.2500027179719
168,361,182366,1,0,0:0:0:0:
169,371,182452,1,0,0:0:0:0:
247,370,182539,2,0,L|285:372,1,23.75
221,204,182711,5,0,0:0:0:0:
220,194,182797,1,0,0:0:0:0:
241,106,182883,2,0,B|206:91|183:125|183:125|214:108|262:121,1,113.999996520996
347,215,183056,2,0,L|391:34,1,142.500005435944
58,137,183228,2,0,L|516:168,1,427.500016307831
437,347,183573,6,0,B|386:368|339:350|339:350|273:373|217:325|181:256|257:187|351:177|329:314|375:296|426:272|426:272|370:219|287:304,1,598.49998173523
149,350,184263,6,0,L|34:342,1,113.999996520996
44,170,184435,1,0,0:0:0:0:
45,179,184521,1,0,0:0:0:0:
46,188,184608,2,0,L|51:274,1,71.2500027179719
149,350,184866,1,0,0:0:0:0:
141,264,184952,6,0,L|129:134,1,106.875004076958
151,68,185125,6,0,B|180:22|180:22|18:72|18:72|80:90,1,284.999991302491,0|0,0:0|0:0,2:0:0:0:
131,157,185383,6,0,B|289:84|277:260|428:189,1,285.000010871888
438,342,185642,6,0,B|503:328|515:246|460:206|398:201|398:201|338:300|226:247|226:247|274:139|366:130|366:130|329:150|315:198,1,665
399,56,186332,6,0,B|426:16|426:16|275:26|275:26|317:66,1,249.375009512902
357,129,187021,6,0,B|363:189|363:189|341:122,1,113.999996520996
155,66,187194,1,0,0:0:0:0:
156,39,187281,1,0,0:0:0:0:
146,51,187367,1,0,0:0:0:0:
134,49,187453,1,0,0:0:0:0:
57,40,187539,2,0,L|25:38,1,23.75
239,55,187712,6,0,L|332:61,1,71.2500027179719
461,101,187883,1,0,0:0:0:0:
460,91,187969,1,0,0:0:0:0:
412,20,188056,2,0,L|375:18,1,23.75
414,189,188228,5,0,0:0:0:0:
411,198,188314,1,0,0:0:0:0:
323,157,188401,2,0,B|297:191|297:191|321:279,1,113.999996520996
403,331,188573,2,0,L|417:150,1,142.500005435944
239,55,188745,6,0,P|229:61|239:66,1,23.75
142,112,188918,6,0,P|140:124|150:120,1,23.75
139,227,189090,6,0,B|139:261|171:273|171:273|171:241|137:227,2,113.999996520996
393,0,189435,6,0,P|451:34|454:100,1,113.999996520996
403,331,189608,2,0,P|351:311|332:258,1,113.999996520996
236,156,189780,2,0,L|519:176,1,227.999993041992
463,172,190125,5,0,0:0:0:0:
473,259,190297,1,0,0:0:0:0:
471,269,190383,1,0,0:0:0:0:
470,279,190470,1,0,0:0:0:0:
403,331,190642,5,0,0:0:0:0:
378,230,190814,1,0,0:0:0:0:
463,172,190987,1,0,0:0:0:0:
463,162,191073,1,0,0:0:0:0:
465,152,191159,2,0,B|481:10|481:10|476:61|418:103,1,227.999993041992
334,74,191418,6,0,B|332:103|332:103|347:64,1,56.9999982604981
396,11,191504,2,0,L|235:67,1,142.500005435944
65,137,191676,2,0,P|169:169|237:255,1,213.750008153916
236,249,191849,6,0,B|211:283|171:313|171:313|135:173|141:96|220:68|241:124|185:199|83:291|83:291|37:212|60:143|84:88,1,683.999979125977
149,35,192452,5,0,0:0:0:0:
64,40,192539,2,0,B|11:49|5:88|5:88|26:65|64:55,1,113.999996520996
349,110,192711,1,0,0:0:0:0:
322,109,192798,1,0,0:0:0:0:
334,119,192884,1,0,0:0:0:0:
332,131,192970,1,0,0:0:0:0:
327,210,193056,2,0,L|325:242,1,23.75
432,84,193228,6,0,L|436:-22,1,71.2500027179719
407,266,193401,1,0,0:0:0:0:
417,265,193487,1,0,0:0:0:0:
488,314,193573,2,0,L|486:346,1,23.75
336,342,193745,5,0,0:0:0:0:
346,341,193831,1,0,0:0:0:0:
262,350,193918,2,0,B|241:318|278:295|278:295|257:321|264:352,1,113.999996520996
182,362,194090,2,0,P|55:375|49:370,1,142.500005435944
0,224,194263,2,0,B|69:147|227:132|298:219|298:219|233:218|204:263,1,427.500016307831
124,292,194608,6,0,B|101:216|137:170|137:170|172:122|152:41,1,228
87,35,195211,5,0,0:0:0:0:
112,112,195297,2,0,P|158:165|197:166,1,113.999996520996
360,87,195470,1,0,0:0:0:0:
359,79,195556,1,0,0:0:0:0:
354,74,195642,2,0,P|304:85|279:138,1,95
216,377,195901,1,0,0:0:0:0:
270,318,195987,6,0,P|284:235|262:190,1,106.875004076958
197,165,196159,6,0,B|142:191|142:191|378:219,1,284.999991302491
481,261,196418,6,0,B|535:228|525:183|525:183|487:133|395:147|395:147|434:162|444:208,1,285.000010871888
404,276,196676,6,0,B|371:263|339:283|339:283|364:216|434:187|497:130|509:63|395:-65|319:55|335:169|474:179|508:212|518:249|475:309|475:309|489:277|472:228,1,665
301,73,197366,6,0,L|215:87,1,83.125
205,100,197711,2,0,L|427:66,1,213.750008153916
304,203,198056,6,0,L|218:186,1,83.125
204,195,198401,2,0,L|424:238,1,213.750008153916
239,315,198745,6,0,L|164:270,1,83.125
147,273,199090,2,0,L|338:389,1,213.750008153916
17,96,199435,5,0,0:0:0:0:
379,139,199608,1,0,0:0:0:0:
294,109,199694,1,0,0:0:0:0:
233,175,199780,5,0,0:0:0:0:
235,184,199866,1,0,0:0:0:0:
237,193,199952,1,0,0:0:0:0:
240,202,200038,1,0,0:0:0:0:
242,211,200124,1,0,0:0:0:0:
409,293,200297,6,0,L|402:376,1,71.2500027179719
473,207,200642,1,0,0:0:0:0:
482,187,200728,1,0,0:0:0:0:
461,188,200814,2,0,L|352:221,1,95
294,305,200987,5,0,0:0:0:0:
285,325,201073,1,0,0:0:0:0:
306,324,201159,2,0,L|416:290,1,106.875004076958
492,306,201504,6,0,L|484:348,1,35.625001358986
416,289,201676,1,0,0:0:0:0:
405,294,201763,1,0,0:0:0:0:
499,309,201849,6,0,L|487:387,1,71.2500027179719
35,298,202194,6,0,L|43:340,1,35.625001358986
111,281,202366,1,0,0:0:0:0:
122,286,202453,1,0,0:0:0:0:
28,301,202539,6,0,L|40:379,1,71.2500027179719
148,56,246768,5,0,0:0:0:0:
52,164,246934,2,0,P|123:157|200:148,1,142.5
272,40,247268,5,0,0:0:0:0:
336,88,247351,1,0,0:0:0:0:
316,112,247434,2,0,P|310:163|300:240,1,118.75
488,188,247934,2,0,P|481:137|476:91,1,94.0499997129822
471,67,248268,5,0,0:0:0:0:
372,272,248434,2,0,B|430:260|430:260|499:296,1,118.75
316,112,248934,5,0,0:0:0:0:
372,272,249101,2,0,L|380:232,1,23.75
400,168,249267,1,0,0:0:0:0:
364,303,249434,6,0,B|317:308|279:266|291:205|291:205|261:257|198:261|166:234|166:234|190:213|229:226,1,356.25001358986
240,340,249934,1,0,0:0:0:0:
240,340,250018,1,0,0:0:0:0:
240,340,250101,2,0,P|173:338|107:305,1,142.500005435944
124,168,250351,1,0,0:0:0:0:
114,94,250434,6,0,B|130:46|184:25|239:45|261:92|244:137|244:137|205:140|178:118,1,285
40,160,250768,6,0,L|32:208,1,35.625001358986
114,94,250934,2,0,L|106:46,1,35.625001358986
184,224,251101,6,0,L|191:267,2,35.625001358986
40,160,251268,2,0,P|31:118|24:84,1,71.2500027179719
152,324,251434,2,0,P|119:321|72:316,1,71.2500027179719
212,132,251601,2,0,P|245:129|292:124,1,71.2500027179719
336,312,251768,5,0,0:0:0:0:
232,252,251934,2,0,L|226:215,2,35.625001358986
320,216,252101,6,0,B|355:212|380:228|380:228|360:192,1,95
116,228,252268,2,0,L|124:168,3,47.5
116,228,252434,6,0,B|36:202|47:122|47:122|97:116|138:68|138:68|130:125,1,285
48,28,252601,1,0,0:0:0:0:
48,28,253101,6,0,L|40:84,10,47.5
192,144,253601,6,0,P|238:136|286:126,1,95
28,216,253768,2,0,L|36:261,1,35.625001358986
140,48,253934,2,0,L|136:96,1,35.625001358986
100,304,254101,6,0,B|129:251|129:251|111:169|111:169|66:138|66:138|55:92,1,237.5
297,126,254351,6,0,B|248:213|248:213|211:224|211:224|221:268|221:268|185:329,1,237.5
452,268,254602,2,0,B|434:235|434:235|350:200,1,118.75
192,144,254768,5,0,0:0:0:0:
368,296,254934,1,0,0:0:0:0:
396,73,255101,5,0,0:0:0:0:
356,57,255184,1,0,0:0:0:0:
296,126,255267,1,0,0:0:0:0:
210,99,255351,1,0,0:0:0:0:
192,144,255434,6,0,B|205:226|269:263|344:256|371:206|371:206|305:161|260:186|242:218|242:218|220:280|164:296|112:280|112:280|125:266|156:248,1,593.75
277,326,255934,2,0,B|313:334|341:324|341:324|264:366,1,142.500005435944
108,148,256184,2,0,B|72:156|44:146|44:146|121:188,1,142.500005435944
364,208,256434,5,0,0:0:0:0:
272,88,256517,2,0,P|294:136|282:186,1,95
204,220,256684,1,0,0:0:0:0:
182,190,256767,6,0,L|194:134,1,47.5
144,72,256934,5,0,0:0:0:0:
36,268,257018,2,0,P|82:275|133:245,1,95
56,56,257184,1,0,0:0:0:0:
48,96,257268,2,0,B|61:118|61:118|68:200,1,95
84,352,257434,5,0,0:0:0:0:
204,220,257601,2,0,P|273:226|352:232,1,142.5
440,180,257934,5,0,0:0:0:0:
456,288,258018,1,0,0:0:0:0:
428,320,258101,2,0,P|377:316|295:310,1,118.75
346,186,258601,2,0,P|397:183|450:178,1,94.0499997129822
473,178,258934,5,0,0:0:0:0:
276,64,259101,2,0,B|236:39|236:39|256:137,1,142.500005435944
252,296,259351,2,0,B|292:321|292:321|272:223,1,142.500005435944
168,156,259601,5,0,0:0:0:0:
372,200,259768,1,0,0:0:0:0:
429,113,259851,1,0,0:0:0:0:
365,166,259934,2,0,L|381:270,1,95
379,259,260101,6,0,L|436:280,2,47.5
212,228,260434,1,0,0:0:0:0:
156,44,260601,5,0,0:0:0:0:
184,136,260684,1,0,0:0:0:0:
88,112,260768,2,0,B|61:85|63:40|63:40|40:180,1,190
156,320,261018,6,0,B|123:283|107:211|107:211|39:250|39:250|21:336,1,285
40,356,261350,1,0,0:0:0:0:
156,320,261434,6,0,L|197:326,1,23.75
108,216,261601,2,0,L|67:222,1,23.75
271,109,261767,6,0,P|275:145|259:186,1,71.2500027179719
108,216,261934,2,0,P|104:180|120:139,1,71.2500027179719
328,264,262101,2,0,L|334:300|340:336,1,71.2500027179719
432,136,262268,5,0,0:0:0:0:
204,196,262434,1,0,0:0:0:0:
204,196,262768,6,0,L|208:144,6,35.625001358986
204,196,263101,6,0,B|248:139|248:139|265:53|192:33|192:33|197:79|245:95,1,285
336,104,263268,2,0,L|339:73,2,28.4999991302491
336,104,263768,6,0,P|273:110|180:120,1,142.5
163,123,264101,1,0,0:0:0:0:
60,48,264268,6,0,P|33:101|55:189,1,142.500005435944
64,196,264434,1,0,0:0:0:0:
148,216,264601,1,0,0:0:0:0:
395,254,264768,6,0,B|335:230|335:230|260:255|260:255|235:304|235:304|189:319,1,237.5
23,340,265018,6,0,B|50:275|50:275|176:237|176:237|132:203,1,237.5
211,56,265267,6,0,B|200:152|200:152|224:173,1,118.75
328,316,265434,1,0,0:0:0:0:
392,144,265601,1,0,0:0:0:0:
211,56,265768,5,0,0:0:0:0:
232,100,265851,1,0,0:0:0:0:
187,174,265934,1,0,0:0:0:0:
111,130,266018,1,0,0:0:0:0:
110,82,266101,6,0,B|61:165|114:232|226:257|294:185|283:89|212:56|212:56|212:120|175:195|112:216,1,593.75
24,208,266601,5,0,0:0:0:0:
16,176,266684,2,0,L|4:124,1,47.5
64,292,266851,5,0,0:0:0:0:
56,324,266934,2,0,L|44:376,1,47.5
152,280,267101,5,0,0:0:0:0:
304,356,267184,2,0,P|256:359|209:336,1,95
187,174,267351,5,0,0:0:0:0:
195,128,267434,2,0,P|204:80|211:28,1,95
412,76,267601,1,0,0:0:0:0:
404,122,267684,6,0,P|395:170|388:222,1,95
295,122,267934,1,0,0:0:0:0:
237,257,268101,6,0,L|314:267,1,71.25
369,336,268430,6,0,P|347:287|408:210,1,142.5
389,216,268595,2,0,P|420:241|490:239,1,83.1250007927418
296,190,268760,2,0,P|257:204|224:266,1,83.1250007927418
365,122,268925,2,0,P|371:81|334:22,1,83.1250007927418
203,103,269090,6,0,P|181:152|242:229,1,142.5
223,222,269254,2,0,P|254:196|324:198,1,83.1250007927418
228,344,269419,6,0,B|156:324|156:324|178:330|178:330|104:311|104:311|136:319|136:319|62:299|62:299|123:362,1,356.25001358986
113,352,269914,6,0,L|131:246,1,95
144,150,270079,2,0,L|138:200,1,35.625001358986
200,234,270243,2,0,L|269:247,1,71.2500027179719
69,211,270408,6,0,B|43:206|43:206|27:208|27:208|-10:197,1,71.25
144,150,270738,6,0,L|140:54,1,71.2500027179719
28,16,270903,2,0,P|46:59|60:124,1,106.875004076958
59,117,271068,6,0,L|-21:103,1,71.2500027179719
141,78,271232,2,0,P|193:66|242:46,1,106.875004076958
242,46,271397,6,0,L|233:141,1,71.2500027179719
337,106,271562,2,0,L|331:49,1,47.5
423,55,271727,2,0,L|429:93,1,35.625
428,90,271892,2,0,L|460:82,1,23.75
512,186,272057,6,0,P|479:177|415:167,2,71.2500027179719
337,106,272304,2,0,P|305:120|250:153,2,71.2500027179719
151,157,272551,2,0,P|136:187|115:249,1,71.2500027179719,0|0,3:0|3:0,3:0:0:0:
314,350,272716,6,0,L|303:232,1,106.875004076958
304,243,272881,2,0,P|345:254|397:261,1,71.2500027179719
432,314,273046,6,0,P|405:331|384:336,1,47.5
453,304,273128,2,0,P|433:329|415:341,1,47.5
469,287,273210,2,0,P|459:317|446:334,1,47.5
478,265,273293,2,0,P|479:296|473:317,1,47.5
512,186,273375,6,0,L|500:107,1,71.25
505,19,273705,6,0,B|420:41|457:-6|355:21,1,142.5
365,18,273870,2,0,B|385:51|385:51|370:120,1,83.1250007927418
211,184,274035,2,0,B|229:150|229:150|296:129,1,83.1250007927418
432,235,274199,2,0,B|393:235|393:235|341:188,1,83.1250007927418
272,136,274364,6,0,B|184:123|240:180|123:154,1,142.5
136,156,274529,2,0,B|155:123|155:123|140:54,1,83.1250007927418
49,23,274694,6,0,B|-3:8|-3:8|13:74|13:74|7:46|7:46|21:104|21:104|15:82|15:82|30:149|30:149|75:104,1,356.25001358986
172,53,275188,6,0,B|154:21|154:21|141:106,1,95
130,191,275353,2,0,L|139:131,1,35.625001358986
272,136,275518,2,0,P|237:130|180:128,1,71.2500027179719
59,227,275683,6,0,B|124:222|124:222|134:227|134:227|211:219,1,142.5
197,230,275848,2,0,B|131:236|131:236|121:231|121:231|56:236,1,142.5
56,338,276013,6,0,B|102:339|130:310|130:310|196:364|196:364|232:338|306:343,1,249.375002378225
362,301,276342,5,0,0:0:0:0:
368,324,276425,1,0,0:0:0:0:
377,301,276507,1,0,0:0:0:0:
379,312,276590,1,0,0:0:0:0:
463,277,276672,5,0,0:0:0:0:
460,293,276754,1,0,0:0:0:0:
474,283,276837,1,0,0:0:0:0:
472,290,276919,1,0,0:0:0:0:
438,370,277002,5,0,0:0:0:0:
423,288,277084,1,0,0:0:0:0:
409,206,277166,1,0,0:0:0:0:
395,123,277249,1,0,0:0:0:0:
442,47,277331,6,0,B|387:89|387:89|301:48,1,142.5
375,0,277661,1,0,0:0:0:0:
445,178,277826,2,0,B|409:206|409:206|355:187,1,95
423,288,278155,1,0,0:0:0:0:
375,0,278320,6,0,L|385:79,1,47.5
423,288,278485,2,0,L|403:174,1,95
272,136,278650,6,0,P|210:152|152:148,1,106.875004076958
94,95,278980,6,0,B|136:130|136:130|112:234,1,142.5
116,215,279144,2,0,P|88:217|36:239,1,83.1250007927418
198,226,279309,2,0,P|213:249|258:283,1,83.1250007927418
167,150,279474,2,0,P|179:124|186:68,1,83.1250007927418
350,51,279639,6,0,B|308:86|308:86|332:190,1,142.5
328,172,279804,2,0,P|356:173|408:195,1,83.1250007927418
486,318,279969,6,0,B|446:316|418:289|418:289|388:337|388:337|399:321|399:321|371:364|371:364|340:341|340:341|350:348|350:348|322:328|322:328|296:359|252:363,1,356.25001358986
97,307,280463,6,0,L|215:331,1,95
251,247,280628,2,0,L|255:282,1,35.625001358986
21,332,280793,2,0,B|12:296|12:296|29:265,1,71.2500027179719
167,150,280958,6,0,L|173:231,1,71.25
172,221,281287,6,0,L|90:209,1,71.2500027179719
0,119,281452,2,0,P|53:111|110:89,1,106.875004076958
102,92,281617,6,0,L|89:9,1,71.2500027179719
252,161,281782,2,0,P|260:108|282:51,1,106.875004076958
278,58,281947,6,0,L|356:81,1,71.2500027179719
188,70,282111,2,0,L|185:14,1,47.5
287,156,282276,2,0,L|244:162,1,35.625
251,160,282441,2,0,L|256:193,6,23.75
266,276,282606,5,0,0:0:0:0:
266,271,282688,1,0,0:0:0:0:
266,266,282771,1,0,0:0:0:0:
266,261,282853,1,0,0:0:0:0:
334,225,282936,6,0,L|413:242,2,71.2500027179719
482,260,283183,1,0,0:0:0:0:
482,260,283265,6,0,L|476:188,1,47.5
351,350,283430,1,0,0:0:0:0:
351,350,283513,6,0,B|336:305|336:305|368:248,1,95
189,210,283677,1,0,0:0:0:0:
251,160,283760,2,0,B|274:201|274:201|259:246,1,95
262,361,283925,6,0,L|217:351,2,31.6666666666667
177,282,284254,2,0,L|182:312,2,18.999999420166
134,377,284584,6,0,L|118:379,1,14.25
0,284,284914,6,0,P|35:282|70:298,5,63.3333333333333
176,281,285243,2,0,P|208:284|238:274,8,63.3333333333333
119,219,285738,6,0,L|100:389,1,142.500005435944
103,360,285903,2,0,L|90:274,1,71.2500027179719
219,84,286068,2,0,B|211:127|211:127|218:152|218:152|203:204,1,118.75
26,103,286232,6,0,B|-7:53|-7:53|158:38|158:38|121:111,1,285
205,200,286562,2,0,B|90:157|90:157|124:231,1,190
237,274,286809,1,0,0:0:0:0:
237,274,286892,6,0,L|173:285,1,47.5
80,334,287057,2,0,P|63:303|62:265,1,47.5
217,185,287221,6,0,L|334:208,1,95
447,299,287386,2,0,P|473:256|477:209,1,95
319,75,287551,6,0,L|149:102,1,142.500005435944
26,103,287716,2,0,B|31:96|39:74|39:74|78:124|50:180,1,142.500005435944
131,324,287881,6,0,L|80:334,1,52.25
138,199,288870,6,0,L|133:235,1,23.75
220,210,288952,6,0,L|214:254,1,35.625001358986
302,220,289035,6,0,L|293:284,1,47.5
386,229,289117,6,0,L|373:316,1,59.375
468,239,289199,6,0,B|456:331,1,71.2500027179719
446,328,289362,2,0,B|460:218,1,95
265,61,289525,5,0,0:0:0:0:
240,64,289606,1,0,0:0:0:0:
216,68,289688,1,0,0:0:0:0:
193,69,289769,1,0,0:0:0:0:
110,42,289851,6,0,B|95:78|95:78|114:113,1,76
216,183,290014,5,0,0:0:0:0:
222,179,290095,1,0,0:0:0:0:
344,117,290258,5,0,0:0:0:0:
337,114,290340,1,0,0:0:0:0:
106,247,290503,6,0,B|71:250|71:250|103:224,1,76
294,311,290666,2,0,B|328:314|328:314|296:288,1,76
198,376,290829,2,0,B|177:303|177:303|228:234|228:234|210:171,1,228
187,148,291155,6,0,L|207:221,1,76
42,356,291318,1,0,0:0:0:0:
39,364,291400,2,0,B|-6:321|-6:321|20:235,1,152
291,155,291644,6,0,L|270:81,1,76
40,84,291808,5,0,0:0:0:0:
53,91,291889,1,0,0:0:0:0:
101,76,291971,1,0,0:0:0:0:
149,61,292052,1,0,0:0:0:0:
79,6,292133,5,0,0:0:0:0:
77,17,292215,1,0,0:0:0:0:
75,28,292296,1,0,0:0:0:0:
73,38,292378,1,0,0:0:0:0:
30,217,292541,5,0,0:0:0:0:
27,226,292622,2,0,B|-4:185|-4:185|136:166|136:166|108:267,1,263.62499899435
31,381,292949,5,0,0:0:0:0:
17,363,293030,1,0,0:0:0:0:
4,346,293112,6,0,L|93:328,1,47.5
267,285,293275,2,0,L|178:267,1,47.5
18,327,293438,2,0,L|79:314,1,35.625001358986
252,316,293601,2,0,L|163:298,1,59.375
200,320,293764,6,0,B|267:330|267:330|344:278|344:278|419:289,1,228
484,296,294090,2,0,B|416:306|416:306|339:254|339:254|264:265,1,228
112,224,294416,5,0,0:0:0:0:
108,209,294497,1,0,0:0:0:0:
104,194,294579,1,0,0:0:0:0:
100,179,294660,1,0,0:0:0:0:
148,96,294742,6,0,L|128:332,1,228
144,336,295068,6,0,L|152:260,1,76
336,200,295231,5,0,0:0:0:0:
412,206,295313,1,0,0:0:0:0:
487,211,295394,2,0,B|496:172|496:172|484:136,1,76
464,128,295557,2,0,B|475:162|475:162|466:201,1,76
397,339,295720,5,0,0:0:0:0:
372,320,295828,5,0,0:0:0:0:
374,304,295937,5,0,0:0:0:0:
376,288,296046,6,0,B|404:360|404:360|336:328|336:328|356:212,1,228
228,144,296372,5,0,0:0:0:0:
233,121,296453,1,0,0:0:0:0:
238,99,296535,1,0,0:0:0:0:
243,77,296616,1,0,0:0:0:0:
220,48,296699,6,0,L|116:60,1,68.8750021018983
83,180,296862,2,0,L|7:171,1,68.8750021018983
100,289,297025,5,0,0:0:0:0:
115,285,297106,1,0,0:0:0:0:
130,281,297188,1,0,0:0:0:0:
145,277,297269,1,0,0:0:0:0:
191,353,297351,6,0,B|45:327|45:327|135:293,1,242.250004620552
369,274,297677,5,0,0:0:0:0:
366,266,297758,1,0,0:0:0:0:
306,216,297840,2,0,L|317:108,1,71.2500027179719
327,68,298003,2,0,B|363:132|363:132|291:227|291:227|294:163,1,256.499992172241
91,176,298329,6,0,L|107:346,1,170.999994781494
191,353,298574,5,0,0:0:0:0:
198,346,298655,2,0,B|236:372|236:372|182:369,1,85.4999973907472
8,263,298818,2,0,B|-22:299|-22:299|29:281,1,85.4999973907472
112,136,298981,6,0,L|120:221,1,71.2500027179719
298,263,299144,5,0,0:0:0:0:
307,257,299226,2,0,L|314:169,1,85.4999973907472
219,16,299389,5,0,0:0:0:0:
208,23,299471,2,0,L|199:108,1,52.2500015945435
483,97,299633,6,0,L|511:90,1,28.5
432,256,299959,6,0,B|410:114|410:114|490:142,1,228
460,384,300285,5,0,0:0:0:0:
461,373,300367,1,0,0:0:0:0:
462,363,300449,1,0,0:0:0:0:
482,339,300530,5,0,0:0:0:0:
407,331,300611,1,0,0:0:0:0:
332,322,300693,1,0,0:0:0:0:
256,313,300775,1,0,0:0:0:0:
85,352,300939,6,0,B|113:382|113:382|108:348,1,76
188,184,301101,2,0,B|188:149|188:149|164:183,1,76
36,260,301264,2,0,B|97:237|97:237|169:283|169:283|241:257,1,228
320,176,301590,5,0,0:0:0:0:
323,168,301671,1,0,0:0:0:0:
276,104,301753,2,0,B|268:72|268:72|280:30,1,76
440,68,301916,6,0,L|364:74,1,76
188,24,302079,2,0,L|112:30,1,76
0,176,302242,5,0,0:0:0:0:
63,220,302323,1,0,0:0:0:0:
111,205,302405,1,0,0:0:0:0:
159,190,302486,1,0,0:0:0:0:
69,139,302567,5,0,0:0:0:0:
67,150,302649,1,0,0:0:0:0:
65,161,302730,1,0,0:0:0:0:
63,171,302812,1,0,0:0:0:0:
62,183,302894,5,0,0:0:0:0:
116,244,303002,5,0,0:0:0:0:
197,236,303111,5,0,0:0:0:0:
239,166,303220,5,0,0:0:0:0:
281,96,303330,5,0,0:0:0:0:
362,88,303438,5,0,0:0:0:0:
417,150,303546,6,0,L|399:251,1,76
384,236,303709,2,0,L|396:161,1,76
480,96,303872,2,0,B|532:172|532:172|464:292,1,213.750008153916
196,212,304199,6,0,B|164:114|164:114|310:85|310:85|280:268|280:268|264:283|264:283|251:363,1,532
279,379,304851,6,0,B|303:219|303:219|239:291,1,228
63,351,305177,2,0,B|39:283|39:283|103:207|103:207|123:267,1,228
188,344,305503,6,0,B|162:382|162:382|165:328,1,85.4999973907472
208,140,305666,2,0,B|172:110|172:110|190:161,1,85.4999973907472
224,252,305829,2,0,B|468:280,1,228
440,120,306155,5,0,0:0:0:0:
459,154,306263,5,0,0:0:0:0:
452,168,306372,5,0,0:0:0:0:
445,182,306481,6,0,B|277:163|277:163|248:214,1,228
387,295,306807,6,0,B|312:304,1,76
297,307,306971,1,0,0:0:0:0:
76,244,307133,6,0,B|144:188|144:188|167:325,1,228
88,376,307459,5,0,0:0:0:0:
79,373,307540,1,0,0:0:0:0:
71,372,307622,1,0,0:0:0:0:
64,370,307703,1,0,0:0:0:0:
55,369,307785,1,0,0:0:0:0:
47,367,307866,1,0,0:0:0:0:
40,365,307948,1,0,0:0:0:0:
31,364,308029,1,0,0:0:0:0:
22,361,308112,5,0,0:0:0:0:
17,309,308193,1,0,0:0:0:0:
11,258,308275,1,0,0:0:0:0:
5,207,308356,1,0,0:0:0:0:
0,156,308438,5,0,0:0:0:0:
9,148,308519,1,0,0:0:0:0:
19,140,308601,1,0,0:0:0:0:
27,133,308682,1,0,0:0:0:0:
36,128,308764,6,0,L|132:136,1,85.4999973907472
152,152,308927,2,0,L|56:144,1,71.2500027179719
117,36,309090,5,0,0:0:0:0:
183,0,309171,1,0,0:0:0:0:
246,17,309252,1,0,0:0:0:0:
310,41,309334,1,0,0:0:0:0:
316,128,309416,5,0,0:0:0:0:
388,113,309497,1,0,0:0:0:0:
460,96,309579,2,0,B|476:64|476:64|449:-12,1,85.4999973907472
234,100,309742,2,0,B|218:132|218:132|245:208,1,85.4999973907472
372,240,309905,1,0,0:0:0:0:
384,240,309986,1,0,0:0:0:0:
396,240,310068,5,0,0:0:0:0:
153,370,327659,6,0,B|108:239|214:305|170:162,1,213.750008153916
61,100,327968,1,0,0:0:0:0:
61,100,328045,1,0,0:0:0:0:
61,100,328122,2,0,P|43:174|52:210,1,71.2500027179719
253,308,328277,5,0,0:0:0:0:
287,317,328354,1,0,0:0:0:0:
322,313,328431,1,0,0:0:0:0:
352,295,328508,1,0,0:0:0:0:
373,267,328586,2,0,B|395:201|395:201|364:125,1,142.500005435944
222,64,328818,5,0,0:0:0:0:
204,86,328896,2,0,L|310:69,1,71.2500027179719
427,48,329050,1,0,0:0:0:0:
255,201,329205,5,0,0:0:0:0:
492,158,329360,1,0,0:0:0:0:
307,332,329514,6,0,P|263:321|170:372,1,142.500005435944
19,211,329746,6,0,P|63:200|156:251,1,142.500005435944
271,105,329978,6,0,P|201:124|185:143,1,71.2500027179719
34,352,330133,6,0,L|18:201,1,142.500005435944
8,126,330365,1,0,0:0:0:0:
6,109,330442,1,0,0:0:0:0:
276,34,330597,6,0,L|270:105,1,71.2500027179719
257,293,330751,1,0,0:0:0:0:
149,114,330906,1,0,0:0:0:0:
333,198,331061,1,0,0:0:0:0:
333,198,331138,2,0,L|141:187,1,142.500005435944
148,214,331370,6,0,L|195:217,1,35.625001358986
292,295,331524,6,0,L|256:292,1,35.625001358986
103,294,331680,6,0,L|150:297,1,35.625001358986
247,375,331834,6,0,L|211:372,1,35.625001358986
82,105,331988,5,0,0:0:0:0:
119,85,332065,1,0,0:0:0:0:
162,81,332142,1,0,0:0:0:0:
202,93,332219,1,0,0:0:0:0:
243,118,332298,1,0,0:0:0:0:
282,131,332375,1,0,0:0:0:0:
325,128,332452,1,0,0:0:0:0:
363,110,332529,1,0,0:0:0:0:
401,55,332607,6,0,B|432:102|432:102|410:206,1,142.500005435944
460,259,332839,1,0,0:0:0:0:
425,234,332916,1,0,0:0:0:0:
383,226,332993,1,0,0:0:0:0:
342,234,333071,2,0,P|295:283|293:310,1,71.2500027179719
135,375,333226,6,0,L|122:219,1,142.500005435944
237,138,333457,5,0,0:0:0:0:
229,153,333535,2,0,P|212:239|213:248,1,71.2500027179719
0,181,333689,2,0,P|25:264|25:273,1,71.2500027179719
108,75,333844,6,0,L|113:139,1,35.625001358986
265,364,334076,2,0,L|270:300,1,35.625001358986
306,65,334308,6,0,L|311:129,1,35.625001358986
463,354,334540,2,0,L|468:290,1,35.625001358986
483,186,334772,6,0,B|421:156|421:156|336:186,1,142.500005435944
270,212,335004,1,0,0:0:0:0:
256,217,335081,5,0,0:0:0:0:
394,61,335236,2,0,L|482:68,1,71.2500027179719
210,320,335390,5,0,0:0:0:0:
170,288,335467,1,0,0:0:0:0:
148,243,335544,1,0,0:0:0:0:
149,194,335621,1,0,0:0:0:0:
171,150,335700,6,0,P|191:123|235:104,1,71.2500027179719
357,282,335854,2,0,P|337:309|293:328,1,71.2500027179719
320,86,336009,2,0,B|383:123|383:123|390:213,1,142.500005435944
505,141,336241,5,0,0:0:0:0:
502,169,336318,2,0,L|495:261,1,71.2500027179719
485,376,336473,1,0,0:0:0:0:
294,375,336628,5,0,0:0:0:0:
320,86,336782,1,0,0:0:0:0:
129,237,336937,6,0,P|203:251|263:201,1,142.500005435944
371,13,337169,6,0,P|297:-1|237:49,1,142.500005435944
434,182,337401,6,0,P|469:183|529:133,1,71.2500027179719
448,88,337555,1,0,0:0:0:0:
348,268,337710,5,0,0:0:0:0:
383,292,337787,1,0,0:0:0:0:
424,302,337864,1,0,0:0:0:0:
466,296,337941,1,0,0:0:0:0:
156,61,338174,5,0,0:0:0:0:
114,55,338251,1,0,0:0:0:0:
73,65,338328,1,0,0:0:0:0:
38,90,338405,1,0,0:0:0:0:
225,359,338638,5,0,0:0:0:0:
227,331,338715,2,0,L|234:242,1,71.2500027179719
243,163,338870,1,0,0:0:0:0:
245,135,338947,1,0,0:0:0:0:
117,197,339102,6,0,L|167:201,1,35.625001358986
354,219,339256,2,0,L|318:216,1,35.625001358986
76,303,339411,6,0,P|10:241|10:178,1,142.500005435944
391,313,339643,2,0,P|457:251|457:188,1,142.500005435944
250,17,339875,2,0,L|245:105,1,71.2500027179719
225,359,340030,5,0,0:0:0:0:
133,99,340184,2,0,L|53:107,2,71.2500027179719
476,72,340494,5,0,0:0:0:0:
476,72,340571,1,0,0:0:0:0:
476,72,340648,2,0,B|351:58|423:157|262:133,1,213.750008153916
187,207,340957,6,0,P|170:126|164:114,1,71.2500027179719
500,223,341112,2,0,P|517:142|523:130,1,71.2500027179719
336,356,341267,5,0,0:0:0:0:
408,263,341421,5,0,0:0:0:0:
376,245,341498,1,0,0:0:0:0:
342,238,341575,1,0,0:0:0:0:
306,241,341652,1,0,0:0:0:0:
273,254,341731,1,0,0:0:0:0:
220,299,341808,1,0,0:0:0:0:
151,297,341885,1,0,0:0:0:0:
100,249,341962,1,0,0:0:0:0:
95,180,342040,1,0,0:0:0:0:
138,125,342117,1,0,0:0:0:0:
203,104,342195,2,0,P|239:110|297:84,1,71.2500027179719
376,36,342349,6,0,L|373:1,3,35.625001358986
403,56,342504,6,0,L|408:157,1,71.2500027179719
486,203,342659,5,0,0:0:0:0:
425,237,342736,1,0,0:0:0:0:
355,230,342813,1,0,0:0:0:0:
303,183,342890,1,0,0:0:0:0:
329,249,342967,1,0,0:0:0:0:
315,317,343044,1,0,0:0:0:0:
266,368,343121,1,0,0:0:0:0:
198,384,343199,1,0,0:0:0:0:
132,361,343276,1,0,0:0:0:0:
83,308,343353,1,0,0:0:0:0:
82,236,343432,6,0,L|43:229,1,35.625001358986
114,173,343509,2,0,L|82:142,1,35.625001358986
175,138,343586,2,0,L|161:89,1,35.625001358986
244,141,343664,2,0,L|252:102,1,35.625001358986
303,183,343741,5,0,0:0:0:0:
303,183,343818,1,0,0:0:0:0:
508,127,343973,1,0,0:0:0:0:
508,127,344050,1,0,0:0:0:0:
308,51,344205,1,0,0:0:0:0:
308,51,344282,1,0,0:0:0:0:
424,229,344437,1,0,0:0:0:0:
424,229,344514,1,0,0:0:0:0:
436,18,344669,6,0,B|479:74|479:74|438:193,1,185.249991519928
424,229,344969,1,0,0:0:0:0:
103,75,345119,6,0,L|201:64,1,61.7499971733095
308,51,345269,1,0,0:0:0:0:
250,254,345419,5,0,0:0:0:0:
200,245,345494,1,0,0:0:0:0:
156,269,345569,1,0,0:0:0:0:
120,304,345644,1,0,0:0:0:0:
71,312,345719,1,0,0:0:0:0:
27,289,345794,1,0,0:0:0:0:
11,228,345869,6,0,L|-3:149,2,61.7499971733095
242,377,346169,2,0,L|253:205,1,123.499994346619
225,225,346394,1,0,0:0:0:0:
202,201,346469,6,0,B|262:179|262:179|350:220,1,123.499994346619
483,294,346694,2,0,B|427:315|427:315|334:270,1,123.499994346619
441,157,346919,2,0,L|433:228,1,61.7499971733095
253,52,347069,5,0,0:0:0:0:
254,64,347144,1,0,0:0:0:0:
255,76,347219,1,0,0:0:0:0:
257,88,347294,1,0,0:0:0:0:
258,101,347369,2,0,P|325:96|338:87,1,61.7499971733095
412,55,347519,6,0,B|459:26|459:26|439:172,1,185.249991519928
246,301,347819,2,0,B|293:330|293:330|273:184,1,185.249991519928
130,77,348119,2,0,L|120:165,1,61.7499971733095
38,215,348269,5,0,0:0:0:0:
42,258,348344,1,0,0:0:0:0:
47,301,348419,1,0,0:0:0:0:
52,343,348494,2,0,L|132:333,1,61.7499971733095
319,266,348644,1,0,0:0:0:0:
277,262,348719,1,0,0:0:0:0:
234,257,348794,1,0,0:0:0:0:
192,252,348869,2,0,L|202:172,1,61.7499971733095
130,77,349019,5,0,0:0:0:0:
187,55,349094,1,0,0:0:0:0:
248,62,349169,1,0,0:0:0:0:
299,95,349244,1,0,0:0:0:0:
318,121,349319,1,0,0:0:0:0:
325,138,349394,1,0,0:0:0:0:
328,152,349469,6,0,L|310:295,1,123.499994346619
302,354,349694,1,0,0:0:0:0:
302,354,349769,1,0,0:0:0:0:
143,225,349919,6,0,L|217:217,1,61.7499971733095
427,164,350069,6,0,B|451:221|451:221|423:280,1,123.499994346619
197,357,350294,2,0,B|173:300|173:300|201:241,1,123.499994346619
347,214,350519,2,0,L|316:302,1,61.7499971733095
83,132,350669,5,0,0:0:0:0:
93,124,350744,1,0,0:0:0:0:
104,119,350819,1,0,0:0:0:0:
115,115,350894,1,0,0:0:0:0:
128,114,350969,2,0,B|167:136|167:136|167:136|283:112,1,123.499994346619
344,24,351194,5,0,0:0:0:0:
344,24,351269,2,0,B|305:46|305:46|305:46|189:22,1,123.499994346619
253,219,351494,2,0,L|265:350,1,123.499994346619
406,262,351719,6,0,L|333:271,1,61.7499971733095
88,330,351869,2,0,B|197:292|150:386|279:336,1,185.249991519928
345,163,352169,1,0,0:0:0:0:
313,133,352244,1,0,0:0:0:0:
273,118,352319,1,0,0:0:0:0:
230,119,352394,1,0,0:0:0:0:
190,135,352469,2,0,P|146:196|144:211,1,61.7499971733095
406,262,352619,5,0,0:0:0:0:
436,230,352694,1,0,0:0:0:0:
451,190,352769,1,0,0:0:0:0:
450,147,352844,1,0,0:0:0:0:
434,107,352919,2,0,P|373:63|358:61,1,61.7499971733095
253,219,353069,6,0,L|260:300,1,61.7499971733095
148,384,353219,2,0,B|113:346|113:346|139:234,1,123.499994346619
33,166,353444,2,0,B|-2:204|-2:204|24:316,1,123.499994346619
201,124,353669,2,0,L|122:103,1,61.7499971733095
195,0,353819,5,0,0:0:0:0:
255,7,353894,1,0,0:0:0:0:
300,47,353969,1,0,0:0:0:0:
327,106,354044,1,0,0:0:0:0:
363,153,354119,1,0,0:0:0:0:
421,172,354194,1,0,0:0:0:0:
478,155,354269,6,0,B|496:125|496:125|473:86,1,71.25
368,242,354569,6,0,L|373:291,1,35.625001358986
381,345,354869,6,0,L|377:309,1,35.625001358986
242,175,355094,2,0,L|238:210,1,35.625001358986
80,361,355319,2,0,L|76:325,1,35.625001358986
59,62,355469,5,0,0:0:0:0:
52,69,355544,1,0,0:0:0:0:
44,76,355619,2,0,L|47:111,1,35.625001358986
224,262,355769,2,0,L|220:297,1,35.625001358986
232,62,355919,5,0,0:0:0:0:
239,69,355994,1,0,0:0:0:0:
247,76,356069,2,0,L|243:111,1,35.625001358986
67,262,356294,2,0,L|70:297,1,35.625001358986
427,335,356519,6,0,L|437:336,5,5.9375
381,361,356669,6,0,B|338:306|338:306|372:181,1,185.249991519928
218,127,356969,1,0,0:0:0:0:
222,141,357044,1,0,0:0:0:0:
225,155,357119,2,0,L|238:225,1,61.7499971733095
473,141,357269,1,0,0:0:0:0:
444,108,357344,1,0,0:0:0:0:
406,88,357419,1,0,0:0:0:0:
363,83,357494,1,0,0:0:0:0:
321,92,357569,2,0,B|312:104|312:104|296:32,1,61.7499971733095
368,194,357719,2,0,B|380:203|380:203|308:219,1,61.7499971733095
156,336,357869,6,0,B|104:308|104:308|8:324,1,123.499994346619
304,328,358094,2,0,B|356:300|356:300|452:316,1,123.499994346619
228,192,358319,2,0,L|232:284,1,61.7499971733095
144,120,358469,1,0,0:0:0:0:
168,100,358544,1,0,0:0:0:0:
196,88,358619,1,0,0:0:0:0:
226,83,358694,1,0,0:0:0:0:
257,87,358769,1,0,0:0:0:0:
285,98,358844,1,0,0:0:0:0:
310,116,358919,2,0,P|340:160|344:192,1,61.7499971733095
68,268,359069,6,0,B|184:244|116:336|276:292,1,185.249991519928
372,248,359369,2,0,B|396:240|416:212|416:212|384:372,1,185.249991519928
488,144,359669,6,0,P|428:112|376:120,1,123.499994346619
192,52,359894,2,0,P|252:20|304:28,1,123.499994346619
280,184,360119,2,0,L|268:280,1,61.7499971733095
256,368,360269,1,0,0:0:0:0:
56,156,360419,6,0,L|68:252,1,61.7499971733095
184,296,360569,2,0,B|120:308|120:308|92:344|92:344|-4:360,1,185.249991519928
171,196,360869,2,0,B|231:196|231:196|275:248,1,123.499994346619
504,208,361094,2,0,B|444:208|444:208|400:260,1,123.499994346619
328,384,361319,2,0,L|336:280,1,61.7499971733095
352,56,361469,5,0,0:0:0:0:
484,308,361619,1,0,0:0:0:0:
352,36,361769,5,0,0:0:0:0:
184,296,361919,2,0,L|180:324,8,15.4374992933274
492,128,362219,5,0,0:0:0:0:
208,116,362369,1,0,0:0:0:0:
336,264,362519,6,0,L|344:156,1,61.7499971733095
208,116,362669,6,0,B|144:76|28:152|68:212|68:212|136:184|68:68|68:68|-40:100|-76:212|24:312|24:312|124:316|172:240|172:240|164:284|180:312,1,926.249957599642
481,32,363869,6,0,L|490:275,1,213.750008153916
387,115,364169,5,0,0:0:0:0:
387,115,364319,1,0,0:0:0:0:
291,83,364469,2,0,L|289:22,1,35.625001358986
301,84,364619,2,0,L|309:25,1,35.625001358986
298,101,364769,6,0,B|183:68|209:158|70:128,1,213.750008153916
348,252,365069,6,0,P|348:277|347:303,1,42.7499986953736
344,369,365369,1,0,0:0:0:0:
344,369,365519,1,0,0:0:0:0:
24,194,365669,5,0,0:0:0:0:
24,194,365969,1,0,0:0:0:0:
24,194,366269,6,0,P|24:172|24:151,1,42.7499986953736
26,80,366569,1,0,0:0:0:0:
26,80,366719,1,0,0:0:0:0:
467,50,366869,5,0,0:0:0:0:
467,50,367169,1,0,0:0:0:0:
467,50,367469,6,0,L|464:115,1,47.5
471,221,367619,2,0,L|469:173,1,47.5
450,31,367769,6,0,L|445:86,1,35.625001358986
452,234,367919,2,0,L|449:198,1,35.625001358986
27,139,368069,6,0,L|384:130,1,356.25
386,143,368369,6,0,L|371:142,1,14.25
383,154,368669,6,0,L|165:145,1,213.750008153916
175,69,368969,1,0,0:0:0:0:
175,69,369119,1,0,0:0:0:0:
419,61,369269,6,0,L|463:59,1,35.625001358986
419,71,369419,2,0,L|455:72,1,35.625001358986
474,154,369569,6,0,P|486:238|471:383,1,213.750008153916
266,236,369869,6,0,L|220:242,1,42.7499986953736
148,258,370169,1,0,0:0:0:0:
148,258,370319,1,0,0:0:0:0:
241,27,370469,5,0,0:0:0:0:
241,27,370769,1,0,0:0:0:0:
241,27,371069,6,0,L|287:33,1,42.7499986953736
241,27,371369,6,0,P|320:37|206:72,1,356.25
364,209,371669,6,0,L|356:299,1,71.2500027179719
444,151,371819,5,0,0:0:0:0:
378,203,371894,2,0,L|370:293,1,71.2500027179719
455,144,372044,5,0,0:0:0:0:
389,196,372119,2,0,L|381:286,1,71.2500027179719
234,310,372269,6,0,B|218:254|218:254|244:165,1,118.75
467,136,372419,5,0,0:0:0:0:
499,205,372494,2,0,B|515:263|515:263|500:319,1,118.75
255,384,372644,5,0,0:0:0:0:
223,315,372719,2,0,B|207:256|207:256|223:200,1,118.75
233,37,372869,6,0,L|344:49,1,79.1666666666667
311,46,372969,2,0,L|200:58,1,79.1666666666667
233,54,373069,2,0,L|324:64,1,63.3333333333333
305,134,373169,6,0,L|301:167,1,31.6666666666667
315,238,373269,5,0,0:0:0:0:
315,238,373369,1,0,0:0:0:0:
336,308,373469,6,0,B|252:319|252:319|214:355|214:355|118:371,1,213.750008153916
72,337,373769,1,0,0:0:0:0:
72,337,373919,1,0,0:0:0:0:
45,190,374069,6,0,L|83:198,1,35.625001358986
53,179,374219,2,0,L|100:186,1,35.625001358986
48,102,374369,6,0,P|133:97|158:223,1,213.750008153916
472,220,374669,6,0,L|430:216,1,42.7499986953736
355,200,374969,1,0,0:0:0:0:
355,200,375119,1,0,0:0:0:0:
5,358,375269,5,0,0:0:0:0:
5,358,375569,1,0,0:0:0:0:
5,358,375869,6,0,L|48:361,1,42.7499986953736
304,301,376169,6,0,B|358:352|358:352|262:175|262:175|222:375|222:375|291:224,1,570
257,83,376469,6,0,L|263:37,1,42.7499986953736
182,77,376769,6,0,L|188:52,1,23.75
336,32,376919,2,0,L|332:61,1,23.75
249,231,377069,6,0,L|257:171,1,47.5
268,314,377219,2,0,L|260:374,1,47.5
232,237,377369,6,0,L|239:197,1,35.625001358986
284,315,377519,2,0,L|277:358,1,35.625001358986
86,226,377669,6,0,B|279:192|244:337|463:294,1,356.25
450,228,377969,6,0,P|387:233|466:236,1,427.500016307831
439,15,378269,6,0,L|425:310,1,285
507,183,378569,1,0,0:0:0:0:
507,183,378719,1,0,0:0:0:0:
352,98,378869,6,0,L|348:61,1,35.625001358986
341,100,379019,2,0,L|337:63,1,35.625001358986
251,37,379169,6,0,L|265:321,1,285
265,321,379469,6,0,L|309:315,1,42.7499986953736
162,100,379769,6,0,L|165:50,1,35.625001358986
150,100,379919,2,0,L|154:51,1,35.625001358986
55,37,380069,6,0,L|69:332,1,285
82,318,380369,2,0,L|69:33,1,285
181,197,380669,6,0,L|224:210,1,42.7499986953736
318,287,380969,6,0,L|273:274,1,35.625001358986
314,297,381119,2,0,L|269:284,1,35.625001358986
379,344,381269,6,0,B|457:357|521:291|513:236|507:209|507:209|511:247|491:290,1,285.000010871888
480,105,381494,6,0,B|456:42|366:32|331:66|323:85|323:85|340:62|362:57,1,237.5
282,186,381719,6,0,P|271:232|293:288,1,95
394,208,381869,6,0,L|392:194,1,14.25
453,256,382169,5,0,0:0:0:0:
470,232,382244,1,0,0:0:0:0:
472,203,382319,1,0,0:0:0:0:
333,252,382469,5,0,0:0:0:0:
344,267,382544,1,0,0:0:0:0:
361,276,382619,1,0,0:0:0:0:
395,120,382769,5,0,0:0:0:0:
381,119,382844,1,0,0:0:0:0:
367,121,382919,1,0,0:0:0:0:
355,128,382994,1,0,0:0:0:0:
485,167,458954,6,0,B|421:153|421:153|347:184|347:184|280:168,1,213.750008153916
270,155,459231,2,0,L|281:223,1,59.375
427,261,459370,2,0,L|416:329,1,59.375
237,378,459509,5,0,0:0:0:0:
35,237,459648,2,0,B|29:202|29:202|44:169,1,71.2500027179719
173,284,459787,2,0,B|145:306|145:306|110:309,1,71.2500027179719
145,141,459926,2,0,B|178:153|178:153|198:182,1,71.2500027179719
120,222,460065,5,0,0:0:0:0:
70,84,460204,1,0,0:0:0:0:
274,35,460342,2,0,P|330:51|389:61,1,118.75
461,94,460551,1,0,0:0:0:0:
461,94,460620,6,0,P|402:103|345:120,1,118.75
277,164,460829,1,0,0:0:0:0:
277,164,460898,2,0,L|290:237,1,59.375
306,356,461037,1,0,0:0:0:0:
468,346,461176,6,0,B|506:302|506:302|481:207|481:207|427:185,1,213.750008153916
427,185,461454,2,0,P|419:231|415:279,1,95
130,65,461731,6,0,L|136:138,1,71.2500027179719
143,218,461870,2,0,L|149:291,1,71.2500027179719
37,184,462009,2,0,P|22:216|-1:242,1,71.2500027179719
239,171,462148,2,0,P|258:200|286:222,1,71.2500027179719
128,51,462287,5,0,0:0:0:0:
150,300,462426,1,0,0:0:0:0:
273,59,462565,2,0,B|393:14|360:104|478:42,1,213.750008153916
477,43,462842,5,0,0:0:0:0:
127,41,462981,2,0,P|112:72|113:116,1,71.2500027179719
31,120,463120,2,0,P|42:152|74:182,1,71.2500027179719
18,243,463259,2,0,P|49:258|93:257,1,71.2500027179719
370,187,463398,6,0,B|335:170|335:170|204:208|204:208|168:193,1,213.750008153916
168,193,463676,2,0,L|224:175,1,59.375
320,249,463815,2,0,L|263:266,1,59.375
44,335,463954,5,0,0:0:0:0:
16,106,464092,2,0,B|10:71|10:71|25:38,1,71.2500027179719
169,56,464231,2,0,B|175:91|175:91|159:123,1,71.2500027179719
84,148,464370,2,0,L|94:63,1,71.2500027179719
103,2,464509,5,0,0:0:0:0:
76,229,464648,1,0,0:0:0:0:
313,87,464787,2,0,B|371:74|371:74|416:111,1,118.75
490,200,464995,1,0,0:0:0:0:
490,200,465065,6,0,B|445:238|445:238|387:225,1,118.75
296,182,465273,1,0,0:0:0:0:
296,182,465342,2,0,L|305:251,1,59.375
319,377,465481,1,0,0:0:0:0:
76,229,465620,6,0,B|33:207|33:207|54:358|54:358|91:326,1,249.375002378225
90,326,465898,2,0,L|189:340,1,95
416,111,466176,6,0,B|346:123|346:123|283:88|283:88|213:98,1,213.750008153916
5,125,466454,2,0,P|11:21|100:76,1,249.375002378225
94,184,466731,5,0,0:0:0:0:
46,360,466870,1,0,0:0:0:0:
18,274,467009,2,0,L|112:265,1,95
416,111,467287,5,0,0:0:0:0:
464,287,467426,1,0,0:0:0:0:
492,201,467565,2,0,L|421:194,1,71.2500027179719
221,342,467704,2,0,L|291:335,1,71.2500027179719
283,138,467842,6,0,B|213:99|213:99|238:230,1,213.750008153916
238,230,468120,2,0,P|208:224|179:221,1,59.375
5,336,468259,2,0,P|34:332|63:326,1,59.375
116,159,468398,5,0,0:0:0:0:
364,111,468537,2,0,L|351:181,1,71.2500027179719
392,349,468676,2,0,L|337:303,1,71.2500027179719
171,254,468815,2,0,L|237:229,1,71.2500027179719
443,157,468954,5,0,0:0:0:0:
495,328,469092,1,0,0:0:0:0:
237,228,469231,2,0,L|119:242,1,118.75
5,336,469440,1,0,0:0:0:0:
5,336,469509,6,0,L|122:350,1,118.75
225,328,469717,1,0,0:0:0:0:
225,328,469787,2,0,L|283:320,1,59.375
484,291,469926,1,0,0:0:0:0:
297,58,470065,6,0,B|304:97|269:123|269:123|330:169|331:241,1,213.750008153916
331,241,470342,2,0,P|285:233|237:229,1,95
405,115,470620,6,0,P|441:112|476:101,1,71.2500027179719
454,1,470759,2,0,P|418:4|383:15,1,71.2500027179719
143,253,470898,2,0,P|107:250|72:239,1,71.2500027179719
94,139,471037,2,0,P|130:142|165:153,1,71.2500027179719
225,328,471176,5,0,0:0:0:0:
0,177,471315,1,0,0:0:0:0:
238,68,471454,2,0,B|300:24|300:24|276:159,1,213.750008153916
276,159,471731,5,0,0:0:0:0:
401,361,471870,2,0,P|435:353|462:331,1,71.2500027179719
437,216,472009,2,0,P|424:249|398:272,1,71.2500027179719
354,198,472148,2,0,P|364:164|358:129,1,71.2500027179719
138,12,472287,6,0,L|162:152,1,142.5
162,152,472565,2,0,P|115:148|69:138,1,95
56,265,472842,2,0,P|103:268|149:278,1,95
374,12,473120,6,0,L|349:152,1,142.5
349,152,473398,2,0,P|396:148|442:138,1,95
456,265,473676,2,0,P|408:268|362:278,1,95
256,320,473954,6,0,L|256:128,1,190
39,160,474509,6,0,B|0:219|0:219|64:271,1,142.5
114,218,474787,2,0,L|39:160,1,95
168,356,475065,2,0,L|255:320,1,95
473,160,475342,6,0,B|512:219|512:219|448:271,1,142.5
398,218,475620,2,0,L|473:160,1,95
344,356,475898,2,0,L|256:320,1,95
122,115,476176,6,0,B|98:73|98:73|127:37,1,95
384,37,476454,2,0,B|414:73|414:73|390:115,1,95
256,96,476731,5,0,0:0:0:0:
399,89,494185,6,0,B|415:135|415:135|388:173,1,95
336,236,494377,1,0,0:0:0:0:
321,241,494441,1,0,0:0:0:0:
461,331,494569,1,0,0:0:0:0:
235,267,494697,1,0,0:0:0:0:
235,267,494761,1,0,0:0:0:0:
235,267,494826,1,0,0:0:0:0:
326,358,494954,1,0,0:0:0:0:
257,154,495082,1,0,0:0:0:0:
115,316,495210,6,0,L|20:323,1,95
35,122,495467,2,0,L|129:114,1,95
294,343,495723,6,0,L|199:350,1,95
208,74,495979,2,0,L|302:66,1,95
476,160,496236,6,0,B|492:206|492:206|465:244,1,95
413,307,496428,1,0,0:0:0:0:
398,312,496492,1,0,0:0:0:0:
249,178,496620,1,0,0:0:0:0:
381,192,496749,1,0,0:0:0:0:
381,192,496813,1,0,0:0:0:0:
381,192,496877,1,0,0:0:0:0:
294,343,497005,1,0,0:0:0:0:
155,193,497133,6,0,L|248:177,1,95
258,182,497326,1,0,0:0:0:0:
267,186,497390,1,0,0:0:0:0:
82,281,497518,2,0,P|72:326|95:366,1,95
181,79,497774,1,0,0:0:0:0:
68,52,497902,1,0,0:0:0:0:
41,166,498031,1,0,0:0:0:0:
155,193,498159,1,0,0:0:0:0:
476,160,498287,6,0,B|492:114|492:114|465:75,1,95
413,13,498479,1,0,0:0:0:0:
398,8,498543,1,0,0:0:0:0:
329,217,498672,1,0,0:0:0:0:
276,93,498800,1,0,0:0:0:0:
276,93,498864,1,0,0:0:0:0:
276,93,498928,1,0,0:0:0:0:
387,129,499056,1,0,0:0:0:0:
229,231,499185,1,0,0:0:0:0:
447,342,499313,6,0,P|463:290|471:238,1,106.875004076958
492,242,499569,6,0,P|476:190|468:138,1,106.875004076958
483,117,499826,6,0,P|493:82|498:47,1,71.2500027179719
214,161,500082,2,0,P|218:196|228:230,1,71.2500027179719
413,13,500338,6,0,B|367:-3|367:-3|328:23,1,95
266,76,500530,1,0,0:0:0:0:
261,91,500594,1,0,0:0:0:0:
45,49,500723,1,0,0:0:0:0:
161,15,500851,1,0,0:0:0:0:
161,15,500915,1,0,0:0:0:0:
161,15,500979,1,0,0:0:0:0:
101,248,501108,1,0,0:0:0:0:
27,142,501236,6,0,L|46:41,1,95
51,41,501428,1,0,0:0:0:0:
57,34,501492,1,0,0:0:0:0:
328,139,501620,6,0,P|326:212|263:174,1,178.125
347,135,501877,6,0,B|377:202|317:237|317:237|365:257|374:312,1,213.750008153916
265,348,502133,6,0,P|284:303|274:350,1,142.5
270,362,502390,6,0,L|210:355,1,47.5
70,344,502518,1,0,0:0:0:0:
197,278,502646,1,0,0:0:0:0:
47,99,502774,2,0,B|23:146|23:146|50:231,1,142.5
50,231,503031,1,0,0:0:0:0:
251,179,503159,2,0,P|203:172|158:158,1,95
373,307,503415,6,0,L|479:295,1,106.875004076958
505,273,503672,6,0,L|398:261,1,106.875004076958
381,240,503928,6,0,P|368:190|398:148,1,106.875004076958
313,87,504185,6,0,P|299:137|329:179,1,106.875004076958
476,198,504441,6,0,L|484:139,1,47.5
499,31,504569,1,0,0:0:0:0:
313,87,504697,1,0,0:0:0:0:
166,290,504826,2,0,L|158:231,1,47.5
143,123,504954,1,0,0:0:0:0:
329,179,505082,1,0,0:0:0:0:
188,381,505210,2,0,P|140:374|95:360,1,95
256,241,505467,5,0,0:0:0:0:
256,241,505531,1,0,0:0:0:0:
256,241,505595,1,0,0:0:0:0:
143,123,505723,6,0,P|92:109|50:139,1,106.875004076958
16,215,505979,6,0,L|23:249,1,35.625001358986
151,277,506108,2,0,L|158:242,1,35.625001358986
3,208,506236,6,0,L|18:273,1,59.375
156,294,506364,2,0,L|169:236,1,59.375
230,62,506492,6,0,L|238:108,1,47.5
256,241,506620,1,0,0:0:0:0:
345,66,506749,1,0,0:0:0:0:
456,171,506877,6,0,L|447:217,1,47.5
430,349,507005,1,0,0:0:0:0:
341,175,507134,1,0,0:0:0:0:
151,277,507261,2,0,L|168:370,1,95
354,157,507518,6,0,P|408:139|456:171,1,118.75
193,93,507774,6,0,P|138:74|91:106,1,118.75
282,352,508031,6,0,P|333:284|248:291,1,213.750008153916
278,361,508287,6,0,P|314:360|341:338,1,71.2500027179719
354,157,508415,2,0,P|389:158|416:180,1,71.2500027179719
477,367,508543,5,0,0:0:0:0:
505,236,508672,2,0,L|443:244,1,47.5
356,254,508800,1,0,0:0:0:0:
119,237,508928,5,0,0:0:0:0:
91,106,509057,2,0,L|153:114,1,47.5
240,124,509185,1,0,0:0:0:0:
248,291,509313,2,0,P|235:336|217:380,1,95
31,266,509569,5,0,0:0:0:0:
29,256,509633,1,0,0:0:0:0:
27,246,509697,1,0,0:0:0:0:
25,236,509761,1,0,0:0:0:0:
24,226,509826,2,0,L|125:237,1,95
354,157,510082,6,0,L|306:162,1,47.5
309,149,510210,2,0,L|357:144,1,47.5
512,94,510338,6,0,P|481:21|409:56,1,178.125
256,192,534970,5,0,0:0:0:0:
