osu file format v14

[General]
AudioFilename: audio.mp3
AudioLeadIn: 0
PreviewTime: 189282
Countdown: 0
SampleSet: Soft
StackLeniency: 0.2
Mode: 0
LetterboxInBreaks: 0
WidescreenStoryboard: 1

[Editor]
Bookmarks: 4999,58333,80921,103509,125834,147902,169971,192040,214109,236178,258247,280316,302385,324327,324670,325013,325356,325699,326042,326385,326727,327070,327413,327756,328090,328405,328721,329037,329353,329668,329984,330300,330616,330932,331247,331563,331879,354616,372706,391715,410631,428085,445540,478360
DistanceSpacing: 0.7
BeatDivisor: 4
GridSize: 32
TimelineZoom: 3.099999

[Metadata]
Title:Songs Compilation 1
TitleUnicode:Songs Compilation 1
Artist:Camellia
ArtistUnicode:かめりあ
Creator:LowComboFC
Version:Abyss
Source:
Tags:proluvies farewell to today exit this earth's atomosphere neuro-cloud-9 flying in the flow of deep-sea phatty influences turning up! d:for the delta crystallized key of timepieces dreamless wanderer shadows of cats kodama overcomplexification nuclear-star racemization enantiomorphs flower of wilderness k.y.a.f.a. r u still xxxx? planet shaper diffraction sudden shower cyphisonia insane inflame meganto meteor collaboration lcfc ameth rianno ultima fox kujinn lama poluna neilperry xlolicore- [ drop ] foxygrandpa xilver winber1 shmiklak
BeatmapID:1173001
BeatmapSetID:547637

[Difficulty]
HPDrainRate:5
CircleSize:4
OverallDifficulty:9
ApproachRate:9.7
SliderMultiplier:2.5
SliderTickRate:1

[Events]
//Background and Video events
0,0,"BG.jpg",0,0
//Break Periods
2,324527,331384
//Storyboard Layer 0 (Background)
//Storyboard Layer 1 (Fail)
//Storyboard Layer 2 (Pass)
//Storyboard Layer 3 (Foreground)
//Storyboard Sound Samples

[TimingPoints]
2037,370.37037037037,4,2,1,90,1,0
4999,-200,4,2,1,30,0,0
15185,-100,4,2,1,90,0,0
16851,-200,4,2,1,90,0,0
16944,-200,4,2,1,30,0,0
19259,-100,4,2,1,90,0,0
19814,-200,4,2,1,90,0,0
19907,-200,4,2,1,30,0,0
22222,-100,4,2,1,90,0,0
22777,-200,4,2,1,90,0,0
22870,-200,4,2,1,30,0,0
24074,-200,4,2,1,90,0,0
24166,-200,4,2,1,30,0,0
24999,-200,4,2,1,40,0,0
25555,-200,4,2,1,50,0,0
26296,-200,4,2,1,60,0,0
27036,-200,4,2,1,70,0,0
27685,-200,4,2,1,80,0,0
27962,-100,4,2,1,80,0,0
28240,-100,4,2,1,90,0,0
33888,-100,4,2,1,5,0,0
34259,-100,4,2,1,10,0,0
34305,-100,4,2,1,20,0,0
34351,-100,4,2,1,30,0,0
34398,-100,4,2,1,40,0,0
34444,-100,4,2,1,50,0,0
34490,-100,4,2,1,70,0,0
34536,-100,4,2,1,80,0,0
34629,-133.333333333333,4,2,1,90,0,0
35370,-100,4,2,1,90,0,0
36851,-133.333333333333,4,2,1,90,0,0
37222,-100,4,2,1,90,0,0
37592,-133.333333333333,4,2,1,90,0,0
38333,-100,4,2,1,90,0,0
38981,-80,4,2,1,90,0,0
39814,-100,4,2,1,90,0,0
41296,-80,4,2,1,90,0,0
41851,-133.333333333333,4,2,1,90,0,0
42036,-100,4,2,1,90,0,0
42777,-66.6666666666667,4,2,1,90,0,0
43148,-80,4,2,1,90,0,0
43518,-133.333333333333,4,2,1,90,0,0
44444,-100,4,2,1,90,0,0
44907,-80,4,2,1,90,0,0
45277,-100,4,2,1,90,0,0
46481,-133.333333333333,4,2,1,90,0,0
47222,-100,4,2,1,90,0,0
47499,-66.6666666666667,4,2,1,90,0,0
47777,-100,4,2,1,90,0,0
48703,-66.6666666666667,4,2,1,90,0,0
49074,-80,4,2,1,90,0,0
49259,-57.1428571428571,4,2,1,90,0,0
49444,-133.333333333333,4,2,1,90,0,0
50185,-100,4,2,1,90,0,0
50833,-80,4,2,1,90,0,0
51296,-100,4,2,1,90,0,0
52777,-133.333333333333,4,2,1,90,0,0
53148,-100,4,2,1,90,0,0
53703,-80,4,2,1,90,0,0
54074,-100,4,2,1,90,0,0
54629,-66.6666666666667,4,2,1,90,0,0
54999,-80,4,2,1,90,0,0
55370,-133.333333333333,4,2,1,90,0,0
56111,-200,4,2,1,90,0,0
56357,-66.6666666666667,4,2,1,90,0,0
56604,-133.333333333333,4,2,1,90,0,0
57962,-100,4,2,1,90,0,0
58333,352.941176470588,4,2,1,90,1,0
58333,-66.6666666666667,4,2,1,90,0,0
58862,-55.5555555555556,4,2,1,90,0,0
59038,-50,4,2,1,90,0,0
59744,-200,4,2,1,90,0,0
60009,-66.6666666666667,4,2,1,90,0,0
60274,-50,4,2,1,90,0,0
60450,-100,4,2,1,90,0,0
60803,-50,4,2,1,90,0,0
61156,-133.333333333333,4,2,1,90,0,0
61509,-50,4,2,1,90,0,0
61950,-100,4,2,1,90,0,0
62215,-66.6666666666667,4,2,1,90,0,0
62921,-133.333333333333,4,2,1,90,0,0
63097,-66.6666666666667,4,2,1,90,0,0
63274,-66.6666666666667,4,2,1,90,0,0
63980,-55.5555555555556,4,2,1,90,0,0
64333,-100,4,2,1,90,0,0
64685,-66.6666666666667,4,2,1,90,0,0
65215,-50,4,2,1,90,0,0
65656,-100,4,2,1,90,0,0
65921,-66.6666666666667,4,2,1,90,0,0
66450,-50,4,2,1,90,0,0
66627,-200,4,2,1,90,0,0
66803,-50,4,2,1,90,0,0
67156,-66.6666666666667,4,2,1,90,0,0
67597,-58.8235294117647,4,2,1,90,0,0
67862,-200,4,2,1,90,0,0
68921,-100,4,2,1,90,0,0
69627,-66.6666666666667,4,2,1,90,0,0
70244,-133.333333333333,4,2,1,90,0,0
70685,-66.6666666666667,4,2,1,90,0,0
71038,-58.8235294117647,4,2,1,90,0,0
72097,-133.333333333333,4,2,1,90,0,0
72450,-66.6666666666667,4,2,1,90,0,0
72803,-50,4,2,1,90,0,0
74568,-66.6666666666667,4,2,1,90,0,0
74921,-57.1428571428571,4,2,1,90,0,0
75274,-54.054054054054,4,2,1,90,0,0
75627,-200,4,2,1,90,0,0
75803,-66.6666666666667,4,2,1,90,0,0
76509,-57.1428571428571,4,2,1,90,0,0
78627,-100,4,2,1,90,0,0
78980,-133.333333333333,4,2,1,90,0,0
79156,-66.6666666666667,4,2,1,90,0,0
80215,-133.333333333333,4,2,1,90,0,0
80921,-66.6666666666667,4,2,1,90,0,0
81627,-125,4,2,1,90,0,0
81980,-83.3333333333333,4,2,1,90,0,0
83038,-55.5555555555556,4,2,1,90,0,0
83391,-100,4,2,1,90,0,0
83744,-50,4,2,1,90,0,0
84097,-125,4,2,1,90,0,0
84803,-83.3333333333333,4,2,1,90,0,0
85685,-83.3333333333333,4,2,1,90,0,0
85862,-66.6666666666667,4,2,1,90,0,0
86215,-52.6315789473684,4,2,1,90,0,0
86568,-62.5,4,2,1,90,0,0
87274,-125,4,2,1,90,0,0
87627,-83.3333333333333,4,2,1,90,0,0
88685,-55.5555555555556,4,2,1,90,0,0
89038,-100,4,2,1,90,0,0
89832,-58.8235294117647,4,2,1,90,0,0
90097,-83.3333333333333,4,2,1,90,0,0
90450,-52.6315789473684,4,2,1,90,0,0
90803,-200,4,2,1,90,0,0
91862,-50,4,2,1,90,0,0
92215,-58.8235294117647,4,2,1,90,0,0
92921,-125,4,2,1,90,0,0
93274,-83.3333333333333,4,2,1,90,0,0
94332,-55.5555555555556,4,2,1,90,0,0
94685,-100,4,2,1,90,0,0
95038,-62.5,4,2,1,90,0,0
95744,-125,4,2,1,90,0,0
96097,-83.3333333333333,4,2,1,90,0,0
97156,-71.4285714285714,4,2,1,90,0,0
97509,-100,4,2,1,90,0,0
97862,-66.6666666666667,4,2,1,90,0,0
98568,-125,4,2,1,90,0,0
98921,-62.5,4,2,1,90,0,0
102097,-83.3333333333333,4,2,1,90,0,0
102803,-55.5555555555556,4,2,1,90,0,0
103509,348.837209302326,4,2,1,90,1,0
103509,-66.6666666666667,4,2,1,90,0,0
103857,-111.111111111111,4,2,1,90,0,0
104381,-71.4285714285714,4,2,1,90,0,0
104555,-100,4,2,1,90,0,0
104904,-66.6666666666667,4,2,1,90,0,0
105253,-100,4,2,1,90,0,0
105776,-83.3333333333333,4,2,1,90,0,0
105950,-66.6666666666667,4,2,1,90,0,0
106299,-71.4285714285714,4,2,1,90,0,0
106648,-100,4,2,1,90,0,0
107171,-83.3333333333333,4,2,1,90,0,0
107346,-90.9090909090909,4,2,1,90,0,0
107695,-71.4285714285714,4,2,1,90,0,0
108043,-100,4,2,1,90,0,0
108567,-83.3333333333333,4,2,1,90,0,0
108741,-100,4,2,1,90,0,0
109090,-66.6666666666667,4,2,1,90,0,0
109439,-90.9090909090909,4,2,1,90,0,0
109962,-111.111111111111,4,2,1,90,0,0
110136,-100,4,2,1,90,0,0
110485,-71.4285714285714,4,2,1,90,0,0
110834,-100,4,2,1,90,0,0
111357,-83.3333333333333,4,2,1,90,0,0
111532,-100,4,2,1,90,0,0
111881,-90.9090909090909,4,2,1,90,0,0
114671,-66.6666666666667,4,2,1,90,0,0
115020,-100,4,2,1,90,0,0
115543,-71.4285714285714,4,2,1,90,0,0
115718,-100,4,2,1,90,0,0
116067,-71.4285714285714,4,2,1,90,0,0
116415,-100,4,2,1,90,0,0
116939,-71.4285714285714,4,2,1,90,0,0
117200,-83.3333333333333,4,2,1,90,0,0
117462,-66.6666666666667,4,2,1,90,0,0
117811,-100,4,2,1,90,0,0
118334,-71.4285714285714,4,2,1,90,0,0
118509,-100,4,2,1,90,0,0
118857,-71.4285714285714,4,2,1,90,0,0
119206,-90.9090909090909,4,2,1,90,0,0
119555,-111.111111111111,4,2,1,90,0,0
119904,-83.3333333333333,4,2,1,90,0,0
120253,-90.9090909090909,4,2,1,90,0,0
120950,-125,4,2,1,90,0,0
121299,-111.111111111111,4,2,1,90,0,0
121648,-100,4,2,1,90,0,0
121997,-83.3333333333333,4,2,1,90,0,0
122346,-71.4285714285714,4,2,1,90,0,0
122695,-66.6666666666667,4,2,1,90,0,0
123043,-58.8235294117647,4,2,1,90,0,0
123741,-58.1395348837209,4,2,1,90,0,0
125136,-70.4225352112676,4,2,1,90,0,0
125834,344.827586206897,4,2,1,90,1,0
125834,-66.6666666666667,4,2,1,90,0,0
128592,-100,4,2,1,90,0,0
128851,-133.333333333333,4,2,1,90,0,0
129109,-66.6666666666667,4,2,1,90,0,0
144454,-80,4,2,1,90,0,0
144799,-133.333333333333,4,2,1,90,0,0
147213,-100,4,2,1,90,0,0
147558,-200,4,2,1,90,0,0
147902,-58.8235294117647,4,2,1,90,0,0
148247,-66.6666666666667,4,2,1,90,0,0
149627,-57.1428571428571,4,2,1,90,0,0
149971,-66.6666666666667,4,2,1,90,0,0
150316,-57.1428571428571,4,2,1,90,0,0
151006,-100,4,2,1,90,0,0
151696,-66.6666666666667,4,2,1,90,0,0
152040,-66.6666666666667,4,2,1,90,0,0
152385,-57.1428571428571,4,2,1,90,0,0
152730,-133.333333333333,4,2,1,90,0,0
153075,-200,4,2,1,90,0,0
153420,-57.1428571428571,4,2,1,90,0,0
154109,-66.6666666666667,4,2,1,90,0,0
155144,-57.1428571428571,4,2,1,90,0,0
155402,-80,4,2,1,90,0,0
155661,-57.1428571428571,4,2,1,90,0,0
156523,-66.6666666666667,4,2,1,90,0,0
157558,-50,4,2,1,90,0,0
157902,-133.333333333333,4,2,1,90,0,0
158161,-66.6666666666667,4,2,1,90,0,0
158420,-57.1428571428571,4,2,1,90,0,0
159282,-66.6666666666667,4,2,1,90,0,0
160575,-57.1428571428571,4,2,1,90,0,0
160834,-66.6666666666667,4,2,1,90,0,0
161351,-57.1428571428571,4,2,1,90,0,0
162040,-100,4,2,1,90,0,0
162385,-200,4,2,1,90,0,0
162730,-66.6666666666667,4,2,1,90,0,0
163420,-57.1428571428571,4,2,1,90,0,0
163765,-133.333333333333,4,2,1,90,0,0
164109,-200,4,2,1,90,0,0
164454,-57.1428571428571,4,2,1,90,0,0
165144,-66.6666666666667,4,2,1,90,0,0
166178,-57.1428571428571,4,2,1,90,0,0
166523,-133.333333333333,4,2,1,90,0,0
166696,-57.1428571428571,4,2,1,90,0,0
167558,-66.6666666666667,4,2,1,90,0,0
167902,-57.1428571428571,4,2,1,90,0,0
168247,-66.6666666666667,4,2,1,90,0,0
168765,-57.1428571428571,4,2,1,90,0,0
169627,-100,4,2,1,90,0,0
169971,-83.3333333333333,4,2,1,90,0,0
170661,-58.8235294117647,4,2,1,90,0,0
170834,-55.5555555555556,4,2,1,90,0,0
171523,-66.6666666666667,4,2,1,90,0,0
172040,-50,4,2,1,90,0,0
172730,-66.6666666666667,4,2,1,90,0,0
173075,-55.5555555555556,4,2,1,90,0,0
173420,-66.6666666666667,4,2,1,90,0,0
173592,-66.6666666666667,4,2,1,90,0,0
173765,-62.5,4,2,1,90,0,0
174282,-66.6666666666667,4,2,1,90,0,0
174627,-52.6315789473684,4,2,1,90,0,0
175144,-83.3333333333333,4,2,1,90,0,0
175489,-52.6315789473684,4,2,1,90,0,0
175834,-66.6666666666667,4,2,1,90,0,0
176523,-55.5555555555556,4,2,1,90,0,0
177040,-66.6666666666667,4,2,1,90,0,0
177213,-50,4,2,1,90,0,0
177902,-600,4,2,1,90,0,0
178247,-66.6666666666667,4,2,1,90,0,0
178592,-76.9230769230769,4,2,1,90,0,0
178937,-62.5,4,2,1,90,0,0
179282,-50,4,2,1,90,0,0
179799,-83.3333333333333,4,2,1,90,0,0
180661,-66.6666666666667,4,2,1,90,0,0
181006,-76.9230769230769,4,2,1,90,0,0
181351,-58.8235294117647,4,2,1,90,0,0
181696,-100,4,2,1,90,0,0
181868,-58.8235294117647,4,2,1,90,0,0
182040,-40,4,2,1,90,0,0
182558,-58.8235294117647,4,2,1,90,0,0
182730,-55.5555555555556,4,2,1,90,0,0
183075,-66.6666666666667,4,2,1,90,0,0
183420,-55.5555555555556,4,2,1,90,0,0
184454,-66.6666666666667,4,2,1,90,0,0
185661,-58.8235294117647,4,2,1,90,0,0
186178,-83.3333333333333,4,2,1,90,0,0
186523,-58.8235294117647,4,2,1,90,0,0
186868,-66.6666666666667,4,2,1,90,0,0
187558,-55.5555555555556,4,2,1,90,0,0
188592,-66.6666666666667,4,2,1,90,0,0
189454,-600,4,2,1,90,0,0
190144,-434.782608695652,4,2,1,90,0,0
190661,-100,4,2,1,90,0,0
192040,-200,4,2,1,90,0,0
192385,-83.3333333333333,4,2,1,90,0,0
196178,-66.6666666666667,4,2,1,90,0,0
196351,-83.3333333333333,4,2,1,90,0,0
197730,-74.0740740740741,4,2,1,90,0,0
197902,-83.3333333333333,4,2,1,90,0,0
199971,-58.8235294117647,4,2,1,90,0,0
200316,-83.3333333333333,4,2,1,90,0,0
201006,-66.6666666666667,4,2,1,90,0,0
201523,-83.3333333333333,4,2,1,90,0,0
207213,-66.6666666666667,4,2,1,90,0,0
207385,-83.3333333333333,4,2,1,90,0,0
208247,-66.6666666666667,4,2,1,90,0,0
208592,-83.3333333333333,4,2,1,90,0,0
211006,-58.8235294117647,4,2,1,90,0,0
211351,-83.3333333333333,4,2,1,90,0,0
212040,-66.6666666666667,4,2,1,90,0,0
212557,-83.3333333333333,4,2,1,90,0,0
212730,-200,4,2,1,90,0,0
214109,-66.6666666666667,4,2,1,90,0,0
214799,-133.333333333333,4,2,1,90,0,0
216178,-55.5555555555556,4,2,1,90,0,0
216437,-133.333333333333,4,2,1,90,0,0
216696,-66.6666666666667,4,2,1,90,0,0
216868,-100,4,2,1,90,0,0
217558,-83.3333333333333,4,2,1,90,0,0
218247,-66.6666666666667,4,2,1,90,0,0
218678,-133.333333333333,4,2,1,90,0,0
219627,-66.6666666666667,4,2,1,90,0,0
219971,-200,4,2,1,90,0,0
221696,-200,4,2,1,90,0,0
221954,-66.6666666666667,4,2,1,90,0,0
222385,-100,4,2,1,90,0,0
222730,-66.6666666666667,4,2,1,90,0,0
223937,-133.333333333333,4,2,1,90,0,0
224282,-58.8235294117647,4,2,1,90,0,0
224454,-100,4,2,1,90,0,0
224799,-66.6666666666667,4,2,1,90,0,0
225144,-200,4,2,1,90,0,0
226178,-133.333333333333,4,2,1,90,0,0
226868,-66.6666666666667,4,2,1,90,0,0
227902,-50,4,2,1,90,0,0
228247,-66.6666666666667,4,2,1,90,0,0
229282,-133.333333333333,4,2,1,90,0,0
229627,-66.6666666666667,4,2,1,90,0,0
229885,-58.8235294117647,4,2,1,90,0,0
230316,-100,4,2,1,90,0,0
230661,-66.6666666666667,4,2,1,90,0,0
231351,-100,4,2,1,90,0,0
232730,-153.846153846153,4,2,1,90,0,0
235489,-100,4,2,1,90,0,0
236178,-55.5555555555556,4,2,1,90,0,0
236696,-125,4,2,1,90,0,0
236868,-400.857142857143,4,2,1,90,0,0
237385,-125,4,2,1,90,0,0
237471,-400.857142857143,4,2,1,90,0,0
238075,-125,4,2,1,90,0,0
238161,-400.857142857143,4,2,1,90,0,0
238592,-60.6257021865006,4,2,1,90,0,0
238937,-95.2866069002985,4,2,1,90,0,0
239282,-80,4,2,1,90,0,0
239627,-200,4,2,1,90,0,0
239971,-80,4,2,1,90,0,0
240316,-200,4,2,1,90,0,0
240661,-80,4,2,1,90,0,0
241006,-95.2380952380952,4,2,1,90,0,0
241696,-55.5555555555556,4,2,1,90,0,0
242213,-125,4,2,1,90,0,0
242385,-400.857142857143,4,2,1,90,0,0
242902,-125,4,2,1,90,0,0
242989,-400.857142857143,4,2,1,90,0,0
243592,-125,4,2,1,90,0,0
243678,-400.857142857143,4,2,1,90,0,0
244109,-200,4,2,1,90,0,0
244454,-60.6257021865006,4,2,1,90,0,0
244799,-76.9230769230769,4,2,1,90,0,0
244899,-83.3333333333333,4,2,1,90,0,0
245316,-90.9090909090909,4,2,1,90,0,0
245834,-83.3333333333333,4,2,1,90,0,0
246092,-100,4,2,1,90,0,0
246868,-60.6060606060606,4,2,1,90,0,0
247213,-55.5555555555556,4,2,1,90,0,0
247730,-125,4,2,1,90,0,0
247902,-400.857142857143,4,2,1,90,0,0
248420,-125,4,2,1,90,0,0
248592,-400.857142857143,4,2,1,90,0,0
249109,-125,4,2,1,90,0,0
249282,-400.857142857143,4,2,1,90,0,0
249627,-60.6257021865007,4,2,1,90,0,0
249971,-95.2866069002985,4,2,1,90,0,0
250316,-80.0342270393609,4,2,1,90,0,0
250661,-200,4,2,1,90,0,0
251006,-80,4,2,1,90,0,0
251351,-200,4,2,1,90,0,0
251696,-80,4,2,1,90,0,0
252730,-55.5555555555556,4,2,1,90,0,0
253247,-66.6666666666667,4,2,1,90,0,0
253765,-76.9230769230769,4,2,1,90,0,0
254282,-71.4285714285714,4,2,1,90,0,0
254971,-90.9090909090909,4,2,1,90,0,0
255144,-55.5555555555556,4,2,1,90,0,0
255489,-71.4285714285714,4,2,1,90,0,0
256006,-62.5,4,2,1,90,0,0
256351,-90.9090909090909,4,2,1,90,0,0
256523,-90.9090909090909,4,2,1,90,0,0
257040,-200,4,2,1,90,0,0
257299,-71.4285714285714,4,2,1,90,0,0
257730,-55.5555555555556,4,2,1,90,0,0
258247,-80,4,2,1,90,0,0
258592,-100,4,2,1,90,0,0
259627,-80,4,2,1,90,0,0
259971,-100,4,2,1,90,0,0
260661,-133.333333333333,4,2,1,90,0,0
261006,-100,4,2,1,90,0,0
262040,-80,4,2,1,90,0,0
262730,-100,4,2,1,90,0,0
266178,-133.333333333333,4,2,1,90,0,0
266523,-100,4,2,1,90,0,0
269282,-83.3333333333333,4,2,1,90,0,0
269885,-100,4,2,1,90,0,0
270661,-80,4,2,1,90,0,0
271006,-100,4,2,1,90,0,0
271696,-133.333333333333,4,2,1,90,0,0
272040,-80,4,2,1,90,0,0
272385,-100,4,2,1,90,0,0
274799,-80,4,2,1,90,0,0
275144,-100,4,2,1,90,0,0
277213,-133.333333333333,4,2,1,90,0,0
277558,-66.6666666666667,4,2,1,90,0,0
278075,-80,4,2,1,90,0,0
278247,-100,4,2,1,90,0,0
278937,-200,4,2,1,90,0,0
279109,-133.333333333333,4,2,1,90,0,0
279282,-100,4,2,1,90,0,0
279454,-80,4,2,1,90,0,0
279627,-66.6666666666667,4,2,1,90,0,0
279799,-57.1428571428571,4,2,1,90,0,0
280316,-57.1428571428571,4,2,1,90,0,0
281006,-83.3333333333333,4,2,1,90,0,0
281696,-66.6666666666667,4,2,1,90,0,0
282385,-76.9230769230769,4,2,1,90,0,0
282730,-66.6666666666667,4,2,1,90,0,0
283075,-55.5555555555556,4,2,1,90,0,0
283765,-100,4,2,1,90,0,0
284109,-57.1428571428571,4,2,1,90,0,0
284627,-66.6666666666667,4,2,1,90,0,0
284799,-80,4,2,1,90,0,0
284971,-100,4,2,1,90,0,0
285144,-66.6666666666667,4,2,1,90,0,0
285489,-57.1428571428571,4,2,1,90,0,0
287213,-66.6666666666667,4,2,1,90,0,0
287902,-76.9230769230769,4,2,1,90,0,0
288420,-100,4,2,1,90,0,0
288592,-57.1428571428571,4,2,1,90,0,0
289282,-66.6666666666667,4,2,1,90,0,0
289454,-58.8235294117647,4,2,1,90,0,0
291006,-52.6315789473684,4,2,1,90,0,0
291351,-57.1428571428571,4,2,1,90,0,0
292213,-83.3333333333333,4,2,1,90,0,0
292730,-66.6666666666667,4,2,1,90,0,0
293420,-76.9230769230769,4,2,1,90,0,0
293765,-100,4,2,1,90,0,0
294109,-55.5555555555556,4,2,1,90,0,0
294799,-100,4,2,1,90,0,0
295144,-57.1428571428571,4,2,1,90,0,0
295661,-66.6666666666667,4,2,1,90,0,0
295834,-80,4,2,1,90,0,0
296006,-100,4,2,1,90,0,0
296178,-66.6666666666667,4,2,1,90,0,0
296868,-57.1428571428571,4,2,1,90,0,0
297558,-66.6666666666667,4,2,1,90,0,0
298937,-76.9230769230769,4,2,1,90,0,0
299282,-100,4,2,1,90,0,0
299454,-57.1428571428571,4,2,1,90,0,0
300316,-66.6666666666667,4,2,1,90,0,0
300489,-100,4,2,1,90,0,0
300661,-57.1428571428571,4,2,1,90,0,0
302385,342.857142857143,4,2,1,90,1,0
302385,-133.333333333333,4,2,1,90,0,0
302727,-100,4,2,1,90,0,0
305127,-133.333333333333,4,2,1,90,0,0
305813,-100,4,2,1,90,0,0
306156,-80,4,2,1,90,0,0
306499,-90.9090909090909,4,2,1,90,0,0
307356,-133.333333333333,4,2,1,90,0,0
307527,-100,4,2,1,90,0,0
307699,-66.6666666666667,4,2,1,90,0,0
307870,-133.333333333333,4,2,1,90,0,0
308213,-80,4,2,1,90,0,0
308556,-100,4,2,1,90,0,0
309756,-80,4,2,1,90,0,0
310613,-66.6666666666667,4,2,1,90,0,0
311042,-80,4,2,1,90,0,0
311642,-105.263157894737,4,2,1,90,0,0
311899,-100,4,2,1,90,0,0
313356,-80,4,2,1,90,0,0
314042,-100,4,2,1,90,0,0
314727,-100,4,2,1,90,0,0
315242,-80,4,2,1,90,0,0
316099,-83.3333333333333,4,2,1,90,0,0
317470,-68.9655172413793,4,2,1,90,0,0
317813,-80,4,2,1,90,0,0
318156,-200,4,2,1,90,0,0
318327,-100,4,2,1,90,0,0
318499,-66.6666666666667,4,2,1,90,0,0
318670,-50,4,2,1,90,0,0
318842,-100,4,2,1,90,0,0
319870,-80,4,2,1,90,0,0
321842,-66.6666666666667,4,2,1,90,0,0
328090,315.789473684211,4,2,1,90,1,0
329353,-100,4,2,1,10,0,0
332511,-100,4,2,1,90,0,0
334405,-76.9230769230769,4,2,1,90,0,0
343247,-66.6666666666667,4,2,1,90,0,0
349563,-58.8235294117647,4,2,1,90,0,0
354616,301.507537688442,4,2,1,90,1,0
354616,-133.333333333333,4,2,1,90,0,0
355143,-111.111111111111,4,2,1,90,0,0
357028,-90.9090909090909,4,2,1,90,0,0
359138,-83.3333333333333,4,2,1,90,0,0
359440,-133.333333333333,4,2,1,90,0,0
359967,-111.111111111111,4,2,1,90,0,0
361852,-83.3333333333333,4,2,1,90,0,0
362153,-76.9230769230769,4,2,1,90,0,0
362455,-100,4,2,1,90,0,0
363058,-66.6666666666667,4,2,1,90,0,0
363359,-76.9230769230769,4,2,1,90,0,0
363661,-133.333333333333,4,2,1,90,0,0
364264,-133.333333333333,4,2,1,90,0,0
364791,-111.111111111111,4,2,1,90,0,0
366676,-90.9090909090909,4,2,1,90,0,0
368786,-83.3333333333333,4,2,1,90,0,0
369088,-125,4,2,1,90,0,0
372706,297.029702970297,4,2,1,90,1,0
372706,-133.333333333333,4,2,1,90,0,0
373300,-100,4,2,1,90,0,0
375379,-66.6666666666667,4,2,1,90,0,0
375527,-100,4,2,1,90,0,0
376121,-133.333333333333,4,2,1,90,0,0
376567,-100,4,2,1,90,0,0
377161,-66.6666666666667,4,2,1,90,0,0
377458,-133.333333333333,4,2,1,90,0,0
378052,-100,4,2,1,90,0,0
379537,-200,4,2,1,90,0,0
379834,-80,4,2,1,90,0,0
380131,-200,4,2,1,90,0,0
380428,-80,4,2,1,90,0,0
381319,-100,4,2,1,90,0,0
382210,-133.333333333333,4,2,1,90,0,0
382805,-100,4,2,1,90,0,0
384884,-66.6666666666667,4,2,1,90,0,0
385032,-100,4,2,1,90,0,0
385626,-133.333333333333,4,2,1,90,0,0
386072,-100,4,2,1,90,0,0
386666,-66.6666666666667,4,2,1,90,0,0
386963,-200,4,2,1,90,0,0
387557,-100,4,2,1,90,0,0
389042,-80,4,2,1,90,0,0
389339,-100,4,2,1,90,0,0
391270,-200,4,2,1,90,0,0
391715,295.566502463054,4,2,1,90,1,0
391715,-71.4285714285714,4,2,1,90,0,0
392010,-83.3333333333333,4,2,1,90,0,0
392306,-90.9090909090909,4,2,1,90,0,0
393488,-71.4285714285714,4,2,1,90,0,0
393931,-90.9090909090909,4,2,1,90,0,0
394079,-76.9230769230769,4,2,1,90,0,0
394375,-90.9090909090909,4,2,1,90,0,0
394670,-71.4285714285714,4,2,1,90,0,0
395114,-83.3333333333333,4,2,1,90,0,0
396148,-71.4285714285714,4,2,1,90,0,0
396444,-83.3333333333333,4,2,1,90,0,0
397035,-71.4285714285714,4,2,1,90,0,0
397330,-83.3333333333333,4,2,1,90,0,0
398217,-71.4285714285714,4,2,1,90,0,0
398660,-90.9090909090909,4,2,1,90,0,0
398808,-71.4285714285714,4,2,1,90,0,0
399104,-83.3333333333333,4,2,1,90,0,0
399547,-80,4,2,1,90,0,0
399990,-80,4,2,1,90,0,0
400286,-74.0740740740741,4,2,1,90,0,0
400581,-200,4,2,1,90,0,0
401173,-90.9090909090909,4,2,1,90,0,0
401764,-90.9090909090909,4,2,1,90,0,0
402946,-71.4285714285714,4,2,1,90,0,0
403389,-90.9090909090909,4,2,1,90,0,0
403537,-76.9230769230769,4,2,1,90,0,0
403833,-90.9090909090909,4,2,1,90,0,0
404128,-83.3333333333333,4,2,1,90,0,0
404572,-76.9230769230769,4,2,1,90,0,0
405458,-90.9090909090909,4,2,1,90,0,0
405902,-80,4,2,1,90,0,0
406493,-90.9090909090909,4,2,1,90,0,0
406788,-83.3333333333333,4,2,1,90,0,0
407084,-74.0740740740741,4,2,1,90,0,0
407675,-83.3333333333333,4,2,1,90,0,0
407971,-76.9230769230769,4,2,1,90,0,0
408266,-68.9655172413793,4,2,1,90,0,0
408857,-76.9230769230769,4,2,1,90,0,0
409153,-71.4285714285714,4,2,1,90,0,0
409448,-66.6666666666667,4,2,1,90,0,0
409892,-62.5,4,2,1,90,0,0
410335,-50,4,2,1,90,0,0
410631,272.727272727273,4,2,1,90,1,0
410631,-500,4,2,1,90,0,0
411176,-125,4,2,1,90,0,0
412676,-125,4,2,1,90,0,0
413358,-100,4,2,1,90,0,0
413903,-125,4,2,1,90,0,0
419284,-500,4,2,1,90,0,0
419903,-125,4,2,1,90,0,0
421812,-500,4,2,1,90,0,0
422085,-100,4,2,1,90,0,0
422631,-125,4,2,1,90,0,0
423449,-200,4,2,1,90,0,0
423721,-125,4,2,1,90,0,0
425358,-500,4,2,1,90,0,0
428085,-66.6666666666667,4,2,1,90,0,0
428358,-100,4,2,1,90,0,0
428562,-66.6666666666667,4,2,1,90,0,0
428767,-100,4,2,1,90,0,0
429040,-133.333333333333,4,2,1,90,0,0
429449,-66.6666666666667,4,2,1,90,0,0
429994,-200,4,2,1,90,0,0
430267,-83.3333333333333,4,2,1,90,0,0
430812,-133.333333333333,4,2,1,90,0,0
431221,-100,4,2,1,90,0,0
431494,-83.3333333333333,4,2,1,90,0,0
431903,-62.5,4,2,1,90,0,0
432449,-200,4,2,1,90,0,0
432721,-66.6666666666667,4,2,1,90,0,0
433812,-133.333333333333,4,2,1,90,0,0
434221,-52.6315789473684,4,2,1,90,0,0
434358,-66.6666666666667,4,2,1,90,0,0
434631,-100,4,2,1,90,0,0
435176,-66.6666666666667,4,2,1,90,0,0
435585,-100,4,2,1,90,0,0
435721,-66.6666666666667,4,2,1,90,0,0
435995,-133.333333333333,4,2,1,90,0,0
436267,-200,4,2,1,90,0,0
436812,-100,4,2,1,90,0,0
437358,-66.6666666666667,4,2,1,90,0,0
438312,-133.333333333333,4,2,1,90,0,0
438449,-50,4,2,1,90,0,0
438721,-133.333333333333,4,2,1,90,0,0
438994,-55.5555555555556,4,2,1,90,0,0
439267,-100,4,2,1,90,0,0
439404,-83.3333333333333,4,2,1,90,0,0
439676,-66.6666666666667,4,2,1,90,0,0
440358,-100,4,2,1,90,0,0
440767,-50,4,2,1,90,0,0
441312,-133.333333333333,4,2,1,90,0,0
442267,-50,4,2,1,90,0,0
442540,-100,4,2,1,90,0,0
442676,-50,4,2,1,90,0,0
442949,-133.333333333333,4,2,1,90,0,0
443358,-100,4,2,1,90,0,0
443563,-66.6666666666667,4,2,1,90,0,0
443836,-50,4,2,1,90,0,0
444040,-200,4,2,1,90,0,0
445540,256.410256410256,4,2,1,90,1,0
445540,-100,4,2,1,90,0,1
459898,-76.9230769230769,4,2,1,90,0,0
460924,-83.3333333333333,4,2,1,90,0,0
461052,-83.3333333333333,4,2,1,5,0,0
461116,-76.9230769230769,4,2,1,90,0,0
461245,-76.9230769230769,4,2,1,5,0,0
461309,-76.9230769230769,4,2,1,90,0,0
461373,-76.9230769230769,4,2,1,5,0,0
461437,-71.4285714285714,4,2,1,90,0,0
461565,-71.4285714285714,4,2,1,5,0,0
461629,-71.4285714285714,4,2,1,90,0,0
461757,-71.4285714285714,4,2,1,5,0,0
461822,-71.4285714285714,4,2,1,90,0,0
461886,-71.4285714285714,4,2,1,5,0,0
461950,-100,4,2,1,90,0,1
474257,-200,4,2,1,40,0,0
474514,-100,4,2,1,90,0,1
475283,-200,4,2,1,40,0,0
475539,-100,4,2,1,90,0,1
476309,-100,4,2,1,90,0,0
476565,-100,4,2,1,90,0,1
477334,-76.9230769230769,4,2,1,90,0,0
477463,-76.9230769230769,4,2,1,5,0,0
477527,-76.9230769230769,4,2,1,90,0,0
477655,-76.9230769230769,4,2,1,5,0,0
477719,-76.9230769230769,4,2,1,90,0,0
477975,-76.9230769230769,4,2,1,5,0,0
478039,-76.9230769230769,4,2,1,90,0,0
478168,-76.9230769230769,4,2,1,5,0,0
478232,-76.9230769230769,4,2,1,90,0,0
478296,-76.9230769230769,4,2,1,5,0,0
478360,-76.9230769230769,4,2,1,90,0,0
481437,-76.9230769230769,4,2,1,5,0,0

[Colours]
Combo1 : 108,232,173
Combo2 : 237,103,234
Combo3 : 251,219,89
Combo4 : 101,150,239

[HitObjects]
175,154,4999,6,0,L|108:148,2,62.5,2|2|2,0:0|0:0|0:0,0:0:0:0:
389,148,5555,2,0,P|345:112|268:144,1,125,2|0,0:0|0:0,0:0:0:0:
300,279,6111,1,2,0:0:0:0:
308,290,6296,6,0,P|316:260|321:221,1,62.5,2|2,0:0|0:0,0:0:0:0:
200,55,6666,2,0,P|265:57|339:52,1,125,2|0,0:0|0:0,0:0:0:0:
435,137,7222,1,2,0:0:0:0:
461,37,7407,1,2,0:0:0:0:
423,144,7592,2,0,L|416:214,1,62.5,2|0,0:0|0:0,0:0:0:0:
473,324,7962,6,0,L|403:331,2,62.5,2|2|2,0:0|0:0|0:0,0:0:0:0:
304,186,8518,1,2,0:0:0:0:
283,275,8703,1,0,0:0:0:0:
281,284,8796,1,0,0:0:0:0:
280,293,8888,1,0,0:0:0:0:
235,108,9074,1,2,0:0:0:0:
160,304,9259,1,2,0:0:0:0:
152,316,9444,6,0,P|144:286|139:247,1,62.5,2|2,0:0|0:0,0:0:0:0:
247,101,9814,2,0,P|242:131|234:162,1,62.5
53,217,10185,1,2,0:0:0:0:
61,89,10370,1,2,0:0:0:0:
60,231,10555,1,2,0:0:0:0:
61,240,10648,1,2,0:0:0:0:
62,249,10740,1,2,0:0:0:0:
64,258,10833,1,2,0:0:0:0:
65,267,10925,5,2,0:0:0:0:
286,255,11111,2,0,P|255:250|224:242,1,62.5,2|2,0:0|0:0,0:0:0:0:
100,357,11481,2,0,P|144:321|221:353,1,125,2|0,0:0|0:0,0:0:0:0:
271,171,12036,1,2,0:0:0:0:
286,255,12222,6,0,L|297:328,1,62.5,2|2,0:0|0:0,0:0:0:0:
204,132,12592,2,0,P|268:128|342:116,1,125,2|0,0:0|0:0,0:0:0:0:
488,39,13148,1,2,0:0:0:0:
385,10,13333,1,2,0:0:0:0:
412,112,13518,2,0,P|442:107|473:99,1,62.5,2|0,0:0|0:0,0:0:0:0:
265,50,13888,6,0,L|196:44,2,62.5,2|2|2,0:0|0:0|0:0,0:0:0:0:
449,183,14444,2,0,B|393:213|385:167|320:195,1,125,2|0,0:0|0:0,0:0:0:0:
252,238,14999,1,2,0:0:0:0:
459,355,15185,1,6,0:0:0:0:
461,346,15277,1,4,0:0:0:0:
463,336,15370,6,0,B|468:306|468:306|450:275,1,62.5,10|0,0:0|0:0,0:0:0:0:
262,312,15555,2,0,B|257:342|257:342|275:373,1,62.5,2|0,0:0|0:0,0:0:0:0:
365,329,15740,1,0,0:0:0:0:
355,266,15833,1,0,0:0:0:0:
346,204,15925,2,0,L|340:168,2,31.25
400,107,16111,6,0,B|364:131|364:131|266:118,1,125,8|0,0:0|0:0,0:0:0:0:
141,96,16388,1,8,0:0:0:0:
47,85,16481,2,0,B|78:82|78:82|81:79|81:79|118:76,1,62.5
254,217,16666,2,0,L|247:259,1,31.25,8|0,0:0|0:0,0:0:0:0:
259,236,16759,2,0,L|252:278,1,31.25
263,254,16851,6,0,L|325:251,2,62.5,2|2|2,0:0|0:0|0:0,0:0:0:0:
92,166,17407,2,0,P|101:227|105:290,1,125,2|0,0:0|0:0,0:0:0:0:
188,346,17962,1,2,0:0:0:0:
105,290,18148,1,2,0:0:0:0:
194,249,18333,6,0,P|224:254|255:262,1,62.5,2|2,0:0|0:0,0:0:0:0:
92,166,18703,2,0,P|61:173|30:179,1,62.5
105,290,19074,1,2,0:0:0:0:
303,146,19259,6,0,B|318:59|318:59|282:96,1,125,6|2,0:0|0:0,0:0:0:0:
241,209,19536,2,0,B|158:239|158:239|208:252,1,125,4|0,0:0|0:0,0:0:0:0:
323,228,19814,6,0,P|353:235|384:241,1,62.5,6|2,0:0|0:0,0:0:0:0:
468,128,20185,1,2,0:0:0:0:
495,218,20370,1,2,0:0:0:0:
394,65,20555,1,0,0:0:0:0:
385,61,20648,1,0,0:0:0:0:
375,62,20740,1,0,0:0:0:0:
375,141,20925,1,2,0:0:0:0:
482,29,21111,1,2,0:0:0:0:
367,152,21296,6,0,P|336:159|305:165,1,62.5,2|2,0:0|0:0,0:0:0:0:
117,92,21666,2,0,P|147:97|178:105,1,62.5
248,255,22036,1,2,0:0:0:0:
258,56,22222,6,0,P|289:33|359:71,1,125,6|2,0:0|0:0,0:0:0:0:
291,181,22499,2,0,P|244:218|190:193,1,125,4|0,0:0|0:0,0:0:0:0:
117,92,22777,5,6,0:0:0:0:
105,252,22962,6,0,L|110:174,1,62.5,2|2,0:0|0:0,0:0:0:0:
45,316,23333,1,2,0:0:0:0:
186,263,23518,2,0,P|215:257|247:254,1,62.5
419,313,23888,1,2,0:0:0:0:
323,64,24074,5,6,0:0:0:0:
350,231,24259,6,0,P|352:199|358:169,1,62.5,2|2,0:0|0:0,0:0:0:0:
216,40,24629,2,0,P|221:70|224:101,1,62.5
108,189,24999,1,2,0:0:0:0:
249,174,25185,2,0,L|285:171,1,31.25,2|0,0:0|0:0,0:0:0:0:
403,161,25370,2,0,L|439:158,1,31.25,2|0,0:0|0:0,0:0:0:0:
328,336,25555,5,4,0:0:0:0:
318,333,25648,1,0,0:0:0:0:
309,328,25740,2,0,L|300:288,1,31.25
403,161,25925,2,0,L|394:201,1,31.25,2|0,0:0|0:0,0:0:0:0:
185,200,26111,2,0,L|225:191,1,31.25,2|0,0:0|0:0,0:0:0:0:
455,309,26296,5,6,0:0:0:0:
457,299,26388,1,0,0:0:0:0:
459,289,26481,2,0,L|419:278,1,31.25
276,161,26666,2,0,L|236:172,1,31.25
95,297,26851,2,0,L|106:257,1,31.25
145,64,27036,5,6,0:0:0:0:
154,61,27129,1,0,0:0:0:0:
163,58,27222,2,0,L|170:98,1,31.25,2|0,0:0|0:0,0:0:0:0:
207,275,27407,5,6,0:0:0:0:
213,292,27499,2,0,L|220:252,1,31.25
294,64,27685,5,4,0:0:0:0:
306,39,27777,2,0,L|313:79,1,31.25
382,334,27962,6,0,L|397:260,1,62.5,10|0,0:0|0:0,0:0:0:0:
435,129,28148,1,6,0:0:0:0:
494,109,28240,6,0,L|422:133,1,62.5,8|2,0:0|0:0,0:0:0:0:
287,181,28425,1,4,0:0:0:0:
240,139,28518,6,0,L|290:184,1,62.5,8|0,0:0|0:0,0:0:0:0:
375,192,28703,5,6,0:0:0:0:
256,192,28796,12,0,33703,0:0:0:0:
256,192,33888,6,0,L|256:167,28,15.625,8|0|0|0|0|0|0|0|0|0|0|0|0|0|0|0|0|0|0|0|0|0|0|0|0|0|0|0|0,0:0|0:0|0:0|0:0|0:0|0:0|0:0|0:0|0:0|0:0|0:0|0:0|0:0|0:0|0:0|0:0|0:0|0:0|0:0|0:0|0:0|0:0|0:0|0:0|0:0|0:0|0:0|0:0|0:0,0:0:0:0:
358,247,34629,6,0,B|256:224|256:224|194:234|194:234|69:201,1,281.250010728836,4|4,0:0|0:0,0:0:0:0:
28,93,35246,1,4,0:0:0:0:
30,87,35308,1,4,0:0:0:0:
32,81,35370,2,0,L|43:142,1,62.5,8|0,0:0|0:0,0:0:0:0:
76,280,35555,1,4,0:0:0:0:
76,280,36296,6,0,L|87:219,1,62.5,4|0,0:0|0:0,0:0:0:0:
120,81,36481,1,0,0:0:0:0:
315,20,36666,2,0,L|256:40,1,62.5,4|0,0:0|0:0,0:0:0:0:
120,81,36851,6,0,L|117:49,1,23.4375008940697,8|0,0:0|0:0,0:0:0:0:
308,120,37036,2,0,L|321:90,1,23.4375008940697
451,247,37222,2,0,L|479:230,1,31.25
446,234,37314,2,0,L|474:217,1,31.25
441,219,37407,1,0,0:0:0:0:
379,213,37499,1,0,0:0:0:0:
316,206,37592,6,0,B|160:242|160:242|210:231|239:276,1,234.375008940697,4|0,0:0|0:0,0:0:0:0:
176,312,38148,1,4,0:0:0:0:
151,169,38333,6,0,B|150:137|150:137|166:104,1,62.5,8|0,0:0|0:0,0:0:0:0:
328,146,38518,2,0,B|329:178|329:178|313:211,1,62.5
241,155,38703,1,0,0:0:0:0:
254,93,38796,1,0,0:0:0:0:
267,32,38888,1,0,0:0:0:0:
384,21,38981,6,0,B|326:11|295:47|295:47|237:22|237:22|208:55|158:34,1,234.375,4|0,0:0|0:0,0:0:0:0:
54,174,39351,1,0,0:0:0:0:
61,187,39444,5,4,0:0:0:0:
66,148,39536,1,0,0:0:0:0:
71,109,39629,1,4,0:0:0:0:
136,151,39722,1,0,0:0:0:0:
213,155,39814,6,0,B|242:140|242:140|287:145,1,62.5,8|0,0:0|0:0,0:0:0:0:
303,318,39999,2,0,B|274:333|274:333|229:328,1,62.5
175,248,40185,1,0,0:0:0:0:
236,240,40277,2,0,L|311:230,2,62.5
85,328,40555,5,4,0:0:0:0:
112,274,40647,1,0,0:0:0:0:
82,222,40740,1,0,0:0:0:0:
54,168,40833,1,0,0:0:0:0:
84,116,40925,2,0,P|116:107|163:111,1,62.5
297,231,41111,1,4,0:0:0:0:
299,223,41172,1,4,0:0:0:0:
301,214,41234,1,4,0:0:0:0:
303,205,41296,6,0,P|301:164|296:118,1,78.125,8|0,0:0|0:0,0:0:0:0:
446,37,41481,2,0,P|442:75|441:115,1,78.125
447,282,41666,1,0,0:0:0:0:
451,267,41759,5,0,0:0:0:0:
448,189,41851,2,0,L|450:217,1,23.4375008940697
201,173,42036,5,0,0:0:0:0:
204,141,42129,1,0,0:0:0:0:
207,109,42222,2,0,P|239:100|276:102,1,62.5,4|0,0:0|0:0,0:0:0:0:
349,249,42407,2,0,B|352:220|352:220|355:217|355:217|353:214|353:214|357:178,1,62.5
367,53,42592,1,4,0:0:0:0:
165,304,42777,6,0,P|212:319|270:275,1,125.000004768372,8|0,0:0|0:0,0:0:0:0:
269,277,42962,2,0,P|222:262|164:306,1,125.000004768372
363,336,43148,2,0,B|410:328|410:328|423:323|423:323|481:315,2,104.166666666667,8|0|0,0:0|0:0|0:0,0:0:0:0:
257,381,43518,6,0,B|299:352|296:304|268:278|268:278|308:200|395:226,1,234.375008940697,4|0,0:0|0:0,0:0:0:0:
358,219,44074,1,4,0:0:0:0:
165,304,44259,6,0,P|146:310|112:313,1,46.8750017881394,8|0,0:0|0:0,0:0:0:0:
371,211,44444,2,0,B|401:198|401:198|457:204,1,62.5
257,381,44629,1,0,0:0:0:0:
266,318,44722,1,0,0:0:0:0:
274,256,44814,1,0,0:0:0:0:
237,169,44907,6,0,B|276:206|276:206|319:195|319:195|323:192|323:192|383:177,1,156.25,4|0,0:0|0:0,0:0:0:0:
487,144,45185,1,4,0:0:0:0:
497,114,45277,2,0,L|500:49,2,62.5
418,289,45555,1,4,0:0:0:0:
425,279,45648,1,4,0:0:0:0:
458,365,45740,5,8,0:0:0:0:
406,329,45833,1,0,0:0:0:0:
344,333,45925,1,4,0:0:0:0:
300,377,46018,2,0,P|266:369|228:367,1,62.5,8|0,0:0|0:0,0:0:0:0:
61,233,46203,1,4,0:0:0:0:
119,256,46296,2,0,P|150:253|180:245,1,62.5,8|0,0:0|0:0,0:0:0:0:
286,76,46481,6,0,P|212:33|157:192,1,281.250010728836,4|4,0:0|0:0,0:0:0:0:
258,188,47098,1,4,0:0:0:0:
263,185,47160,1,4,0:0:0:0:
269,183,47222,6,0,B|330:175|330:175|378:230,1,125,8|0,0:0|0:0,0:0:0:0:
244,360,47499,2,0,B|211:357|211:357|196:241|196:241|235:283,1,187.500007152558,4|0,0:0|0:0,0:0:0:0:
460,324,47777,6,0,B|400:293|395:340|331:309,1,125,8|0,0:0|0:0,0:0:0:0:
338,147,48055,1,4,0:0:0:0:
348,85,48148,6,0,P|341:114|339:155,1,62.5,4|0,0:0|0:0,0:0:0:0:
221,268,48333,2,0,P|218:236|211:206,1,62.5
371,222,48518,1,0,0:0:0:0:
67,287,48703,6,0,B|79:221|79:221|135:255,1,125.000004768372,8|0,0:0|0:0,0:0:0:0:
219,356,48888,2,0,B|169:386|169:386|157:320,1,125.000004768372
195,104,49074,6,0,B|204:149|204:149|202:157|202:157|212:210,1,104.166666666667
289,323,49259,2,0,B|295:254|295:254|299:249|299:249|295:243|295:243|301:167,1,145.833334724108
310,166,49444,6,0,B|481:136|481:136|449:207,1,234.375008940697,4|0,0:0|0:0,0:0:0:0:
425,262,49999,1,4,0:0:0:0:
171,145,50185,6,0,P|201:133|239:137,1,62.5,8|0,0:0|0:0,0:0:0:0:
383,327,50370,2,0,P|413:339|451:335,1,62.5
379,73,50555,1,0,0:0:0:0:
380,135,50648,1,0,0:0:0:0:
382,197,50740,1,0,0:0:0:0:
288,209,50833,6,0,B|346:238|381:197|381:197|421:223|421:223|458:193|516:209,1,234.375,4|0,0:0|0:0,0:0:0:0:
383,327,51203,1,4,0:0:0:0:
377,329,51296,2,0,B|339:321|339:321|333:318|333:318|326:320|326:320|283:314,2,83.3333333333333
500,205,51666,5,8,0:0:0:0:
491,142,51759,1,8,0:0:0:0:
482,80,51851,2,0,L|490:9,1,62.5
292,86,52036,1,0,0:0:0:0:
283,148,52128,2,0,B|279:180|279:180|291:219,2,62.5,4|0|0,0:0|0:0|0:0,0:0:0:0:
364,31,52407,5,0,0:0:0:0:
349,58,52499,5,0,0:0:0:0:
292,86,52592,5,0,0:0:0:0:
203,54,52685,5,0,0:0:0:0:
100,123,52777,6,0,B|88:31|88:31|130:62,1,140.625005364418,4|0,0:0|0:0,0:0:0:0:
183,195,53148,2,0,L|192:119,1,62.5,8|0,0:0|0:0,0:0:0:0:
203,54,53333,1,0,0:0:0:0:
210,44,53425,1,8,0:0:0:0:
218,34,53518,1,0,0:0:0:0:
280,31,53611,1,0,0:0:0:0:
342,29,53703,6,0,B|331:62|356:97|356:97|378:131|370:178,1,156.25,8|0,0:0|0:0,0:0:0:0:
298,271,53981,1,8,0:0:0:0:
287,263,54074,2,0,P|320:253|358:255,1,62.5
489,55,54259,2,0,P|457:54|428:45,1,62.5
211,263,54444,2,0,P|244:273|282:271,1,62.5
455,132,54629,6,0,B|412:180|412:180|452:238,1,125.000004768372,8|0,0:0|0:0,0:0:0:0:
437,327,54814,2,0,B|480:279|480:279|440:221,1,125.000004768372
300,152,54999,2,0,B|276:170|276:170|242:139|184:150,2,104.166666666667,4|0|0,0:0|0:0|0:0,0:0:0:0:
256,360,55370,6,0,P|175:369|110:238,1,234.375008940697,4|0,0:0|0:0,0:0:0:0:
118,232,55925,1,4,0:0:0:0:
394,69,56111,6,0,L|399:134,1,62.5,8|0,0:0|0:0,0:0:0:0:
211,263,56357,6,0,B|233:199|233:199|225:158|225:158|251:81,1,187.500007152558,8|0,0:0|0:0,0:0:0:0:
469,176,56604,6,0,P|432:207|374:208,1,93.7500035762788,8|0,0:0|0:0,0:0:0:0:
153,317,56851,6,0,B|195:298|231:312|231:312|270:330|315:306,1,140.625005364418,4|0,0:0|0:0,0:0:0:0:
357,274,57222,2,0,L|361:223,2,46.8750017881394
481,366,57499,1,0,0:0:0:0:
460,298,57592,6,0,P|461:221|525:176,1,140.625005364418,4|0,0:0|0:0,0:0:0:0:
505,181,57962,2,0,B|474:170|474:170|439:178,1,62.5
212,210,58148,2,0,B|243:222|243:222|278:214,1,62.5
410,384,58333,6,0,B|356:335|369:262|369:262|355:289|325:307,1,187.500007152558,4|0,0:0|0:0,0:0:0:0:
36,280,58597,1,0,0:0:0:0:
25,283,58685,2,0,B|35:330|35:330|163:314,1,140.625005364418,8|0,0:0|0:0,0:0:0:0:
200,368,58862,2,0,B|217:310|217:310|195:272|195:272|215:197,1,168.749994850159
409,182,59038,5,4,0:0:0:0:
409,182,59127,1,0,0:0:0:0:
409,182,59215,2,0,B|474:172|474:172|400:212,1,125
259,126,59391,2,0,P|231:74|251:5,1,125,8|0,0:0|0:0,0:0:0:0:
329,1,59568,2,0,P|357:53|337:122,1,125
211,209,59744,6,0,L|138:192,1,62.5,4|0,0:0|0:0,0:0:0:0:
334,300,60009,1,0,0:0:0:0:
334,300,60097,2,0,L|443:274,1,93.7500035762788,8|0,0:0|0:0,0:0:0:0:
172,384,60274,2,0,P|93:347|139:264,1,187.5
150,194,60450,6,0,L|134:126,1,62.5,6|0,0:0|0:0,0:0:0:0:
359,53,60627,2,0,L|343:121,1,62.5,2|2,0:0|0:0,0:0:0:0:
24,32,60803,2,0,B|105:49|105:49|102:33|105:49|105:49|213:70,1,187.5,8|0,0:0|0:0,0:0:0:0:
431,81,60980,2,0,B|415:131|415:131|343:113,1,125,2|0,0:0|0:0,0:0:0:0:
279,48,61156,6,0,L|271:2,1,46.8750017881394,4|0,0:0|0:0,0:0:0:0:
46,228,61333,1,0,0:0:0:0:
46,228,61421,1,0,0:0:0:0:
46,228,61509,2,0,B|71:251|71:251|125:244|125:244|141:207,1,125,8|0,0:0|0:0,0:0:0:0:
379,249,61685,2,0,B|205:272|205:272|245:173,1,250,0|4,0:0|0:0,0:0:0:0:
444,305,61950,2,0,L|513:328,1,62.5
435,189,62127,5,0,0:0:0:0:
435,189,62215,2,0,L|461:76,1,93.7500035762788,8|0,0:0|0:0,0:0:0:0:
477,6,62391,2,0,L|455:97,1,93.7500035762788
380,249,62568,5,4,0:0:0:0:
308,228,62656,5,0,0:0:0:0:
236,206,62744,5,0,0:0:0:0:
163,184,62833,5,0,0:0:0:0:
147,108,62921,6,0,L|134:49,1,46.8750017881394,8|0,0:0|0:0,0:0:0:0:
179,363,63097,6,0,B|228:352|228:352|260:302,1,93.7500035762788
168,276,63274,6,0,B|-16:310|-16:310|98:337,1,281.250010728836,4|0,0:0|0:0,0:0:0:0:
389,384,63627,2,0,B|478:337|432:179|327:225|307:274|344:317,1,281.250010728836,8|0,0:0|0:0,0:0:0:0:
57,55,63980,2,0,B|-17:28|-17:28|28:202|28:202|89:118,1,337.499989700318,4|0,0:0|0:0,0:0:0:0:
313,54,64333,6,0,L|236:64,1,62.5,8|0,0:0|0:0,0:0:0:0:
154,77,64509,1,0,0:0:0:0:
438,31,64685,5,4,0:0:0:0:
438,31,64774,1,0,0:0:0:0:
438,31,64862,2,0,P|433:52|433:25,1,93.7500035762788
198,168,65038,6,0,P|224:188|206:160,1,93.7500035762788,8|0,0:0|0:0,0:0:0:0:
505,101,65215,6,0,B|459:145|459:145|393:133,1,125
216,27,65391,6,0,P|307:162|285:265,1,250,4|0,0:0|0:0,0:0:0:0:
208,316,65656,1,0,0:0:0:0:
203,305,65744,2,0,L|277:318,1,62.5,8|0,0:0|0:0,0:0:0:0:
371,383,65921,2,0,P|379:339|332:308,1,93.7500035762788
112,144,66097,5,6,0:0:0:0:
114,124,66185,1,0,0:0:0:0:
132,127,66274,1,2,0:0:0:0:
129,146,66362,1,2,0:0:0:0:
43,172,66450,6,0,B|30:180|30:180|187:208|187:208|166:222,1,187.5,8|0,0:0|0:0,0:0:0:0:
111,275,66627,6,0,B|104:298|104:298|119:269,1,46.875,2|0,0:0|0:0,0:0:0:0:
228,89,66803,6,0,P|307:185|370:-1,1,375,4|0,0:0|0:0,0:0:0:0:
328,88,67156,1,8,0:0:0:0:
508,284,67333,6,0,B|387:261|387:261|315:309,1,187.500007152558,0|4,0:0|0:0,0:0:0:0:
444,352,67597,6,0,B|357:336|357:336|334:297|334:297|253:281,1,212.500004053116
170,270,67862,6,0,L|182:313,1,31.25,8|0,0:0|0:0,0:0:0:0:
199,376,68038,1,0,0:0:0:0:
63,54,68215,5,4,0:0:0:0:
49,49,68304,1,0,0:0:0:0:
43,64,68392,1,0,0:0:0:0:
59,69,68480,1,0,0:0:0:0:
91,148,68568,5,0,0:0:0:0:
137,116,68656,1,0,0:0:0:0:
152,62,68744,1,0,0:0:0:0:
135,7,68833,1,0,0:0:0:0:
0,206,68921,6,0,P|29:209|64:229,1,62.5
170,321,69097,2,0,P|188:343|198:382,1,62.5
0,313,69274,6,0,L|73:302,1,62.5
242,278,69450,2,0,L|315:267,1,62.5
418,327,69627,6,0,B|363:379|363:379|305:260|417:182,1,281.250010728836,4|0,0:0|0:0,0:0:0:0:
512,108,69980,6,0,P|479:129|413:110,1,93.7500035762788,8|0,0:0|0:0,0:0:0:0:
292,6,70156,1,0,0:0:0:0:
476,7,70332,5,4,0:0:0:0:
476,7,70421,1,0,0:0:0:0:
476,7,70509,2,0,L|454:67,1,46.8750017881394
224,55,70685,6,0,B|178:43|178:43|120:87,1,93.7500035762788,8|0,0:0|0:0,0:0:0:0:
58,86,70862,2,0,B|104:98|104:98|162:54,1,93.7500035762788
399,194,71038,6,0,L|73:258,1,318.750006079674,4|0,0:0|0:0,0:0:0:0:
61,347,71391,6,0,P|52:320|93:251,1,106.250002026558,8|0,0:0|0:0,0:0:0:0:
48,45,71568,2,0,P|75:36|144:77,1,106.250002026558
375,340,71744,5,6,0:0:0:0:
396,333,71832,1,0,0:0:0:0:
396,312,71921,1,2,0:0:0:0:
375,305,72009,1,2,0:0:0:0:
361,322,72097,2,0,L|299:310,1,46.8750017881394,8|0,0:0|0:0,0:0:0:0:
61,347,72274,2,0,L|-1:335,1,46.8750017881394,2|0,0:0|0:0,0:0:0:0:
113,174,72450,6,0,B|177:208|204:280|204:280|251:218|322:206,1,281.250010728836,4|0,0:0|0:0,0:0:0:0:
166,3,72803,6,0,B|190:-12|190:-12|162:106,1,125,8|0,0:0|0:0,0:0:0:0:
287,35,72980,6,0,B|350:52|350:52|80:96,1,250,0|4,0:0|0:0,0:0:0:0:
48,128,73244,2,0,B|-15:111|-15:111|255:67,1,250
232,155,73509,5,8,0:0:0:0:
205,160,73597,1,0,0:0:0:0:
177,164,73685,1,0,0:0:0:0:
150,168,73773,1,0,0:0:0:0:
140,292,73862,5,4,0:0:0:0:
132,281,73950,1,0,0:0:0:0:
142,274,74038,1,0,0:0:0:0:
149,284,74127,1,0,0:0:0:0:
210,346,74215,6,0,B|253:303|253:303|216:235,1,125,8|0,0:0|0:0,0:0:0:0:
72,225,74391,2,0,B|29:268|29:268|66:336,1,125
418,384,74568,6,0,P|341:305|403:131,1,281.250010728836,4|0,0:0|0:0,0:0:0:0:
442,101,74921,2,0,B|533:142|533:142|279:104,1,328.125003129244,8|0,0:0|0:0,0:0:0:0:
222,97,75274,2,0,B|217:49|242:22|242:22|277:103|216:193|90:180,1,346.874998676777,4|0,2:0|2:0,2:0:0:0:
47,110,75627,6,0,L|53:76,1,31.25,8|0,0:0|0:0,0:0:0:0:
25,227,75803,6,0,B|12:300|12:300|143:321,1,187.500007152558,0|4,0:0|0:0,0:0:0:0:
343,325,76068,1,0,0:0:0:0:
343,325,76156,2,0,P|292:308|323:341,1,140.625005364418
228,384,76332,6,0,P|207:323|243:224,1,140.625005364418,8|0,0:0|0:0,0:0:0:0:
315,207,76509,6,0,P|390:235|427:307,1,164.062501564622
150,10,76685,6,0,B|71:109|151:202|246:198|264:137|270:102|230:77,1,328.125003129244,4|0,0:0|0:0,0:0:0:0:
340,68,77038,2,0,B|386:43|386:43|308:55,1,109.375001043081,8|0,0:0|0:0,0:0:0:0:
30,109,77215,2,0,B|-16:134|-16:134|62:122,1,109.375001043081
219,254,77391,5,6,0:0:0:0:
219,254,77480,1,0,0:0:0:0:
219,254,77568,2,0,B|164:263|164:263|114:230,1,109.375001043081,2|2,0:0|0:0,0:0:0:0:
207,4,77744,6,0,P|212:94|183:172,1,164.062501564622,8|0,0:0|0:0,0:0:0:0:
188,162,77921,2,0,P|183:72|212:-6,1,164.062501564622,2|0,0:0|0:0,0:0:0:0:
375,314,78097,6,0,B|436:224|436:224|198:256,1,328.125003129244,4|0,0:0|0:0,0:0:0:0:
111,331,78450,2,0,B|142:379|142:379|186:345,1,109.375001043081
13,199,78627,6,0,B|122:225|94:138|193:163,1,187.5,4|0,0:0|0:0,0:0:0:0:
43,73,78980,2,0,L|56:133,1,46.8750017881394
306,165,79156,6,0,B|255:108|255:108|280:0,1,187.500007152558,4|0,0:0|0:0,0:0:0:0:
365,82,79421,1,0,0:0:0:0:
349,85,79509,1,4,0:0:0:0:
427,27,80215,6,0,L|446:-10,2,31.2500011920929
445,114,80391,2,0,L|475:141,2,31.2500011920929
366,82,80568,1,0,0:0:0:0:
366,82,80656,1,0,0:0:0:0:
366,82,80744,2,0,L|295:95,1,46.8750017881394
362,330,80921,6,0,B|329:249|373:170|373:170|329:222|262:216,1,281.250010728836,4|0,0:0|0:0,0:0:0:0:
158,368,81274,5,4,0:0:0:0:
156,353,81362,1,0,0:0:0:0:
148,316,81450,5,0,0:0:0:0:
146,301,81538,1,0,0:0:0:0:
138,263,81627,6,0,L|129:206,1,50,4|0,0:0|0:0,0:0:0:0:
481,246,81803,5,0,0:0:0:0:
395,263,81891,1,0,0:0:0:0:
308,279,81980,2,0,P|282:251|272:215,1,74.9999977111817,4|0,0:0|0:0,0:0:0:0:
148,131,82156,2,0,P|184:122|220:131,1,74.9999977111817,0|0,2:2|2:2,2:2:0:0:
384,57,82332,5,4,0:0:0:0:
378,349,82509,5,0,0:0:0:0:
395,263,82597,1,0,0:0:0:0:
411,176,82686,2,0,P|379:170|347:140,1,74.9999977111817,4|0,0:0|0:0,0:0:0:0:
245,313,82862,2,0,P|277:307|308:277,1,74.9999977111817
94,53,83038,6,0,P|42:179|153:116,1,337.499989700318,4|0,0:0|0:0,0:0:0:0:
286,51,83391,6,0,P|235:91|295:66,1,187.5,6|0,0:0|0:0,0:0:0:0:
300,382,83744,6,0,B|353:325|341:247|341:247|223:181|223:181|240:292,1,375,4|0,0:0|0:0,0:0:0:0:
196,27,84097,5,4,0:0:0:0:
198,42,84185,1,0,0:0:0:0:
206,79,84273,5,0,0:0:0:0:
208,94,84361,1,0,0:0:0:0:
216,132,84450,6,0,L|225:189,1,50,4|0,0:0|0:0,0:0:0:0:
91,329,84627,5,0,0:0:0:0:
178,329,84715,1,0,0:0:0:0:
267,328,84804,2,0,P|302:329|340:315,1,74.9999977111817,4|0,0:0|0:0,0:0:0:0:
441,218,84980,2,0,P|406:217|368:231,1,74.9999977111817
362,54,85156,5,4,0:0:0:0:
347,56,85244,1,0,0:0:0:0:
310,64,85332,5,0,0:0:0:0:
295,66,85420,1,0,0:0:0:0:
478,119,85509,5,4,0:0:0:0:
411,131,85597,1,0,0:0:0:0:
344,143,85685,2,0,L|269:151,1,74.9999977111817,2|2,0:0|0:0,0:0:0:0:
312,245,85862,6,0,B|318:285|296:314|296:314|284:302|293:283,1,93.7500035762788,6|2,0:0|0:0,0:0:0:0:
107,103,86038,2,0,B|101:143|122:172|122:172|135:160|126:141,1,93.7500035762788,2|2,0:0|0:0,0:0:0:0:
153,343,86215,6,0,B|148:299|59:308|59:308|189:227|181:369|300:287,1,356.249990487099,6|0,0:0|0:0,0:0:0:0:
411,131,86568,6,0,B|367:104|360:33|360:33|330:143|418:212,1,300,4|0,0:0|0:0,0:0:0:0:
182,317,86921,5,4,0:0:0:0:
197,314,87009,1,0,0:0:0:0:
234,306,87097,5,0,0:0:0:0:
249,304,87185,1,0,0:0:0:0:
287,296,87274,6,0,L|344:287,1,50,4|0,0:0|0:0,0:0:0:0:
71,250,87450,5,0,0:0:0:0:
156,233,87538,1,0,0:0:0:0:
243,214,87627,2,0,P|252:178|247:141,1,74.9999977111817,4|0,0:0|0:0,0:0:0:0:
375,36,87803,2,0,P|369:72|379:108,1,74.9999977111817
336,288,87980,5,4,0:0:0:0:
207,43,88156,5,0,0:0:0:0:
224,127,88244,1,0,0:0:0:0:
243,214,88333,2,0,P|279:223|315:218,1,74.9999977111817,4|0,0:0|0:0,0:0:0:0:
452,104,88509,2,0,P|415:98|379:108,1,74.9999977111817
242,213,88685,6,0,P|190:339|301:276,1,337.499989700318,4|0,0:0|0:0,0:0:0:0:
462,194,89038,6,0,P|411:234|471:209,1,187.5,6|0,0:0|0:0,0:0:0:0:
242,213,89391,5,6,0:0:0:0:
245,191,89480,1,2,0:0:0:0:
154,162,89568,5,0,0:0:0:0:
151,140,89656,1,2,0:0:0:0:
290,106,89744,5,6,0:0:0:0:
352,148,89832,6,0,B|304:118|248:153|248:153|210:172|150:139,1,212.500004053116,0|2,0:0|0:0,0:0:0:0:
162,311,90097,6,0,B|160:284|160:284|148:266|148:266|146:240,1,74.9999977111817,6|2,0:0|0:0,0:0:0:0:
352,148,90274,2,0,B|349:174|349:174|337:192|337:192|335:219,1,74.9999977111817,2|0,0:0|0:0,0:0:0:0:
469,321,90450,6,0,B|419:333|379:312|379:312|331:342|331:342|292:319|243:338,1,237.499993658066,6|2,0:0|0:0,0:0:0:0:
297,227,90715,1,0,0:0:0:0:
321,209,90803,6,0,L|329:147,1,62.5,6|2,0:0|0:0,0:0:0:0:
415,171,91068,2,0,L|423:109,1,62.5
152,268,91332,6,0,L|143:206,1,62.5,0|2,0:0|0:0,0:0:0:0:
58,230,91597,2,0,L|49:168,1,62.5
245,336,91862,6,0,P|240:384|278:353,1,125,6|0,0:0|0:0,0:0:0:0:
202,145,92038,2,0,P|206:96|168:127,1,125,8|0,0:0|0:0,0:0:0:0:
410,305,92215,6,0,B|372:259|381:160|473:132|480:257|385:272|385:272|350:271|324:248,1,318.750006079674,4|0,0:0|0:0,0:0:0:0:
482,93,92568,5,8,0:0:0:0:
467,96,92656,1,0,0:0:0:0:
430,104,92744,5,0,0:0:0:0:
415,106,92832,1,0,0:0:0:0:
377,114,92921,6,0,L|320:123,1,50,4|0,0:0|0:0,0:0:0:0:
130,303,93097,5,0,0:0:0:0:
216,313,93185,1,0,0:0:0:0:
304,321,93274,2,0,P|339:324|376:347,1,74.9999977111817,8|0,0:0|0:0,0:0:0:0:
491,213,93450,2,0,P|459:227|415:226,1,74.9999977111817
267,241,93627,5,4,0:0:0:0:
443,147,93803,5,0,0:0:0:0:
357,157,93891,1,0,0:0:0:0:
269,165,93980,2,0,P|234:168|197:191,1,74.9999977111817,8|0,0:0|0:0,0:0:0:0:
82,57,94156,2,0,P|113:71|157:70,1,74.9999977111817
86,214,94332,6,0,P|21:328|146:287,1,337.499989700318,4|0,0:0|0:0,0:0:0:0:
333,233,94685,6,0,P|282:273|342:248,1,187.5,10|0,0:0|0:0,0:0:0:0:
116,139,95038,6,0,B|141:122|126:71|81:57|81:57|11:100|31:194|85:213,1,300,4|0,0:0|0:0,0:0:0:0:
233,327,95391,5,8,0:0:0:0:
230,312,95479,1,0,0:0:0:0:
222,275,95567,5,0,0:0:0:0:
220,260,95655,1,0,0:0:0:0:
212,222,95744,6,0,L|203:165,1,50,4|0,0:0|0:0,0:0:0:0:
343,367,95921,5,0,0:0:0:0:
327,281,96009,1,0,0:0:0:0:
312,194,96098,2,0,L|300:111,1,74.9999977111817,8|0,0:0|0:0,0:0:0:0:
401,33,96274,2,0,L|413:116,1,74.9999977111817
234,184,96450,5,4,0:0:0:0:
249,186,96538,1,0,0:0:0:0:
286,194,96626,5,0,0:0:0:0:
301,196,96714,1,0,0:0:0:0:
118,247,96803,5,8,0:0:0:0:
185,259,96891,1,0,0:0:0:0:
252,271,96979,2,0,L|327:281,1,74.9999977111817,2|2,0:0|0:0,0:0:0:0:
89,126,97156,6,0,B|95:94|82:77|82:77|74:95|58:104,1,87.499997329712,6|2,0:0|0:0,0:0:0:0:
325,26,97332,2,0,B|319:58|332:75|332:75|340:57|355:47,1,87.499997329712,2|2,0:0|0:0,0:0:0:0:
218,188,97509,6,0,P|173:254|251:270,1,187.5,10|0,0:0|0:0,0:0:0:0:
244,107,97862,6,0,B|203:73|200:16|200:16|174:124|218:188,1,281.250010728836,4|0,0:0|0:0,0:0:0:0:
403,214,98215,5,8,0:0:0:0:
388,211,98303,1,0,0:0:0:0:
351,203,98391,5,4,0:0:0:0:
336,201,98479,1,0,0:0:0:0:
298,193,98568,6,0,L|248:185,1,50,4|0,0:0|0:0,0:0:0:0:
501,307,98744,5,0,0:0:0:0:
413,295,98832,1,0,0:0:0:0:
325,282,98921,2,0,L|250:270,1,74.9999977111817,8|0,0:0|0:0,0:0:0:0:
136,339,99097,2,0,L|210:350,1,74.9999977111817,4|0,0:0|0:0,0:0:0:0:
298,193,99274,5,4,0:0:0:0:
98,90,99450,5,0,0:0:0:0:
112,176,99538,1,0,0:0:0:0:
125,264,99627,2,0,L|135:338,1,74.9999977111817,8|0,0:0|0:0,0:0:0:0:
414,90,99803,5,4,0:0:0:0:
399,175,99891,1,0,0:0:0:0:
387,264,99980,2,0,L|376:338,1,74.9999977111817,4|0,0:0|0:0,0:0:0:0:
255,12,100156,5,2,0:0:0:0:
256,98,100244,1,0,0:0:0:0:
257,187,100333,2,0,L|257:262,1,74.9999977111817,10|0,0:0|0:0,0:0:0:0:
480,260,100509,5,4,0:0:0:0:
370,261,100597,1,0,0:0:0:0:
257,262,100685,5,6,0:0:0:0:
236,319,100950,5,0,0:0:0:0:
176,318,101215,5,0,0:0:0:0:
159,260,101480,5,0,0:0:0:0:
208,226,101744,5,2,0:0:0:0:
497,302,101921,5,0,0:0:0:0:
411,312,102009,1,0,0:0:0:0:
323,320,102098,6,0,P|288:323|251:346,1,74.9999977111817
136,212,102274,2,0,P|167:226|211:225,1,74.9999977111817
434,141,102450,5,0,0:0:0:0:
430,162,102538,1,0,0:0:0:0:
339,197,102627,5,0,0:0:0:0:
343,218,102715,1,0,0:0:0:0:
411,312,102803,6,0,P|349:365|382:291,1,224.999993133545,6|0,0:0|0:0,0:0:0:0:
118,346,103068,6,0,P|102:266|150:332,1,224.999993133545,6|0,0:0|0:0,0:0:0:0:
274,53,103332,6,0,P|312:66|271:70,1,112.499996566773,4|0,0:0|0:0,0:0:0:0:
152,106,103509,6,0,B|197:48|197:48|274:135|274:135|200:245,1,281.250010728836,4|0,0:0|0:0,0:0:0:0:
239,331,103857,6,0,L|127:324,1,112.499996566773,8|0,0:0|0:0,0:0:0:0:
317,269,104119,2,0,L|456:277,1,112.499996566773,4|0,0:0|0:0,0:0:0:0:
497,96,104381,6,0,P|432:83|398:99,1,87.499997329712,4|0,0:0|0:0,0:0:0:0:
457,340,104555,6,0,B|465:275|465:275|441:233|441:233|448:160,1,187.5,8|0,0:0|0:0,0:0:0:0:
376,299,104904,6,0,B|276:282|276:282|229:190|229:190|336:209,1,281.250010728836,4|0,0:0|0:0,0:0:0:0:
164,233,105253,6,0,P|161:143|220:106,1,125,8|0,0:0|0:0,0:0:0:0:
223,350,105514,2,0,L|75:333,1,125,4|0,0:0|0:0,0:0:0:0:
25,186,105776,6,0,L|30:261,1,74.9999977111817,4|0,0:0|0:0,0:0:0:0:
6,65,105950,5,8,0:0:0:0:
1,73,106038,2,0,B|62:90|62:90|74:246,1,187.500007152558
94,336,106299,6,0,B|203:351|203:351|245:306|245:306|383:325,1,262.499991989136,4|0,0:0|0:0,0:0:0:0:
439,362,106648,6,0,B|445:273|445:273|481:313,1,125,8|0,0:0|0:0,0:0:0:0:
339,143,106910,2,0,B|333:232|333:232|297:192,1,125,4|0,0:0|0:0,0:0:0:0:
308,67,107171,6,0,P|374:64|394:78,1,74.9999977111817,4|0,0:0|0:0,0:0:0:0:
309,205,107346,6,0,B|233:193|233:193|197:227|197:227|110:213,1,206.250006294251,8|0,0:0|0:0,0:0:0:0:
309,205,107695,6,0,P|356:155|250:177,1,262.499991989136,4|0,0:0|0:0,0:0:0:0:
341,271,108043,6,0,B|406:255|406:255|431:187,1,125,8|0,0:0|0:0,0:0:0:0:
270,16,108305,2,0,B|205:32|205:32|180:100,1,125,4|0,0:0|0:0,0:0:0:0:
94,285,108567,6,0,L|86:196,1,74.9999977111817,4|0,0:0|0:0,0:0:0:0:
78,86,108741,5,8,0:0:0:0:
74,96,108828,2,0,B|135:126|135:126|220:83,1,125
270,27,109090,6,0,B|261:130|261:130|290:187|290:187|274:336,1,281.250010728836,4|0,0:0|0:0,0:0:0:0:
190,217,109439,6,0,B|96:226|96:226|149:260,1,137.500004196167,8|0,0:0|0:0,0:0:0:0:
346,111,109700,2,0,B|440:102|440:102|387:68,1,137.500004196167,4|0,0:0|0:0,0:0:0:0:
263,109,109962,6,0,L|279:177,1,56.2499982833863,4|0,0:0|0:0,0:0:0:0:
292,53,110136,6,0,B|267:103|267:103|282:170|282:170|249:224,1,187.5,8|0,0:0|0:0,0:0:0:0:
139,129,110485,6,0,B|240:153|240:153|301:127|301:127|406:155,1,262.499991989136,4|0,0:0|0:0,0:0:0:0:
330,330,110834,6,0,B|300:286|300:286|307:187,1,125,8|0,0:0|0:0,0:0:0:0:
139,129,111096,2,0,B|169:173|169:173|162:272,1,125,4|0,0:0|0:0,0:0:0:0:
47,349,111357,6,0,L|53:269,1,74.9999977111817,4|0,0:0|0:0,0:0:0:0:
61,115,111532,5,8,0:0:0:0:
137,129,111619,2,0,P|116:62|59:41,1,125
129,209,111881,6,0,L|218:218,1,68.7500020980836,6|0,0:0|0:0,0:0:0:0:
257,141,112055,2,0,L|343:148,1,68.7500020980836,2|0,0:0|0:0,0:0:0:0:
448,45,112229,6,0,L|443:129,1,68.7500020980836,2|0,0:0|0:0,0:0:0:0:
428,318,112404,2,0,L|435:235,1,68.7500020980836,0|4,0:0|0:0,0:0:0:0:
443,110,112578,5,2,0:0:0:0:
394,61,112665,1,2,0:0:0:0:
325,50,112753,1,4,0:0:0:0:
262,77,112840,1,2,0:0:0:0:
178,114,112927,5,10,0:0:0:0:
178,132,113014,1,0,0:0:0:0:
256,164,113102,1,0,0:0:0:0:
256,182,113189,1,0,0:0:0:0:
428,318,113276,6,0,L|337:331,1,68.7500020980836,6|0,0:0|0:0,0:0:0:0:
280,274,113450,2,0,L|191:287,1,68.7500020980836,2|0,0:0|0:0,0:0:0:0:
84,318,113625,6,0,L|77:235,1,68.7500020980836,2|0,0:0|0:0,0:0:0:0:
64,45,113799,2,0,L|69:129,1,68.7500020980836,2|4,0:0|0:0,0:0:0:0:
78,249,113974,5,2,0:0:0:0:
133,288,114061,1,2,0:0:0:0:
202,292,114149,1,4,0:0:0:0:
258,253,114236,1,2,0:0:0:0:
372,250,114322,5,10,0:0:0:0:
372,232,114409,1,0,0:0:0:0:
300,184,114497,1,0,0:0:0:0:
300,166,114584,1,0,0:0:0:0:
434,59,114671,6,0,B|424:164|424:164|451:211|451:211|432:375,1,281.250010728836,4|0,0:0|0:0,0:0:0:0:
242,379,115020,6,0,L|257:255,1,125,8|0,0:0|0:0,0:0:0:0:
131,223,115282,2,0,L|147:99,1,125,4|0,0:0|0:0,0:0:0:0:
77,288,115543,6,0,P|130:307|179:292,1,87.499997329712,4|0,0:0|0:0,0:0:0:0:
327,110,115718,6,0,B|246:115|246:115|215:94|215:94|111:101,1,187.5,8|0,0:0|0:0,0:0:0:0:
327,110,116067,6,0,P|389:50|394:163,1,262.499991989136,4|0,0:0|0:0,0:0:0:0:
300,239,116415,6,0,B|396:249|396:249|353:285,1,125,8|0,0:0|0:0,0:0:0:0:
233,330,116677,2,0,B|137:320|137:320|180:284,1,125,4|0,0:0|0:0,0:0:0:0:
231,129,116939,6,0,P|241:171|220:221,1,87.499997329712,4|0,0:0|0:0,0:0:0:0:
17,160,117113,5,8,0:0:0:0:
17,160,117200,2,0,B|93:136|93:136|190:171,1,149.999995422363
450,72,117462,6,0,B|382:69|382:69|331:36|331:36|232:34|232:34|278:76,1,281.250010728836,4|0,0:0|0:0,0:0:0:0:
328,145,117811,6,0,B|347:178|347:178|316:282,1,125,8|0,0:0|0:0,0:0:0:0:
222,328,118072,2,0,B|203:295|203:295|227:211,1,125,4|0,0:0|0:0,0:0:0:0:
323,262,118334,6,0,L|432:271,1,87.499997329712,4|0,0:0|0:0,0:0:0:0:
227,211,118509,6,0,B|147:201|147:201|125:221|125:221|10:209,1,187.5,8|0,0:0|0:0,0:0:0:0:
98,140,118857,6,0,P|55:44|157:72,1,262.499991989136,4|0,0:0|0:0,0:0:0:0:
184,152,119206,6,0,B|155:200|155:200|179:324,1,137.500004196167,8|0,0:0|0:0,0:0:0:0:
305,356,119468,2,0,L|289:273,1,68.7500020980836
271,187,119642,5,0,0:0:0:0:
323,166,119729,1,0,0:0:0:0:
376,185,119817,1,0,0:0:0:0:
444,235,119904,6,0,L|452:180,7,37.4999988555909,8|0|0|0|0|0|0|0,0:0|0:0|0:0|0:0|0:0|0:0|0:0|0:0,0:0:0:0:
469,86,120253,6,0,P|390:101|348:-9,1,206.250006294251,6|0,0:0|0:0,0:0:0:0:
415,27,120602,1,6,0:0:0:0:
137,158,120776,1,0,0:0:0:0:
137,158,120863,1,0,0:0:0:0:
137,158,120950,6,0,L|146:227,1,50,6|0,0:0|0:0,0:0:0:0:
235,275,121125,2,0,L|225:209,1,50,2|0,0:0|0:0,0:0:0:0:
48,91,121299,6,0,L|60:181,1,56.2499982833863,4|0,0:0|0:0,0:0:0:0:
321,335,121474,2,0,L|309:254,1,56.2499982833863,2|0,0:0|0:0,0:0:0:0:
295,98,121648,6,0,L|396:86,1,62.5,6|0,0:0|0:0,0:0:0:0:
411,149,121822,2,0,L|514:136,1,62.5
217,56,121997,6,0,L|138:45,1,74.9999977111817,6|0,0:0|0:0,0:0:0:0:
101,107,122171,2,0,L|25:96,1,74.9999977111817,2|0,0:0|0:0,0:0:0:0:
180,179,122346,6,0,B|162:224|162:224|183:289,1,87.499997329712,4|0,0:0|0:0,0:0:0:0:
283,346,122520,2,0,B|301:301|301:301|280:236,1,87.499997329712,2|0,0:0|0:0,0:0:0:0:
180,179,122695,6,0,B|226:156|226:156|303:187,1,93.7500035762788,6|0,0:0|0:0,0:0:0:0:
283,346,122869,2,0,B|237:369|237:369|160:338,1,93.7500035762788
110,296,123043,6,0,L|101:163,1,106.250002026558,6|0,0:0|0:0,0:0:0:0:
350,231,123218,2,0,L|343:111,1,106.250002026558,6|0,0:0|0:0,0:0:0:0:
33,176,123392,6,0,L|25:54,1,106.250002026558,4|0,0:0|0:0,0:0:0:0:
282,345,123567,2,0,L|277:239,1,106.250002026558,6|0,0:0|0:0,0:0:0:0:
141,211,123741,6,0,B|121:162|121:162|140:111,1,107.50000164032,6|0,0:0|0:0,0:0:0:0:
326,46,123915,2,0,B|347:96|347:96|328:147,1,107.50000164032,4|0,0:0|0:0,0:0:0:0:
276,238,124090,6,0,B|329:257|329:257|398:231,1,107.50000164032,6|0,0:0|0:0,0:0:0:0:
206,26,124264,2,0,B|151:9|151:9|78:32,1,107.50000164032,6|0,0:0|0:0,0:0:0:0:
33,192,124439,5,4,0:0:0:0:
37,213,124526,1,0,0:0:0:0:
109,193,124613,5,4,0:0:0:0:
113,214,124700,1,0,0:0:0:0:
187,198,124788,5,4,0:0:0:0:
191,219,124875,1,0,0:0:0:0:
263,198,124962,5,4,0:0:0:0:
267,219,125049,1,0,0:0:0:0:
313,317,125136,6,0,P|376:343|439:319,1,88.7499955310824,4|0,0:0|0:0,0:0:0:0:
465,134,125311,2,0,P|402:108|339:132,1,88.7499955310824,6|0,0:0|0:0,0:0:0:0:
310,156,125485,2,0,P|288:193|286:237,1,88.7499955310824,4|0,0:0|0:0,0:0:0:0:
468,303,125660,2,0,P|491:264|493:221,1,88.7499955310824,6|0,0:0|0:0,0:0:0:0:
494,222,125834,6,0,B|460:219|438:184|438:184|392:249|392:249|351:207|351:207|314:246|246:239,1,281.250010728836,4|0,0:0|0:0,0:0:0:0:
193,353,126178,2,0,B|136:303|136:303|159:185,1,187.500007152558,8|0,0:0|0:0,0:0:0:0:
16,129,126437,6,0,L|32:237,1,93.7500035762788,4|0,0:0|0:0,0:0:0:0:
126,7,126609,1,0,0:0:0:0:
126,7,126696,2,0,L|110:115,1,93.7500035762788,4|0,0:0|0:0,0:0:0:0:
272,26,126868,6,0,B|205:42|205:42|186:80|186:80|93:105,1,187.500007152558,8|0,0:0|0:0,0:0:0:0:
294,235,127127,2,0,P|383:170|262:143,1,281.250010728836
211,309,127471,5,0,0:0:0:0:
211,309,127558,2,0,B|184:321|166:349|166:349|197:184,1,187.500007152558,8|0,0:0|0:0,0:0:0:0:
47,163,127816,5,4,0:0:0:0:
47,163,127902,1,0,0:0:0:0:
47,163,127989,1,0,0:0:0:0:
47,163,128075,2,0,L|58:282,1,93.7500035762788,4|0,0:0|0:0,0:0:0:0:
384,127,128247,6,0,B|345:130|314:107|314:107|268:156|268:156|242:119|242:119|183:142|89:68,1,281.250010728836,8|0,0:0|0:0,0:0:0:0:
33,38,128592,2,0,L|48:173,1,125,4|0,0:0|0:0,0:0:0:0:
55,256,128851,1,0,0:0:0:0:
55,256,128937,2,0,L|64:346,1,46.8750017881394,8|0,0:0|0:0,0:0:0:0:
204,361,129109,5,0,0:0:0:0:
261,294,129196,2,0,B|299:253|299:253|143:273,1,187.500007152558,4|0,0:0|0:0,0:0:0:0:
330,155,129454,2,0,P|397:228|400:254,1,93.7500035762788,4|0,0:0|0:0,0:0:0:0:
130,185,129627,6,0,B|139:118|139:118|155:100|155:100|143:81|143:81|152:-12,1,187.500007152558,8|0,0:0|0:0,0:0:0:0:
238,58,129885,6,0,P|249:106|226:158,1,93.7500035762788,4|0,0:0|0:0,0:0:0:0:
33,234,130058,1,0,0:0:0:0:
33,234,130144,2,0,P|22:187|44:130,1,93.7500035762788,4|0,0:0|0:0,0:0:0:0:
282,236,130316,6,0,B|217:249|217:249|192:286|192:286|71:310,1,187.500007152558,8|0,0:0|0:0,0:0:0:0:
390,304,130575,2,0,B|425:220|425:220|359:134,1,187.500007152558,4|0,0:0|0:0,0:0:0:0:
487,36,130834,2,0,L|476:136,1,93.7500035762788,4|0,0:0|0:0,0:0:0:0:
129,123,131006,6,0,B|161:133|204:111|204:111|248:161|248:161|304:120|304:120|339:149|384:142,1,281.250010728836,8|0,0:0|0:0,0:0:0:0:
246,10,131351,6,0,B|249:66|224:105|224:105|272:147|272:147|232:207|246:279,1,281.250010728836,4|0,0:0|0:0,0:0:0:0:
304,343,131696,2,0,P|404:363|471:301,1,187.500007152558,8|0,0:0|0:0,0:0:0:0:
502,215,131954,6,0,P|447:126|411:115,1,93.7500035762788,4|0,0:0|0:0,0:0:0:0:
331,199,132127,1,0,0:0:0:0:
331,199,132213,2,0,P|386:288|422:299,1,93.7500035762788,4|0,0:0|0:0,0:0:0:0:
328,43,132385,6,0,B|371:47|371:47|361:92|361:92|231:82,1,187.500007152558,8|0,0:0|0:0,0:0:0:0:
7,192,132644,2,0,B|61:203|102:172|102:172|150:223|150:223|200:176|276:196,1,281.250010728836
406,313,132989,5,0,0:0:0:0:
406,313,133075,2,0,B|357:357|357:357|222:325,1,187.500007152558,8|0,0:0|0:0,0:0:0:0:
137,384,133334,1,4,0:0:0:0:
137,384,133420,2,0,L|124:284,1,93.7500035762788
347,156,133592,2,0,L|334:256,1,93.7500035762788,4|0,0:0|0:0,0:0:0:0:
70,100,133765,6,0,B|34:116|34:116|225:147|225:147|114:186,1,281.250010728836,8|0,0:0|0:0,0:0:0:0:
76,207,134109,6,0,B|-13:242|-13:242|83:271,1,187.500007152558,4|0,0:0|0:0,0:0:0:0:
187,295,134368,1,0,0:0:0:0:
186,357,134454,2,0,B|275:322|275:322|179:293,1,187.500007152558,8|0,0:0|0:0,0:0:0:0:
341,171,134713,5,4,0:0:0:0:
431,152,134799,2,0,B|418:219|418:219|381:244|381:244|357:365,1,187.500007152558,0|4,0:0|0:0,0:0:0:0:
184,116,135058,1,0,0:0:0:0:
184,116,135144,2,0,B|278:102|278:102|344:174,1,187.500007152558,8|0,0:0|0:0,0:0:0:0:
246,307,135402,6,0,P|223:198|214:179,1,93.7500035762788,4|0,0:0|0:0,0:0:0:0:
447,60,135575,1,0,0:0:0:0:
447,60,135661,2,0,P|435:105|431:152,1,93.7500035762788,4|0,0:0|0:0,0:0:0:0:
509,231,135834,6,0,B|442:244|442:244|417:281|417:281|296:305,1,187.500007152558,8|0,0:0|0:0,0:0:0:0:
166,361,136092,2,0,P|161:267|237:213,1,187.500007152558,4|0,0:0|0:0,0:0:0:0:
39,155,136351,2,0,L|53:307,1,93.7500035762788,4|0,0:0|0:0,0:0:0:0:
322,155,136523,6,0,B|251:115|259:39|259:39|251:115|134:149,1,281.250010728836,8|0,0:0|0:0,0:0:0:0:
141,20,136868,6,0,B|252:98|252:98|399:30,1,281.250010728836,4|0,0:0|0:0,0:0:0:0:
502,172,137213,6,0,B|432:165|432:165|416:153|416:153|397:162|397:162|294:152,1,187.500007152558,8|0,0:0|0:0,0:0:0:0:
160,280,137471,1,4,0:0:0:0:
160,280,137558,2,0,B|144:324|144:324|200:392,1,93.7500035762788
356,324,137730,2,0,B|372:280|372:280|316:212,1,93.7500035762788,4|0,0:0|0:0,0:0:0:0:
220,144,137902,6,0,B|153:160|153:160|134:198|134:198|41:223,1,187.500007152558,8|0,0:0|0:0,0:0:0:0:
0,64,138161,2,0,P|72:-4|44:112,1,281.250010728836
288,236,138506,5,0,0:0:0:0:
288,236,138592,2,0,B|336:176|336:176|296:28,1,187.500007152558,8|0,0:0|0:0,0:0:0:0:
440,0,138851,1,4,0:0:0:0:
440,0,138937,1,0,0:0:0:0:
440,0,139023,1,0,0:0:0:0:
440,0,139109,2,0,L|416:124,1,93.7500035762788,4|0,0:0|0:0,0:0:0:0:
228,144,139282,6,0,B|304:128|304:128|400:200|400:200|564:156,1,281.250010728836,8|0,0:0|0:0,0:0:0:0:
476,152,139627,6,0,B|395:130|395:130|299:202|299:202|223:186,1,281.250010728836,4|0,0:0|0:0,0:0:0:0:
136,280,139971,2,0,P|132:356|184:292,1,187.500007152558,8|0,0:0|0:0,0:0:0:0:
96,200,140230,6,0,P|32:276|32:296,1,93.7500035762788,4|0,0:0|0:0,0:0:0:0:
288,356,140402,1,0,0:0:0:0:
288,356,140489,2,0,P|264:256|244:244,1,93.7500035762788,4|0,0:0|0:0,0:0:0:0:
156,108,140661,6,0,B|212:180|212:180|364:148,1,187.500007152558,8|0,0:0|0:0,0:0:0:0:
436,104,140920,6,0,P|428:208|436:240,1,93.7500035762788,4|0,0:0|0:0,0:0:0:0:
145,372,141092,1,0,0:0:0:0:
145,372,141178,2,0,P|145:325|135:279,1,93.7500035762788,4|0,0:0|0:0,0:0:0:0:
453,291,141351,6,0,B|388:304|388:304|363:341|363:341|242:365,1,187.500007152558,8|0,0:0|0:0,0:0:0:0:
44,248,141609,2,0,P|92:196|204:212,1,187.500007152558,4|0,0:0|0:0,0:0:0:0:
456,188,141868,2,0,P|400:184|356:140,1,93.7500035762788,4|0,0:0|0:0,0:0:0:0:
304,0,142040,6,0,B|308:28|288:48|288:48|312:88|312:88|256:128|256:128|312:172|284:272,1,281.250010728836,8|0,0:0|0:0,0:0:0:0:
220,300,142385,6,0,B|188:340|188:340|364:364|364:364|332:304,1,281.250010728836,4|0,0:0|0:0,0:0:0:0:
156,172,142730,2,0,B|108:132|108:132|132:284,1,187.500007152558,8|0,0:0|0:0,0:0:0:0:
44,360,142989,6,0,P|20:260|0:240,1,93.7500035762788,4|0,0:0|0:0,0:0:0:0:
256,168,143161,1,0,0:0:0:0:
256,168,143247,2,0,P|280:68|300:48,1,93.7500035762788,4|0,0:0|0:0,0:0:0:0:
512,148,143420,6,0,B|424:180|424:180|312:120,1,187.500007152558,8|0,0:0|0:0,0:0:0:0:
436,48,143678,6,0,B|444:104|400:136|400:136|444:196|444:196|380:232|404:344,1,281.250010728836
227,344,144023,1,0,0:0:0:0:
227,344,144109,2,0,P|219:244|255:168,1,187.500007152558,8|0,0:0|0:0,0:0:0:0:
296,56,144368,5,4,0:0:0:0:
296,56,144454,2,0,L|200:72,1,78.125
20,184,144627,2,0,L|116:200,1,78.125,4|0,0:0|0:0,0:0:0:0:
365,321,144799,2,0,L|189:349,1,140.625005364418,8|0,0:0|0:0,0:0:0:0:
140,356,145144,5,0,0:0:0:0:
140,356,145316,1,0,0:0:0:0:
116,260,145489,5,0,0:0:0:0:
116,260,145661,1,0,0:0:0:0:
92,164,145834,5,0,0:0:0:0:
92,164,146006,1,0,0:0:0:0:
64,72,146178,6,0,L|52:20,3,46.8750017881394
156,96,146523,1,0,0:0:0:0:
186,108,146609,1,0,0:0:0:0:
218,112,146695,1,0,0:0:0:0:
250,105,146781,1,0,0:0:0:0:
279,89,146867,5,0,0:0:0:0:
263,138,146954,1,0,0:0:0:0:
274,188,147040,1,0,0:0:0:0:
307,227,147126,1,0,0:0:0:0:
355,244,147213,6,0,P|424:236|440:224,1,62.5
416,44,147385,2,0,P|385:36|354:39,1,62.5
376,144,147558,6,0,L|472:144,1,93.75,4|0,0:0|0:0,0:0:0:0:
469,144,147902,6,0,B|453:181|481:231|481:231|379:244|343:123|414:67,1,318.750006079674,4|0,0:0|0:0,0:0:0:0:
489,51,148247,6,0,P|442:53|399:79,1,93.7500035762788,8|0,0:0|0:0,0:0:0:0:
296,28,148420,2,0,P|262:62|256:116,1,93.7500035762788
148,180,148592,2,0,B|195:179|195:179|178:165|164:140,1,93.7500035762788
72,28,148765,6,0,B|91:68|91:68|78:123,1,93.7500035762788,4|0,0:0|0:0,0:0:0:0:
40,316,148937,2,0,B|21:276|21:276|34:221,1,93.7500035762788,8|0,0:0|0:0,0:0:0:0:
300,204,149109,5,0,0:0:0:0:
300,204,149196,1,0,0:0:0:0:
300,204,149282,2,0,B|281:230|281:230|214:242,1,93.7500035762788,4|0,0:0|0:0,0:0:0:0:
112,264,149454,2,0,B|131:238|131:238|198:226,1,93.7500035762788
357,296,149627,6,0,B|295:306|295:306|274:292|274:292|174:309|174:309|150:343|150:343,1,218.750002086163,8|0,0:0|0:0,0:0:0:0:
424,364,149885,1,0,0:0:0:0:
452,272,149971,2,0,B|480:233|480:233|434:234,1,93.7500035762788
264,360,150144,6,0,P|240:330|276:337,1,93.7500035762788,4|0,0:0|0:0,0:0:0:0:
160,128,150316,2,0,B|196:256|196:256|183:308|118:326|76:286|76:286|79:263|79:233,1,328.125003129244,8|0,0:0|0:0,0:0:0:0:
286,41,150661,6,0,B|309:72|350:77|350:77|288:119|231:70|231:70|178:24|114:47,1,328.125003129244,4|0,0:0|0:0,0:0:0:0:
61,102,151006,6,0,P|69:130|77:162,1,62.5,8|0,0:0|0:0,0:0:0:0:
244,168,151178,2,0,P|272:178|328:172,1,62.5
416,88,151351,2,0,P|386:88|335:112,1,62.5
400,180,151523,1,4,0:0:0:0:
160,128,151696,6,0,B|178:169|178:169|362:210|362:210|400:180,1,281.250010728836,8|0,0:0|0:0,0:0:0:0:
340,32,152040,2,0,P|299:55|278:98,1,93.7500035762788,4|0,0:0|0:0,0:0:0:0:
308,304,152213,2,0,P|341:338|387:352,1,93.7500035762788
448,105,152385,2,0,B|417:151|443:197|443:197|472:240|441:295|389:297|347:261|352:204|402:178,1,328.125003129244,8|0,0:0|0:0,0:0:0:0:
324,128,152730,6,0,P|328:105|332:80,1,46.8750017881394
240,196,152902,2,0,P|244:219|248:244,1,46.8750017881394,4|0,0:0|0:0,0:0:0:0:
56,148,153075,6,0,P|103:151|156:154,1,93.75,8|0,0:0|0:0,0:0:0:0:
324,128,153420,6,0,B|372:156|356:220|356:220|288:247|216:193|211:131|240:70,1,328.125003129244,4|0,0:0|0:0,0:0:0:0:
402,64,153764,6,0,B|442:114|418:209|365:242|365:242|298:261|241:216,1,328.125003129244,8|0,0:0|0:0,0:0:0:0:
286,47,154109,6,0,P|297:101|334:133,1,93.7500035762788
500,180,154282,2,0,P|498:229|496:280,1,93.7500035762788,4|0,0:0|0:0,0:0:0:0:
416,344,154454,2,0,B|368:341|368:341|403:303,1,93.7500035762788,8|0,0:0|0:0,0:0:0:0:
408,216,154627,2,0,P|410:167|412:116,1,93.7500035762788
240,300,154799,6,0,B|201:327|201:327|140:320,1,93.7500035762788,4|0,0:0|0:0,0:0:0:0:
108,160,154971,2,0,B|147:133|147:133|208:140,1,93.7500035762788
280,224,155144,6,0,B|168:213|168:213|78:272,1,218.750002086163,8|0,0:0|0:0,0:0:0:0:
154,321,155402,1,0,0:0:0:0:
184,296,155489,2,0,P|190:339|196:378,1,78.125
360,288,155661,2,0,P|366:236|372:176,1,109.375001043081,4|0,0:0|0:0,0:0:0:0:
284,102,155834,6,0,B|358:102|394:45|394:45|415:112|483:139|483:139|460:113|456:78,1,328.125003129244,8|0,0:0|0:0,0:0:0:0:
212,36,156178,2,0,B|176:4|176:4|212:232|212:232|172:196,1,328.125003129244,4|0,0:0|0:0,0:0:0:0:
40,252,156523,6,0,P|45:207|51:156,1,93.7500035762788,8|0,0:0|0:0,0:0:0:0:
61,65,156696,2,0,P|56:110|50:161,1,93.7500035762788
88,336,156868,6,0,B|45:300|45:300|71:247|118:245|156:284|156:284|193:321|247:298,1,281.250010728836
339,227,157213,2,0,B|390:207|418:246|399:290|345:293|301:254|301:254|260:215|211:230,1,281.250010728836,8|0,0:0|0:0,0:0:0:0:
88,336,157558,6,0,B|159:311|183:223|145:146|145:146|65:120|65:120|110:177,1,375,4|0,0:0|0:0,0:0:0:0:
232,316,157902,5,8,0:0:0:0:
260,336,157989,2,0,P|257:307|256:272,1,46.8750017881394
360,128,158161,2,0,B|390:216|390:216|334:291,1,187.500007152558
188,220,158420,6,0,P|244:210|304:200,1,109.375001043081,4|0,0:0|0:0,0:0:0:0:
464,140,158592,2,0,B|416:123|399:56|399:56|343:119|250:97|250:97|198:132,1,328.125003129244,8|0,0:0|0:0,0:0:0:0:
148,64,158937,6,0,P|65:122|128:137,1,218.750002086163,4|0,0:3|0:0,0:0:0:0:
205,127,159196,1,0,0:0:0:0:
276,176,159282,2,0,B|312:210|312:210|264:216,1,93.7500035762788,8|0,0:0|0:0,0:0:0:0:
48,276,159454,2,0,B|12:242|12:242|60:236,1,93.7500035762788
296,316,159626,2,0,B|315:296|315:296|351:292|351:292|374:310,1,93.7500035762788
132,268,159799,6,0,B|175:288|175:288|225:278,1,93.7500035762788,4|0,0:0|0:0,0:0:0:0:
228,44,159971,2,0,B|271:24|271:24|321:34,1,93.7500035762788,8|0,0:0|0:0,0:0:0:0:
392,220,160144,5,0,0:0:0:0:
392,220,160230,1,0,0:0:0:0:
392,220,160316,2,0,B|349:200|349:200|299:210,1,93.7500035762788,4|0,0:0|0:0,0:0:0:0:
303,209,160489,2,0,B|346:229|346:229|396:219,1,93.7500035762788
212,158,160661,6,0,B|275:187|275:187|354:172|354:172|424:204,1,218.750002086163,8|0,0:0|0:0,0:0:0:0:
296,316,160920,1,0,0:0:0:0:
224,260,161006,2,0,P|187:274|224:276,1,93.7500035762788
292,108,161178,6,0,B|296:62|296:62|336:104,1,93.7500035762788,4|0,0:0|0:0,0:0:0:0:
440,264,161351,2,0,B|465:331|412:397|316:392|294:315|294:315|330:312|375:289,1,328.125003129244,8|0,0:0|0:0,0:0:0:0:
448,162,161696,6,0,B|469:69|469:69|368:140|368:140|356:192|356:192|291:212,1,328.125003129244,4|0,0:0|0:0,0:0:0:0:
72,360,162040,6,0,P|45:335|34:296,1,62.5,8|0,0:0|0:0,0:0:0:0:
92,188,162213,2,0,P|126:177|165:187,1,62.5
228,292,162385,6,0,P|219:327|191:356,1,62.5,0|4,0:0|0:0,0:0:0:0:
132,280,162644,1,0,0:0:0:0:
132,280,162730,2,0,B|78:229|103:142|183:135|183:135|204:177|181:215,1,281.250010728836,8|0,0:0|0:0,0:0:0:0:
44,128,163075,6,0,P|43:82|12:40,1,93.7500035762788,4|0,0:0|0:0,0:0:0:0:
272,216,163247,2,0,P|302:181|353:169,1,93.7500035762788,0|0,3:0|0:0,0:0:0:0:
120,72,163420,2,0,B|108:33|90:9|90:9|178:51|178:51|242:52|265:109|265:109|286:97|320:90,1,328.125003129244,8|0,0:0|0:0,0:0:0:0:
184,136,163765,6,0,P|163:153|144:160,1,46.8750017881394
72,220,163937,2,0,P|45:217|26:208,1,46.8750017881394,4|0,0:0|0:0,0:0:0:0:
16,43,164109,6,0,P|42:81|43:128,1,93.7500035762788,8|0,0:0|0:0,0:0:0:0:
72,320,164454,6,0,B|135:300|170:211|130:133|130:133|117:189|73:221,1,328.125003129244,4|0,0:0|0:0,0:0:0:0:
56,340,164799,6,0,B|115:331|151:288|160:240|160:240|46:193|46:193|51:258,1,328.125003129244,8|0,0:0|0:0,0:0:0:0:
40,360,165144,6,0,P|88:352|125:329,1,93.7500035762788
184,136,165316,2,0,B|202:92|202:92|232:133,1,93.7500035762788,4|0,0:0|0:0,0:0:0:0:
428,308,165489,2,0,P|379:308|338:292,1,93.7500035762788,8|0,0:0|0:0,0:0:0:0:
248,208,165661,5,0,0:0:0:0:
256,176,165747,1,0,0:0:0:0:
184,264,165834,2,0,P|195:310|204:364,1,93.7500035762788,4|0,0:0|0:0,0:0:0:0:
264,144,166006,2,0,P|253:98|244:44,1,93.7500035762788
52,148,166178,6,0,B|20:200|20:200|184:176,1,218.750002086163,8|0,0:0|0:0,0:0:0:0:
360,104,166437,1,0,0:0:0:0:
384,132,166523,2,0,P|382:161|380:184,1,46.8750017881394
273,314,166696,6,0,P|260:260|247:207,1,109.375001043081,4|0,0:0|0:0,0:0:0:0:
282,49,166868,2,0,B|219:48|185:93|185:93|154:45|93:52|93:52|39:85|51:149,1,328.125003129244,8|0,0:0|0:0,0:0:0:0:
101,282,167213,6,0,B|96:212|96:212|126:177|120:125|120:125|146:169|194:179|194:179|232:243,1,328.125003129244,4|0,0:0|0:0,0:0:0:0:
184,332,167558,2,0,P|234:333|284:344,1,93.7500035762788,8|0,0:0|0:0,0:0:0:0:
448,320,167730,2,0,P|398:319|348:308,1,93.7500035762788
329,208,167902,6,0,B|328:155|375:129|419:151|419:151|410:189|369:206|324:194|324:194|282:179|261:138,1,328.125003129244
164,40,168247,2,0,B|145:6|103:12|79:47|98:92|145:90|145:90|184:72|184:72|154:104|156:156,1,281.250010728836,8|0,0:0|0:0,0:0:0:0:
184,332,168592,5,8,0:0:0:0:
211,335,168678,1,0,0:0:0:0:
102,322,168765,2,0,L|217:335,1,109.375001043081
376,244,168937,5,8,0:0:0:0:
349,247,169023,1,0,0:0:0:0:
458,234,169110,2,0,L|342:247,1,109.375001043081
120,148,169282,5,10,0:0:0:0:
147,151,169368,1,0,0:0:0:0:
38,138,169455,2,0,L|153:151,1,109.375001043081,2|0,0:0|0:0,0:0:0:0:
352,164,169627,6,0,P|373:123|316:161,1,187.5,10|0,0:0|0:0,0:0:0:0:
238,62,169971,6,0,P|220:127|253:224,1,149.999995422363,4|0,0:0|0:0,0:0:0:0:
329,258,170230,1,0,0:0:0:0:
253,218,170316,2,0,B|87:223|87:223|158:267,1,224.999993133545,8|0,0:0|0:0,0:0:0:0:
329,356,170661,6,0,P|346:303|322:250,1,106.250002026558
348,65,170834,2,0,P|330:106|364:173,1,112.499996566773,4|0,0:0|0:0,0:0:0:0:
507,203,171006,2,0,B|413:231|357:167|357:167|288:142|236:172|236:172|262:242,1,337.499989700318,8|0,0:0|0:0,0:0:0:0:
329,356,171351,5,4,0:0:0:0:
44,218,171523,2,0,L|178:223,1,93.7500035762788
439,123,171696,2,0,B|459:91|450:41|450:41|374:23|374:23|384:57,1,187.500007152558,8|0,0:0|0:0,0:0:0:0:
374,184,171954,1,0,0:0:0:0:
294,140,172040,2,0,B|267:102|299:40|299:40|310:76,1,125
396,264,172213,2,0,B|423:302|391:364|391:364|380:328,1,125,4|0,0:0|0:0,0:0:0:0:
227,275,172385,2,0,B|243:315|203:327|186:296|186:296|175:269|190:224|239:203|239:203|292:224|292:224|349:201|349:201|320:226|316:260,1,375,8|0,0:0|0:0,0:0:0:0:
255,376,172730,6,0,P|217:388|136:344,1,93.7500035762788,4|0,0:0|0:0,0:0:0:0:
33,110,172902,2,0,P|71:98|152:142,1,93.7500035762788
287,81,173075,2,0,B|291:138|291:138|204:99|204:99|194:-27|194:-27|199:9|235:39,1,337.499989700318,8|0,0:0|0:0,0:0:0:0:
363,182,173420,6,0,P|290:219|250:212,1,93.7500035762788
14,242,173592,2,0,P|91:267|115:300,1,93.7500035762788,4|0,0:0|0:0,0:0:0:0:
189,346,173765,2,0,B|205:197|205:197|163:249,2,200,8|0|4,0:0|0:0|0:0,0:0:0:0:
188,363,174196,5,0,0:0:0:0:
209,175,174282,2,0,L|222:45,1,93.7500035762788
40,14,174454,2,0,L|26:143,1,93.7500035762788,8|0,0:0|0:0,0:0:0:0:
287,275,174627,2,0,B|250:281|229:250|229:250|189:279|189:279|171:241|171:241|152:273|90:284,1,237.499993658066
18,293,174885,5,0,0:0:0:0:
15,332,174971,1,4,0:0:0:0:
99,197,175058,5,0,0:0:0:0:
102,158,175144,2,0,B|115:3|115:3|69:73,1,224.999993133545,8|0,0:0|0:0,0:0:0:0:
105,280,175489,6,0,B|142:286|163:255|163:255|203:284|203:284|221:246|221:246|240:278|302:289,1,237.499993658066,4|0,0:0|0:0,0:0:0:0:
436,159,175747,1,0,0:0:0:0:
363,204,175834,2,0,P|278:191|378:105,1,281.250010728836,8|0,0:0|0:0,0:0:0:0:
438,250,176178,6,0,P|438:297|419:350,1,93.7500035762788
188,174,176351,2,0,P|188:127|209:73,1,93.7500035762788,4|0,0:0|0:0,0:0:0:0:
411,31,176523,2,0,B|467:-8|498:56|440:92|378:50|378:50|311:13|254:49|234:96,1,337.499989700318,8|0,0:0|0:0,0:0:0:0:
216,326,176868,5,4,0:0:0:0:
56,166,177040,2,0,L|167:172,1,93.7500035762788
368,155,177213,2,0,B|323:113|323:113|291:187|291:187|313:236|313:236|294:318,1,250,8|0,0:0|0:0,0:0:0:0:
141,358,177471,1,0,0:0:0:0:
216,326,177558,2,0,B|235:244|235:244|217:203,1,125
62,57,177730,2,0,B|43:139|43:139|61:180,1,125,4|0,0:0|0:0,0:0:0:0:
150,254,177902,6,0,L|118:258,1,31.25,8|0,0:0|0:0,0:0:0:0:
38,277,178247,6,0,B|259:250|259:250|230:190,1,281.250010728836,4|0,0:0|0:0,0:0:0:0:
321,14,178592,6,0,B|356:40|356:40|329:118,1,81.2499962806703,8|0,0:0|0:0,0:0:0:0:
151,172,178765,2,0,B|116:146|116:146|143:68,1,81.2499962806703
329,91,178937,6,0,L|431:78,1,100
140,95,179109,2,0,L|31:107,1,100,4|0,0:0|0:0,0:0:0:0:
470,81,179282,6,0,B|452:183|452:183|424:134,1,125,8|0,0:0|0:0,0:0:0:0:
0,111,179454,2,0,B|18:213|18:213|46:164,1,125
215,24,179627,5,6,0:0:0:0:
261,212,179799,2,0,P|311:216|347:201,1,74.9999977111817,2|0,0:0|0:0,0:0:0:0:
453,64,179971,1,10,0:0:0:0:
200,136,180144,5,2,0:0:0:0:
170,202,180230,1,0,0:0:0:0:
194,271,180316,1,2,0:0:0:0:
261,212,180402,2,0,L|353:203,1,74.9999977111817,0|6,0:0|0:0,0:0:0:0:
489,235,180575,1,0,0:0:0:0:
418,194,180661,2,0,B|368:138|368:138|409:348,1,281.250010728836,10|0,0:0|0:0,0:0:0:0:
248,350,181006,6,0,P|159:361|102:285,1,162.499992561341,4|0,0:0|0:0,0:0:0:0:
12,156,181265,1,0,0:0:0:0:
85,109,181351,2,0,B|152:69|160:-10|160:-10|164:111|230:144,1,318.750006079674,8|0,0:0|0:0,0:0:0:0:
297,206,181696,2,0,B|301:243|287:270,1,62.5
105,217,181868,2,0,L|238:230,1,106.250002026558,4|0,0:0|0:0,0:0:0:0:
403,234,182040,6,0,B|348:257|298:205|298:205|301:265|287:305|244:321|198:334|192:297|120:351|129:244|74:204|157:186|152:150,1,468.75,8|0,0:0|0:0,0:0:0:0:
211,228,182385,5,4,0:0:0:0:
380,89,182558,2,0,P|329:119|269:105,1,106.250002026558
69,97,182730,2,0,B|118:118|221:60|221:60|194:92|201:138,1,224.999993133545,8|0,0:0|0:0,0:0:0:0:
211,228,182989,1,0,0:0:0:0:
202,310,183075,2,0,B|197:388|197:388|170:370,1,93.7500035762788
25,157,183247,2,0,B|30:79|30:79|57:97,1,93.7500035762788,4|0,0:0|0:0,0:0:0:0:
229,231,183420,2,0,B|337:260|474:233|474:233|426:237|380:218,1,337.499989700318,8|0,0:0|0:0,0:0:0:0:
209,102,183765,6,0,P|155:137|147:196,1,112.499996566773,4|0,0:0|0:0,0:0:0:0:
395,322,183937,2,0,P|408:259|372:211,1,112.499996566773
291,30,184109,2,0,B|337:-9|337:-9|294:126|294:126|304:204|304:204|313:173|347:148,1,337.499989700318,8|0,0:0|0:0,0:0:0:0:
422,89,184454,6,0,L|453:-12,1,93.7500035762788
220,182,184627,2,0,L|232:284,1,93.7500035762788,4|0,0:0|0:0,0:0:0:0:
419,342,184799,2,0,B|422:199|422:199|349:238,2,187.500007152558,8|0|4,0:0|0:0|0:0,0:0:0:0:
418,360,185230,5,0,0:0:0:0:
418,182,185316,2,0,L|423:50,1,93.7500035762788
198,104,185489,2,0,L|203:236,1,93.7500035762788,8|0,0:0|0:0,0:0:0:0:
339,289,185661,2,0,B|293:289|266:262|266:262|214:296|214:296|177:283|127:291,1,212.500004053116
64,316,185920,5,0,0:0:0:0:
66,354,186006,1,4,0:0:0:0:
178,195,186093,5,0,0:0:0:0:
175,155,186179,2,0,B|169:0|169:0|132:79,1,224.999993133545,8|0,0:0|0:0,0:0:0:0:
144,289,186523,6,0,B|250:290|250:290|275:279|275:279|382:282,1,212.500004053116,4|0,0:0|0:0,0:0:0:0:
455,204,186782,1,0,0:0:0:0:
399,141,186868,2,0,B|335:85|335:85|359:335,1,281.250010728836,8|0,0:0|0:0,0:0:0:0:
391,358,187213,6,0,L|267:356,1,93.7500035762788
133,278,187385,2,0,P|140:212|170:171,1,93.7500035762788,4|0,0:0|0:0,0:0:0:0:
419,221,187558,2,0,B|383:253|383:253|329:250|329:250|287:217|287:217|231:216|231:216|185:253|226:296|226:296|281:297,1,337.499989700318,8|0,0:0|0:0,0:0:0:0:
467,300,187902,5,4,0:0:0:0:
303,349,188075,2,0,L|169:348,1,112.499996566773
166,130,188247,2,0,B|272:134|359:132|359:132|351:192,1,224.999993133545,8|0,0:0|0:0,0:0:0:0:
257,238,188506,1,0,0:0:0:0:
173,238,188592,2,0,L|64:237,1,93.7500035762788
163,37,188765,2,0,L|272:38,1,93.7500035762788,4|0,0:0|0:0,0:0:0:0:
437,135,188937,5,10,0:0:0:0:
435,144,189023,1,2,0:0:0:0:
434,153,189109,1,2,0:0:0:0:
433,162,189195,1,2,0:0:0:0:
478,48,189282,5,6,0:0:0:0:
456,261,189454,1,2,0:0:0:0:
345,324,189627,6,0,L|344:354,1,20.8333333333333
309,245,189885,2,0,L|308:215,1,20.8333333333333
344,344,190144,6,0,L|343:382,1,28.7499990348816,0|2,0:0|0:0,0:0:0:0:
308,224,190402,2,0,L|306:191,1,28.7499990348816,0|2,0:0|0:0,0:0:0:0:
237,309,190661,6,0,B|139:306|139:306|192:282,1,125,2|0,0:0|0:0,0:0:0:0:
394,274,190920,2,0,B|492:277|492:277|439:301,1,125,2|0,0:0|0:0,0:0:0:0:
306,195,191178,2,0,L|301:126,1,62.5,2|0,0:0|0:0,0:0:0:0:
199,50,191351,5,2,0:0:0:0:
224,60,191437,1,0,0:0:0:0:
214,141,191523,5,0,0:0:0:0:
189,151,191609,1,0,0:0:0:0:
184,235,191696,5,2,0:0:0:0:
209,245,191782,1,0,0:0:0:0:
199,326,191868,5,0,0:0:0:0:
174,336,191954,1,0,0:0:0:0:
96,384,192040,6,0,L|89:290,1,93.75,4|0,0:0|0:0,0:0:0:0:
244,224,192385,6,0,B|80:212|80:212|164:176,1,224.999993133545,8|0,0:0|0:0,0:0:0:0:
320,204,192730,2,0,B|324:244|324:244|308:280,1,74.9999977111817
172,108,192902,2,0,B|157:76|157:76|161:36,1,74.9999977111817,4|0,0:0|0:0,0:0:0:0:
416,352,193075,5,8,0:0:0:0:
359,349,193161,1,0,0:0:0:0:
303,346,193247,1,0,0:0:0:0:
247,343,193333,1,0,0:0:0:0:
191,340,193420,6,0,L|112:348,1,74.9999977111817,4|0,0:0|0:0,0:0:0:0:
160,156,193592,2,0,L|234:163,1,74.9999977111817
28,368,193765,1,8,0:0:0:0:
28,368,193851,1,0,0:0:0:0:
28,368,193937,6,0,B|12:312|12:312|48:176,1,149.999995422363
76,56,194196,1,0,0:0:0:0:
88,72,194282,2,0,P|96:120|72:160,1,74.9999977111817,4|0,0:0|0:0,0:0:0:0:
212,292,194454,2,0,L|200:192,1,74.9999977111817,8|0,0:0|0:0,0:0:0:0:
320,32,194627,2,0,L|311:106,1,74.9999977111817
440,216,194799,6,0,P|508:162|408:158,1,224.999993133545,4|0,0:0|0:0,0:0:0:0:
404,284,195144,2,0,P|439:295|476:291,1,74.9999977111817,8|0,0:0|0:0,0:0:0:0:
416,40,195316,5,0,0:0:0:0:
366,65,195402,1,0,0:0:0:0:
311,78,195488,1,0,0:0:0:0:
255,78,195574,1,0,0:0:0:0:
201,64,195661,2,0,P|196:32|192:-16,1,74.9999977111817,4|0,0:0|0:0,0:0:0:0:
28,204,195834,6,0,B|68:188|104:196|104:196|172:156|172:156|212:168|260:148,1,224.999993133545,8|0,0:0|0:0,0:0:0:0:
208,280,196178,6,0,P|205:238|174:260,1,93.7500035762788,4|0,0:0|0:0,0:0:0:0:
76,80,196351,2,0,P|78:115|104:96,1,74.9999977111817,4|0,0:0|0:0,0:0:0:0:
20,304,196523,6,0,B|76:276|76:276|60:384,1,149.999995422363,8|0,0:0|0:0,0:0:0:0:
260,292,196782,1,0,0:0:0:0:
249,363,196868,6,0,P|212:346|188:304,1,74.9999977111817
192,192,197040,2,0,P|225:168|273:168,1,74.9999977111817,4|0,0:0|0:0,0:0:0:0:
368,228,197213,2,0,B|348:336|348:336|320:288,1,149.999995422363,8|0,0:0|0:0,0:0:0:0:
340,140,197471,1,8,0:0:0:0:
368,136,197558,6,0,L|468:128,1,74.9999977111817,4|0,0:0|0:0,0:0:0:0:
508,321,197730,2,0,L|424:328,1,84.3750003218651
244,40,197902,6,0,B|284:36|284:36|330:58,1,74.9999977111817,8|0,0:0|0:0,0:0:0:0:
272,280,198075,2,0,B|232:284|232:284|185:261,1,74.9999977111817
24,115,198247,6,0,B|56:100|56:100|96:104,1,74.9999977111817
139,332,198420,2,0,B|108:348|108:348|68:344,1,74.9999977111817,4|0,0:0|0:0,0:0:0:0:
76,184,198592,5,8,0:0:0:0:
150,188,198678,1,0,0:0:0:0:
225,192,198764,1,0,0:0:0:0:
300,196,198850,1,0,0:0:0:0:
375,200,198937,6,0,L|480:204,1,74.9999977111817,4|0,0:0|0:0,0:0:0:0:
412,44,199109,2,0,B|400:80|400:80|412:120,1,74.9999977111817
432,352,199282,6,0,B|444:316|444:316|432:276,1,74.9999977111817,8|0,0:0|0:0,0:0:0:0:
276,76,199454,2,0,B|109:70|109:70|157:113,1,224.999993133545
248,216,199799,2,0,P|292:219|344:177,1,74.9999977111817,4|0,0:0|0:0,0:0:0:0:
480,149,199971,6,0,P|369:99|488:72,1,318.750006079674,8|0,0:0|0:0,0:0:0:0:
512,268,200316,6,0,P|481:248|414:250,1,74.9999977111817,4|0,0:0|0:0,0:0:0:0:
304,32,200489,2,0,P|272:52|235:57,1,74.9999977111817
28,220,200661,5,8,0:0:0:0:
84,224,200747,1,0,0:0:0:0:
140,228,200833,1,0,0:0:0:0:
196,232,200919,1,0,0:0:0:0:
252,236,201006,6,0,B|232:348|232:348|164:288,1,187.500007152558,0|4,0:0|0:0,0:0:0:0:
236,138,201265,2,0,B|342:99|342:99|325:188,1,187.500007152558
160,202,201523,2,0,L|52:192,1,74.9999977111817
144,48,201696,5,4,0:0:0:0:
96,344,201868,1,4,0:0:0:0:
8,144,202040,1,8,0:0:0:0:
256,252,202213,5,4,0:0:0:0:
330,248,202299,1,0,0:0:0:0:
405,244,202385,1,8,0:0:0:0:
368,182,202471,1,8,0:0:0:0:
328,119,202558,2,0,L|192:122,1,74.9999977111817,4|0,0:0|0:0,0:0:0:0:
112,344,202730,6,0,L|172:340,1,37.4999988555909,8|0,0:0|0:0,0:0:0:0:
184,352,202816,2,0,L|221:354,1,37.4999988555909
256,344,202902,2,0,L|316:340,1,37.4999988555909
328,352,202988,2,0,L|365:354,1,37.4999988555909,8|0,0:0|0:0,0:0:0:0:
400,344,203075,6,0,B|416:176|416:176|368:220,1,224.999993133545,4|0,0:0|0:0,0:0:0:0:
316,24,203420,6,0,P|264:80|380:84,1,224.999993133545,8|0,0:0|0:0,0:0:0:0:
472,56,203765,2,0,P|439:47|393:43,1,74.9999977111817
284,232,203937,2,0,P|247:241|210:245,1,74.9999977111817,4|0,0:0|0:0,0:0:0:0:
32,104,204109,5,8,0:0:0:0:
43,68,204195,1,0,0:0:0:0:
74,106,204282,1,0,0:0:0:0:
89,153,204368,1,0,0:0:0:0:
84,203,204454,6,0,P|56:244|8:268,1,74.9999977111817,4|0,0:0|0:0,0:0:0:0:
312,212,204627,2,0,P|290:167|293:113,1,74.9999977111817
192,280,204799,1,8,0:0:0:0:
192,280,204885,1,0,0:0:0:0:
192,280,204971,6,0,P|156:336|228:316,1,149.999995422363
304,364,205230,1,0,0:0:0:0:
332,356,205316,2,0,L|424:364,1,74.9999977111817,4|0,0:0|0:0,0:0:0:0:
448,120,205489,2,0,L|373:126,1,74.9999977111817,8|0,0:0|0:0,0:0:0:0:
432,272,205661,2,0,L|506:265,1,74.9999977111817
384,32,205834,6,0,B|304:36|304:36|240:64|240:64|144:68,1,224.999993133545,4|0,0:0|0:0,0:0:0:0:
56,104,206178,2,0,B|20:88|20:88|76:72,1,74.9999977111817,8|0,0:0|0:0,0:0:0:0:
256,192,206351,5,0,0:0:0:0:
202,174,206437,1,0,0:0:0:0:
147,181,206523,1,0,0:0:0:0:
99,209,206609,1,0,0:0:0:0:
67,255,206696,2,0,P|68:312|96:364,1,74.9999977111817,4|0,0:0|0:0,0:0:0:0:
309,309,206868,6,0,B|285:265|197:257|153:281|153:281|197:281|229:321,1,224.999993133545,8|0,0:0|0:0,0:0:0:0:
436,332,207213,6,0,B|452:292|452:292|436:236,1,93.7500035762788,4|0,0:0|0:0,0:0:0:0:
203,296,207385,2,0,B|188:331|188:331|203:380,1,74.9999977111817,4|0,0:0|0:0,0:0:0:0:
312,200,207558,2,0,B|324:96|324:96|292:16,1,149.999995422363,8|0,0:0|0:0,0:0:0:0:
408,88,207816,1,0,0:0:0:0:
396,64,207902,2,0,B|384:32|384:32|392:-20,1,74.9999977111817
212,24,208075,2,0,B|224:56|224:56|216:108,1,74.9999977111817,4|0,0:0|0:0,0:0:0:0:
304,292,208247,6,0,P|388:252|272:224,1,281.250010728836,8|8,0:0|0:0,0:0:0:0:
320,372,208592,6,0,P|368:372|408:352,1,74.9999977111817,4|0,0:0|0:0,0:0:0:0:
352,102,208765,2,0,P|315:100|280:112,1,74.9999977111817
472,252,208937,6,0,B|473:215|473:215|458:172,1,74.9999977111817,8|0,0:0|0:0,0:0:0:0:
200,216,209109,2,0,B|198:252|198:252|213:295,1,74.9999977111817
320,372,209282,6,0,B|332:335|332:335|331:299,1,74.9999977111817
70,262,209454,2,0,B|57:298|57:298|58:334,1,74.9999977111817,4|0,0:0|0:0,0:0:0:0:
396,120,209627,5,8,0:0:0:0:
321,123,209713,1,0,0:0:0:0:
246,127,209799,1,0,0:0:0:0:
171,130,209885,1,0,0:0:0:0:
96,134,209971,6,0,L|12:140,1,74.9999977111817,4|0,0:0|0:0,0:0:0:0:
160,16,210144,2,0,B|200:10|200:10|251:30,1,74.9999977111817
284,248,210316,2,0,B|324:253|324:253|375:233,1,74.9999977111817,8|0,0:0|0:0,0:0:0:0:
472,56,210489,6,0,B|424:24|424:24|448:232,1,224.999993133545
424,380,210834,2,0,P|432:344|380:320,1,74.9999977111817,4|0,0:0|0:0,0:0:0:0:
280,128,211006,6,0,P|200:216|328:164,1,318.750006079674,8|0,0:0|0:0,0:0:0:0:
248,344,211351,2,0,B|210:332|210:332|156:340,1,74.9999977111817,4|0,0:0|0:0,0:0:0:0:
360,144,211523,2,0,B|398:156|398:156|452:148,1,74.9999977111817
76,368,211696,5,8,0:0:0:0:
75,311,211782,1,0,0:0:0:0:
74,255,211868,1,0,0:0:0:0:
73,199,211954,1,0,0:0:0:0:
72,143,212040,6,0,B|204:136|204:136|140:192,1,187.500007152558,0|4,0:0|0:0,0:0:0:0:
408,232,212299,2,0,B|276:225|276:225|340:281,1,187.500007152558
220,364,212558,2,0,L|216:268,1,74.9999977111817
168,46,212730,6,0,B|288:30|228:94|352:74,2,187.5,6|2|2,0:0|0:0|0:0,0:0:0:0:
30,132,214109,6,0,B|124:172|168:46|168:46|150:117|138:201|267:241|307:211|414:152|353:9|265:7|243:117,1,656.250025033952,4|0,0:0|0:0,0:0:0:0:
132,269,214799,5,8,0:0:0:0:
123,260,214885,1,0,0:0:0:0:
132,252,214971,1,0,0:0:0:0:
140,260,215058,1,0,0:0:0:0:
47,277,215144,2,0,L|-17:289,1,46.8750017881394
217,376,215316,5,4,0:0:0:0:
208,367,215402,1,0,0:0:0:0:
200,376,215488,1,0,0:0:0:0:
208,384,215575,1,0,0:0:0:0:
225,291,215661,2,0,L|237:227,1,46.8750017881394
222,67,215834,5,4,0:0:0:0:
225,76,215920,1,0,0:0:0:0:
246,89,216006,5,0,0:0:0:0:
248,98,216092,1,0,0:0:0:0:
170,141,216178,6,0,B|254:127|254:127|266:119|266:119|254:127|254:127|385:106,1,224.999993133545,8|0,0:0|0:0,0:0:0:0:
436,25,216437,2,0,B|464:36|464:36|440:109,1,93.7500035762788
253,363,216696,6,0,P|199:367|162:335,1,93.7500035762788
59,246,216868,6,0,B|89:253|89:253|99:315|68:374|68:374|31:368,1,187.5,4|0,0:0|0:0,0:0:0:0:
37,368,217213,2,0,B|7:361|7:361|-3:294|28:240|28:240|65:246,1,187.5
389,259,217558,6,0,B|372:196|372:196|452:179|495:230|501:292|475:354|374:382|319:318|319:318|291:283|245:272|214:301,1,524.999983978272,8|0,0:0|0:0,0:0:0:0:
36,368,218247,2,0,P|81:282|65:96,1,281.250010728836,4|0,0:0|0:0,0:0:0:0:
68,102,218592,1,0,0:0:0:0:
183,22,218765,5,4,0:0:0:0:
183,22,218852,1,0,0:0:0:0:
183,22,218937,2,0,L|191:71,1,46.8750017881394,8|0,0:0|0:0,0:0:0:0:
174,159,219109,1,0,0:0:0:0:
174,159,219282,2,0,L|223:151,1,46.8750017881394,8|0,0:0|0:0,0:0:0:0:
311,168,219454,2,0,L|303:119,1,46.8750017881394
435,71,219627,6,0,B|377:56|377:56|406:217|406:217|467:168,1,281.250010728836,4|0,0:0|0:0,0:0:0:0:
174,159,219971,2,0,L|73:176,1,93.75
43,309,220316,5,8,0:0:0:0:
47,300,220402,1,0,0:0:0:0:
57,293,220489,1,0,0:0:0:0:
74,286,220575,1,0,0:0:0:0:
106,358,220661,5,0,0:0:0:0:
110,369,220747,1,0,0:0:0:0:
175,321,220834,5,4,0:0:0:0:
187,333,220920,1,0,0:0:0:0:
209,338,221007,1,0,0:0:0:0:
241,336,221093,1,0,0:0:0:0:
223,259,221178,5,0,0:0:0:0:
227,248,221264,1,0,0:0:0:0:
306,283,221351,5,4,0:0:0:0:
376,249,221437,5,0,0:0:0:0:
449,275,221523,5,0,0:0:0:0:
469,350,221609,5,0,0:0:0:0:
391,384,221696,6,0,L|375:315,1,62.5,8|0,0:0|0:0,0:0:0:0:
387,89,221954,2,0,B|441:118|441:118|307:148,1,187.500007152558
130,93,222213,2,0,B|109:48|109:48|137:8,1,93.7500035762788
253,7,222385,6,0,B|280:106|202:86|233:190,1,187.5,4|0,0:0|0:0,0:0:0:0:
46,201,222730,2,0,B|112:166|130:92|130:92|112:166|141:231,1,281.250010728836,4|0,0:0|0:0,0:0:0:0:
53,347,223075,2,0,P|112:363|155:338,1,93.7500035762788,8|0,0:0|0:0,0:0:0:0:
386,301,223247,1,0,0:0:0:0:
150,338,223420,1,0,0:0:0:0:
386,301,223592,1,0,0:0:0:0:
219,384,223765,6,0,P|235:325|210:282,1,93.7500035762788,8|0,0:0|0:0,0:0:0:0:
111,214,223937,2,0,L|157:207,1,46.8750017881394,4|0,0:0|0:0,0:0:0:0:
111,214,224109,2,0,L|61:221,1,46.8750017881394,4|0,0:0|0:0,0:0:0:0:
219,384,224282,6,0,P|203:325|225:275,1,106.250002026558,8|0,0:0|0:0,0:0:0:0:
363,114,224454,2,0,L|300:105,1,62.5,4|0,0:0|0:0,0:0:0:0:
363,114,224626,2,0,L|429:123,1,62.5,4|0,0:0|0:0,0:0:0:0:
227,13,224799,6,0,B|198:50|198:50|221:98,1,93.7500035762788,8|0,0:0|0:0,0:0:0:0:
398,208,224971,2,0,L|385:307,1,93.7500035762788
219,384,225144,6,0,B|89:406|140:308|14:334,1,218.75,4|0,0:0|0:0,0:0:0:0:
48,246,225834,5,8,0:0:0:0:
30,212,225920,1,0,0:0:0:0:
38,175,226006,1,0,0:0:0:0:
62,146,226092,1,0,0:0:0:0:
101,132,226178,2,0,L|148:140,1,46.8750017881394
105,1,226351,5,8,0:0:0:0:
143,2,226437,1,0,0:0:0:0:
171,27,226523,1,0,0:0:0:0:
184,63,226609,1,0,0:0:0:0:
177,103,226695,2,0,L|146:139,1,46.8750017881394,4|0,0:0|0:0,0:0:0:0:
147,139,226868,6,0,L|171:229,1,93.7500035762788,8|0,0:0|0:0,0:0:0:0:
219,384,227040,2,0,L|309:359,1,93.7500035762788
352,252,227213,1,8,0:0:0:0:
352,252,227385,6,0,B|281:272|281:272|242:129,1,187.500007152558,4|0,0:0|0:0,0:0:0:0:
447,49,227644,2,0,B|436:117|436:117|455:159|455:159|440:244,1,187.500007152558
147,139,227902,6,0,L|70:124,7,62.5
232,44,228247,6,0,P|250:122|314:20,1,281.250010728836,4|0,0:0|0:0,0:0:0:0:
147,139,228592,2,0,P|116:187|114:249,1,93.7500035762788,8|0,0:0|0:0,0:0:0:0:
447,49,228765,2,0,P|502:63|545:108,1,93.7500035762788
208,217,228937,2,0,P|208:263|228:306,1,93.7500035762788
451,142,229109,2,0,P|481:178|495:223,1,93.7500035762788
323,332,229282,6,0,P|361:336|322:333,1,140.625005364418,4|0,0:0|0:0,0:0:0:0:
294,112,229627,2,0,L|317:12,1,93.7500035762788
45,102,229799,1,4,0:0:0:0:
45,102,229885,1,0,0:0:0:0:
45,102,229971,2,0,B|-9:138|-14:266|105:278|105:278|77:192,1,318.750006079674,8|0,0:0|0:0,0:0:0:0:
139,127,230316,2,0,L|215:147,1,62.5,8|0,0:0|0:0,0:0:0:0:
495,223,230489,1,0,0:0:0:0:
214,379,230661,6,0,B|262:391|300:353|300:353|384:361|442:267|397:189|397:189|333:188|309:248|309:248|244:205|187:239|187:239|226:260|238:306,1,656.250025033952,4|0,0:0|0:0,0:0:0:0:
150,318,231351,5,8,0:0:0:0:
130,314,231437,1,0,0:0:0:0:
111,311,231523,1,0,0:0:0:0:
92,309,231609,1,0,0:0:0:0:
9,327,231696,2,0,B|-4:360|-4:360|10:392,1,62.5
92,309,231868,5,4,0:0:0:0:
86,276,231954,1,0,0:0:0:0:
81,243,232040,1,0,0:0:0:0:
76,212,232126,1,0,0:0:0:0:
137,151,232213,2,0,L|200:162,1,62.5
384,187,232385,5,4,0:0:0:0:
351,181,232471,1,0,0:0:0:0:
318,176,232557,1,0,0:0:0:0:
287,171,232643,1,0,0:0:0:0:
250,49,232730,2,0,B|160:-10|160:-10|201:172,1,284.374986982346,8|0,0:0|0:0,0:0:0:0:
416,384,233420,5,4,0:0:0:0:
331,267,233592,1,4,0:0:0:0:
468,311,233765,1,4,0:0:0:0:
331,356,233937,1,4,0:0:0:0:
416,239,234109,5,4,0:0:0:0:
331,356,234282,1,4,0:0:0:0:
193,310,234454,1,4,0:0:0:0:
193,167,234627,1,4,0:0:0:0:
331,122,234799,6,0,L|324:61,1,40.6249981403352,4|0,0:0|0:0,0:0:0:0:
322,51,234971,2,0,L|315:-10,1,40.6249981403352,4|0,0:0|0:0,0:0:0:0:
508,219,235144,6,0,L|447:212,1,40.6249981403352,4|0,0:0|0:0,0:0:0:0:
437,210,235316,2,0,L|376:203,1,40.6249981403352,4|0,0:0|0:0,0:0:0:0:
100,327,235489,5,4,0:0:0:0:
118,288,235575,1,0,0:0:0:0:
159,273,235661,1,4,0:0:0:0:
198,290,235747,1,0,0:0:0:0:
223,325,235834,5,4,0:0:0:0:
270,355,235920,1,0,0:0:0:0:
330,342,236006,1,4,0:0:0:0:
373,297,236092,1,0,0:0:0:0:
490,218,236178,6,0,B|422:213|422:213|387:239|387:239|274:227|274:227|222:157|296:95,1,337.499989700318
268,123,236523,1,8,0:0:0:0:
312,317,236696,6,0,L|245:306,1,50
146,242,236868,2,0,L|202:251,1,46.7747678448137,4|0,0:0|0:0,0:0:0:0:
209,253,237213,1,8,0:0:0:0:
29,209,237385,6,0,L|96:198,1,50
195,132,237557,2,0,L|141:143,1,46.7747678448137,4|0,0:0|0:0,0:0:0:0:
132,145,237902,1,8,0:0:0:0:
384,109,238075,6,0,L|317:98,1,50
218,32,238247,2,0,L|273:42,1,46.7747678448137,4|0,0:0|0:0,0:0:0:0:
299,48,238592,6,0,B|198:124|238:266|238:266|262:202|371:183,1,309.274769793157,8|0,0:0|0:0,0:0:0:0:
309,299,238937,6,0,P|377:289|314:337,1,196.77477055354,4|0,0:0|0:0,0:0:0:0:
233,339,239282,6,0,P|240:263|268:235,1,78.125,8|0,0:0|0:0,0:0:0:0:
96,224,239454,2,0,P|81:149|50:124,1,78.125
198,164,239627,6,0,L|194:217,1,31.25
222,137,239799,2,0,L|218:186,1,31.25,4|0,0:0|0:0,0:0:0:0:
318,286,239971,6,0,P|311:210|283:182,1,78.125,8|0,0:0|0:0,0:0:0:0:
455,171,240143,2,0,P|469:96|500:71,1,78.125
353,111,240316,6,0,L|357:164,1,31.25
329,84,240488,2,0,L|333:133,1,31.25,4|0,0:0|0:0,0:0:0:0:
215,212,240661,6,0,P|222:136|250:108,1,78.125,8|0,0:0|0:0,0:0:0:0:
78,97,240833,2,0,P|63:22|32:-2,1,78.125
26,174,241006,5,0,0:0:0:0:
84,132,241092,1,0,0:0:0:0:
155,139,241178,1,4,0:0:0:0:
212,183,241265,1,0,0:0:0:0:
248,244,241351,1,8,0:0:0:0:
300,292,241437,1,0,0:0:0:0:
369,309,241523,1,0,0:0:0:0:
436,282,241609,1,0,0:0:0:0:
412,157,241696,6,0,B|305:137|249:244|249:244|228:181|228:181|193:161|193:161|169:54,1,337.499989700318,4|0,0:0|0:0,0:0:0:0:
186,131,242040,1,8,0:0:0:0:
35,27,242213,6,0,L|29:100,1,50
95,179,242385,2,0,L|100:132,1,46.7747678448137,4|0,0:0|0:0,0:0:0:0:
104,104,242730,1,8,0:0:0:0:
258,167,242902,6,0,L|264:240,1,50
198,319,243075,2,0,L|191:265,1,46.7747678448137,4|0,0:0|0:0,0:0:0:0:
189,244,243419,1,8,0:0:0:0:
398,83,243592,6,0,L|394:133,1,50
458,235,243764,2,0,L|463:188,1,46.7747678448137,4|0,0:0|0:0,0:0:0:0:
469,144,244109,6,0,L|497:146,6,15.625,8|0|0|0|0|0|0,0:0|0:0|0:0|0:0|0:0|0:0|0:0,0:0:0:0:
437,141,244454,6,0,B|361:138|361:138|337:189|337:189|289:186|289:186|267:233|267:233|114:226,1,309.274769793157,4|0,0:0|0:0,0:0:0:0:
43,124,244799,6,0,B|174:128|174:128|135:77,1,162.499992561341,8|0,0:0|0:0,0:0:0:0:
81,208,245058,2,0,P|53:284|112:355,1,149.999995422363,0|0,0:0|0:0,0:0:0:0:
270,279,245316,6,0,B|203:257|203:257|101:283,1,137.500004196167,4|8,0:0|0:0,0:0:0:0:
359,361,245575,1,0,0:0:0:0:
359,361,245661,2,0,L|362:252,1,68.7500020980836
386,208,245834,6,0,P|341:154|403:167,1,149.999995422363,4|0,0:0|0:0,0:0:0:0:
254,181,246092,6,0,B|251:118|251:118|239:98|239:98|238:25,1,125
124,120,246351,6,0,B|121:183|121:183|109:203|109:203|108:241,1,125
134,331,246609,5,0,0:0:0:0:
134,331,246696,2,0,L|72:326,1,62.5,4|0,0:0|0:0,0:0:0:0:
276,313,246868,6,0,B|314:245|254:182|254:182|310:95|408:143,1,309.37500295043,8|0,0:0|0:0,0:0:0:0:
199,259,247213,6,0,B|110:253|110:253|92:200|92:200|22:192|22:192|6:106|69:71,1,337.499989700318,4|0,0:0|0:0,0:0:0:0:
53,81,247558,1,8,0:0:0:0:
261,18,247730,6,0,P|263:53|254:92,1,50
346,146,247902,2,0,P|339:115|340:89,1,46.7747678448137,4|0,0:0|0:0,0:0:0:0:
338,72,248247,1,8,0:0:0:0:
191,167,248420,6,0,P|225:177|258:175,1,50
311,246,248592,2,0,P|281:245|256:251,1,46.7747678448137,4|0,0:0|0:0,0:0:0:0:
234,254,248937,1,8,0:0:0:0:
390,342,249109,6,0,P|403:302|401:278,1,50
473,193,249282,2,0,P|470:227|475:249,1,46.7747678448137,4|0,0:0|0:0,0:0:0:0:
483,268,249627,2,0,B|440:298|380:269|380:269|326:300|326:300|246:254|182:302,1,309.274769793157,8|0,0:0|0:0,0:0:0:0:
122,354,249971,6,0,B|85:293|121:242|121:242|97:191|132:140,1,196.77477055354,4|0,0:0|0:0,0:0:0:0:
277,103,250316,6,0,L|157:109,1,78.0915909884287,8|0,0:0|0:0,0:0:0:0:
174,87,250489,2,0,L|75:93,1,78.0915909884287
195,203,250661,6,0,L|199:249,1,31.25
214,243,250834,2,0,L|220:301,1,31.25,4|0,0:0|0:0,0:0:0:0:
283,196,251006,6,0,L|403:202,1,78.0915909884287,8|0,0:0|0:0,0:0:0:0:
386,180,251179,2,0,L|485:186,1,78.0915909884287
365,296,251351,6,0,L|361:342,1,31.25
346,336,251524,2,0,L|340:394,1,31.25,4|0,0:0|0:0,0:0:0:0:
248,293,251696,6,0,L|128:299,1,78.0915909884287,8|0,0:0|0:0,0:0:0:0:
145,277,251869,2,0,L|46:283,1,78.0915909884287
266,351,252040,5,0,0:0:0:0:
309,295,252127,1,0,0:0:0:0:
324,226,252213,1,4,0:0:0:0:
292,163,252299,1,0,0:0:0:0:
252,220,252385,5,8,0:0:0:0:
209,164,252472,1,0,0:0:0:0:
194,95,252558,1,0,0:0:0:0:
226,32,252644,1,0,0:0:0:0:
292,163,252730,6,0,B|192:154|192:154|170:192|170:192|106:183|106:183|86:169|86:169|15:157|15:157|107:184|108:274,1,449.99998626709,4|0,0:0|0:0,0:0:0:0:
0,291,253247,6,0,P|-20:260|14:279,1,93.7500035762788,4|0,0:0|0:0,0:0:0:0:
207,339,253420,2,0,P|227:308|193:327,1,93.7500035762788,8|0,0:0|0:0,0:0:0:0:
99,359,253592,2,0,P|92:297|109:260,1,93.7500035762788
244,212,253765,6,0,B|171:207|171:207|148:179|148:179|68:173|68:173|10:103|90:32,1,324.999985122681,4|0,0:0|0:0,0:0:0:0:
243,213,254282,6,0,L|316:150,1,87.499997329712
373,66,254454,2,0,L|419:175,1,87.499997329712,4|0,0:0|0:0,0:0:0:0:
446,249,254627,2,0,L|339:222,1,87.499997329712
203,52,254799,5,8,0:0:0:0:
203,52,254885,1,0,0:0:0:0:
203,52,254971,2,0,L|208:141,1,68.7500020980836
146,224,255144,6,0,B|212:264|279:222|279:222|308:300|308:300|369:252|443:289,1,337.499989700318
146,224,255489,6,0,P|72:162|208:178,1,349.999989318848,4|0,0:0|0:0,0:0:0:0:
384,368,256006,6,0,P|415:321|395:239,1,100,4|0,0:0|0:0,0:0:0:0:
480,88,256178,2,0,P|418:114|397:167,1,100,8|0,0:0|0:0,0:0:0:0:
210,167,256351,6,0,P|255:195|302:192,1,68.7500020980836
302,291,256523,6,0,P|225:283|149:382,1,206.250006294251,4|0,0:0|0:0,0:0:0:0:
127,355,256868,6,0,L|106:231,1,68.7500020980836
27,132,257040,6,0,L|42:221,1,62.5,4|0,0:0|0:0,0:0:0:0:
44,223,257299,6,0,P|114:192|195:235,1,174.999994659424,4|0,0:0|0:0,0:0:0:0:
195,235,257558,1,8,0:0:0:0:
308,329,257730,6,0,B|321:235|321:235|303:208|303:208|316:111,1,224.999993133545,4|0,0:0|0:0,0:0:0:0:
204,17,257989,2,0,B|190:110|190:110|208:137|208:137|195:234,1,224.999993133545,4|0,0:0|0:0,0:0:0:0:
357,237,258247,6,0,P|452:243|361:294,1,234.375,4|0,0:0|0:0,0:0:0:0:
306,162,258592,2,0,P|371:124|463:144,1,125,8|0,0:0|0:0,0:0:0:0:
292,305,258851,6,0,L|153:280,1,125,4|0,0:0|0:0,0:0:0:0:
76,192,259109,2,0,P|70:140|77:102,1,62.5,4|0,0:0|0:0,0:0:0:0:
250,66,259282,2,0,P|267:163|216:205,1,125,8|0,0:0|0:0,0:0:0:0:
180,205,259540,1,0,0:0:0:0:
197,127,259627,6,0,B|240:143|278:133|278:133|343:173|343:173|381:163|441:182,1,234.375,4|0,0:0|0:0,0:0:0:0:
458,303,259971,2,0,P|358:277|325:289,1,125,8|0,0:0|0:0,0:0:0:0:
147,328,260230,6,0,P|220:358|283:335,1,125,4|0,0:0|0:0,0:0:0:0:
288,203,260489,1,4,0:0:0:0:
104,313,260661,2,0,P|145:367|211:383,1,93.7500035762788,8|0,0:0|0:0,0:0:0:0:
288,203,261006,6,0,L|119:223,1,125,4|0,0:0|0:0,0:0:0:0:
37,144,261265,1,0,0:0:0:0:
75,76,261351,2,0,L|235:90,1,125,8|0,0:0|0:0,0:0:0:0:
189,330,261609,6,0,P|154:262|199:180,1,125,4|0,0:0|0:0,0:0:0:0:
398,197,261868,2,0,P|405:235|393:280,1,62.5,4|0,0:0|0:0,0:0:0:0:
278,286,262040,2,0,P|234:249|300:244,1,156.25,8|0,0:0|0:0,0:0:0:0:
330,237,262299,1,0,0:0:0:0:
316,210,262385,6,0,P|221:219|265:322,1,234.375,4|0,0:0|0:0,0:0:0:0:
493,299,262730,2,0,L|471:143,1,125,8|0,0:0|0:0,0:0:0:0:
298,86,262989,6,0,L|315:209,1,125,4|0,0:0|0:0,0:0:0:0:
452,93,263247,1,4,0:0:0:0:
378,27,263334,1,0,0:0:0:0:
219,107,263420,2,0,P|261:161|371:118,1,187.5,8|0,0:0|0:0,0:0:0:0:
117,47,263765,6,0,L|150:248,1,187.5,4|0,0:0|0:0,0:0:0:0:
289,338,264109,2,0,P|366:308|432:318,1,125,8|0,0:0|0:0,0:0:0:0:
241,262,264368,6,0,P|201:313|114:324,1,125,4|0,0:0|0:0,0:0:0:0:
244,200,264627,2,0,P|246:240|217:302,1,62.5,4|0,0:0|0:0,0:0:0:0:
61,244,264799,1,8,0:0:0:0:
225,98,264971,2,0,L|303:107,1,62.5
496,161,265144,6,0,B|446:179|416:172|416:172|398:189|398:189|351:184|320:217,1,187.5,4|0,0:0|0:0,0:0:0:0:
388,378,265489,2,0,P|405:298|371:259,1,125,8|0,0:0|0:0,0:0:0:0:
205,312,265747,6,0,L|365:330,1,125,4|0,0:0|0:0,0:0:0:0:
181,209,266006,1,4,0:0:0:0:
69,342,266178,2,0,P|91:272|52:175,1,140.625005364418,8|0,0:0|0:0,0:0:0:0:
200,70,266523,6,0,B|194:135|181:209|181:209|196:178|248:171,1,187.5,4|0,0:0|0:0,0:0:0:0:
364,282,266868,2,0,B|296:273|296:273|234:247,1,125,8|0,0:0|0:0,0:0:0:0:
113,115,267127,5,4,0:0:0:0:
104,89,267213,2,0,P|74:165|83:236,1,125,0|4,0:0|0:0,0:0:0:0:
209,365,267558,2,0,P|197:313|164:271,1,62.5,8|0,0:0|0:0,0:0:0:0:
61,339,267730,1,0,0:0:0:0:
203,182,267902,6,0,L|401:195,1,187.5,4|0,0:0|0:0,0:0:0:0:
474,293,268247,2,0,P|483:324|484:370,1,62.5,8|0,0:0|0:0,0:0:0:0:
390,194,268420,2,0,P|392:162|401:132,1,62.5
391,339,268592,6,0,L|256:331,1,125,4|4,0:0|0:0,0:0:0:0:
114,278,268937,6,0,L|125:345,1,62.5,8|0,0:0|0:0,0:0:0:0:
10,239,269109,6,0,L|21:306,1,62.5
90,182,269282,6,0,B|140:175|177:204|177:204|206:184|206:184|252:211|312:198,1,224.999993133545,4|0,0:0|0:0,0:0:0:0:
308,57,269627,2,0,P|248:58|290:115,1,149.999995422363,8|0,0:0|0:0,0:0:0:0:
352,273,269885,6,0,P|386:213|365:144,1,125,4|0,0:0|0:0,0:0:0:0:
206,295,270144,2,0,L|275:282,1,62.5,4|0,0:0|0:0,0:0:0:0:
319,357,270316,2,0,L|196:379,1,125,8|0,0:0|0:0,0:0:0:0:
137,260,270575,5,0,0:0:0:0:
138,253,270661,2,0,P|195:175|318:233,1,234.375,4|0,0:0|0:0,0:0:0:0:
448,366,271006,2,0,P|405:292|417:215,1,125,8|0,0:0|0:0,0:0:0:0:
499,130,271265,6,0,P|436:160|369:147,1,125,4|0,0:0|0:0,0:0:0:0:
321,33,271523,1,4,0:0:0:0:
512,87,271696,2,0,P|473:129|430:143,1,93.7500035762788,8|0,0:0|0:0,0:0:0:0:
278,138,272040,6,0,P|178:98|73:192,1,234.375,4|0,0:0|0:0,0:0:0:0:
189,308,272385,2,0,B|210:255|188:199|188:199|193:212|207:219,1,125,8|0,0:0|0:0,0:0:0:0:
324,245,272644,6,0,L|454:227,1,125,4|0,0:0|0:0,0:0:0:0:
512,87,272902,2,0,L|439:97,1,62.5,4|0,0:0|0:0,0:0:0:0:
324,246,273075,2,0,B|356:254|367:275|367:275|401:202|401:202|418:221|448:228,1,187.5,8|0,0:0|0:0,0:0:0:0:
302,322,273420,6,0,P|256:286|311:167,1,187.5,4|0,0:0|0:0,0:0:0:0:
168,281,273765,2,0,P|106:310|41:300,1,125,8|0,0:0|0:0,0:0:0:0:
29,165,274023,6,0,P|90:135|156:146,1,125,4|0,0:0|0:0,0:0:0:0:
100,223,274282,1,4,0:0:0:0:
29,165,274368,1,0,0:0:0:0:
192,78,274454,2,0,P|234:132|171:228,1,187.5,8|0,0:0|0:0,0:0:0:0:
51,304,274799,6,0,B|101:320|143:302|143:302|206:326|206:326|236:313|287:321,1,234.375,4|0,0:0|0:0,0:0:0:0:
424,382,275144,2,0,P|385:308|402:234,1,125,8|0,0:0|0:0,0:0:0:0:
491,99,275402,6,0,P|442:140|360:149,1,125,4|0,0:0|0:0,0:0:0:0:
254,47,275661,2,0,P|274:90|272:152,1,62.5,4|0,0:0|0:0,0:0:0:0:
295,204,275834,1,8,0:0:0:0:
109,104,276006,6,0,L|194:112,1,62.5
369,233,276178,2,0,P|322:282|216:218,1,187.5,4|0,0:0|0:0,0:0:0:0:
292,82,276523,2,0,B|310:148|282:149|298:224,1,125,8|0,0:0|0:0,0:0:0:0:
138,271,276782,6,0,P|152:195|207:154,1,125,4|0,0:0|0:0,0:0:0:0:
369,233,277040,1,4,0:0:0:0:
112,311,277213,2,0,P|99:253|114:194,1,93.7500035762788,8|0,0:0|0:0,0:0:0:0:
369,233,277558,6,0,P|321:306|325:194,1,281.250010728836,4|0,0:0|0:0,0:0:0:0:
424,163,277902,1,8,0:0:0:0:
447,169,277989,1,0,0:0:0:0:
471,174,278075,2,0,L|490:288,1,78.125,4|4,0:0|0:0,0:0:0:0:
313,192,278247,6,0,L|335:31,1,125,8|4,0:0|0:0,0:0:0:0:
221,13,278506,1,4,0:0:0:0:
137,105,278592,2,0,L|153:228,1,125,8|0,0:0|0:0,0:0:0:0:
301,290,278937,6,0,L|358:281,1,46.875,0|0,0:0|3:0,0:0:0:0:
411,212,279109,6,0,L|320:204,1,70.3125026822091,0|0,0:0|3:0,0:0:0:0:
279,322,279282,6,0,L|389:307,1,93.75,0|0,0:0|3:0,0:0:0:0:
441,186,279454,6,0,L|322:173,1,117.1875,0|0,0:0|3:0,0:0:0:0:
251,358,279627,6,0,L|410:335,1,140.625005364418,0|0,0:0|3:0,0:0:0:0:
467,159,279799,6,0,L|288:137,1,164.062501564622,0|0,0:0|3:0,0:0:0:0:
127,87,279971,5,0,0:0:0:0:
141,116,280058,1,0,0:0:0:0:
154,145,280144,1,0,0:0:0:0:
168,174,280230,1,0,0:0:0:0:
92,228,280316,6,0,B|63:287|101:351|180:348|180:348|231:296|231:296|198:308|160:308,1,328.125003129244,4|0,0:0|0:0,0:0:0:0:
28,347,280661,6,0,B|-1:295|3:230|30:189|30:189|106:151|106:151|92:227,1,328.125003129244,8|0,0:0|0:0,0:0:0:0:
172,332,281006,6,0,B|191:340|191:340|252:336,1,74.9999977111817
408,324,281179,1,4,0:0:0:0:
420,296,281265,1,0,0:0:0:0:
445,213,281351,5,8,0:0:0:0:
392,218,281437,1,0,0:0:0:0:
343,198,281523,1,0,0:0:0:0:
305,273,281609,1,0,0:0:0:0:
232,234,281696,2,0,B|208:252|208:252|124:256,1,93.7500035762788,4|0,0:0|0:0,0:0:0:0:
36,288,281868,5,0,0:0:0:0:
68,172,281954,2,0,P|66:149|56:124,2,46.8750017881394,0|0|8,0:0|0:0|0:0,0:0:0:0:
80,92,282127,5,0,0:0:0:0:
160,120,282213,1,0,0:0:0:0:
236,72,282299,1,0,0:0:0:0:
228,44,282385,6,0,P|288:29|340:64,1,121.874994421006
432,48,282558,5,4,0:0:0:0:
432,48,282644,1,0,0:0:0:0:
432,48,282730,2,0,B|423:93|423:93|449:136,1,93.7500035762788,8|0,0:0|0:0,0:0:0:0:
490,295,282902,2,0,B|486:194|486:194|456:146,1,140.625005364418
408,232,283075,6,0,B|369:264|298:258|289:191|289:191|317:174|361:180,1,224.999993133545,4|0,0:0|0:0,0:0:0:0:
490,295,283334,6,0,B|438:351|438:351|381:330|331:360|331:360|282:339,1,224.999993133545
24,324,283592,6,0,B|59:339|59:339|125:329|191:319,1,168.749994850159
188,319,283765,6,0,P|189:288|200:256,1,62.5
75,141,283937,2,0,P|98:160|108:192,1,62.5,4|0,0:0|0:0,0:0:0:0:
344,256,284109,6,0,B|260:206|192:263|192:263|116:324|39:276,1,328.125003129244,8|0,0:0|0:0,0:0:0:0:
23,264,284454,1,4,0:0:0:0:
428,176,284627,6,0,P|437:130|415:77,1,93.7500035762788
300,120,284799,2,0,P|282:80|244:58,1,78.125,8|0,0:0|0:0,0:0:0:0:
144,156,284971,2,0,P|175:150|208:148,1,62.5
24,40,285144,6,0,P|86:45|157:51,2,125.000004768372
144,156,285489,6,0,B|72:150|72:150|44:187|44:187|70:221|70:221|148:228|148:228|163:250|192:268,1,291.666669448217,8|0,0:0|0:0,0:0:0:0:
336,368,285834,6,0,B|357:344|388:333|388:333|322:288|261:343|261:343|205:388|138:361,1,328.125003129244,4|0,0:0|0:0,0:0:0:0:
23,264,286178,6,0,B|0:226|0:226|137:235|137:235|187:279|187:279|179:242|176:200,1,328.125003129244,8|0,0:0|0:0,0:0:0:0:
92,100,286523,5,0,0:0:0:0:
108,76,286609,1,0,0:0:0:0:
160,64,286696,1,4,0:0:0:0:
236,88,286782,1,0,0:0:0:0:
316,52,286868,5,8,0:0:0:0:
372,48,286954,1,0,0:0:0:0:
416,84,287040,1,0,0:0:0:0:
348,128,287127,1,0,0:0:0:0:
264,112,287213,6,0,B|255:142|255:142|266:203,1,93.7500035762788,4|0,0:0|0:0,0:0:0:0:
340,288,287385,1,0,0:0:0:0:
248,356,287471,2,0,L|200:348,2,46.8750017881394,0|0|8,0:0|0:0|0:0,0:0:0:0:
176,320,287644,5,0,0:0:0:0:
88,352,287730,1,0,0:0:0:0:
16,304,287816,1,0,0:0:0:0:
38,283,287902,6,0,P|66:232|49:168,1,121.874994421006
36,152,288075,2,0,P|32:114|28:68,1,81.2499962806703,4|0,0:0|0:0,0:0:0:0:
132,28,288247,1,8,0:0:0:0:
184,96,288334,1,0,0:0:0:0:
168,124,288420,2,0,P|167:159|167:196,1,62.5
128,280,288592,6,0,B|172:321|172:321|272:304|272:304|304:259|304:259|465:279|465:279|488:329|488:329|522:268|497:200|412:186|351:225|337:281|359:343|412:354,1,765.625007301569,4|0,0:0|0:0,0:0:0:0:
400,350,289282,2,0,P|420:312|408:262,1,93.7500035762788
312,172,289454,6,0,B|355:133|355:133|509:145,1,212.500004053116,4|8,0:0|0:0,0:0:0:0:
240,80,289713,2,0,B|204:68|204:68|228:204|228:204|212:236,1,212.500004053116
80,360,289971,2,0,B|67:261|67:261|113:252|113:252|147:190,1,212.500004053116,4|0,0:0|0:0,0:0:0:0:
36,29,290230,2,0,B|59:180|59:180|90:122,1,212.500004053116
308,44,290489,6,0,B|235:10|235:10|165:61|165:61|172:108,1,212.500004053116
456,104,290747,2,0,B|380:100|380:100|340:128|340:128|248:120,1,212.500004053116
356,352,291006,6,0,B|418:330|431:262|401:219|401:219|340:212|277:208|277:208|327:276,1,356.249990487099,10|0,0:0|0:0,0:0:0:0:
473,360,291351,6,0,B|438:298|438:298|309:283|309:283|278:344|194:348,1,328.125003129244,4|0,0:0|0:0,0:0:0:0:
114,292,291696,6,0,B|79:223|112:159|185:133|260:160|275:241|231:285|194:273|166:238,1,328.125003129244,8|0,0:0|0:0,0:0:0:0:
68,196,292040,5,0,0:0:0:0:
56,160,292127,1,0,0:0:0:0:
108,88,292213,2,0,B|125:95|125:95|186:90,1,74.9999977111817,4|0,0:0|0:0,0:0:0:0:
388,80,292385,5,8,0:0:0:0:
392,52,292471,1,0,0:0:0:0:
432,92,292558,1,0,0:0:0:0:
356,124,292644,1,0,0:0:0:0:
288,76,292730,6,0,P|272:119|285:168,1,93.7500035762788,4|0,0:0|0:0,0:0:0:0:
356,212,292902,1,0,0:0:0:0:
464,184,292989,2,0,L|510:191,2,46.8750017881394,0|0|8,0:0|0:0|0:0,0:0:0:0:
436,180,293161,5,0,0:0:0:0:
400,260,293247,1,0,0:0:0:0:
448,332,293334,1,0,0:0:0:0:
468,312,293420,6,0,P|423:348|359:341,1,121.874994421006
336,324,293592,2,0,P|297:329|252:336,1,81.2499962806703,4|0,0:0|0:0,0:0:0:0:
96,340,293765,6,0,P|140:341|181:363,2,83.3333333333333,8|0|0,0:0|0:0|0:0,0:0:0:0:
272,236,294110,6,0,B|231:246|207:279|207:279|135:242|58:264,1,224.999993133545,4|0,0:0|0:0,0:0:0:0:
53,38,294368,6,0,B|10:124|82:177|82:177|120:172|163:179,1,224.999993133545
368,144,294627,6,0,B|300:94|300:94|212:116,1,168.749994850159
218,114,294799,2,0,P|219:82|212:48,1,62.5
70,208,294971,2,0,P|103:203|140:201,1,62.5,4|0,0:0|0:0,0:0:0:0:
440,236,295144,6,0,B|372:198|320:258|320:258|260:323|185:274|185:274|200:259|216:236,1,328.125003129244,8|0,0:0|0:0,0:0:0:0:
233,219,295489,1,4,0:0:0:0:
53,38,295661,6,0,P|74:80|63:128,1,93.7500035762788
176,68,295834,2,0,P|208:92|248:100,1,78.125,8|0,0:0|0:0,0:0:0:0:
324,40,296006,2,0,P|341:70|347:106,1,62.5
328,268,296178,5,0,0:0:0:0:
328,268,296293,1,0,0:0:0:0:
328,268,296408,1,0,0:0:0:0:
328,268,296523,6,0,B|373:300|422:301|422:301|383:363|304:368|256:320,1,281.250010728836,8|0,0:0|0:0,0:0:0:0:
53,337,296868,6,0,B|25:389|25:389|142:362|142:362|169:317|169:317|218:323|273:329,1,328.125003129244,4|0,0:0|0:0,0:0:0:0:
420,300,297213,6,0,B|487:308|487:308|423:124|423:124|382:175,1,328.125003129244,8|0,0:0|0:0,0:0:0:0:
328,268,297558,2,0,B|302:250|302:250|228:240,1,93.7500035762788
136,232,297730,5,4,0:0:0:0:
112,244,297816,1,0,0:0:0:0:
27,229,297902,5,8,0:0:0:0:
55,179,297989,1,0,0:0:0:0:
37,125,298075,1,0,0:0:0:0:
97,70,298161,1,0,0:0:0:0:
171,108,298247,6,0,B|188:116|188:116|272:105,1,93.7500035762788,4|0,0:0|0:0,0:0:0:0:
353,37,298420,1,0,0:0:0:0:
418,98,298506,2,0,L|413:146,2,46.8750017881394,0|0|8,0:0|0:0|0:0,0:0:0:0:
436,173,298678,5,0,0:0:0:0:
370,227,298765,1,0,0:0:0:0:
290,192,298851,1,0,0:0:0:0:
304,172,298937,6,0,P|281:226|304:288,1,121.874994421006
300,283,299109,2,0,P|322:227|303:171,1,121.874994421006,4|0,0:0|0:0,0:0:0:0:
232,224,299282,6,0,P|198:221|164:216,1,62.5,8|0,0:0|0:0,0:0:0:0:
48,352,299454,2,0,B|69:335|69:335|129:329|129:329|148:339,1,109.375001043081
432,352,299627,6,0,B|482:362|482:362|462:306|439:246|439:246|347:261|330:342,1,328.125003129244,4|0,0:0|0:0,0:0:0:0:
148,339,299971,6,0,B|250:324|250:324|260:281|299:233|299:233|180:252,1,328.125003129244,8|0,0:0|0:0,0:0:0:0:
60,116,300316,6,0,P|68:158|76:216,1,93.7500035762788,8|0,0:0|0:0,0:0:0:0:
152,36,300489,6,0,P|158:66|168:112,1,62.5,4|0,0:0|0:0,0:0:0:0:
160,208,300661,1,8,0:0:0:0:
264,152,300747,2,0,B|332:172|332:172|356:236|356:236|440:260,1,218.750002086163
360,88,301006,5,8,0:0:0:0:
424,176,301092,2,0,B|435:96|435:96|460:64,1,109.375001043081
152,88,301264,5,8,0:0:0:0:
88,176,301351,2,0,B|77:96|77:96|52:64,1,109.375001043081
316,292,301523,5,8,0:0:0:0:
424,307,301609,2,0,L|309:290,1,109.375001043081
196,292,301782,5,8,0:0:0:0:
88,307,301868,2,0,L|203:290,1,109.375001043081
284,136,302040,6,0,P|277:82|268:24,1,109.375001043081,8|0,0:0|0:0,0:0:0:0:
201,165,302213,1,0,0:0:0:0:
203,140,302299,1,0,0:0:0:0:
122,201,302385,6,0,L|301:222,1,140.625005364418,6|0,0:0|0:0,0:0:0:0:
383,124,302727,2,0,B|384:90|384:90|370:25,1,62.5
261,217,302899,2,0,B|255:244|255:244|256:278,1,62.5,2|0,0:0|0:0,0:0:0:0:
435,257,303070,2,0,P|425:223|400:289,1,187.5,8|0,0:0|0:0,0:0:0:0:
475,143,303413,5,6,0:0:0:0:
283,135,303585,2,0,P|240:131|199:109,1,62.5
102,52,303756,2,0,P|126:142|102:243,1,187.5,2|0,0:0|0:0,0:0:0:0:
245,354,304099,6,0,P|232:299|252:240,1,62.5,4|0,0:0|0:0,0:0:0:0:
107,233,304270,2,0,B|70:316|118:362|118:362|113:327|132:301,1,187.5,2|0,0:0|0:0,0:0:0:0:
212,186,304613,6,0,B|243:181|243:181|236:224,1,62.5
291,48,304785,2,0,B|279:77|279:77|246:49,1,62.5,2|0,0:0|0:0,0:0:0:0:
375,191,304956,2,0,B|355:166|355:166|395:151,1,62.5
259,350,305127,6,0,L|234:187,1,140.625005364418,6|0,0:0|0:0,0:0:0:0:
386,92,305470,2,0,L|382:176,2,62.5000023841859
144,178,305813,2,0,P|215:119|316:155,1,166.666666666667,8|0,0:0|0:0,0:0:0:0:
168,341,306156,6,0,L|156:262,1,78.125,6|0,0:0|0:0,0:0:0:0:
318,208,306327,2,0,L|329:285,1,78.125
157,264,306499,6,0,B|191:274|228:256|228:256|261:305|261:305|291:276|362:289,1,206.250006294251,2|0,0:0|0:0,0:0:0:0:
320,381,306842,1,4,0:0:0:0:
81,319,307013,2,0,P|66:265|81:209,1,68.7500020980836,2|0,0:0|0:0,0:0:0:0:
168,153,307185,1,8,0:0:0:0:
314,199,307356,6,0,L|394:212,1,46.8750017881394
490,152,307527,6,0,L|371:171,1,62.5,2|0,0:0|0:0,0:0:0:0:
262,101,307699,6,0,L|405:126,1,93.7500035762788
511,268,307870,6,0,B|440:262|440:262|354:294,1,140.625005364418,6|0,0:0|0:0,0:0:0:0:
276,373,308213,6,0,L|282:270,1,78.125
114,137,308385,2,0,L|132:221,1,78.125,2|0,0:0|0:0,0:0:0:0:
63,303,308556,2,0,B|130:338|188:302|188:302|164:331|171:369,1,187.5,8|0,0:0|0:0,0:0:0:0:
341,233,308899,6,0,P|291:207|250:209,1,62.5,6|0,0:0|0:0,0:0:0:0:
70,202,309070,2,0,P|105:215|133:212,1,62.5
207,85,309242,6,0,L|217:190,1,62.5,2|0,0:0|0:0,0:0:0:0:
341,233,309413,1,0,0:0:0:0:
481,152,309585,2,0,L|402:140,1,62.5,4|0,0:0|0:0,0:0:0:0:
247,301,309756,6,0,B|320:292|342:233|342:233|357:293|431:314,1,234.375,2|0,0:0|0:0,0:0:0:0:
248,223,310099,2,0,B|241:262|241:262|250:323,1,78.125
113,210,310270,2,0,B|118:171|118:171|111:132,1,78.125,2|0,0:0|0:0,0:0:0:0:
342,155,310442,2,0,B|335:194|335:194|344:255,1,78.125
86,269,310613,6,0,B|113:210|113:210|49:165|-59:223|-11:381|102:353,1,375.000014305115,6|0,0:0|0:0,0:0:0:0:
193,366,311042,2,0,L|183:281,2,78.125,0|2|0,0:0|0:0|0:0,0:0:0:0:
273,268,311299,6,0,B|321:205|268:178|243:138|243:138|224:170|182:185|200:240,1,234.375,8|0,0:0|0:0,0:0:0:0:
184,288,311642,2,0,L|193:367,2,79.1666645526887,6|0|0,0:0|0:0|0:0,0:0:0:0:
96,190,311985,6,0,L|107:89,1,62.5,2|0,0:0|0:0,0:0:0:0:
250,76,312156,2,0,L|243:138,1,62.5
350,320,312327,6,0,L|344:257,1,62.5,4|0,0:0|0:0,0:0:0:0:
196,206,312499,2,0,L|201:268,1,62.5,2|0,0:0|0:0,0:0:0:0:
419,176,312670,6,0,L|422:136,3,31.25,8|0|0|0,0:0|0:0|0:0|0:0,0:0:0:0:
343,125,312842,2,0,L|346:85,3,31.25
512,66,313013,6,0,L|499:190,1,125,2|0,0:0|0:0,0:0:0:0:
390,315,313356,6,0,B|276:348|258:244|258:244|282:280|332:279,1,234.375,6|0,0:0|0:0,0:0:0:0:
334,197,313699,5,0,0:0:0:0:
336,189,313813,1,0,0:0:0:0:
341,194,313927,1,0,0:0:0:0:
419,139,314042,6,0,P|331:93|254:147,1,187.5,8|0,0:0|0:0,0:0:0:0:
200,247,314385,6,0,P|208:282|201:353,1,62.5,6|0,0:0|0:0,0:0:0:0:
35,183,314556,2,0,P|35:146|66:73,1,62.5
261,133,314727,6,0,B|119:157|119:157|184:90,1,187.5,2|0,0:0|0:0,0:0:0:0:
307,216,315070,2,0,L|304:314,1,62.5,4|0,0:0|0:0,0:0:0:0:
475,195,315242,2,0,L|471:89,1,78.125,2|0,0:0|0:0,0:0:0:0:
417,334,315413,1,8,0:0:0:0:
336,120,315585,6,0,P|276:124|221:179,1,78.125
115,179,315756,2,0,P|148:228|223:248,1,78.125,2|0,0:0|0:0,0:0:0:0:
278,349,315927,2,0,P|303:295|284:220,1,78.125
260,131,316099,6,0,B|251:84|251:84|265:33|265:33|264:-15|264:-15|273:60|307:81,1,224.999993133545,6|0,0:0|0:0,0:0:0:0:
370,198,316442,1,0,0:0:0:0:
244,231,316613,1,2,0:0:0:0:
374,104,316785,6,0,B|404:147|471:166|471:166|402:174|353:208,1,224.999993133545,8|0,0:0|0:0,0:0:0:0:
244,231,317127,2,0,L|274:335,1,74.9999977111817,6|0,0:0|0:0,0:0:0:0:
124,197,317299,1,0,0:0:0:0:
206,114,317385,6,0,L|199:164,1,37.4999988555909
142,334,317470,2,0,B|134:216|124:198|124:198|170:255|245:231,1,271.875008296967,2|0,0:0|0:0,0:0:0:0:
267,48,317813,6,0,P|235:27|154:39,1,78.125,4|0,0:0|0:0,0:0:0:0:
88,118,317985,1,2,0:0:0:0:
349,256,318156,6,0,L|340:203,1,31.25,8|0,0:0|0:0,0:0:0:0:
407,105,318327,6,0,L|390:197,1,62.5
445,337,318499,6,0,L|419:206,1,93.7500035762788,2|0,0:0|0:0,0:0:0:0:
325,28,318670,6,0,L|293:189,1,125
426,245,318842,6,0,B|491:260|491:260|571:209,1,125,6|0,0:0|0:0,0:0:0:0:
341,234,319185,5,0,0:0:0:0:
341,252,319270,1,0,0:0:0:0:
345,270,319356,1,0,0:0:0:0:
353,286,319442,1,0,0:0:0:0:
426,245,319527,6,0,P|403:175|273:169,1,187.5,8|0,0:0|0:0,0:0:0:0:
231,263,319870,6,0,P|244:314|269:352,1,78.125,2|0,0:0|0:0,0:0:0:0:
102,213,320042,2,0,P|119:178|127:140,1,78.125
256,337,320213,6,0,P|195:278|81:354,1,234.375,2|0,0:0|0:0,0:0:0:0:
187,371,320556,2,0,P|183:353|166:382,1,78.125,4|0,0:0|0:0,0:0:0:0:
338,384,320727,2,0,B|331:336|349:303|349:303|344:231|344:231|362:203|360:142,1,234.375,2|0,0:0|0:0,0:0:0:0:
215,143,321070,6,0,L|225:238,1,78.125
435,108,321242,2,0,L|443:30,1,78.125,2|0,0:0|0:0,0:0:0:0:
125,116,321413,2,0,L|142:208,1,78.125
348,50,321585,6,0,B|315:49|294:66|294:66|246:45|246:45|227:57|196:57,1,156.25,6|0,0:0|0:0,0:0:0:0:
125,116,321842,2,0,P|81:192|142:187,1,187.500007152558,4|0,0:0|0:0,0:0:0:0:
231,276,322099,2,0,P|253:232|215:224,1,93.7500035762788,6|0,0:0|0:0,0:0:0:0:
123,293,322270,1,8,0:0:0:0:
205,370,322356,6,0,B|349:351|349:351|321:338|310:300,1,187.500007152558,0|0,0:0|0:0,0:0:0:0:
378,225,322613,5,2,0:0:0:0:
387,251,322727,1,0,0:0:0:0:
389,279,322842,1,0,0:0:0:0:
293,232,322956,6,0,P|358:141|451:199,1,187.500007152558,6|0,0:0|0:0,0:0:0:0:
319,322,323213,1,4,0:0:0:0:
319,322,323299,2,0,L|191:299,1,93.7500035762788
17,268,323470,2,0,L|132:242,1,93.7500035762788,6|0,0:0|0:0,0:0:0:0:
270,113,323642,6,0,P|194:80|114:161,1,187.500007152558,8|0,0:0|0:0,0:0:0:0:
213,207,323899,1,0,0:0:0:0:
213,207,323985,2,0,L|199:158,3,46.8750017881394,6|0|0|0,0:0|0:0|0:0|0:0,0:0:0:0:
295,191,324156,2,0,L|308:237,3,46.8750017881394
270,113,324327,5,4,0:0:0:0:
166,191,331879,5,0,0:0:0:0:
166,191,332511,5,0,0:0:0:0:
183,186,332589,1,0,0:0:0:0:
199,179,332668,1,0,0:0:0:0:
213,168,332747,1,0,0:0:0:0:
226,156,332826,1,0,0:0:0:0:
235,140,332905,1,0,0:0:0:0:
242,124,332984,1,0,0:0:0:0:
245,106,333063,1,0,0:0:0:0:
221,77,333142,5,0,0:0:0:0:
209,110,333220,1,0,0:0:0:0:
205,146,333299,1,0,0:0:0:0:
211,181,333378,1,0,0:0:0:0:
224,214,333457,1,0,0:0:0:0:
245,243,333536,1,0,0:0:0:0:
272,266,333615,1,0,0:0:0:0:
304,282,333694,1,0,0:0:0:0:
342,284,333774,5,0,0:0:0:0:
302,236,333852,1,0,0:0:0:0:
244,214,333931,1,0,0:0:0:0:
183,223,334010,1,0,0:0:0:0:
134,260,334089,1,10,0:0:0:0:
134,260,334405,6,0,L|280:166,1,162.499992561341,4|0,0:0|0:0,0:0:0:0:
135,166,334642,1,0,0:0:0:0:
135,166,334721,2,0,L|205:121,1,81.2499962806703,8|0,0:0|0:0,0:0:0:0:
293,250,334879,2,0,L|224:293,1,81.2499962806703
57,120,335037,6,0,P|161:51|249:52,1,162.499992561341,4|0,0:0|0:0,0:0:0:0:
305,71,335274,1,0,0:0:0:0:
305,71,335353,2,0,P|251:160|231:160,1,81.2499962806703,8|0,0:0|0:0,0:0:0:0:
114,239,335511,2,0,P|112:198|134:165,1,81.2499962806703
284,144,335668,6,0,L|438:203,1,162.499992561341,4|0,0:0|0:0,0:0:0:0:
276,228,335905,1,0,0:0:0:0:
276,228,335984,2,0,L|353:257,1,81.2499962806703,8|0,0:0|0:0,0:0:0:0:
435,308,336142,1,0,0:0:0:0:
442,314,336221,1,0,0:0:0:0:
442,314,336300,5,4,0:0:0:0:
381,315,336379,1,0,0:0:0:0:
320,316,336458,1,0,0:0:0:0:
259,318,336537,1,0,0:0:0:0:
205,381,336616,5,8,0:0:0:0:
205,320,336695,1,0,0:0:0:0:
205,259,336774,1,0,0:0:0:0:
206,198,336853,1,0,0:0:0:0:
206,137,336932,6,0,B|164:112|130:112|130:112|94:128|70:196,1,162.499992561341,4|0,0:0|0:0,0:0:0:0:
127,245,337168,1,0,0:0:0:0:
126,244,337247,2,0,B|147:256|164:256|164:256|182:248|189:225,1,81.2499962806703,8|0,0:0|0:0,0:0:0:0:
143,44,337405,2,0,B|122:31|105:31|105:31|87:39|79:62,1,81.2499962806703
78,173,337563,6,0,L|268:117,1,162.499992561341,4|0,0:0|0:0,0:0:0:0:
364,81,337800,1,0,0:0:0:0:
364,81,337879,2,0,B|375:116|375:116|389:122|389:122|382:137|382:137|419:258,1,162.499992561341,8|0,0:0|0:0,0:0:0:0:
281,318,338116,1,0,0:0:0:0:
281,318,338195,6,0,P|168:301|123:203,1,162.499992561341,4|0,0:0|0:0,0:0:0:0:
235,244,338432,1,0,0:0:0:0:
235,244,338511,2,0,P|271:218|253:241,1,162.499992561341,8|0,0:0|0:0,0:0:0:0:
158,72,338826,5,4,0:0:0:0:
232,42,338904,1,0,0:0:0:0:
312,52,338983,1,0,0:0:0:0:
377,100,339062,1,0,0:0:0:0:
408,177,339141,5,8,0:0:0:0:
393,252,339220,1,0,0:0:0:0:
343,315,339299,1,0,0:0:0:0:
269,344,339378,1,0,0:0:0:0:
175,358,339458,6,0,P|90:294|87:193,1,162.499992561341,4|0,0:0|0:0,0:0:0:0:
195,292,339695,1,0,0:0:0:0:
195,292,339774,2,0,P|157:269|148:215,1,81.2499962806703,8|0,0:0|0:0,0:0:0:0:
317,92,339932,2,0,P|355:115|364:169,1,81.2499962806703
295,237,340090,6,0,L|183:118,1,162.499992561341,4|0,0:0|0:0,0:0:0:0:
328,72,340326,1,0,0:0:0:0:
328,72,340405,2,0,L|407:162,1,81.2499962806703,8|0,0:0|0:0,0:0:0:0:
183,311,340563,2,0,L|104:221,1,81.2499962806703
331,36,340721,6,0,B|394:61|394:61|439:151,1,162.499992561341,4|0,0:0|0:0,0:0:0:0:
181,348,340958,1,0,0:0:0:0:
181,348,341037,2,0,B|118:323|118:323|73:233,1,162.499992561341,8|0,0:0|0:0,0:0:0:0:
329,183,341274,1,0,0:0:0:0:
329,183,341353,5,0,0:0:0:0:
346,217,341431,1,0,0:0:0:0:
329,252,341510,1,0,0:0:0:0:
290,258,341589,1,0,0:0:0:0:
239,331,341668,5,0,0:0:0:0:
202,259,341746,1,0,0:0:0:0:
216,180,341825,1,0,0:0:0:0:
273,125,341904,1,0,0:0:0:0:
350,98,341984,6,0,B|419:136|420:238,1,162.499992561341,4|0,0:0|0:0,0:0:0:0:
290,258,342221,1,0,0:0:0:0:
290,258,342300,2,0,B|255:239|254:187,1,81.2499962806703,8|0,0:0|0:0,0:0:0:0:
476,85,342458,2,0,B|510:104|511:155,1,81.2499962806703
133,192,342616,6,0,L|238:68,1,162.499992561341,4|0,0:0|0:0,0:0:0:0:
316,208,342853,1,0,0:0:0:0:
316,208,342932,2,0,L|264:271,1,81.2499962806703,8|0,0:0|0:0,0:0:0:0:
63,104,343090,2,0,L|116:42,1,81.2499962806703
366,202,343247,6,0,B|337:250|337:250|347:266|347:266|328:268|328:268|267:373,1,187.500007152558,4|0,0:0|0:0,0:0:0:0:
232,192,343484,2,0,P|208:214|228:208,1,93.7500035762788,4|0,0:0|0:0,0:0:0:0:
161,110,343642,1,0,0:0:0:0:
161,110,343721,2,0,P|130:138|108:188,1,93.7500035762788,4|0,0:0|0:0,0:0:0:0:
176,320,343879,5,0,0:0:0:0:
245,285,343957,1,0,0:0:0:0:
283,218,344036,1,0,0:0:0:0:
277,141,344115,1,0,0:0:0:0:
216,83,344195,5,0,0:0:0:0:
147,118,344273,1,0,0:0:0:0:
109,185,344352,1,0,0:0:0:0:
115,262,344431,1,0,0:0:0:0:
409,307,344511,6,0,P|454:221|404:147,1,187.500007152558,4|0,0:0|0:0,0:0:0:0:
284,128,344747,1,0,0:0:0:0:
284,128,344826,2,0,P|310:211|338:222,1,93.7500035762788,8|0,0:0|0:0,0:0:0:0:
476,51,344984,2,0,P|391:32|367:50,1,93.7500035762788
176,133,345142,6,0,P|177:226|247:288,1,187.500007152558,4|0,0:0|0:0,0:0:0:0:
401,304,345379,1,0,0:0:0:0:
401,304,345458,2,0,L|341:215,1,93.7500035762788,8|0,0:0|0:0,0:0:0:0:
54,235,345616,2,0,L|114:324,1,93.7500035762788
242,286,345774,6,0,P|241:193|171:131,1,187.500007152558,4|0,0:0|0:0,0:0:0:0:
152,236,346011,1,0,0:0:0:0:
152,236,346090,2,0,P|230:190|251:101,1,187.500007152558,8|0,0:0|0:0,0:0:0:0:
54,235,346405,5,0,0:0:0:0:
85,237,346484,1,0,0:0:0:0:
115,246,346563,1,0,0:0:0:0:
142,262,346641,1,0,0:0:0:0:
218,286,346721,5,0,0:0:0:0:
291,281,346799,1,0,0:0:0:0:
341,228,346878,1,0,0:0:0:0:
343,155,346957,1,0,0:0:0:0:
307,68,347037,5,4,0:0:0:0:
307,68,347195,1,0,0:0:0:0:
307,68,347353,6,0,P|353:97|377:151,1,93.7500035762788,8|0,0:0|0:0,0:0:0:0:
337,298,347511,2,0,P|289:323|231:317,1,93.7500035762788
123,209,347668,6,0,B|98:170|96:121|96:121|117:79|183:41,1,187.500007152558,4|0,0:0|0:0,0:0:0:0:
388,174,347905,1,0,0:0:0:0:
388,174,347984,6,0,B|414:214|416:263|416:263|395:305|328:342,1,187.500007152558,8|0,0:0|0:0,0:0:0:0:
216,142,348221,1,0,0:0:0:0:
216,142,348300,6,0,P|313:194|326:288,1,187.500007152558,4|0,0:0|0:0,0:0:0:0:
181,245,348616,2,0,P|229:222|185:277,1,187.500007152558,8|0,0:0|0:0,0:0:0:0:
107,279,348853,1,0,0:0:0:0:
107,279,348932,5,4,0:0:0:0:
155,249,349010,1,0,0:0:0:0:
176,195,349089,1,0,0:0:0:0:
162,141,349168,1,0,0:0:0:0:
84,175,349247,5,8,0:0:0:0:
77,231,349325,1,0,0:0:0:0:
107,279,349404,1,0,0:0:0:0:
159,301,349483,1,0,0:0:0:0:
278,295,349563,6,0,P|314:232|268:284,1,212.500004053116,4|0,0:0|0:0,0:0:0:0:
396,344,349800,1,4,0:0:0:0:
396,344,349879,2,0,B|455:310|459:262|459:262|434:193|352:179,1,212.500004053116,0|4,0:0|0:0,0:0:0:0:
146,179,350116,1,0,0:0:0:0:
146,179,350195,6,0,B|193:188|206:151|206:151|208:126|236:117|236:117|195:46|279:30,1,212.500004053116,4|0,0:0|0:0,0:0:0:0:
381,65,350432,1,4,0:0:0:0:
381,65,350511,2,0,L|350:175,1,106.250002026558
117,281,350668,2,0,L|148:171,1,106.250002026558,4|0,0:0|0:0,0:0:0:0:
90,71,350826,5,4,0:0:0:0:
168,75,350904,1,4,0:0:0:0:
232,121,350983,1,0,0:0:0:0:
262,194,351063,1,4,0:0:0:0:
116,280,351221,5,0,0:0:0:0:
117,280,351300,2,0,L|148:173,1,106.250002026558,4|0,0:0|0:0,0:0:0:0:
388,167,351458,5,8,0:0:0:0:
356,181,351537,1,0,0:0:0:0:
321,185,351616,1,0,0:0:0:0:
289,171,351695,1,0,0:0:0:0:
266,144,351774,1,0,0:0:0:0:
238,123,351853,1,0,0:0:0:0:
204,116,351932,1,0,0:0:0:0:
170,123,352010,1,0,0:0:0:0:
123,146,352090,5,8,0:0:0:0:
90,200,352168,1,0,0:0:0:0:
109,261,352247,1,4,0:0:0:0:
166,287,352326,1,0,0:0:0:0:
214,330,352405,5,8,0:0:0:0:
272,307,352484,1,0,0:0:0:0:
293,247,352563,1,4,0:0:0:0:
261,191,352642,1,0,0:0:0:0:
206,158,352721,5,8,0:0:0:0:
264,104,352799,1,0,0:0:0:0:
341,87,352878,1,4,0:0:0:0:
416,110,352957,1,0,0:0:0:0:
469,168,353036,5,8,0:0:0:0:
411,222,353115,1,0,0:0:0:0:
334,239,353194,1,4,0:0:0:0:
259,216,353273,1,0,0:0:0:0:
206,158,353353,5,8,0:0:0:0:
170,195,353431,1,0,0:0:0:0:
119,190,353510,1,0,0:0:0:0:
91,148,353589,1,8,0:0:0:0:
80,273,353668,5,0,0:0:0:0:
182,285,353746,1,0,0:0:0:0:
259,216,353826,6,0,P|314:161|321:120,1,106.250002026558,8|0,0:0|0:0,0:0:0:0:
152,67,353984,2,0,P|97:122|90:163,1,106.250002026558
206,158,354142,5,8,0:0:0:0:
300,298,354221,1,0,0:0:0:0:
375,147,354300,1,4,0:0:0:0:
68,136,354616,6,0,B|100:144|100:144|164:104|164:104|312:116|312:116|244:168,1,328.125012516976,4|0,0:0|0:0,0:0:0:0:
136,308,355219,2,0,L|133:258,1,28.1249991416931,8|0,0:0|0:0,0:0:0:0:
120,256,355294,6,0,B|196:252|196:252|288:300|288:300|408:296,1,281.249991416931
428,64,355822,6,0,B|368:8|368:8|384:232,1,281.249991416931,4|0,0:0|0:0,0:0:0:0:
389,295,356274,2,0,L|392:352,1,56.2499982833863,4|0,0:0|0:0,0:0:0:0:
260,264,356425,6,0,B|300:301|300:301|289:150,1,168.749994850159,8|0,0:0|0:0,0:0:0:0:
200,84,356726,2,0,B|280:112|280:112|368:56,1,168.749994850159
216,176,357028,6,0,B|76:128|76:128|116:208,1,206.250006294251,4|0,0:0|0:0,0:0:0:0:
184,248,357329,2,0,P|240:256|280:224,1,68.7500020980836
116,64,357480,2,0,P|60:56|20:88,1,68.7500020980836
4,360,357631,5,8,0:0:0:0:
18,332,357706,1,0,0:0:0:0:
42,351,357781,1,0,0:0:0:0:
57,323,357857,1,0,0:0:0:0:
81,342,357932,5,0,0:0:0:0:
96,314,358007,1,0,0:0:0:0:
120,333,358082,1,0,0:0:0:0:
135,305,358158,1,0,0:0:0:0:
159,324,358233,1,0,0:0:0:0:
174,296,358384,5,0,0:0:0:0:
198,315,358459,1,0,0:0:0:0:
213,287,358610,5,0,0:0:0:0:
237,306,358685,1,0,0:0:0:0:
252,278,358837,5,8,0:0:0:0:
276,297,358912,1,0,0:0:0:0:
291,269,358987,1,0,0:0:0:0:
315,288,359062,1,0,0:0:0:0:
330,260,359138,6,0,P|436:288|332:332,1,224.999993133545
256,384,359440,6,0,B|269:312|269:312|251:244|251:244|270:128|270:128|338:80,1,328.125012516976,4|0,0:0|0:0,0:0:0:0:
176,44,360043,2,0,L|184:88,1,28.1249991416931,8|0,0:0|0:0,0:0:0:0:
192,100,360118,6,0,B|176:192|176:192|96:240|96:240|72:340,1,281.249991416931
376,328,360646,6,0,B|172:292|172:292|208:356,1,281.249991416931,4|0,0:0|0:0,0:0:0:0:
348,244,361098,2,0,L|256:224,1,56.2499982833863,4|0,0:0|0:0,0:0:0:0:
352,112,361249,6,0,B|476:96|476:96|440:140,1,168.749994850159,8|0,0:0|0:0,0:0:0:0:
296,32,361550,2,0,B|256:20|256:20|216:28|216:28|176:12|176:12|100:24,1,168.749994850159
36,176,361852,6,0,B|68:188|84:224|84:224|76:24,1,224.999993133545,4|0,0:0|0:0,0:0:0:0:
180,292,362153,6,0,B|188:260|220:237|220:237|112:204|52:277,1,243.749988842011
252,368,362455,6,0,L|260:256,1,62.5,8|0,0:0|0:0,0:0:0:0:
376,80,362605,2,0,L|368:192,1,62.5
364,356,362756,2,0,L|372:244,1,62.5
484,108,362906,2,0,L|476:220,1,62.5
168,24,363058,6,0,B|360:0|360:0|304:16|284:72,1,281.250010728836
112,80,363359,2,0,P|88:36|100:-20,1,81.2499962806703,4|0,0:0|0:0,0:0:0:0:
376,80,363510,2,0,P|374:120|352:154,1,81.2499962806703
132,296,363661,6,0,B|84:240|84:240|196:260|196:260|248:252|248:252|368:272,1,328.125012516976,8|0,0:0|0:0,0:0:0:0:
412,376,364264,6,0,B|408:312|340:268|340:268|400:248|420:192|420:192|386:164|380:112,1,328.125012516976,4|0,0:0|0:0,0:0:0:0:
296,24,364867,2,0,L|288:60,1,28.1249991416931,8|0,0:0|0:0,0:0:0:0:
280,80,364942,6,0,B|192:84|192:84|140:108|140:108|48:112|48:112|128:76,1,281.249991416931
264,224,365470,6,0,P|200:176|212:308,1,281.249991416931,4|0,0:0|0:0,0:0:0:0:
288,300,365922,2,0,P|308:292|332:264,1,56.2499982833863,4|0,0:0|0:0,0:0:0:0:
408,100,366073,6,0,B|380:92|364:72|364:72|376:212,1,168.749994850159,8|0,0:0|0:0,0:0:0:0:
432,280,366374,6,0,B|460:288|476:308|476:308|464:168,1,168.749994850159
420,28,366676,6,0,B|388:0|355:-7|316:20|316:20|288:44|244:36|188:0,1,206.250006294251,4|0,0:0|0:0,0:0:0:0:
120,104,366977,2,0,P|156:99|204:80,1,68.7500020980836
364,196,367128,2,0,P|331:185|297:180,1,68.7500020980836
28,296,367279,5,8,0:0:0:0:
50,274,367354,1,0,0:0:0:0:
66,301,367429,1,0,0:0:0:0:
90,280,367505,1,0,0:0:0:0:
105,307,367580,5,0,0:0:0:0:
129,286,367655,1,0,0:0:0:0:
145,313,367730,1,0,0:0:0:0:
169,293,367806,1,0,0:0:0:0:
185,320,367881,1,0,0:0:0:0:
208,300,368032,5,0,0:0:0:0:
224,326,368107,1,0,0:0:0:0:
248,306,368258,5,0,0:0:0:0:
264,332,368333,1,0,0:0:0:0:
287,312,368485,5,8,0:0:0:0:
303,338,368560,1,0,0:0:0:0:
327,319,368635,1,0,0:0:0:0:
343,345,368710,1,0,0:0:0:0:
366,325,368786,6,0,B|508:320|508:320|424:368,1,224.999993133545,0|0,0:0|0:0,0:0:0:0:
436,361,369088,6,0,P|428:304|432:232,1,100,6|2,0:0|0:0,0:0:0:0:
212,184,369389,2,0,P|220:241|216:313,1,100,10|0,0:0|0:0,0:0:0:0:
496,204,369691,1,6,0:0:0:0:
328,148,369842,1,0,0:0:0:0:
512,180,369992,1,10,0:0:0:0:
327,118,370143,1,0,0:0:0:0:
184,368,370294,6,0,B|344:356|344:356|276:320,1,200,6|10,0:0|0:0,0:0:0:0:
32,236,370746,1,0,0:0:0:0:
96,368,370897,1,6,0:0:0:0:
96,368,370972,1,2,0:0:0:0:
96,368,371048,2,0,L|108:296,1,50,2|0,0:0|0:0,0:0:0:0:
248,140,371198,2,0,L|256:288,1,100,10|0,0:0|0:0,0:0:0:0:
56,55,371500,6,0,P|102:74|180:56,1,100,6|0,0:0|0:0,0:0:0:0:
336,344,371801,2,0,P|286:340|240:359,1,100,10|4,0:0|0:0,0:0:0:0:
32,236,372103,1,10,0:0:0:0:
308,172,372254,5,4,0:0:0:0:
208,327,372404,5,10,0:0:0:0:
266,372,372479,1,0,0:0:0:0:
339,375,372554,1,4,0:0:0:0:
401,335,372630,1,0,0:0:0:0:
429,267,372706,6,0,B|432:217|432:217|441:199|441:199|435:177|435:177|440:115,1,140.625005364418,4|0,0:0|0:0,0:0:0:0:
443,100,373003,1,8,0:0:0:0:
171,54,373151,1,4,0:0:0:0:
347,78,373300,2,0,P|316:80|281:76,1,62.5
159,168,373448,2,0,P|190:164|221:166,1,62.5,4|0,0:0|0:0,0:0:0:0:
378,243,373597,1,8,0:0:0:0:
452,86,373745,1,4,0:0:0:0:
310,196,373894,6,0,B|293:222|293:222|296:264,1,62.5
444,291,374042,2,0,B|461:265|461:265|458:223,1,62.5,4|0,0:0|0:0,0:0:0:0:
423,78,374191,1,8,0:0:0:0:
354,336,374339,1,4,0:0:0:0:
221,166,374488,1,0,0:0:0:0:
204,157,374562,1,0,0:0:0:0:
186,162,374636,1,4,0:0:0:0:
187,311,374785,2,0,L|194:240,1,62.5,8|0,0:0|0:0,0:0:0:0:
210,72,374933,1,4,0:0:0:0:
391,60,375082,6,0,B|314:72|314:72|284:57|284:57|208:71,1,187.5,4|0,0:0|0:0,0:0:0:0:
121,88,375379,2,0,B|116:131|116:131|117:139|117:139|110:193,1,93.7500035762788,8|0,0:0|0:0,0:0:0:0:
176,317,375527,2,0,P|182:287|199:256,1,62.5,4|0,0:0|0:0,0:0:0:0:
1,248,375676,2,0,P|15:276|23:307,1,62.5
96,320,375824,2,0,L|103:258,1,62.5,4|0,0:0|0:0,0:0:0:0:
123,67,375973,1,8,0:0:0:0:
308,231,376121,5,4,0:0:0:0:
308,231,376196,2,0,P|358:235|414:224,1,93.7500035762788
476,202,376418,1,0,0:0:0:0:
233,42,376567,2,0,B|199:98|199:98|231:161,1,125,8|0,0:0|0:0,0:0:0:0:
362,161,376790,2,0,B|396:105|396:105|364:42,1,125,4|0,0:0|0:0,0:0:0:0:
298,102,377012,1,4,0:0:0:0:
110,322,377161,2,0,B|136:127|136:127|176:206,1,281.250010728836,8|0,0:0|0:0,0:0:0:0:
402,241,377458,6,0,P|364:196|284:224,1,140.625005364418,4|0,0:0|0:0,0:0:0:0:
240,277,377755,1,8,0:0:0:0:
465,354,377904,1,4,0:0:0:0:
436,87,378052,2,0,L|444:158,1,62.5
467,364,378201,2,0,L|460:301,1,62.5,4|0,0:0|0:0,0:0:0:0:
452,225,378349,1,8,0:0:0:0:
174,202,378498,1,4,0:0:0:0:
319,290,378646,6,0,P|288:292|253:288,1,62.5
89,342,378795,2,0,P|120:338|151:340,1,62.5,4|0,0:0|0:0,0:0:0:0:
291,214,378943,2,0,B|297:162|297:162|305:149|305:149|314:82,1,125,8|4,0:0|0:0,0:0:0:0:
283,18,379166,1,0,0:0:0:0:
267,28,379240,2,0,L|200:20,2,62.5,0|0|4,0:0|0:0|0:0,0:0:0:0:
411,201,379537,2,0,P|425:159|457:109,1,93.75,8|0,0:0|0:0,0:0:0:0:
394,212,379834,6,0,B|413:128|465:88|465:88|487:182,1,234.375,4|0,0:0|0:0,0:0:0:0:
500,251,380131,2,0,L|495:318,1,62.5,8|0,0:0|0:0,0:0:0:0:
233,295,380428,2,0,B|165:237|165:237|325:220,1,234.375,4|0,0:0|0:0,0:0:0:0:
394,212,380725,1,8,0:0:0:0:
64,193,380874,6,0,B|48:97|48:97|131:45|131:45|167:246,1,390.625,4|0,0:0|0:0,0:0:0:0:
106,323,381319,2,0,B|78:267|78:267|18:297,1,125,8|0,0:0|0:0,0:0:0:0:
233,295,381542,2,0,B|288:322|288:322|316:266,1,125,4|0,0:0|0:0,0:0:0:0:
350,193,381765,1,4,0:0:0:0:
378,20,381913,2,0,B|352:83|352:83|375:135|375:135|343:207,1,187.5,8|0,0:0|0:0,0:0:0:0:
499,322,382210,6,0,B|487:275|487:275|382:257,1,140.625005364418,4|0,0:0|0:0,0:0:0:0:
316,266,382507,1,8,0:0:0:0:
462,130,382656,1,4,0:0:0:0:
329,352,382805,6,0,B|312:326|312:326|315:284,1,62.5
472,149,382953,2,0,L|397:152,1,62.5,4|0,0:0|0:0,0:0:0:0:
214,164,383102,1,8,0:0:0:0:
396,259,383250,1,4,0:0:0:0:
308,35,383399,6,0,L|311:110,1,62.5
313,203,383547,2,0,L|316:278,1,62.5,4|0,0:0|0:0,0:0:0:0:
192,162,383696,1,8,0:0:0:0:
411,66,383844,1,4,0:0:0:0:
193,35,383993,1,0,0:0:0:0:
174,32,384067,1,0,0:0:0:0:
155,29,384141,1,4,0:0:0:0:
72,226,384290,2,0,P|103:229|134:227,1,62.5,8|0,0:0|0:0,0:0:0:0:
241,95,384438,1,4,0:0:0:0:
387,70,384587,6,0,B|337:79|321:131|321:131|282:81|218:99,1,187.5,4|0,0:0|0:0,0:0:0:0:
252,175,384884,2,0,B|250:215|250:215|247:223|247:223|248:232|248:232|245:290,1,93.7500035762788,8|0,0:0|0:0,0:0:0:0:
391,332,385032,2,0,L|332:285,1,62.5,4|0,0:0|0:0,0:0:0:0:
105,330,385181,2,0,L|164:283,1,62.5
245,367,385329,2,0,L|248:290,1,62.5,4|0,0:0|0:0,0:0:0:0:
252,175,385478,1,8,0:0:0:0:
468,122,385626,5,4,0:0:0:0:
468,122,385701,2,0,P|397:111|376:91,1,93.7500035762788
446,38,385923,1,0,0:0:0:0:
199,90,386072,2,0,B|218:62|218:62|329:55,1,125,8|0,0:0|0:0,0:0:0:0:
315,259,386295,2,0,B|296:287|296:287|185:294,1,125,4|0,0:0|0:0,0:0:0:0:
252,175,386517,1,4,0:0:0:0:
70,325,386666,2,0,B|103:349|103:349|93:144|93:144|132:180,1,281.250010728836,8|0,0:0|0:0,0:0:0:0:
265,164,386963,6,0,P|273:124|126:80,1,218.75,4|0,0:0|0:0,0:0:0:0:
190,130,387557,6,0,P|195:161|198:200,1,62.5,8|0,0:0|0:0,0:0:0:0:
290,301,387706,2,0,P|292:269|297:239,1,62.5,4|0,0:0|0:0,0:0:0:0:
155,268,387854,1,0,0:0:0:0:
394,231,388003,1,4,0:0:0:0:
443,224,388077,1,0,0:0:0:0:
492,218,388151,6,0,L|497:142,1,62.5,8|0,0:0|0:0,0:0:0:0:
347,56,388300,2,0,L|342:132,1,62.5
434,322,388448,1,0,0:0:0:0:
273,159,388597,1,4,0:0:0:0:
264,109,388671,1,0,0:0:0:0:
256,59,388745,6,0,B|227:42|227:42|184:48,1,62.5,8|0,0:0|0:0,0:0:0:0:
430,94,388894,2,0,B|458:97|458:97|487:80,1,62.5
292,292,389042,2,0,B|307:260|307:260|304:226|304:226|323:183,2,104.166666666667
304,312,389339,6,0,L|373:308,1,62.5,8|0,0:0|0:0,0:0:0:0:
149,204,389488,2,0,L|80:200,1,62.5,4|0,0:0|0:0,0:0:0:0:
394,170,389636,2,0,L|463:174,1,62.5,8|0,0:0|0:0,0:0:0:0:
113,336,389785,2,0,L|44:340,1,62.5,4|0,0:0|0:0,0:0:0:0:
290,60,389933,6,0,B|330:111|330:111|303:179,1,125,8|0,0:0|0:0,0:0:0:0:
185,187,390156,2,0,B|145:136|145:136|172:68,1,125,8|0,0:0|0:0,0:0:0:0:
237,123,390379,1,8,0:0:0:0:
461,288,390527,5,4,0:0:0:0:
365,265,390676,1,0,0:0:0:0:
475,278,390824,5,0,0:0:0:0:
356,277,390973,1,0,0:0:0:0:
458,108,391121,5,0,0:0:0:0:
256,320,391270,5,0,0:0:0:0:
256,308,391344,2,0,B|252:272|252:272|260:248|260:248|256:212,1,93.75
173,60,391715,6,0,B|368:71|368:71|305:115,1,262.499991989136,4|0,0:0|0:0,0:0:0:0:
148,202,392010,6,0,L|268:210,1,74.9999977111817
365,314,392158,2,0,L|259:308,1,74.9999977111817
42,257,392306,6,0,B|24:103|24:103|87:154,1,206.250006294251,8|0,0:0|0:0,0:0:0:0:
93,151,392601,5,0,0:0:0:0:
115,134,392675,1,0,0:0:0:0:
140,124,392749,1,0,0:0:0:0:
167,122,392823,1,0,0:0:0:0:
206,132,392897,1,0,0:0:0:0:
240,155,392971,1,0,0:0:0:0:
277,173,393045,5,0,0:0:0:0:
317,176,393118,1,0,0:0:0:0:
371,171,393192,1,4,0:0:0:0:
412,135,393266,1,0,0:0:0:0:
423,81,393340,1,0,0:0:0:0:
404,28,393414,1,0,0:0:0:0:
343,6,393488,6,0,B|318:88|318:88|207:61,1,174.999994659424,8|0,0:0|0:0,0:0:0:0:
194,58,393710,2,0,B|109:34|109:34|80:115,1,174.999994659424
134,330,393931,6,0,L|153:263,1,68.7500020980836
232,67,394079,6,0,B|215:166|293:228|293:228|317:145,1,243.749988842011,4|0,0:0|0:0,0:0:0:0:
418,120,394375,6,0,B|435:58|357:-3|357:-3|340:56,1,206.250006294251,4|0,0:0|0:0,0:0:0:0:
292,226,394670,6,0,L|390:244,1,87.499997329712,8|0,0:0|0:0,0:0:0:0:
104,115,394818,2,0,L|210:89,1,87.499997329712
340,54,394966,1,4,0:0:0:0:
159,348,395114,6,0,P|130:291|131:251,1,74.9999977111817,8|0,0:0|0:0,0:0:0:0:
104,115,395261,1,0,0:0:0:0:
104,115,395335,1,0,0:0:0:0:
104,115,395409,1,4,0:0:0:0:
288,285,395557,2,0,P|317:228|316:188,1,74.9999977111817,8|0,0:0|0:0,0:0:0:0:
343,52,395704,1,0,0:0:0:0:
343,52,395778,1,0,0:0:0:0:
343,52,395852,1,4,0:0:0:0:
166,224,396000,1,8,0:0:0:0:
477,353,396148,6,0,B|301:292|387:419|187:330,1,262.499991989136
88,307,396444,6,0,B|166:225|166:225|193:347,1,224.999993133545,4|0,0:0|0:0,0:0:0:0:
36,213,396739,6,0,L|115:133,1,74.9999977111817,4|0,0:0|0:0,0:0:0:0:
283,282,396887,2,0,L|268:209,1,74.9999977111817
208,96,397035,6,0,B|305:66|379:134|379:134|341:91|348:42,1,262.499991989136,4|0,0:0|0:0,0:0:0:0:
453,58,397330,5,4,0:0:0:0:
473,89,397404,1,0,0:0:0:0:
480,125,397478,2,0,P|482:177|466:220,1,74.9999977111817
316,179,397626,5,4,0:0:0:0:
296,210,397700,1,0,0:0:0:0:
289,246,397774,2,0,P|287:298|303:341,1,74.9999977111817
453,379,397921,5,4,0:0:0:0:
473,348,397995,1,0,0:0:0:0:
480,312,398069,2,0,P|482:260|466:217,1,74.9999977111817
341,77,398217,6,0,B|266:95|266:95|237:78|237:78|154:98,1,174.999994659424,4|0,0:0|0:0,0:0:0:0:
31,127,398439,2,0,B|101:150|101:150|126:304,1,174.999994659424
47,355,398660,6,0,L|30:237,1,68.7500020980836
174,93,398808,6,0,B|192:194|192:194|219:212|219:212|248:362,1,262.499991989136,4|0,0:0|0:0,0:0:0:0:
355,115,399104,5,4,0:0:0:0:
355,115,399178,1,0,0:0:0:0:
355,115,399251,2,0,P|293:111|261:128,1,74.9999977111817
61,193,399398,1,4,0:0:0:0:
381,274,399547,6,0,P|341:284|288:266,1,78.125
92,195,399694,1,4,0:0:0:0:
344,37,399843,6,0,L|360:152,1,78.125
381,274,399990,6,0,B|304:244|304:244|210:284,1,156.25,4|0,0:0|0:0,0:0:0:0:
128,363,400212,5,0,0:0:0:0:
128,363,400286,2,0,L|110:249,1,84.3750003218651,4|0,0:0|0:0,0:0:0:0:
87,66,400434,2,0,L|102:184,1,84.3750003218651
236,272,400581,6,0,B|359:220|356:327|473:264,1,218.75,4|0,0:0|0:0,0:0:0:0:
481,260,401173,6,0,L|490:171,1,68.7500020980836,4|0,0:0|0:0,0:0:0:0:
388,34,401320,1,0,0:0:0:0:
356,40,401394,1,0,0:0:0:0:
320,48,401468,2,0,L|236:64,1,68.7500020980836
214,241,401616,2,0,L|146:229,1,68.7500020980836
53,191,401764,6,0,B|16:166|16:166|35:297|35:297|85:249,1,206.250006294251,8|0,0:0|0:0,0:0:0:0:
146,231,402059,5,4,0:0:0:0:
179,223,402133,1,0,0:0:0:0:
213,225,402207,1,0,0:0:0:0:
244,239,402281,1,0,0:0:0:0:
283,266,402355,1,0,0:0:0:0:
327,284,402429,1,0,0:0:0:0:
375,286,402503,5,0,0:0:0:0:
422,275,402577,1,0,0:0:0:0:
464,231,402650,1,4,0:0:0:0:
469,169,402724,1,0,0:0:0:0:
434,117,402798,1,0,0:0:0:0:
373,103,402872,1,0,0:0:0:0:
316,125,402946,6,0,B|234:162|234:162|233:42,1,174.999994659424,8|0,0:0|0:0,0:0:0:0:
68,72,403168,2,0,B|150:35|150:35|151:155,1,174.999994659424
16,245,403389,6,0,L|63:171,1,68.7500020980836
158,26,403537,6,0,B|159:133|159:133|179:161|179:161|181:283,1,243.749988842011,4|0,0:0|0:0,0:0:0:0:
273,334,403833,6,0,B|272:245|272:245|252:217|252:217|251:123,1,206.250006294251,4|0,0:0|0:0,0:0:0:0:
431,41,404128,6,0,L|360:115,1,74.9999977111817,8|0,0:0|0:0,0:0:0:0:
181,266,404276,2,0,L|283:286,1,74.9999977111817
508,326,404424,2,0,L|468:238,1,74.9999977111817,4|0,0:0|0:0,0:0:0:0:
230,42,404572,6,0,P|220:84|226:151,1,81.2499962806703,8|0,0:0|0:0,0:0:0:0:
341,297,404719,1,0,0:0:0:0:
341,297,404793,1,0,0:0:0:0:
341,297,404867,1,4,0:0:0:0:
452,68,405015,6,0,P|462:110|456:177,1,81.2499962806703,8|0,0:0|0:0,0:0:0:0:
341,323,405162,1,0,0:0:0:0:
341,323,405236,1,0,0:0:0:0:
341,323,405310,1,4,0:0:0:0:
343,75,405458,1,8,0:0:0:0:
254,280,405606,6,0,B|170:268|170:268|137:300|137:300|15:283,1,206.250006294251,2|0,0:0|0:0,0:0:0:0:
51,173,405902,6,0,P|136:156|199:226,1,156.25,4|0,0:0|0:0,0:0:0:0:
254,280,406123,5,0,0:0:0:0:
254,280,406197,2,0,P|285:222|280:171,1,78.125,4|0,0:0|0:0,0:0:0:0:
390,92,406345,2,0,P|401:148|427:183,1,78.125
449,320,406493,6,0,B|365:311|365:311|340:287|340:287|231:277,1,206.250006294251,4|0,0:0|0:0,0:0:0:0:
197,201,406788,6,0,B|184:115|184:115|242:53|242:53|258:132,1,224.999993133545,4|0,0:0|0:0,0:0:0:0:
118,324,407084,6,0,L|92:126,1,168.75000064373,4|0,0:0|0:0,0:0:0:0:
19,39,407306,5,0,0:0:0:0:
19,39,407380,2,0,P|94:53|124:37,1,84.3750003218651,4|0,0:0|0:0,0:0:0:0:
240,53,407527,2,0,P|188:96|175:147,1,84.3750003218651
134,354,407675,6,0,B|124:270|124:270|97:248|97:248|86:135,1,224.999993133545,4|0,0:0|0:0,0:0:0:0:
262,132,407971,6,0,B|272:261|272:261|221:292|221:292|214:189,1,243.749988842011,4|0,0:0|0:0,0:0:0:0:
333,47,408266,6,0,B|339:126|339:126|360:144|360:144|369:249,1,181.250005531311,4|0,0:0|0:0,0:0:0:0:
450,290,408488,5,0,0:0:0:0:
450,290,408562,2,0,L|438:168,1,90.6250027656556,4|0,0:0|0:0,0:0:0:0:
254,41,408710,2,0,L|262:132,1,90.6250027656556
366,218,408857,6,0,B|264:210|264:210|238:229|238:229|119:219,1,243.749988842011,4|0,0:0|0:0,0:0:0:0:
112,45,409153,6,0,B|104:140|104:140|47:178|47:178|36:284,1,262.499991989136,4|0,0:0|0:0,0:0:0:0:
118,345,409448,6,0,B|129:221|129:221|213:166,1,187.500007152558,4|0,0:0|0:0,0:0:0:0:
345,212,409670,6,0,B|278:150|278:150|189:201,1,187.500007152558,4|0,0:0|0:0,0:0:0:0:
268,259,409892,6,0,B|345:321|345:321|440:264,1,200,4|0,0:0|0:0,0:0:0:0:
346,14,410114,6,0,B|343:107|343:107|349:115|349:115|343:244,1,200,4|0,0:0|0:0,0:0:0:0:
264,384,410335,6,0,L|268:259,1,125,4|0,0:0|0:0,0:0:0:0:
436,144,410483,2,0,L|430:299,1,125
346,118,410631,6,0,L|259:132,1,87.5,4|0,0:0|3:0,0:0:0:0:
182,135,411176,6,0,B|169:78|169:78|172:6,1,100,8|0,0:0|0:0,0:0:0:0:
172,26,411381,1,0,0:0:0:0:
175,16,411450,1,0,0:0:0:0:
315,101,411586,1,0,0:0:0:0:
214,224,411721,6,0,B|155:210|72:228,1,100,4|0,0:0|0:0,0:0:0:0:
47,292,411927,1,0,0:0:0:0:
44,302,411995,2,0,B|43:328|43:328|49:370,1,50
201,351,412131,2,0,B|204:327|204:327|203:301,1,50
183,119,412268,6,0,P|104:97|157:216,1,250,8|0,0:0|3:0,0:0:0:0:
214,224,412677,1,0,0:0:0:0:
278,123,412813,6,0,L|269:16,1,100,4|0,0:0|0:0,0:0:0:0:
381,91,413018,1,0,0:0:0:0:
386,106,413086,2,0,L|395:206,1,100
250,311,413359,6,0,B|297:312|328:298|328:298|383:308|383:308|429:292|485:298,2,187.5,8|0|0,0:0|0:0|0:0,0:0:0:0:
117,234,413904,6,0,P|97:149|106:113,1,100,4|0,0:0|0:0,0:0:0:0:
154,78,414109,1,0,0:0:0:0:
177,86,414177,1,0,0:0:0:0:
245,50,414245,1,0,0:0:0:0:
272,59,414313,1,0,0:0:0:0:
468,54,414450,6,0,B|371:31|371:94|257:53,1,200,8|0,0:0|0:0,0:0:0:0:
255,213,414859,1,0,0:0:0:0:
399,293,414995,6,0,B|365:213|422:131|422:131|387:157|343:154|343:154|357:172|359:215,1,300,4|0,0:0|0:0,0:0:0:0:
465,239,415540,6,0,P|498:162|532:127,1,100,8|0,0:0|0:0,0:0:0:0:
267,245,415813,2,0,P|286:304|286:363,1,100
142,191,416086,5,4,0:0:0:0:
256,21,416222,6,0,L|325:29,1,50,0|0,0:0|3:0,0:0:0:0:
417,205,416358,2,0,L|348:197,1,50,0|0,0:0|3:0,0:0:0:0:
250,53,416495,2,0,L|319:61,1,50,0|0,0:0|3:0,0:0:0:0:
415,237,416631,1,8,0:0:0:0:
182,101,416768,5,0,0:0:0:0:
182,101,416836,1,0,0:0:0:0:
182,101,416903,2,0,P|171:65|174:20,1,50,0|0,0:0|3:0,0:0:0:0:
288,262,417040,2,0,P|284:286|276:310,1,50,0|0,0:0|3:0,0:0:0:0:
72,278,417177,6,0,B|128:257|133:198|133:198|145:266|228:271,1,200,4|0,0:0|0:0,0:0:0:0:
347,342,417586,1,0,0:0:0:0:
353,156,417721,6,0,P|307:134|220:169,1,150,8|0,0:0|3:0,0:0:0:0:
220,177,417994,2,0,P|266:199|353:164,1,150,0|0,0:0|3:0,0:0:0:0:
134,77,418268,6,0,P|151:109|155:156,1,50,4|0,0:0|0:0,0:0:0:0:
116,245,418404,1,0,0:0:0:0:
308,318,418540,2,0,L|208:322,1,100
38,279,418812,6,0,P|46:197|203:249,1,300,8|0,0:0|0:0,0:0:0:0:
308,318,419358,6,0,P|299:263|304:226,1,87.5,4|0,0:0|3:0,0:0:0:0:
425,121,419903,6,0,P|370:136|326:135,1,100,8|0,0:0|0:0,0:0:0:0:
314,127,420108,1,0,0:0:0:0:
302,117,420176,1,0,0:0:0:0:
154,41,420312,1,0,0:0:0:0:
56,198,420449,6,0,L|186:187,1,100,4|0,0:0|0:0,0:0:0:0:
220,265,420653,1,0,0:0:0:0:
220,265,420721,2,0,P|228:303|225:343,1,50
202,107,420858,2,0,P|203:82|210:57,1,50
452,177,420994,6,0,B|351:156|351:208|252:181,1,200,8|0,0:0|0:0,0:0:0:0:
326,72,421403,1,0,0:0:0:0:
404,264,421540,6,0,L|397:367,1,100,4|0,0:0|0:0,0:0:0:0:
370,366,421812,2,0,L|373:319,1,37.5,0|0,0:0|3:0,0:0:0:0:
240,181,422085,6,0,B|239:227|249:248|249:248|239:305|239:305|250:327|249:377,2,187.5,8|0|0,0:0|0:0|0:0,0:0:0:0:
446,83,422631,6,0,P|387:110|320:108,1,100,4|0,0:0|0:0,0:0:0:0:
264,75,422835,1,0,0:0:0:0:
236,87,422903,1,0,0:0:0:0:
153,124,422971,1,0,0:0:0:0:
126,110,423040,1,0,0:0:0:0:
0,123,423176,6,0,P|79:147|137:78,1,150,8|0,0:0|3:0,0:0:0:0:
338,243,423449,2,0,P|289:210|237:212,1,93.75,0|0,0:0|3:0,0:0:0:0:
180,384,423721,6,0,B|183:338|149:290|149:290|214:295|214:295|141:235|181:156,1,300,4|0,0:0|0:0,0:0:0:0:
330,147,424267,6,0,P|346:211|323:264,1,100,8|0,0:0|0:0,0:0:0:0:
85,218,424540,2,0,P|75:169|92:122,1,100
248,98,424812,5,4,0:0:0:0:
155,317,424949,2,0,L|87:306,1,50,0|0,0:0|3:0,0:0:0:0:
337,242,425085,2,0,L|405:253,1,50,0|0,0:0|3:0,0:0:0:0:
259,375,425221,5,0,0:0:0:0:
259,375,425290,1,0,0:0:0:0:
259,375,425358,2,0,B|261:353|261:353|256:325|256:325|257:280,1,87.5,8|0,0:0|3:0,0:0:0:0:
356,141,425903,5,4,0:0:0:0:
495,220,426040,5,0,0:0:0:0:
489,223,426108,1,0,0:0:0:0:
483,226,426176,1,0,0:0:0:0:
344,234,426312,5,0,0:0:0:0:
332,228,426381,1,0,0:0:0:0:
320,222,426449,1,0,0:0:0:0:
177,236,426585,5,0,0:0:0:0:
162,244,426653,1,0,0:0:0:0:
146,251,426721,1,0,0:0:0:0:
47,125,426858,5,0,0:0:0:0:
53,112,426926,1,0,0:0:0:0:
59,99,426994,1,0,0:0:0:0:
260,83,427131,5,0,0:0:0:0:
248,109,427199,1,0,0:0:0:0:
236,135,427267,1,0,0:0:0:0:
425,148,427403,5,0,0:0:0:0:
425,148,427471,1,0,0:0:0:0:
425,148,427540,2,0,L|443:101,1,50,0|4,0:0|0:0,0:0:0:0:
50,115,428085,6,0,B|233:92|233:92|145:161,1,281.250010728836,4|0,0:0|0:0,0:0:0:0:
162,359,428358,2,0,L|182:205,1,125,0|4,0:0|0:0,0:0:0:0:
178,235,428562,1,0,0:0:0:0:
178,235,428630,2,0,P|125:233|88:208,1,93.7500035762788,8|0,0:0|0:0,0:0:0:0:
49,361,428767,6,0,B|159:328|120:408|227:382,1,187.5
297,291,429040,2,0,L|243:297,1,46.8750017881394
149,125,429176,1,0,0:0:0:0:
155,132,429244,1,0,0:0:0:0:
161,139,429312,2,0,L|176:82,1,46.8750017881394
9,234,429449,6,0,P|52:205|112:229,1,93.7500035762788,4|0,0:0|0:0,0:0:0:0:
250,296,429585,2,0,P|254:250|227:213,1,93.7500035762788
161,139,429721,1,8,0:0:0:0:
226,382,429858,1,0,0:0:0:0:
49,361,429994,2,0,L|157:345,1,93.75
464,352,430267,6,0,B|415:312|405:256|405:256|385:310|327:338,1,224.999993133545,4|0,0:0|0:0,0:0:0:0:
331,333,430540,1,0,0:0:0:0:
383,127,430675,1,0,0:0:0:0:
383,127,430744,1,0,0:0:0:0:
383,127,430812,2,0,L|389:187,1,46.8750017881394,8|0,0:0|0:0,0:0:0:0:
283,208,430948,2,0,B|233:158|233:158|273:89,1,140.625005364418
489,84,431221,2,0,B|533:130|533:130|500:201,1,125
383,127,431425,5,0,0:0:0:0:
383,127,431494,2,0,L|370:36,1,74.9999977111817,4|0,0:0|0:0,0:0:0:0:
268,97,431630,2,0,P|226:83|179:93,1,74.9999977111817,4|0,0:0|0:0,0:0:0:0:
282,208,431767,2,0,P|259:237|250:273,1,74.9999977111817
503,261,431903,6,0,B|364:242|364:242|384:269|392:309,1,200,8|0,0:0|0:0,0:0:0:0:
299,384,432108,2,0,B|318:334|290:288|290:288|265:243|288:192,1,200
137,331,432312,2,0,P|185:359|232:335,1,100
60,368,432449,6,0,L|-37:356,1,93.75,4|0,0:0|0:0,0:0:0:0:
11,181,432721,2,0,B|46:168|73:153|73:153|30:306,1,187.500007152558
41,268,432925,1,0,0:0:0:0:
41,268,432994,2,0,L|161:243,1,93.7500035762788,8|0,0:0|0:0,0:0:0:0:
232,71,433130,2,0,P|201:4|178:114,1,281.250010728836
291,191,433403,2,0,L|394:206,1,93.7500035762788
505,86,433539,5,0,0:0:0:0:
505,86,433607,1,0,0:0:0:0:
505,86,433675,2,0,B|522:42|522:42|484:-4,1,93.7500035762788
401,27,433812,2,0,L|408:80,2,46.8750017881394,4|0|0,0:0|0:0|0:0,0:0:0:0:
383,204,434085,6,0,P|410:198|426:176,1,46.8750017881394,8|0,0:0|0:0,0:0:0:0:
500,287,434221,2,0,B|476:314|476:314|464:268|501:231,1,118.749996829033
425,386,434358,2,0,P|303:326|148:367,1,281.250010728836
76,223,434631,6,0,L|62:146,1,62.5,6|0,0:0|0:0,0:0:0:0:
76,223,434766,2,0,L|-1:237,1,62.5,2|0,0:0|0:0,0:0:0:0:
76,223,434903,2,0,L|90:300,1,62.5,2|0,0:0|0:0,0:0:0:0:
76,223,435039,2,0,L|153:209,1,62.5
203,99,435176,2,0,B|232:211|159:170|191:280,1,187.500007152558,10|2,0:0|0:0,0:0:0:0:
170,362,435380,1,0,0:0:0:0:
170,362,435448,2,0,P|214:366|258:324,1,93.7500035762788,6|0,0:0|0:0,0:0:0:0:
331,247,435585,6,0,L|259:234,1,62.5,2|0,0:0|0:0,0:0:0:0:
171,17,435721,2,0,P|201:54|201:104,1,93.7500035762788,2|0,0:0|0:0,0:0:0:0:
171,17,435858,2,0,P|125:10|84:32,1,93.7500035762788,2|0,0:0|0:0,0:0:0:0:
0,118,435994,1,6,0:0:0:0:
0,118,436062,1,0,0:0:0:0:
0,118,436130,2,0,L|67:103,1,46.8750017881394,2|0,0:0|0:0,0:0:0:0:
114,163,436267,6,0,L|103:199,2,20.8333333333333,10|0|0,0:0|0:0|0:0,0:0:0:0:
34,224,436403,2,0,L|42:265,1,31.25,2|0,0:0|0:0,0:0:0:0:
169,238,436539,2,0,L|177:279,1,31.25,2|0,0:0|0:0,0:0:0:0:
19,336,436675,2,0,L|56:329,1,31.25,2|0,0:0|0:0,0:0:0:0:
408,315,436812,6,0,B|356:321|325:355|325:355|302:315|249:306,1,187.5,4|0,0:0|0:0,0:0:0:0:
249,306,437085,1,2,0:0:0:0:
321,188,437221,2,0,L|336:264,1,62.5
118,360,437358,2,0,B|65:280|65:280|264:308,1,281.250010728836,10|0,0:0|0:0,0:0:0:0:
496,384,437630,2,0,B|552:325|522:214|441:194|368:287|442:333,1,281.250010728836,4|0,0:0|0:0,0:0:0:0:
249,100,437903,5,0,0:0:0:0:
249,100,437971,1,0,0:0:0:0:
249,100,438039,2,0,B|295:104|295:104|336:72,1,93.7500035762788
336,86,438175,2,0,B|298:114|298:114|252:110,1,93.7500035762788,4|0,0:0|0:0,0:0:0:0:
180,0,438312,2,0,L|173:75,1,46.8750017881394
24,96,438449,2,0,B|3:76|3:76|111:87,1,125,8|0,0:0|0:0,0:0:0:0:
483,120,438585,2,0,B|504:140|504:140|396:129,1,125
135,172,438721,6,0,B|186:158|186:158|202:125|202:125|257:108,1,140.625005364418
271,294,438994,6,0,B|295:380|295:380|363:334|356:211|252:186,1,337.499989700318,4|0,0:0|0:0,0:0:0:0:
59,161,439267,2,0,B|55:194|55:194|76:225,1,62.5
429,242,439403,1,0,0:0:0:0:
429,242,439471,1,0,0:0:0:0:
429,242,439540,2,0,L|514:227,1,74.9999977111817,8|0,0:0|0:0,0:0:0:0:
408,130,439676,2,0,P|441:35|345:106,1,281.250010728836
425,347,439949,6,0,B|335:372|335:372|277:294,1,187.500007152558
279,297,440153,1,0,0:0:0:0:
279,297,440221,2,0,L|307:206,1,93.7500035762788
78,347,440358,2,0,L|4:357,1,62.5,6|0,0:0|0:0,0:0:0:0:
16,355,440494,1,0,0:0:0:0:
190,379,440630,5,10,0:0:0:0:
190,379,440767,2,0,P|190:267|124:138,1,250,0|2,0:0|0:0,0:0:0:0:
45,16,440971,2,0,P|66:123|104:43,1,250
110,64,441175,1,4,0:0:0:0:
278,144,441312,6,0,L|223:152,1,46.8750017881394,0|0,0:0|0:0,0:0:0:0:
0,191,441448,1,0,0:0:0:0:
231,28,441585,5,0,0:0:0:0:
96,334,441721,1,0,0:0:0:0:
0,191,441857,6,0,L|46:183,1,46.8750017881394
232,152,441994,1,0,0:0:0:0:
45,16,442130,1,0,0:0:0:0:
484,113,442267,6,0,P|473:253|386:329,1,250
342,375,442471,5,0,0:0:0:0:
342,375,442540,2,0,P|320:340|324:308,1,62.5
471,33,442676,6,0,B|435:42|416:63|416:63|394:48|353:51,1,125
512,307,442812,2,0,B|474:309|452:294|452:294|433:315|397:324,1,125
371,136,442948,5,0,0:0:0:0:
371,136,443016,1,0,0:0:0:0:
371,136,443085,2,0,L|308:163,1,46.8750017881394
387,243,443221,2,0,L|321:233,1,46.8750017881394
68,219,443358,6,0,P|51:261|77:229,1,125,8|4,0:0|0:0,0:0:0:0:
166,81,443562,5,0,0:0:0:0:
176,76,443630,2,0,B|227:127|196:198|196:198|125:175,1,187.500007152558,8|4,0:0|0:0,0:0:0:0:
58,102,443835,5,0,0:0:0:0:
58,102,443903,2,0,B|62:62|98:34|98:34|85:51|84:74,1,125,8|0,0:0|0:0,0:0:0:0:
82,367,444040,6,0,L|131:354,1,31.25,4|0,0:0|0:0,0:0:0:0:
158,271,444175,6,0,L|171:320,1,31.25,8|0,0:0|0:0,0:0:0:0:
243,325,444312,6,0,L|292:312,1,31.25,4|0,0:0|0:0,0:0:0:0:
512,76,444449,5,8,0:0:0:0:
488,31,444516,1,0,0:0:0:0:
441,11,444585,1,4,0:0:0:0:
394,27,444653,1,0,0:0:0:0:
365,66,444721,1,8,0:0:0:0:
370,115,444789,1,0,0:0:0:0:
361,171,444857,5,4,0:0:0:0:
319,217,444925,1,0,0:0:0:0:
256,225,444994,1,8,0:0:0:0:
202,192,445062,5,0,0:0:0:0:
186,131,445130,1,4,0:0:0:0:
209,73,445198,1,0,0:0:0:0:
266,49,445267,6,0,L|261:17,1,31.25,2|0,0:0|0:0,0:0:0:0:
5,92,445403,2,0,L|0:61,1,31.25,2|0,0:0|0:0,0:0:0:0:
272,305,445540,6,0,B|259:239|259:239|271:177,1,125,4|0,0:0|0:0,0:0:0:0:
300,119,445732,1,0,0:0:0:0:
300,119,445796,1,4,0:0:0:0:
378,348,445924,1,0,0:0:0:0:
169,269,446052,1,4,0:0:0:0:
379,212,446181,1,0,0:0:0:0:
379,212,446245,1,0,0:0:0:0:
379,212,446309,1,4,0:0:0:0:
272,305,446437,1,0,0:0:0:0:
190,128,446565,5,4,0:0:0:0:
449,257,446693,2,0,P|462:217|454:175,1,62.5
375,37,446822,5,4,0:0:0:0:
254,219,446950,2,0,L|385:211,1,125,0|4,0:0|0:0,0:0:0:0:
136,72,447206,6,0,P|113:107|111:141,1,62.5
267,347,447334,2,0,B|254:219|254:219|257:260|244:279,1,187.5,4|0,0:0|0:0,0:0:0:0:
196,363,447591,6,0,P|256:372|317:339,1,125,4|0,0:0|0:0,0:0:0:0:
351,282,447783,1,0,0:0:0:0:
351,282,447847,1,4,0:0:0:0:
139,232,447975,1,0,0:0:0:0:
311,344,448104,1,4,0:0:0:0:
340,135,448232,1,0,0:0:0:0:
340,135,448296,1,0,0:0:0:0:
340,135,448360,1,4,0:0:0:0:
208,277,448488,1,0,0:0:0:0:
117,71,448616,6,0,B|80:140|87:187|140:232|140:232|114:187|133:147,1,250,6|6,0:0|0:0,0:0:0:0:
213,179,449001,6,0,P|173:94|33:153,1,250,2|2,0:0|0:0,0:0:0:0:
123,172,449386,6,0,L|206:165,1,62.5,6|0,0:0|0:0,0:0:0:0:
283,255,449514,6,0,L|366:248,1,62.5
468,51,449642,6,0,B|403:38|403:38|335:63,1,125,4|0,0:0|0:0,0:0:0:0:
285,98,449834,1,0,0:0:0:0:
285,98,449898,1,4,0:0:0:0:
493,255,450027,2,0,L|424:252,1,62.5
218,305,450155,6,0,P|205:232|239:185,1,125,4|0,0:0|0:0,0:0:0:0:
283,255,450347,1,0,0:0:0:0:
304,336,450411,2,0,L|153:331,1,125,4|0,0:0|0:0,0:0:0:0:
64,196,450668,5,4,0:0:0:0:
290,261,450796,1,0,0:0:0:0:
290,261,450860,1,0,0:0:0:0:
290,261,450924,5,4,0:0:0:0:
101,384,451052,2,0,P|86:323|120:258,1,125,0|4,0:0|0:0,0:0:0:0:
159,85,451309,6,0,L|75:90,1,62.5
286,152,451437,1,4,0:0:0:0:
306,128,451501,1,0,0:0:0:0:
317,98,451565,1,0,0:0:0:0:
313,67,451629,1,0,0:0:0:0:
246,94,451693,6,0,L|390:117,1,125,4|0,0:0|0:0,0:0:0:0:
451,170,451886,1,0,0:0:0:0:
451,170,451950,6,0,P|473:106|444:46,1,125,4|0,0:0|0:0,0:0:0:0:
369,113,452142,1,0,0:0:0:0:
369,113,452206,6,0,B|354:177|354:177|375:252,1,125,4|0,0:0|0:0,0:0:0:0:
432,286,452398,1,0,0:0:0:0:
432,286,452463,6,0,L|296:281,1,125,4|0,0:0|0:0,0:0:0:0:
142,299,452719,5,6,0:0:0:0:
246,94,452847,1,6,0:0:0:0:
329,360,452975,1,6,0:0:0:0:
108,225,453104,1,6,0:0:0:0:
108,225,453168,1,0,0:0:0:0:
108,225,453232,6,0,P|148:218|195:238,1,62.5,6|0,0:0|0:0,0:0:0:0:
342,188,453360,2,0,P|382:195|429:175,1,62.5,6|0,0:0|0:0,0:0:0:0:
262,16,453488,5,6,0:0:0:0:
218,20,453552,1,0,0:0:0:0:
183,46,453616,1,6,0:0:0:0:
169,88,453681,1,0,0:0:0:0:
174,131,453745,6,0,L|185:282,1,125,4|0,0:0|0:0,0:0:0:0:
61,81,454001,1,4,0:0:0:0:
253,100,454129,5,0,0:0:0:0:
253,100,454193,1,0,0:0:0:0:
253,100,454257,2,0,L|258:182,1,62.5,4|0,0:0|0:0,0:0:0:0:
105,290,454386,2,0,L|101:227,1,62.5
373,321,454514,6,0,B|288:308|288:308|241:325,1,125,4|0,0:0|0:0,0:0:0:0:
189,363,454706,1,0,0:0:0:0:
189,363,454770,5,4,0:0:0:0:
322,165,454898,1,0,0:0:0:0:
322,165,454963,1,0,0:0:0:0:
322,165,455027,5,4,0:0:0:0:
429,380,455155,2,0,P|454:320|407:244,1,125,0|4,0:0|0:0,0:0:0:0:
334,76,455411,6,0,P|323:43|336:2,1,62.5
512,182,455540,1,4,0:0:0:0:
468,179,455604,1,0,0:0:0:0:
424,175,455668,1,0,0:0:0:0:
380,171,455732,1,0,0:0:0:0:
322,165,455796,6,0,L|198:172,1,125,4|0,0:0|0:0,0:0:0:0:
54,42,456052,1,4,0:0:0:0:
29,267,456181,5,0,0:0:0:0:
29,267,456245,1,0,0:0:0:0:
29,267,456309,2,0,L|118:261,1,62.5,4|0,0:0|0:0,0:0:0:0:
194,90,456437,2,0,L|283:84,1,62.5
453,313,456565,6,0,B|471:252|471:252|440:172,1,125,4|0,0:0|0:0,0:0:0:0:
410,125,456757,1,0,0:0:0:0:
489,125,456822,6,0,B|514:176|514:176|298:163,1,250,6|6,0:0|0:0,0:0:0:0:
168,16,457206,2,0,P|237:24|276:94,1,125,2|4,0:0|0:0,0:0:0:0:
29,267,457463,1,2,0:0:0:0:
29,267,457527,1,0,0:0:0:0:
29,267,457591,6,0,L|24:188,1,62.5,6|0,0:0|0:0,0:0:0:0:
73,88,457719,6,0,L|68:9,1,62.5
274,242,457847,6,0,L|142:232,1,125,4|0,0:0|0:0,0:0:0:0:
340,88,458104,1,4,0:0:0:0:
381,336,458232,5,0,0:0:0:0:
381,336,458296,1,0,0:0:0:0:
381,336,458360,2,0,L|294:328,1,62.5,4|0,0:0|0:0,0:0:0:0:
230,159,458488,2,0,L|143:151,1,62.5
389,22,458616,6,0,P|421:83|394:152,1,125,4|0,0:0|0:0,0:0:0:0:
352,192,458809,1,0,0:0:0:0:
352,192,458873,5,4,0:0:0:0:
256,0,459001,1,0,0:0:0:0:
256,0,459065,1,0,0:0:0:0:
256,0,459129,6,0,L|252:76,1,62.5,4|0,0:0|0:0,0:0:0:0:
487,217,459257,2,0,L|499:69,1,125,0|6,0:0|0:0,0:0:0:0:
359,346,459514,6,0,L|430:341,1,62.5,6|0,0:0|0:0,0:0:0:0:
269,243,459642,1,6,0:0:0:0:
213,237,459706,1,0,0:0:0:0:
156,234,459770,1,0,0:0:0:0:
99,230,459834,1,0,0:0:0:0:
26,222,459898,6,0,B|71:191|97:127|97:127|67:381|67:381|89:310|126:264,1,487.499977684022,4|0,0:0|0:0,0:0:0:0:
97,128,460411,6,0,B|29:77|29:77|119:107|175:81|175:81|247:37|320:94|320:94|304:44|258:18,1,487.499977684022,4|0,0:0|0:0,0:0:0:0:
238,171,460924,6,0,P|225:224|304:300,1,149.999995422363,6|2,0:0|0:0,0:0:0:0:
454,217,461116,6,0,B|414:197|414:197|377:211|377:211|335:198|335:198|306:216,1,162.499992561341,4|0,0:0|0:0,0:0:0:0:
345,363,461309,6,0,P|367:328|369:267,1,81.2499962806703,4|0,0:0|0:0,0:0:0:0:
319,81,461437,6,0,B|306:216|306:216|328:155,1,174.999994659424,6|2,0:0|0:0,0:0:0:0:
389,36,461629,6,0,P|296:3|238:74,1,174.999994659424,4|0,0:0|0:0,0:0:0:0:
393,116,461822,6,0,P|436:101|470:46,1,87.499997329712,4|0,0:0|0:0,0:0:0:0:
245,47,461950,6,0,B|224:103|224:103|239:185,1,125,4|0,0:0|0:0,0:0:0:0:
350,292,462206,1,4,0:0:0:0:
150,233,462334,1,0,0:0:0:0:
150,233,462398,1,0,0:0:0:0:
150,233,462463,1,4,0:0:0:0:
327,89,462591,1,0,0:0:0:0:
327,89,462655,1,0,0:0:0:0:
327,89,462719,1,4,0:0:0:0:
244,247,462847,1,0,0:0:0:0:
151,119,462975,5,4,0:0:0:0:
319,178,463104,1,0,0:0:0:0:
319,178,463168,1,0,0:0:0:0:
319,178,463232,5,4,0:0:0:0:
155,357,463360,2,0,L|149:230,1,125,0|4,0:0|0:0,0:0:0:0:
244,56,463616,6,0,L|240:124,1,62.5
304,342,463745,1,4,0:0:0:0:
347,339,463809,1,0,0:0:0:0:
390,336,463873,1,0,0:0:0:0:
433,332,463937,1,0,0:0:0:0:
476,327,464001,6,0,P|492:261|469:204,1,125,4|0,0:0|0:0,0:0:0:0:
240,118,464257,1,4,0:0:0:0:
487,50,464386,1,0,0:0:0:0:
487,50,464450,1,0,0:0:0:0:
487,50,464514,2,0,L|358:47,1,125,4|0,0:0|0:0,0:0:0:0:
258,40,464706,1,0,0:0:0:0:
258,40,464770,2,0,P|191:55|161:116,1,125,4|0,0:0|0:0,0:0:0:0:
250,256,465027,5,4,0:0:0:0:
53,168,465155,1,0,0:0:0:0:
53,168,465219,1,0,0:0:0:0:
53,168,465283,5,4,0:0:0:0:
17,356,465411,2,0,L|146:346,1,125,0|4,0:0|0:0,0:0:0:0:
283,181,465668,6,0,P|246:175|206:186,1,62.5
408,362,465796,1,4,0:0:0:0:
439,331,465860,1,0,0:0:0:0:
453,289,465924,1,0,0:0:0:0:
447,245,465988,1,0,0:0:0:0:
422,208,466052,6,0,P|394:150|410:84,1,125,4|0,0:0|0:0,0:0:0:0:
489,9,466309,1,4,0:0:0:0:
279,72,466437,1,0,0:0:0:0:
279,72,466501,1,0,0:0:0:0:
279,72,466565,1,4,0:0:0:0:
498,139,466693,2,0,L|428:135,1,62.5
242,283,466822,2,0,L|383:277,1,125,4|0,0:0|0:0,0:0:0:0:
331,149,467078,5,4,0:0:0:0:
416,368,467206,1,0,0:0:0:0:
416,368,467270,1,0,0:0:0:0:
416,368,467334,5,4,0:0:0:0:
186,339,467463,2,0,P|163:270|198:214,1,125,0|4,0:0|0:0,0:0:0:0:
385,70,467719,5,0,0:0:0:0:
385,70,467783,1,0,0:0:0:0:
385,70,467847,2,0,L|296:66,1,62.5,4|0,0:0|0:0,0:0:0:0:
239,62,467975,2,0,L|150:58,1,62.5
59,233,468104,6,0,L|200:224,1,125,4|0,0:0|0:0,0:0:0:0:
311,97,468360,1,4,0:0:0:0:
362,300,468488,2,0,L|284:305,1,62.5
116,123,468616,2,0,B|98:60|98:60|114:-12,1,125,4|0,0:0|0:0,0:0:0:0:
229,2,468809,1,0,0:0:0:0:
229,2,468873,2,0,B|241:60|241:60|223:123,1,125,4|0,0:0|0:0,0:0:0:0:
144,332,469129,5,6,0:0:0:0:
116,123,469257,1,6,0:0:0:0:
280,202,469386,1,4,0:0:0:0:
59,233,469514,1,6,0:0:0:0:
223,123,469642,5,4,0:0:0:0:
258,337,469770,2,0,L|339:330,1,62.5,6|0,0:0|0:0,0:0:0:0:
461,185,469898,2,0,L|380:178,1,62.5,6|0,0:0|0:0,0:0:0:0:
174,65,470027,1,6,0:0:0:0:
313,26,470155,5,4,0:0:0:0:
224,262,470283,1,2,0:0:0:0:
174,65,470411,1,6,0:0:0:0:
398,179,470539,1,2,0:0:0:0:
398,179,470604,1,2,0:0:0:0:
398,179,470668,6,0,L|402:255,1,62.5,6|0,0:0|0:0,0:0:0:0:
222,325,470796,2,0,L|225:262,1,62.5,2|0,0:0|0:0,0:0:0:0:
474,337,470924,2,0,L|331:345,1,125,6|2,0:0|0:0,0:0:0:0:
155,195,471181,6,0,L|298:203,1,125,4|2,0:0|0:0,0:0:0:0:
455,118,471437,1,6,0:0:0:0:
247,0,471565,1,2,0:0:0:0:
247,0,471629,1,2,0:0:0:0:
247,0,471693,6,0,L|250:82,1,62.5,6|0,0:0|0:0,0:0:0:0:
398,179,471822,2,0,L|401:261,1,62.5,2|0,0:0|0:0,0:0:0:0:
214,369,471950,2,0,B|196:302|196:302|216:226,1,125,6|0,0:0|0:0,0:0:0:0:
341,117,472206,6,0,P|405:97|467:130,2,125,4|2|6,0:0|0:0|0:0,0:0:0:0:
288,313,472591,1,2,0:0:0:0:
288,313,472655,1,2,0:0:0:0:
288,313,472719,6,0,L|285:233,1,62.5,6|0,0:0|0:0,0:0:0:0:
184,63,472847,2,0,L|181:125,1,62.5,2|0,0:0|0:0,0:0:0:0:
8,264,472975,2,0,L|140:258,1,125,6|2,0:0|0:0,0:0:0:0:
266,158,473232,5,4,0:0:0:0:
55,86,473360,1,2,0:0:0:0:
55,86,473424,1,2,0:0:0:0:
55,86,473488,1,6,0:0:0:0:
259,23,473616,2,0,L|329:18,1,62.5,2|0,0:0|0:0,0:0:0:0:
185,253,473745,5,6,0:0:0:0:
160,251,473809,1,2,0:0:0:0:
135,248,473873,1,2,0:0:0:0:
110,245,473937,1,2,0:0:0:0:
85,240,474001,2,0,L|217:232,1,125,6|0,0:0|0:0,0:0:0:0:
451,171,474257,6,0,P|401:154|340:168,1,93.75,2|0,0:0|0:0,0:0:0:0:
292,191,474514,5,6,0:0:0:0:
442,335,474642,1,6,0:0:0:0:
367,71,474770,1,6,0:0:0:0:
291,280,474898,1,6,0:0:0:0:
512,121,475027,1,6,0:0:0:0:
258,26,475155,1,6,0:0:0:0:
393,247,475283,6,0,P|401:195|387:148,1,93.75,2|0,0:0|0:0,0:0:0:0:
348,97,475539,5,6,0:0:0:0:
273,362,475668,1,6,0:0:0:0:
173,155,475796,1,6,0:0:0:0:
393,247,475924,1,6,0:0:0:0:
182,340,476052,1,6,0:0:0:0:
391,164,476181,1,6,0:0:0:0:
192,67,476309,6,0,L|115:71,3,62.5,2|2|2|2,0:0|0:0|0:0|0:0,0:0:0:0:
246,0,476565,5,6,0:0:0:0:
273,49,476629,1,0,0:0:0:0:
270,105,476693,1,6,0:0:0:0:
230,145,476757,1,0,0:0:0:0:
173,155,476822,1,6,0:0:0:0:
132,193,476886,1,0,0:0:0:0:
117,247,476950,5,6,0:0:0:0:
130,307,477014,1,0,0:0:0:0:
182,340,477078,1,6,0:0:0:0:
243,348,477142,1,0,0:0:0:0:
300,324,477206,1,6,0:0:0:0:
328,268,477270,1,0,0:0:0:0:
338,187,477334,6,0,P|270:214|281:334,1,162.499992561341,6|0,0:0|0:0,0:0:0:0:
456,278,477527,6,0,B|328:267|328:267|377:297,1,162.499992561341,4|0,0:0|0:0,0:0:0:0:
416,369,477719,5,4,0:0:0:0:
416,369,477847,6,0,P|456:280|419:205,1,162.499992561341,4|0,0:0|0:0,0:0:0:0:
338,187,478039,6,0,P|287:132|322:35,1,162.499992561341,4|0,0:0|0:0,0:0:0:0:
447,111,478232,6,0,L|366:107,1,81.2499962806703,4|0,0:0|0:0,0:0:0:0:
200,96,478360,5,4,0:0:0:0:
256,192,478424,12,0,481437,0:0:0:0:
