osu file format v14

[General]
AudioFilename: audio.mp3
AudioLeadIn: 0
PreviewTime: -1
Countdown: 0
SampleSet: Soft
StackLeniency: 0.7
Mode: 0
LetterboxInBreaks: 0
WidescreenStoryboard: 0

[Editor]
Bookmarks: 37590,63712,89834,114608,136676,158745,180814,202883,224825,246768,268101,289199,310068,327659,344669,363869,383069,402269,421469,440669,458954,476731,494185,510595
DistanceSpacing: 0.1
BeatDivisor: 8
GridSize: 4
TimelineZoom: 2.799999

[Metadata]
Title:Song Compilation
TitleUnicode:Song Compilation
Artist:Camellia
ArtistUnicode:かめりあ
Creator:MaestroSplinter
Version:Edge
Source:
Tags:
BeatmapID:1746010
BeatmapSetID:833546

[Difficulty]
HPDrainRate:5
CircleSize:4.2
OverallDifficulty:8
ApproachRate:9.7
SliderMultiplier:2.1
SliderTickRate:1

[Events]
//Background and Video events
0,0,"camellia2.jpg",0,0
//Break Periods
//Storyboard Layer 0 (Background)
//Storyboard Layer 1 (Fail)
//Storyboard Layer 2 (Pass)
//Storyboard Layer 3 (Foreground)
//Storyboard Sound Samples

[TimingPoints]
39,408.163265306122,4,2,0,100,1,0
89834,387.096774193548,4,2,0,100,1,0
114608,344.827586206897,4,2,0,100,1,0
114608,-66.6666666666667,4,2,0,100,0,0
114952,-50,4,2,0,100,0,0
115297,-66.6666666666667,4,2,0,100,0,0
116676,-58.8235294117647,4,2,0,100,0,0
117366,-50,4,2,0,100,0,0
117711,-66.6666666666667,4,2,0,100,0,0
118056,-50,4,2,0,100,0,0
118401,-66.6666666666667,4,2,0,100,0,0
118745,-50,4,2,0,100,0,0
119090,-66.6666666666667,4,2,0,100,0,0
119435,-50,4,2,0,100,0,0
120125,-44.4444444444445,4,2,0,100,0,0
120470,-50,4,2,0,100,0,0
120814,-66.6666666666667,4,2,0,100,0,0
121504,-66.6666666666667,4,2,0,100,0,0
122194,-58.8235294117647,4,2,0,100,0,0
125642,-66.6666666666667,4,2,0,100,0,0
125987,-50,4,2,0,100,0,0
126332,-58.8235294117647,4,2,0,100,0,0
127711,-50,4,2,0,100,0,0
128401,-47.6190476190476,4,2,0,100,0,0
130470,-58.8235294117647,4,2,0,100,0,0
131159,-58.8235294117647,4,2,0,100,0,0
131504,-50,4,2,0,100,0,0
131849,-58.8235294117647,4,2,0,100,0,0
133228,-50,4,2,0,100,0,0
133918,-66.6666666666667,4,2,0,100,0,0
135297,-133.333333333333,4,2,0,100,0,0
136676,-50,4,2,0,100,0,0
137021,-66.6666666666667,4,2,0,100,0,0
138745,-66.6666666666667,4,2,0,100,0,0
138918,-58.8235294117647,4,2,0,100,0,0
139090,-52.6315789473684,4,2,0,100,0,0
139435,-50,4,2,0,100,0,0
139780,-100,4,2,0,100,0,0
140125,-66.6666666666667,4,2,0,100,0,0
140470,-43.4782608695652,4,2,0,100,0,0
140814,-66.6666666666667,4,2,0,100,0,0
141159,-50,4,2,0,100,0,0
142194,-50,4,2,0,100,0,0
142539,-58.8235294117647,4,2,0,100,0,0
144263,-47.6190476190476,4,2,0,100,0,0
144952,-47.6190476190476,4,2,0,100,0,0
144952,-47.6190476190476,4,2,0,100,0,0
145642,-333.333333333333,4,2,0,100,0,0
145987,-50,4,2,0,100,0,0
147711,-45.4545454545455,4,2,0,100,0,0
148056,-47.6190476190476,4,2,0,100,0,0
148156,-47.6190476190476,4,2,0,100,0,0
149780,-66.6666666666667,4,2,0,100,0,0
150470,-43.4782608695652,4,2,0,100,0,0
150814,-47.6190476190476,4,2,0,100,0,0
153228,-33.3333333333333,4,2,0,100,0,0
153573,-40,4,2,0,100,0,0
153918,-45.4545454545455,4,2,0,100,0,0
155297,-43.4782608695652,4,2,0,100,0,0
155987,-35.7142857142857,4,2,0,100,0,0
156332,-333.333333333333,4,2,0,100,0,0
156676,-35.7142857142857,4,2,0,100,0,0
158573,-66.6666666666667,4,2,0,100,0,0
202883,342.857142857143,4,2,0,100,1,0
246768,333.333333333333,4,2,0,100,1,0
268101,329.67032967033,4,2,0,100,1,0
289199,326.086956521739,4,2,0,100,1,0
310068,314.13612565445,4,2,0,100,1,0
327659,309.278350515464,4,2,0,100,1,0
344669,300,4,2,0,100,1,0
440669,285.714285714286,4,2,0,100,1,0
458954,277.777777777778,4,2,0,100,1,0
476731,272.727272727273,4,2,0,100,1,0
494185,256.410256410256,4,2,0,100,1,0
510595,234.375,4,2,0,100,1,0

[Colours]
Combo1 : 192,192,192
Combo2 : 255,255,217
Combo3 : 141,56,71
Combo4 : 70,176,185

[HitObjects]
429,7,114608,6,0,L|420:85,1,78.7500030040742
324,77,114780,2,0,L|332:155,1,78.7500030040742
411,241,114952,2,0,B|440:261|479:262|479:262|360:303|372:203|244:253,1,315
63,258,115297,2,0,P|102:252|135:231,1,78.7500030040742
247,357,115470,2,0,P|208:351|175:330,1,78.7500030040742
221,77,115642,1,0,0:0:0:0:
221,77,115728,1,0,0:0:0:0:
221,77,115814,2,0,L|207:171,1,78.7500030040742
29,143,115987,6,0,P|62:122|100:116,1,78.7500030040742
241,229,116159,1,0,0:0:0:0:
241,229,116245,1,0,0:0:0:0:
241,229,116331,2,0,L|227:135,1,78.7500030040742
314,54,116504,2,0,L|325:131,1,78.7500030040742
417,246,116676,2,0,P|441:202|473:164,1,89.2500017023087
447,112,116849,2,0,P|438:155|422:197,1,89.2500017023087
356,373,117021,2,0,P|331:329|299:291,1,89.2500017023087
326,239,117194,2,0,P|334:282|350:324,1,89.2500017023087
232,336,117366,6,0,B|120:392|120:280|0:336|0:336|40:320|124:360,1,315
125,191,117711,2,0,P|228:203|150:259,1,236.250009012223
64,119,118056,6,0,P|105:84|172:66,1,105
241,74,118228,2,0,P|287:100|327:157,1,105
344,225,118401,2,0,B|339:275|309:334|309:334|349:280|424:253,1,236.250009012223
496,184,118745,6,0,P|455:149|388:131,1,105
319,139,118917,2,0,P|272:165|232:222,1,105
216,290,119090,2,0,B|219:348|251:399|251:399|210:353|136:318,1,236.250009012223
23,131,119435,6,0,P|34:169|38:235,1,105
53,295,119608,2,0,P|55:243|69:193,1,105
181,32,119780,2,0,P|169:70|166:136,1,105
151,197,119953,2,0,P|149:144|135:94,1,105
260,348,120125,6,0,B|292:324|292:324|324:328|440:352,1,118.125004506111
484,248,120297,2,0,B|452:272|452:272|304:244,1,118.125004506111
312,88,120470,2,0,P|256:196|376:124,1,315
384,0,120814,6,0,P|424:8|480:8,1,78.7500030040742
312,88,120987,2,0,P|272:86|234:78,1,78.7500030040742
96,36,121159,1,0,0:0:0:0:
96,36,121245,1,0,0:0:0:0:
96,36,121332,2,0,L|108:136,1,78.7500030040742
312,220,121504,6,0,P|272:221|234:229,1,78.7500030040742
96,272,121676,1,0,0:0:0:0:
96,272,121762,1,0,0:0:0:0:
96,272,121849,2,0,L|108:172,1,78.7500030040742
244,240,122021,2,0,L|232:340,1,78.7500030040742
359,340,122194,6,0,P|403:340|459:324,1,89.2500017023087
512,355,122366,2,0,P|468:355|412:371,1,89.2500017023087
261,224,122539,2,0,P|305:224|361:208,1,89.2500017023087
414,239,122711,2,0,P|370:239|314:255,1,89.2500017023087
60,213,122883,5,0,0:0:0:0:
54,220,122969,1,0,0:0:0:0:
44,235,123056,1,0,0:0:0:0:
33,259,123142,1,0,0:0:0:0:
28,294,123228,1,0,0:0:0:0:
42,336,123314,1,0,0:0:0:0:
80,374,123401,1,0,0:0:0:0:
141,384,123487,1,0,0:0:0:0:
204,351,123573,1,0,0:0:0:0:
225,273,123659,1,0,0:0:0:0:
174,199,123745,1,0,0:0:0:0:
92,164,123832,1,0,0:0:0:0:
82,149,123919,5,0,0:0:0:0:
71,125,124005,1,0,0:0:0:0:
67,90,124091,1,0,0:0:0:0:
80,48,124177,1,0,0:0:0:0:
118,10,124264,1,0,0:0:0:0:
179,0,124350,1,0,0:0:0:0:
242,33,124436,1,0,0:0:0:0:
263,111,124522,1,0,0:0:0:0:
212,185,124608,5,0,0:0:0:0:
203,209,124694,1,0,0:0:0:0:
202,245,124780,1,0,0:0:0:0:
218,285,124866,1,0,0:0:0:0:
259,320,124953,1,0,0:0:0:0:
321,324,125039,1,0,0:0:0:0:
381,286,125125,1,0,0:0:0:0:
395,207,125211,1,0,0:0:0:0:
349,129,125297,5,0,0:0:0:0:
254,104,125383,1,0,0:0:0:0:
176,165,125470,1,0,0:0:0:0:
87,207,125556,1,0,0:0:0:0:
1,165,125642,2,0,P|-11:123|-9:78,1,78.7500030040742
104,27,125814,2,0,P|104:66|93:104,1,78.7500030040742
72,332,125987,6,0,B|9:312|19:246|19:246|122:211|114:299|213:280,1,315
320,360,126332,2,0,P|339:319|344:268,1,89.2500017023087
235,196,126504,2,0,P|215:235|210:280,1,89.2500017023087
432,261,126676,1,0,0:0:0:0:
432,261,126763,1,0,0:0:0:0:
432,261,126849,2,0,L|332:277,1,89.2500017023087
235,196,127021,6,0,P|215:157|210:112,1,89.2500017023087
432,131,127193,1,0,0:0:0:0:
432,131,127280,1,0,0:0:0:0:
432,131,127366,2,0,L|332:115,1,89.2500017023087
146,181,127539,2,0,L|234:195,1,89.2500017023087
20,20,127711,6,0,P|20:72|52:128,1,105
127,98,127883,2,0,P|127:46|95:-10,1,105
62,202,128056,2,0,P|62:254|86:301,1,105
169,279,128228,2,0,P|169:227|146:181,1,105
147,362,128401,6,0,B|273:404|259:308|399:348|399:348|348:336|318:299,1,330.749989906311
366,168,128745,2,0,P|491:201|371:242,1,330.749989906311
245,215,129090,5,0,0:0:0:0:
203,217,129176,1,0,0:0:0:0:
169,197,129262,1,0,0:0:0:0:
151,160,129348,1,0,0:0:0:0:
159,121,129434,1,0,0:0:0:0:
189,91,129521,1,0,0:0:0:0:
228,86,129607,1,0,0:0:0:0:
265,105,129693,1,0,0:0:0:0:
284,140,129779,1,0,0:0:0:0:
248,174,129866,1,0,0:0:0:0:
199,181,129952,1,0,0:0:0:0:
155,158,130038,1,0,0:0:0:0:
132,115,130124,1,0,0:0:0:0:
126,67,130211,1,0,0:0:0:0:
94,30,130297,1,0,0:0:0:0:
45,19,130383,1,0,0:0:0:0:
0,37,130470,6,0,P|21:73|34:126,1,89.2500017023087
80,289,130642,2,0,P|123:278|162:256,1,89.2500017023087
127,113,130814,2,0,P|116:153|88:199,1,89.2500017023087
82,379,130987,2,0,P|39:367|0:344,1,89.2500017023087
243,219,131159,6,0,L|227:365,1,89.2500017023087
346,380,131332,2,0,L|355:291,1,89.2500017023087
405,106,131504,2,0,B|411:45|411:45|499:24|499:24|473:266,1,315
317,150,131849,2,0,P|306:106|321:54,1,89.2500017023087
212,0,132021,2,0,P|221:44|211:87,1,89.2500017023087
56,160,132194,1,0,0:0:0:0:
56,160,132280,1,0,0:0:0:0:
56,160,132366,2,0,L|148:176,1,89.2500017023087
309,342,132539,6,0,P|318:298|307:255,1,89.2500017023087
152,182,132712,1,0,0:0:0:0:
152,182,132798,1,0,0:0:0:0:
152,182,132884,2,0,L|244:166,1,89.2500017023087
354,38,133056,2,0,L|262:54,1,89.2500017023087
131,283,133228,6,0,P|182:280|256:315,1,105
431,378,133401,2,0,P|379:380|330:363,1,105
138,152,133573,2,0,P|189:149|263:184,1,105
443,298,133745,2,0,P|390:300|341:283,1,105
417,77,133918,5,0,0:0:0:0:
415,100,134004,1,0,0:0:0:0:
411,131,134090,1,0,0:0:0:0:
407,170,134176,1,0,0:0:0:0:
402,217,134263,1,0,0:0:0:0:
380,177,134349,1,0,0:0:0:0:
337,164,134435,1,0,0:0:0:0:
297,184,134521,1,0,0:0:0:0:
282,226,134607,1,0,0:0:0:0:
264,257,134694,1,0,0:0:0:0:
228,268,134780,1,0,0:0:0:0:
196,252,134866,1,0,0:0:0:0:
183,217,134952,1,0,0:0:0:0:
169,194,135039,1,0,0:0:0:0:
143,186,135125,1,0,0:0:0:0:
119,197,135211,1,0,0:0:0:0:
90,224,135297,6,0,L|87:188,1,19.6875007510186
86,184,135383,2,0,L|83:148,1,19.6875007510186
82,145,135470,2,0,L|79:109,1,19.6875007510186
78,105,135556,2,0,L|75:69,1,19.6875007510186
74,66,135642,5,0,0:0:0:0:
99,61,135728,1,0,0:0:0:0:
125,57,135814,1,0,0:0:0:0:
151,52,135900,1,0,0:0:0:0:
200,112,135987,5,0,0:0:0:0:
219,115,136073,1,0,0:0:0:0:
240,118,136159,1,0,0:0:0:0:
261,122,136245,1,0,0:0:0:0:
319,76,136332,5,0,0:0:0:0:
335,73,136418,1,0,0:0:0:0:
389,120,136504,5,0,0:0:0:0:
400,121,136590,1,0,0:0:0:0:
470,88,136676,6,0,B|474:139|474:139|484:142|484:142|475:147|475:147|481:223|481:223|488:299|488:299|478:304|478:304|489:307|489:307|496:390,1,315
464,384,137021,2,0,B|384:395|384:395|312:359|312:359|206:376,1,236.250009012223
88,371,137366,2,0,L|9:359,1,78.7500030040742
222,297,137539,2,0,L|300:285,1,78.7500030040742
76,264,137711,2,0,B|48:221|76:148|76:148|139:185|148:249,1,236.250009012223
0,107,138056,1,0,0:0:0:0:
19,85,138142,1,0,0:0:0:0:
45,71,138228,1,0,0:0:0:0:
74,67,138314,1,0,0:0:0:0:
103,73,138401,2,0,B|220:128|220:24|335:69,1,236.250009012223
360,56,138745,6,0,L|371:174,1,78.7500030040742
465,150,138918,2,0,L|456:238,1,89.2500017023087
359,272,139090,2,0,L|368:371,1,99.7499973363877
378,379,139263,2,0,L|369:280,1,99.7499973363877
120,156,139435,6,0,P|40:228|188:220,1,315
192,264,139780,2,0,P|136:311|59:293,1,157.5
85,193,140125,2,0,P|77:153|58:102,1,78.7500030040742
206,33,140297,2,0,P|193:70|185:108,1,78.7500030040742
300,168,140470,6,0,B|326:156|326:156|460:155|390:-67|233:107|357:161|357:161|382:183,1,362.250006909371
456,248,140814,2,0,P|476:216|476:156,1,78.7500030040742
328,256,140987,2,0,P|332:294|352:328,1,78.7500030040742
232,368,141159,6,0,B|156:300|156:300|-28:352,1,210
56,313,141418,2,0,B|160:284|160:284|236:352,1,210
139,212,141676,2,0,L|37:240,1,105
212,228,141849,2,0,L|290:299,1,105
191,152,142021,2,0,L|215:35,1,105
380,148,142194,6,0,B|422:160|471:139|471:139|426:180|354:213|360:131|257:169,1,315
212,49,142539,2,0,P|172:157|272:117,1,267.750005106926
383,32,142883,2,0,P|372:76|371:136,1,89.2500017023087
462,179,143056,2,0,P|459:223|448:266,1,89.2500017023087
374,365,143228,2,0,B|252:433|170:314|259:270|316:301,1,267.750005106926
37,351,143573,6,0,P|77:368|122:375,1,89.2500017023087
245,272,143745,1,0,0:0:0:0:
158,292,143832,1,0,0:0:0:0:
263,250,143918,2,0,B|334:174|280:88|280:88|234:88|202:143,1,267.750005106926
121,193,144263,2,0,L|-4:183,1,110.249996635437
1,175,144435,2,0,L|110:183,1,110.249996635437
207,134,144608,2,0,P|240:86|245:34,1,110.249996635437
173,0,144780,2,0,P|140:48|135:100,1,110.249996635437
295,169,144952,6,0,B|401:190|363:97|495:109|495:109|437:91|385:125,1,330.749989906311
475,286,145297,2,0,P|496:161|391:257,1,330.749989906311
336,356,145642,6,0,L|281:368,1,47.2499985580445
125,378,145987,5,0,0:0:0:0:
100,373,146073,1,0,0:0:0:0:
77,367,146159,1,0,0:0:0:0:
54,355,146245,1,0,0:0:0:0:
35,340,146332,5,0,0:0:0:0:
69,334,146418,1,0,0:0:0:0:
99,326,146504,1,0,0:0:0:0:
127,310,146590,1,0,0:0:0:0:
153,291,146676,5,0,0:0:0:0:
110,283,146763,1,0,0:0:0:0:
71,273,146849,1,0,0:0:0:0:
35,252,146935,1,0,0:0:0:0:
0,227,147021,5,0,0:0:0:0:
57,215,147108,1,0,0:0:0:0:
107,203,147194,1,0,0:0:0:0:
154,175,147280,1,0,0:0:0:0:
200,144,147366,2,0,B|239:140|239:140|252:143|252:143|263:138|263:138|303:134,1,105
432,56,147539,2,0,B|392:52|392:52|379:55|379:55|368:50|368:50|328:46,1,105
95,44,147711,6,0,B|60:40|28:64|28:64|58:-1|194:-13|241:114|176:200,1,346.500010574341
159,322,148056,2,0,B|126:338|111:376|111:376|55:234|177:236|95:104,1,330.749989906311
204,40,148401,2,0,P|229:89|231:155,1,110.249996635437
158,322,148573,2,0,P|202:288|228:240,1,110.249996635437
452,243,148745,2,0,P|402:223|347:224,1,110.249996635437
185,346,148917,2,0,P|215:300|261:269,1,110.249996635437
237,28,149090,6,0,P|254:77|485:205,1,330.749989906311
355,35,149435,2,0,P|334:24|362:32,1,110.249996635437
453,74,149608,2,0,P|473:83|446:77,1,110.249996635437
269,103,149780,2,0,B|161:167|151:66|44:126,1,236.250009012223
115,192,150125,2,0,P|138:103|25:27,1,236.250009012223
51,305,150470,6,0,B|124:352|202:287|202:287|197:318|197:318|273:253|361:295,1,362.250006909371
422,344,150814,2,0,B|467:316|468:316|468:316|428:251,1,110.249996635437
287,232,150987,2,0,B|242:260|241:260|241:260|270:308,1,110.249996635437
512,212,151159,2,0,P|469:179|415:180,1,110.249996635437
235,161,151332,2,0,P|283:142|341:161,1,110.249996635437
458,0,151504,2,0,P|439:41|422:119,1,110.249996635437
337,158,151676,2,0,P|324:104|302:53,1,110.249996635437
63,54,151849,5,0,0:0:0:0:
63,54,151935,2,0,B|117:37|117:37|173:55,1,110.249996635437
298,181,152108,1,0,0:0:0:0:
298,181,152194,2,0,B|244:198|244:198|188:180,1,110.249996635437
244,0,152366,1,0,0:0:0:0:
244,0,152452,2,0,B|261:54|261:54|243:110,1,110.249996635437
117,235,152625,1,0,0:0:0:0:
117,235,152711,2,0,B|100:181|100:181|118:125,1,110.249996635437
297,215,152883,2,0,L|185:179,1,110.249996635437
47,302,153056,2,0,L|159:338,1,110.249996635437
432,252,153228,6,0,B|536:364|416:456|284:332|476:172|476:172|444:192|388:200,1,472.500018024445
192,181,153573,2,0,B|124:260|236:356|312:264|340:160|292:32,1,393.75
396,16,153918,2,0,B|439:12|439:12|451:7|451:7|463:10|463:10|515:5,1,115.50000352478
300,57,154090,2,0,B|256:60|256:60|244:65|244:65|232:62|232:62|180:67,1,115.50000352478
17,249,154263,2,0,B|13:203|13:203|16:191|16:191|11:179|11:179|8:136,1,115.50000352478
144,240,154435,2,0,B|147:283|147:283|152:295|152:295|149:307|149:307|153:353,1,115.50000352478
352,380,154608,6,0,P|360:316|384:244,1,115.50000352478
316,8,154780,2,0,P|331:63|338:120,1,115.50000352478
160,380,154952,2,0,P|152:316|128:244,1,115.50000352478
196,8,155124,2,0,P|180:63|173:120,1,115.50000352478
360,192,155297,2,0,B|404:192|404:192|420:196|420:196|440:192|440:192|484:192,1,120.750002303124
152,192,155470,2,0,B|108:192|108:192|92:196|92:196|72:192|72:192|28:192,1,120.750002303124
196,88,155642,2,0,B|256:72|256:72|312:88,1,120.750002303124
316,296,155814,2,0,B|256:312|256:312|200:296,1,120.750002303124
292,8,155987,6,0,B|337:-10|371:20|419:53|389:125|389:125|471:57|471:57|507:213,1,440.999986541749
410,285,156332,2,0,L|420:243,1,31.4999990386963
305,216,156590,1,0,0:0:0:0:
305,216,156676,2,0,B|312:274|312:274|320:286|320:286|316:299|316:299|325:370,1,146.999995513916
187,239,156849,2,0,B|180:179|180:179|184:166|184:166|176:154|176:154|169:96,1,146.999995513916
323,359,157021,2,0,B|383:348|383:348|396:339|396:339|412:343|412:343|465:337,1,146.999995513916
189,359,157194,2,0,B|129:348|129:348|116:339|116:339|100:343|100:343|46:337,1,146.999995513916
380,215,157366,6,0,B|394:159|394:159|403:147|403:147|401:133|401:133|414:75,1,146.999995513916
171,24,157539,1,0,0:0:0:0:
415,74,157711,1,0,0:0:0:0:
233,233,157883,2,0,B|173:244|173:244|160:253|160:253|144:249|144:249|90:255,1,146.999995513916
478,270,158056,1,0,0:0:0:0:
196,118,158228,1,0,0:0:0:0:
480,157,158401,1,0,0:0:0:0:
480,157,158487,1,0,0:0:0:0:
480,157,158573,2,0,L|403:168,1,78.7500030040742
108,201,158745,1,0,0:0:0:0:
