osu file format v14

[General]
AudioFilename: audio.mp3
AudioLeadIn: 0
PreviewTime: 166952
Countdown: 0
SampleSet: Soft
StackLeniency: 0.7
Mode: 2
LetterboxInBreaks: 0
WidescreenStoryboard: 1

[Editor]
Bookmarks: 30988,33773,36746,40630,46121,47461,58845,61202,65702,68059,71059,71380,71702,72023,72345,77273,78452,79416,79630,79845,80059,80273,80488,80702,80916,81130,81345,81559,81773,81988,82202,82416,82630,82845,82952,83059,83166,83273,83380,83488,83595,83702,83809,83916,84023,84130,84238,84345,84452,85845,87130,87452,87773,88095,88202,88416,88738,88845,88952,89059,89166,89273
DistanceSpacing: 1
BeatDivisor: 16
GridSize: 8
TimelineZoom: 5.799997

[Metadata]
Title:Singularity
TitleUnicode:Singularity
Artist:Camellia
ArtistUnicode:かめりあ
Creator:-Izayoi
Version:A.I. Walk
Source:
Tags:camellia singularity hypwerwalk the day when the a.i. becomes more human than human
BeatmapID:1467209
BeatmapSetID:693404

[Difficulty]
HPDrainRate:0
CircleSize:4
OverallDifficulty:9.5
ApproachRate:9.5
SliderMultiplier:1.5
SliderTickRate:1

[Events]
//Background and Video events
0,0,"1971114.jpg",0,0
//Break Periods
2,51518,57891
//Storyboard Layer 0 (Background)
//Storyboard Layer 1 (Fail)
//Storyboard Layer 2 (Pass)
//Storyboard Layer 3 (Foreground)
//Storyboard Sound Samples

[TimingPoints]
3988,428.571428571429,4,2,0,50,1,0
79416,-100,4,2,0,100,0,1
84559,-100,4,2,0,100,0,0
87130,-100,4,2,0,100,0,1
89273,-100,4,2,0,100,0,0
168559,-100,4,2,0,50,0,1
194273,-100,4,2,0,50,0,0

[HitObjects]
256,192,3988,5,0,0:0:0:0:
144,192,4309,1,0,0:0:0:0:
32,192,4630,1,0,0:0:0:0:
144,192,4952,1,0,0:0:0:0:
256,192,5702,5,0,0:0:0:0:
368,192,6023,1,0,0:0:0:0:
480,192,6344,1,0,0:0:0:0:
368,192,6666,1,0,0:0:0:0:
256,192,7416,5,0,0:0:0:0:
144,192,7738,1,0,0:0:0:0:
256,192,8059,1,0,0:0:0:0:
368,192,8380,1,0,0:0:0:0:
256,192,9130,5,0,0:0:0:0:
368,192,9452,1,0,0:0:0:0:
256,192,9773,1,0,0:0:0:0:
144,192,10095,1,0,0:0:0:0:
32,192,10845,5,0,0:0:0:0:
144,192,11166,1,0,0:0:0:0:
256,192,11488,1,0,0:0:0:0:
368,192,11809,1,0,0:0:0:0:
144,192,12559,5,0,0:0:0:0:
256,192,12880,1,0,0:0:0:0:
368,192,13202,1,0,0:0:0:0:
480,192,13523,1,0,0:0:0:0:
480,192,14273,5,0,0:0:0:0:
368,192,14594,1,0,0:0:0:0:
256,192,14916,1,0,0:0:0:0:
144,192,15237,1,0,0:0:0:0:
368,192,15987,5,0,0:0:0:0:
256,192,16308,1,0,0:0:0:0:
144,192,16630,1,0,0:0:0:0:
32,192,16951,1,0,0:0:0:0:
144,192,17273,6,0,L|288:192,1,140.625
480,192,17702,5,0,0:0:0:0:
336,192,18130,1,0,0:0:0:0:
192,192,18559,1,0,0:0:0:0:
304,192,18880,1,0,0:0:0:0:
192,192,19202,1,0,0:0:0:0:
112,192,19416,5,0,0:0:0:0:
256,192,19845,1,0,0:0:0:0:
400,192,20273,1,0,0:0:0:0:
288,192,20595,1,0,0:0:0:0:
400,192,20916,1,0,0:0:0:0:
480,192,21130,5,0,0:0:0:0:
336,192,21559,1,0,0:0:0:0:
480,192,21988,1,0,0:0:0:0:
368,192,22309,1,0,0:0:0:0:
256,192,22630,1,0,0:0:0:0:
336,192,22845,5,0,0:0:0:0:
192,192,23273,1,0,0:0:0:0:
336,192,23702,1,0,0:0:0:0:
224,192,24023,1,0,0:0:0:0:
112,192,24345,1,0,0:0:0:0:
192,192,24559,5,0,0:0:0:0:
272,192,24773,2,0,L|304:192,1,28.125
451,192,24880,2,0,L|483:192,1,28.125
376,192,24988,1,0,0:0:0:0:
336,192,25095,2,0,L|304:192,1,28.125
192,192,25202,2,0,L|120:192,1,65.625
32,192,25416,5,0,0:0:0:0:
104,192,25630,2,0,L|136:192,1,28.125
256,192,25738,2,0,L|288:192,1,28.125
192,192,25845,1,0,0:0:0:0:
152,192,25952,2,0,L|120:192,1,28.125
256,192,26059,2,0,L|328:192,1,65.625
480,192,26273,5,0,0:0:0:0:
408,192,26488,2,0,L|376:192,1,28.125
256,192,26595,2,0,L|224:192,1,28.125
32,192,26702,1,0,0:0:0:0:
72,192,26809,2,0,L|104:192,1,28.125
190,192,26916,2,0,L|256:192,1,65.625
32,192,27130,5,0,0:0:0:0:
104,192,27345,2,0,L|136:192,1,28.125
256,192,27452,2,0,L|288:192,1,28.125
480,192,27559,1,0,0:0:0:0:
440,192,27666,2,0,L|408:192,1,28.125
288,192,27773,2,0,L|216:192,1,65.625
32,32,27988,6,0,L|0:32,1,28.125
120,32,28095,6,0,L|152:32,1,28.125
240,32,28202,6,0,L|272:32,1,28.125
360,32,28309,6,0,L|392:32,1,28.125
480,352,28416,6,0,L|512:352,1,28.125
392,352,28523,6,0,L|360:352,1,28.125
272,352,28630,6,0,L|240:352,1,28.125
152,352,28737,6,0,L|120:352,1,28.125
32,224,28845,6,0,L|0:224,1,28.125
352,160,28952,6,0,L|384:160,1,28.125
160,224,29059,6,0,L|128:224,1,28.125
480,160,29166,6,0,L|512:160,1,28.125
56,192,29273,5,0,0:0:0:0:
48,192,29300,1,0,0:0:0:0:
40,192,29327,1,0,0:0:0:0:
32,192,29354,1,0,0:0:0:0:
24,192,29380,1,0,0:0:0:0:
16,192,29407,1,0,0:0:0:0:
8,192,29434,1,0,0:0:0:0:
0,192,29461,1,0,0:0:0:0:
456,192,29488,5,0,0:0:0:0:
464,192,29515,1,0,0:0:0:0:
472,192,29542,1,0,0:0:0:0:
480,192,29569,1,0,0:0:0:0:
488,192,29595,1,0,0:0:0:0:
496,192,29622,1,0,0:0:0:0:
504,192,29649,1,0,0:0:0:0:
512,192,29676,1,0,0:0:0:0:
0,192,29702,5,0,0:0:0:0:
448,192,30988,6,0,L|480:192,1,28.125
272,192,31095,2,0,L|240:192,1,28.125
98,192,31202,2,0,L|32:192,1,65.625
296,192,31416,5,0,0:0:0:0:
306,191,31443,1,0,0:0:0:0:
315,189,31470,1,0,0:0:0:0:
324,185,31496,1,0,0:0:0:0:
331,180,31523,1,0,0:0:0:0:
338,173,31550,1,0,0:0:0:0:
343,165,31577,1,0,0:0:0:0:
346,156,31604,1,0,0:0:0:0:
347,147,31630,1,0,0:0:0:0:
347,138,31657,1,0,0:0:0:0:
345,128,31684,1,0,0:0:0:0:
341,120,31711,1,0,0:0:0:0:
336,112,31738,1,0,0:0:0:0:
329,106,31764,1,0,0:0:0:0:
321,101,31791,1,0,0:0:0:0:
312,98,31818,1,0,0:0:0:0:
304,96,31845,2,0,L|272:96,1,28.125
112,96,31952,6,0,L|80:96,1,28.125
72,96,32059,2,0,L|104:96,1,28.125
240,96,32166,2,0,L|272:96,1,28.125
400,96,32273,6,0,P|448:112|480:160,1,103.125
112,152,32595,6,0,P|64:168|32:216,1,103.125
400,208,32916,6,0,P|448:224|480:272,1,103.125
112,264,33238,6,0,P|64:280|32:328,1,103.125
224,320,33559,2,0,L|296:320,1,65.625
472,320,33773,6,0,L|480:288,1,28.125
288,296,33880,2,0,L|256:296,1,28.125
456,296,33988,2,0,P|480:248|456:200,1,103.125
328,192,34309,6,0,L|296:192,1,28.125
208,192,34416,5,0,0:0:0:0:
200,192,34443,1,0,0:0:0:0:
192,192,34470,1,0,0:0:0:0:
184,192,34496,1,0,0:0:0:0:
32,192,34523,5,0,0:0:0:0:
32,184,34550,1,0,0:0:0:0:
40,176,34577,1,0,0:0:0:0:
48,176,34604,1,0,0:0:0:0:
304,192,34630,5,0,0:0:0:0:
312,192,34657,1,0,0:0:0:0:
320,192,34684,1,0,0:0:0:0:
328,192,34710,1,0,0:0:0:0:
480,192,34737,5,0,0:0:0:0:
480,184,34764,1,0,0:0:0:0:
472,176,34791,1,0,0:0:0:0:
464,176,34818,1,0,0:0:0:0:
216,176,34845,5,0,0:0:0:0:
206,175,34872,1,0,0:0:0:0:
197,173,34899,1,0,0:0:0:0:
188,169,34925,1,0,0:0:0:0:
181,164,34952,1,0,0:0:0:0:
174,157,34979,1,0,0:0:0:0:
169,149,35006,1,0,0:0:0:0:
166,140,35033,1,0,0:0:0:0:
165,131,35059,1,0,0:0:0:0:
165,122,35086,1,0,0:0:0:0:
167,112,35113,1,0,0:0:0:0:
171,104,35140,1,0,0:0:0:0:
176,96,35167,1,0,0:0:0:0:
183,90,35193,1,0,0:0:0:0:
191,85,35220,1,0,0:0:0:0:
200,82,35247,1,0,0:0:0:0:
208,80,35274,2,0,L|240:80,1,28.125
480,80,35380,6,0,L|480:112,1,28.125
480,120,35488,1,0,0:0:0:0:
472,120,35514,1,0,0:0:0:0:
464,120,35541,1,0,0:0:0:0:
456,120,35568,1,0,0:0:0:0:
272,120,35595,2,0,L|240:120,1,28.125
64,120,35702,6,0,L|32:120,1,28.125
24,120,35809,2,0,L|8:120,35,9.375
216,120,36773,6,0,P|248:112|272:88,1,65.625
272,80,36988,2,0,L|240:80,1,28.125
240,88,37095,2,0,P|263:110|294:118,1,65.625
448,120,37309,6,0,L|480:120,1,28.125
295,118,37416,6,0,L|263:118,1,28.125
256,120,37523,6,0,L|224:120,1,28.125
216,120,37630,2,0,L|184:120,1,28.125
176,120,37738,2,0,L|144:120,1,28.125
136,120,37845,6,0,L|168:120,1,28.125
176,120,37952,2,0,L|208:120,1,28.125
216,120,38059,2,0,L|184:120,1,28.125
160,120,38166,2,0,L|192:120,1,28.125
312,120,38273,6,0,L|328:120,1,9.375
328,120,38327,2,0,L|344:120,1,9.375
344,120,38380,2,0,L|360:120,1,9.375
360,120,38434,2,0,L|376:120,1,9.375
376,120,38488,2,0,L|424:120,1,46.875
432,120,38648,2,0,L|416:120,1,9.375
216,120,38702,5,0,0:0:0:0:
206,121,38729,1,0,0:0:0:0:
197,123,38756,1,0,0:0:0:0:
188,127,38782,1,0,0:0:0:0:
181,132,38809,1,0,0:0:0:0:
174,139,38836,1,0,0:0:0:0:
169,147,38863,1,0,0:0:0:0:
166,156,38890,1,0,0:0:0:0:
165,165,38916,1,0,0:0:0:0:
165,174,38943,1,0,0:0:0:0:
167,184,38970,1,0,0:0:0:0:
171,192,38997,1,0,0:0:0:0:
176,200,39024,1,0,0:0:0:0:
183,206,39050,1,0,0:0:0:0:
191,211,39077,1,0,0:0:0:0:
200,214,39104,1,0,0:0:0:0:
488,216,39130,6,0,P|480:266|438:305,1,103.125
24,216,39452,6,0,P|31:266|73:305,1,103.125
488,216,39773,6,0,P|480:266|438:305,1,103.125
24,216,40095,6,0,P|31:266|73:305,1,103.125
224,304,40416,2,0,L|296:304,1,65.625
472,304,40630,6,0,L|480:272,1,28.125
288,280,40737,2,0,L|256:280,1,28.125
456,280,40845,2,0,P|480:232|456:184,1,103.125
328,176,41166,6,0,L|296:176,1,28.125
208,176,41273,5,0,0:0:0:0:
200,176,41300,1,0,0:0:0:0:
192,176,41327,1,0,0:0:0:0:
184,176,41353,1,0,0:0:0:0:
32,176,41380,5,0,0:0:0:0:
32,168,41407,1,0,0:0:0:0:
40,160,41434,1,0,0:0:0:0:
48,160,41461,1,0,0:0:0:0:
304,176,41487,5,0,0:0:0:0:
312,176,41514,1,0,0:0:0:0:
320,176,41541,1,0,0:0:0:0:
328,176,41567,1,0,0:0:0:0:
480,176,41594,5,0,0:0:0:0:
480,168,41621,1,0,0:0:0:0:
472,160,41648,1,0,0:0:0:0:
464,160,41675,1,0,0:0:0:0:
232,168,41702,5,0,0:0:0:0:
214,165,41755,1,0,0:0:0:0:
197,156,41809,1,0,0:0:0:0:
191,139,41863,1,0,0:0:0:0:
200,122,41916,1,0,0:0:0:0:
218,116,41970,1,0,0:0:0:0:
240,112,42023,1,0,0:0:0:0:
256,112,42077,1,0,0:0:0:0:
280,112,42130,5,0,0:0:0:0:
277,130,42183,1,0,0:0:0:0:
268,147,42237,1,0,0:0:0:0:
251,153,42291,1,0,0:0:0:0:
234,144,42344,1,0,0:0:0:0:
228,126,42398,1,0,0:0:0:0:
232,104,42452,2,0,L|264:104,1,28.125
488,104,42559,5,0,0:0:0:0:
488,120,42613,1,0,0:0:0:0:
480,136,42666,1,0,0:0:0:0:
472,152,42720,1,0,0:0:0:0:
456,168,42773,1,0,0:0:0:0:
440,176,42827,1,0,0:0:0:0:
424,176,42880,1,0,0:0:0:0:
408,176,42934,1,0,0:0:0:0:
424,176,42988,5,0,0:0:0:0:
440,176,43041,1,0,0:0:0:0:
456,184,43095,1,0,0:0:0:0:
472,200,43148,1,0,0:0:0:0:
480,216,43202,1,0,0:0:0:0:
488,232,43255,1,0,0:0:0:0:
488,248,43309,1,0,0:0:0:0:
480,264,43363,1,0,0:0:0:0:
464,264,43416,5,0,0:0:0:0:
448,272,43470,1,0,0:0:0:0:
432,288,43523,1,0,0:0:0:0:
424,304,43577,1,0,0:0:0:0:
392,304,43630,5,0,0:0:0:0:
374,301,43683,1,0,0:0:0:0:
357,292,43737,1,0,0:0:0:0:
351,275,43791,1,0,0:0:0:0:
360,258,43844,1,0,0:0:0:0:
378,252,43898,1,0,0:0:0:0:
400,248,43951,1,0,0:0:0:0:
416,248,44005,1,0,0:0:0:0:
432,240,44059,1,0,0:0:0:0:
448,224,44113,1,0,0:0:0:0:
448,208,44166,2,0,L|416:208,1,28.125
266,214,44273,5,0,0:0:0:0:
247,215,44327,1,0,0:0:0:0:
233,202,44380,1,0,0:0:0:0:
232,183,44434,1,0,0:0:0:0:
245,169,44488,1,0,0:0:0:0:
264,168,44541,1,0,0:0:0:0:
278,181,44595,1,0,0:0:0:0:
279,200,44648,1,0,0:0:0:0:
144,216,44702,6,0,L|128:216,1,9.375
128,216,44756,2,0,L|112:216,1,9.375
112,216,44809,2,0,L|96:216,1,9.375
96,216,44863,2,0,L|80:216,1,9.375
80,216,44917,2,0,L|48:216,1,28.125
40,216,45023,2,0,L|72:216,1,28.125
368,216,45130,5,0,0:0:0:0:
378,215,45157,1,0,0:0:0:0:
387,213,45184,1,0,0:0:0:0:
396,209,45210,1,0,0:0:0:0:
403,204,45237,1,0,0:0:0:0:
410,197,45264,1,0,0:0:0:0:
415,189,45291,1,0,0:0:0:0:
418,180,45318,1,0,0:0:0:0:
419,171,45344,1,0,0:0:0:0:
419,162,45371,1,0,0:0:0:0:
417,152,45398,1,0,0:0:0:0:
413,144,45425,1,0,0:0:0:0:
408,136,45452,1,0,0:0:0:0:
401,130,45478,1,0,0:0:0:0:
393,125,45505,1,0,0:0:0:0:
384,122,45532,1,0,0:0:0:0:
376,120,45559,2,0,L|304:120,1,65.625
304,120,45773,2,0,L|296:88,1,28.125
184,120,45880,6,0,L|152:120,1,28.125
32,120,45988,2,0,L|32:80,1,37.5
40,72,46121,6,0,P|248:112|440:280,1,468.75
288,296,47488,5,0,0:0:0:0:
280,296,47514,1,0,0:0:0:0:
272,296,47541,1,0,0:0:0:0:
264,296,47568,1,0,0:0:0:0:
256,296,47595,1,0,0:0:0:0:
248,296,47621,1,0,0:0:0:0:
240,296,47648,1,0,0:0:0:0:
232,296,47675,1,0,0:0:0:0:
40,296,47702,6,0,P|48:264|72:232,1,65.625
224,240,47916,2,0,L|256:240,1,28.125
408,240,48023,5,0,0:0:0:0:
416,240,48050,1,0,0:0:0:0:
424,240,48077,1,0,0:0:0:0:
432,240,48104,1,0,0:0:0:0:
224,240,48130,5,0,0:0:0:0:
216,240,48157,1,0,0:0:0:0:
208,240,48184,1,0,0:0:0:0:
200,240,48211,1,0,0:0:0:0:
352,240,48238,5,0,0:0:0:0:
360,240,48264,1,0,0:0:0:0:
368,240,48291,1,0,0:0:0:0:
376,240,48318,1,0,0:0:0:0:
168,240,48345,5,0,0:0:0:0:
160,240,48371,1,0,0:0:0:0:
152,240,48398,1,0,0:0:0:0:
144,240,48425,1,0,0:0:0:0:
288,240,48452,5,0,0:0:0:0:
296,240,48479,1,0,0:0:0:0:
304,240,48505,1,0,0:0:0:0:
312,240,48532,1,0,0:0:0:0:
480,240,48559,5,0,0:0:0:0:
480,232,48586,1,0,0:0:0:0:
480,224,48613,1,0,0:0:0:0:
480,216,48639,1,0,0:0:0:0:
477,206,48666,1,0,0:0:0:0:
472,200,48693,1,0,0:0:0:0:
466,192,48720,1,0,0:0:0:0:
458,186,48746,1,0,0:0:0:0:
448,183,48773,1,0,0:0:0:0:
439,179,48800,1,0,0:0:0:0:
430,175,48827,1,0,0:0:0:0:
420,173,48854,1,0,0:0:0:0:
410,173,48880,1,0,0:0:0:0:
400,176,48907,1,0,0:0:0:0:
392,176,48934,1,0,0:0:0:0:
384,176,48961,1,0,0:0:0:0:
256,176,48988,6,0,L|224:176,1,28.125
32,176,49095,2,0,L|32:144,1,28.125
40,144,49202,1,0,0:0:0:0:
48,144,49229,1,0,0:0:0:0:
56,144,49255,1,0,0:0:0:0:
64,144,49282,1,0,0:0:0:0:
184,144,49309,2,0,L|200:144,1,9.375
320,144,49363,2,0,L|336:144,1,9.375
480,144,49416,6,0,L|480:112,1,28.125
472,112,49523,1,0,0:0:0:0:
464,112,49550,1,0,0:0:0:0:
456,112,49577,1,0,0:0:0:0:
448,112,49604,1,0,0:0:0:0:
440,112,49630,1,0,0:0:0:0:
432,112,49657,1,0,0:0:0:0:
424,112,49684,1,0,0:0:0:0:
416,112,49711,1,0,0:0:0:0:
408,112,49738,1,0,0:0:0:0:
400,112,49764,1,0,0:0:0:0:
392,112,49791,1,0,0:0:0:0:
384,112,49818,1,0,0:0:0:0:
376,112,49845,1,0,0:0:0:0:
368,112,49871,1,0,0:0:0:0:
360,112,49898,1,0,0:0:0:0:
352,112,49925,1,0,0:0:0:0:
344,112,49952,1,0,0:0:0:0:
336,112,49979,1,0,0:0:0:0:
328,112,50005,1,0,0:0:0:0:
320,112,50032,1,0,0:0:0:0:
32,112,50059,6,0,P|40:152|64:168,1,65.625
480,168,50273,5,0,0:0:0:0:
480,160,50300,1,0,0:0:0:0:
480,152,50327,1,0,0:0:0:0:
480,144,50354,1,0,0:0:0:0:
472,144,50380,1,0,0:0:0:0:
464,144,50407,1,0,0:0:0:0:
456,144,50434,1,0,0:0:0:0:
448,144,50461,1,0,0:0:0:0:
440,144,50487,1,0,0:0:0:0:
432,144,50514,1,0,0:0:0:0:
424,144,50541,1,0,0:0:0:0:
416,144,50568,1,0,0:0:0:0:
408,144,50595,1,0,0:0:0:0:
400,144,50621,1,0,0:0:0:0:
392,144,50648,1,0,0:0:0:0:
384,144,50675,1,0,0:0:0:0:
376,144,50702,1,0,0:0:0:0:
368,144,50728,1,0,0:0:0:0:
360,144,50755,1,0,0:0:0:0:
352,144,50782,1,0,0:0:0:0:
344,144,50809,1,0,0:0:0:0:
336,144,50836,1,0,0:0:0:0:
328,144,50862,1,0,0:0:0:0:
320,144,50889,1,0,0:0:0:0:
40,144,50916,6,0,L|24:144,3,9.375
40,144,51023,2,0,L|72:144,1,28.125
440,144,51130,6,0,L|472:144,1,28.125
480,144,51238,2,0,L|448:144,1,28.125
448,192,58416,6,0,L|480:192,1,28.125
272,192,58523,2,0,L|240:192,1,28.125
98,192,58630,2,0,L|32:192,1,65.625
296,192,58844,5,0,0:0:0:0:
306,191,58871,1,0,0:0:0:0:
315,189,58898,1,0,0:0:0:0:
324,185,58924,1,0,0:0:0:0:
331,180,58951,1,0,0:0:0:0:
338,173,58978,1,0,0:0:0:0:
343,165,59005,1,0,0:0:0:0:
346,156,59032,1,0,0:0:0:0:
347,147,59058,1,0,0:0:0:0:
347,138,59085,1,0,0:0:0:0:
345,128,59112,1,0,0:0:0:0:
341,120,59139,1,0,0:0:0:0:
336,112,59166,1,0,0:0:0:0:
329,106,59192,1,0,0:0:0:0:
321,101,59219,1,0,0:0:0:0:
312,98,59246,1,0,0:0:0:0:
304,96,59273,2,0,L|272:96,1,28.125
112,96,59380,6,0,L|80:96,1,28.125
72,96,59487,2,0,L|104:96,1,28.125
240,96,59594,2,0,L|272:96,1,28.125
492,96,59702,6,0,L|508:96,7,9.375
492,96,59916,2,0,L|460:96,1,28.125
16,96,60023,6,0,L|0:96,7,9.375
16,96,60237,2,0,L|48:96,1,28.125
492,96,60345,6,0,L|508:96,7,9.375
492,96,60559,2,0,L|460:96,1,28.125
10,94,60666,6,0,L|-6:94,7,9.375
10,94,60880,2,0,L|42:94,1,28.125
492,96,60988,6,0,L|508:96,6,9.375
484,96,61175,1,0,0:0:0:0:
38,96,61202,6,0,L|30:128,1,28.125
222,120,61309,2,0,L|254:120,1,28.125
54,120,61417,2,0,P|30:168|54:216,1,103.125
182,224,61738,6,0,L|214:224,1,28.125
302,224,61845,5,0,0:0:0:0:
310,224,61872,1,0,0:0:0:0:
318,224,61899,1,0,0:0:0:0:
326,224,61925,1,0,0:0:0:0:
478,224,61952,5,0,0:0:0:0:
478,232,61979,1,0,0:0:0:0:
470,240,62006,1,0,0:0:0:0:
462,240,62033,1,0,0:0:0:0:
206,224,62059,5,0,0:0:0:0:
198,224,62086,1,0,0:0:0:0:
190,224,62113,1,0,0:0:0:0:
182,224,62139,1,0,0:0:0:0:
30,224,62166,5,0,0:0:0:0:
30,232,62193,1,0,0:0:0:0:
38,240,62220,1,0,0:0:0:0:
46,240,62247,1,0,0:0:0:0:
294,240,62274,5,0,0:0:0:0:
304,241,62301,1,0,0:0:0:0:
313,243,62328,1,0,0:0:0:0:
322,247,62354,1,0,0:0:0:0:
329,252,62381,1,0,0:0:0:0:
336,259,62408,1,0,0:0:0:0:
341,267,62435,1,0,0:0:0:0:
344,276,62462,1,0,0:0:0:0:
345,285,62488,1,0,0:0:0:0:
345,294,62515,1,0,0:0:0:0:
343,304,62542,1,0,0:0:0:0:
339,312,62569,1,0,0:0:0:0:
334,320,62596,1,0,0:0:0:0:
327,326,62622,1,0,0:0:0:0:
319,331,62649,1,0,0:0:0:0:
310,334,62676,1,0,0:0:0:0:
302,336,62703,2,0,L|270:336,1,28.125
30,336,62809,6,0,L|30:304,1,28.125
30,296,62917,1,0,0:0:0:0:
38,296,62943,1,0,0:0:0:0:
46,296,62970,1,0,0:0:0:0:
54,296,62997,1,0,0:0:0:0:
238,296,63024,2,0,L|270:296,1,28.125
446,296,63131,6,0,L|478:296,1,28.125
486,296,63238,2,0,L|502:296,35,9.375
294,296,64202,6,0,P|262:304|238:328,1,65.625
238,336,64417,2,0,L|270:336,1,28.125
270,328,64524,2,0,P|247:306|216:298,1,65.625
62,296,64738,6,0,L|30:296,1,28.125
215,298,64845,6,0,L|247:298,1,28.125
254,296,64952,6,0,L|286:296,1,28.125
294,296,65059,2,0,L|326:296,1,28.125
334,296,65167,2,0,L|366:296,1,28.125
374,296,65274,6,0,L|342:296,1,28.125
334,296,65381,2,0,L|302:296,1,28.125
294,296,65488,2,0,L|326:296,1,28.125
350,296,65595,2,0,L|318:296,1,28.125
94,296,65702,5,0,0:0:0:0:
84,295,65729,1,0,0:0:0:0:
75,293,65756,1,0,0:0:0:0:
66,289,65782,1,0,0:0:0:0:
59,284,65809,1,0,0:0:0:0:
52,277,65836,1,0,0:0:0:0:
47,269,65863,1,0,0:0:0:0:
44,260,65890,1,0,0:0:0:0:
43,251,65916,1,0,0:0:0:0:
43,242,65943,1,0,0:0:0:0:
45,232,65970,1,0,0:0:0:0:
49,224,65997,1,0,0:0:0:0:
54,216,66024,1,0,0:0:0:0:
61,210,66050,1,0,0:0:0:0:
69,205,66077,1,0,0:0:0:0:
78,202,66104,1,0,0:0:0:0:
88,200,66130,6,0,L|104:200,1,9.375
104,200,66184,6,0,L|120:200,1,9.375
120,200,66238,6,0,L|136:200,1,9.375
136,200,66291,6,0,L|152:200,1,9.375
280,200,66345,6,0,L|312:200,1,28.125
320,200,66452,2,0,L|288:200,1,28.125
16,192,66559,6,0,L|0:192,7,9.375
16,192,66773,2,0,L|48:192,1,28.125
256,32,66880,6,0,L|240:32,7,9.375
256,32,67094,2,0,L|288:32,1,28.125
496,192,67202,6,0,L|512:192,7,9.375
496,192,67416,2,0,L|464:192,1,28.125
256,352,67523,6,0,L|272:352,7,9.375
256,352,67737,2,0,L|224:352,1,28.125
16,192,67845,6,0,L|0:192,6,9.375
24,192,68032,1,0,0:0:0:0:
256,192,68059,6,0,L|264:224,1,28.125
72,216,68166,2,0,L|40:216,1,28.125
240,216,68274,2,0,P|264:264|240:312,1,103.125
240,304,68595,2,0,L|208:304,1,28.125
32,304,68702,6,0,L|32:288,1,9.375
32,264,68809,6,0,L|32:248,1,9.375
32,224,68916,6,0,L|32:208,1,9.375
32,184,69023,6,0,L|64:184,1,28.125
416,184,69130,5,0,0:0:0:0:
426,183,69157,1,0,0:0:0:0:
435,181,69184,1,0,0:0:0:0:
444,177,69210,1,0,0:0:0:0:
451,172,69237,1,0,0:0:0:0:
458,165,69264,1,0,0:0:0:0:
463,157,69291,1,0,0:0:0:0:
466,148,69318,1,0,0:0:0:0:
467,139,69344,1,0,0:0:0:0:
467,130,69371,1,0,0:0:0:0:
465,120,69398,1,0,0:0:0:0:
461,112,69425,1,0,0:0:0:0:
456,104,69452,1,0,0:0:0:0:
449,98,69478,1,0,0:0:0:0:
441,93,69505,1,0,0:0:0:0:
432,90,69532,1,0,0:0:0:0:
424,88,69559,2,0,L|392:88,1,28.125
272,88,69666,6,0,L|272:104,1,9.375
152,96,69720,2,0,L|152:112,1,9.375
32,104,69773,2,0,L|32:136,1,28.125
256,128,69880,2,0,L|256:160,1,28.125
416,200,69988,5,0,0:0:0:0:
426,201,70015,1,0,0:0:0:0:
435,203,70042,1,0,0:0:0:0:
444,207,70068,1,0,0:0:0:0:
451,212,70095,1,0,0:0:0:0:
458,219,70122,1,0,0:0:0:0:
463,227,70149,1,0,0:0:0:0:
466,236,70176,1,0,0:0:0:0:
467,245,70202,1,0,0:0:0:0:
467,254,70229,1,0,0:0:0:0:
465,264,70256,1,0,0:0:0:0:
461,272,70283,1,0,0:0:0:0:
456,280,70310,1,0,0:0:0:0:
449,286,70336,1,0,0:0:0:0:
441,291,70363,1,0,0:0:0:0:
432,294,70390,1,0,0:0:0:0:
424,296,70417,2,0,L|392:296,1,28.125
272,296,70524,6,0,L|272:280,1,9.375
152,288,70578,2,0,L|152:272,1,9.375
32,280,70631,2,0,L|32:248,1,28.125
256,256,70738,2,0,L|256:224,1,28.125
480,232,70845,6,0,B|480:192|480:192|448:192,1,65.625
88,192,71059,6,0,P|32:144|32:112,1,103.125
424,120,71380,6,0,P|480:72|480:40,1,103.125
88,47,71702,6,0,P|32:95|32:127,1,103.125
424,120,72023,6,0,P|480:168|480:200,1,103.125
32,192,72345,6,0,P|40:232|64:248,1,65.625
288,248,72559,5,0,0:0:0:0:
298,249,72586,1,0,0:0:0:0:
307,251,72613,1,0,0:0:0:0:
316,255,72639,1,0,0:0:0:0:
323,260,72666,1,0,0:0:0:0:
330,267,72693,1,0,0:0:0:0:
335,275,72720,1,0,0:0:0:0:
338,284,72747,1,0,0:0:0:0:
339,293,72773,1,0,0:0:0:0:
339,302,72800,1,0,0:0:0:0:
337,312,72827,1,0,0:0:0:0:
333,320,72854,1,0,0:0:0:0:
328,328,72881,1,0,0:0:0:0:
321,334,72907,1,0,0:0:0:0:
313,339,72934,1,0,0:0:0:0:
304,342,72961,1,0,0:0:0:0:
296,344,72988,2,0,L|264:344,1,28.125
136,344,73095,6,0,L|128:312,1,28.125
8,344,73202,2,0,L|8:312,1,28.125
243,320,73309,2,0,L|275:320,1,28.125
495,320,73417,6,0,L|511:320,7,9.375
495,320,73631,2,0,L|463:320,1,28.125
19,320,73738,6,0,L|3:320,7,9.375
19,320,73952,2,0,L|51:320,1,28.125
495,320,74060,6,0,L|511:320,7,9.375
495,320,74274,2,0,L|463:320,1,28.125
13,322,74381,6,0,L|-3:322,7,9.375
13,322,74595,2,0,L|45:322,1,28.125
495,320,74703,6,0,L|511:320,6,9.375
487,320,74890,1,0,0:0:0:0:
41,320,74917,6,0,L|33:288,1,28.125
225,296,75024,2,0,L|257:296,1,28.125
57,296,75132,2,0,P|33:248|57:200,1,103.125
185,192,75453,6,0,L|217:192,1,28.125
405,192,75559,5,0,0:0:0:0:
413,192,75586,1,0,0:0:0:0:
421,192,75613,1,0,0:0:0:0:
429,192,75640,1,0,0:0:0:0:
221,192,75666,5,0,0:0:0:0:
213,192,75693,1,0,0:0:0:0:
205,192,75720,1,0,0:0:0:0:
197,192,75747,1,0,0:0:0:0:
349,192,75774,5,0,0:0:0:0:
357,192,75800,1,0,0:0:0:0:
365,192,75827,1,0,0:0:0:0:
373,192,75854,1,0,0:0:0:0:
165,192,75881,5,0,0:0:0:0:
157,192,75907,1,0,0:0:0:0:
149,192,75934,1,0,0:0:0:0:
141,192,75961,1,0,0:0:0:0:
349,192,75989,5,0,0:0:0:0:
359,191,76016,1,0,0:0:0:0:
368,189,76043,1,0,0:0:0:0:
377,185,76069,1,0,0:0:0:0:
384,180,76096,1,0,0:0:0:0:
391,173,76123,1,0,0:0:0:0:
396,165,76150,1,0,0:0:0:0:
399,156,76177,1,0,0:0:0:0:
400,147,76203,1,0,0:0:0:0:
400,138,76230,1,0,0:0:0:0:
398,128,76257,1,0,0:0:0:0:
394,120,76284,1,0,0:0:0:0:
389,112,76311,1,0,0:0:0:0:
382,106,76337,1,0,0:0:0:0:
374,101,76364,1,0,0:0:0:0:
365,98,76391,1,0,0:0:0:0:
356,96,76416,2,0,L|328:96,1,28.125
312,96,76523,6,0,L|320:64,1,28.125
512,96,76630,2,0,L|512:64,1,28.125
256,96,76738,2,0,L|248:64,1,28.125
24,72,76845,6,0,P|32:112|56:128,1,65.625
64,128,77059,2,0,P|104:144|112:168,1,65.625
256,160,77273,6,0,P|416:176|352:352,1,403.125
136,352,78452,2,0,L|128:320,1,28.125
360,328,78559,5,0,0:0:0:0:
376,320,78613,1,0,0:0:0:0:
392,304,78666,1,0,0:0:0:0:
400,288,78720,1,0,0:0:0:0:
405,270,78773,1,0,0:0:0:0:
405,251,78827,1,0,0:0:0:0:
399,233,78880,1,0,0:0:0:0:
384,216,78934,2,0,L|368:216,1,9.375
88,216,78988,5,0,0:0:0:0:
72,208,79042,1,0,0:0:0:0:
56,192,79095,1,0,0:0:0:0:
48,176,79149,1,0,0:0:0:0:
43,158,79202,1,0,0:0:0:0:
43,139,79256,1,0,0:0:0:0:
49,121,79309,1,0,0:0:0:0:
64,104,79363,2,0,L|80:104,1,9.375
504,152,79416,6,0,L|512:224,1,65.625
264,152,79630,6,0,L|256:224,1,65.625
8,152,79845,6,0,L|0:224,1,65.625
504,152,80059,6,0,L|512:224,1,65.625
8,152,80273,6,0,L|0:224,1,65.625
249,152,80488,6,0,L|257:224,1,65.625
504,152,80702,6,0,L|512:224,1,65.625
8,152,80916,6,0,L|0:224,1,65.625
328,152,81130,6,0,L|328:224,1,65.625
56,152,81345,6,0,L|56:217,1,65.625
456,152,81559,6,0,L|456:224,1,65.625
184,152,81774,6,0,L|184:217,1,65.625
384,184,81988,6,0,L|392:112,1,65.625
128,184,82202,6,0,L|120:112,1,65.625
496,192,82416,6,0,L|504:120,1,65.625
16,192,82630,6,0,L|8:120,1,65.625
248,192,82845,6,0,L|256:160,1,28.125
376,192,82952,2,0,L|384:160,1,28.125
504,192,83059,2,0,L|512:160,1,28.125
128,192,83166,2,0,L|120:160,1,28.125
264,192,83273,6,0,L|256:160,1,28.125
136,192,83380,2,0,L|128:160,1,28.125
8,192,83487,2,0,L|0:160,1,28.125
384,192,83594,2,0,L|392:160,1,28.125
32,88,83702,6,0,L|32:56,1,28.125
288,88,83809,6,0,L|288:56,1,28.125
96,88,83916,6,0,L|96:56,1,28.125
352,88,84023,6,0,L|352:56,1,28.125
160,88,84130,6,0,L|160:56,1,28.125
416,88,84237,6,0,L|416:56,1,28.125
224,88,84345,6,0,L|224:56,1,28.125
480,88,84452,6,0,L|480:56,1,28.125
256,192,84559,5,0,0:0:0:0:
64,192,85845,6,0,L|32:192,1,28.125
240,192,85952,2,0,L|272:192,1,28.125
414,192,86059,2,0,L|480:192,1,65.625
296,192,86273,6,0,L|248:136,1,65.625
64,144,86488,2,0,P|32:192|64:232,1,112.5
248,232,86836,2,0,L|304:264,1,56.25
488,264,87023,2,0,L|488:232,1,28.125
256,192,87130,5,0,0:0:0:0:
144,192,87452,1,0,0:0:0:0:
32,192,87773,1,0,0:0:0:0:
144,192,88095,2,0,L|176:192,1,28.125
408,192,88202,5,0,0:0:0:0:
480,192,88416,1,0,0:0:0:0:
368,192,88738,2,0,L|336:192,1,28.125
128,192,88845,5,0,0:0:0:0:
88,192,88952,1,0,0:0:0:0:
128,192,89059,1,0,0:0:0:0:
168,192,89166,1,0,0:0:0:0:
