osu file format v14

[General]
AudioFilename: audio.mp3
AudioLeadIn: 0
PreviewTime: -1
Countdown: 1
SampleSet: Normal
StackLeniency: 0.7
Mode: 1
LetterboxInBreaks: 0
WidescreenStoryboard: 0

[Editor]
DistanceSpacing: 1
BeatDivisor: 4
GridSize: 32
TimelineZoom: 1.9

[Metadata]
Title:Shun no Shifudo o Ikashita Kare Fumi Paeria
TitleUnicode:Shun no Shifudo o Ikashita Kare Fumi Paeria
Artist:Camellia
ArtistUnicode:Camellia
Creator:driodx
Version:Octoni
Source:
Tags:camellia driodx octoni shun no shifudo
BeatmapID:1895700
BeatmapSetID:908452

[Difficulty]
HPDrainRate:5.5
CircleSize:5
OverallDifficulty:6.5
ApproachRate:5
SliderMultiplier:1.4
SliderTickRate:1

[Events]
//Background and Video events
//Break Periods
//Storyboard Layer 0 (Background)
//Storyboard Layer 1 (Fail)
//Storyboard Layer 2 (Pass)
//Storyboard Layer 3 (Foreground)
//Storyboard Sound Samples

[TimingPoints]
278,272.727272727273,4,1,0,100,1,0
35187,-90.9090909090909,4,1,0,100,0,0
39550,-90.0900900900901,4,1,0,100,0,0
39687,-89.2857142857143,4,1,0,100,0,0
39823,-88.4955752212389,4,1,0,100,0,0
39959,-87.719298245614,4,1,0,100,0,0
40096,-86.9565217391304,4,1,0,100,0,0
40232,-86.2068965517241,4,1,0,100,0,0
40368,-85.4700854700855,4,1,0,100,0,0
40505,-84.7457627118644,4,1,0,100,0,0
40641,-84.0336134453781,4,1,0,100,0,0
40778,-83.3333333333333,4,1,0,100,0,0
40914,-82.6446280991736,4,1,0,100,0,0
41050,-81.9672131147541,4,1,0,100,0,0
41187,-81.3008130081301,4,1,0,100,0,0
41323,-80.6451612903226,4,1,0,100,0,0
41459,-80,4,1,0,100,0,0
41596,-79.3650793650794,4,1,0,100,0,0
41732,-78.7401574803149,4,1,0,100,0,0
42005,-84.7457627118644,4,1,0,100,0,0
42278,-91.743119266055,4,1,0,100,0,0
42550,-100,4,1,0,100,0,0
43914,-86.9565217391304,4,1,0,100,0,0
61385,-76.9230769230769,4,1,0,100,0,0
65732,-86.9565217391304,4,1,0,100,0,0
70113,-76.9230769230769,4,1,0,100,0,0
74459,-86.9565217391304,4,1,0,100,0,0
78823,-90.9090909090909,4,1,0,100,0,0
83186,-90.0900900900901,4,1,0,100,0,0
83323,-89.2857142857143,4,1,0,100,0,0
83459,-88.4955752212389,4,1,0,100,0,0
83595,-87.719298245614,4,1,0,100,0,0
83732,-86.9565217391304,4,1,0,100,0,0
83868,-86.2068965517241,4,1,0,100,0,0
84004,-85.4700854700855,4,1,0,100,0,0
84141,-84.7457627118644,4,1,0,100,0,0
84277,-84.0336134453781,4,1,0,100,0,0
84414,-83.3333333333333,4,1,0,100,0,0
84550,-82.6446280991736,4,1,0,100,0,0
84686,-81.9672131147541,4,1,0,100,0,0
84823,-81.3008130081301,4,1,0,100,0,0
84959,-80.6451612903226,4,1,0,100,0,0
85095,-80,4,1,0,100,0,0
85232,-79.3650793650794,4,1,0,100,0,0
85368,-78.7401574803149,4,1,0,100,0,0
85641,-84.7457627118644,4,1,0,100,0,0
85914,-91.743119266055,4,1,0,100,0,0
86186,-100,4,1,0,100,0,0
87550,-83.3333333333333,4,1,0,100,0,0
88096,-83.3333333333333,4,1,0,100,0,1
91914,-80,4,1,0,100,0,1
96278,-83.3333333333333,4,1,0,100,0,1
100641,-80,4,1,0,100,0,1
105005,-66.6666666666667,4,1,0,100,0,0
107596,-68.9655172413793,4,1,0,100,0,0
107732,-71.4285714285714,4,1,0,100,0,0
107868,-74.0740740740741,4,1,0,100,0,0
108005,-76.9230769230769,4,1,0,100,0,0
108141,-80,4,1,0,100,0,0
108278,-83.3333333333333,4,1,0,100,0,0
108414,-86.9565217391304,4,1,0,100,0,0
108550,-90.9090909090909,4,1,0,100,0,0
108687,-95.2380952380952,4,1,0,100,0,0
108823,-100,4,1,0,100,0,0
109368,-76.9230769230769,4,1,0,100,0,1
122459,-100,4,1,0,100,0,0
174823,400,4,1,0,100,1,0
174823,-100,4,1,0,100,0,0
181223,-95.2380952380952,4,1,0,100,0,0
181623,-90.9090909090909,4,1,0,100,0,0
182023,-86.9565217391304,4,1,0,100,0,0
182423,-83.3333333333333,4,1,0,100,0,0
182823,-80,4,1,0,100,0,0
183223,-76.9230769230769,4,1,0,100,0,0
183623,-74.0740740740741,4,1,0,100,0,0
184023,-71.4285714285714,4,1,0,100,0,0
184423,200,4,1,0,100,1,0
187623,-100,4,1,0,100,0,1
200423,-100,4,1,0,100,0,0
201623,-100,4,1,0,100,0,1
206823,-100,4,1,0,100,0,0
216423,-100,4,1,0,100,0,1
225623,-100,4,1,0,100,0,0
225673,-98.0392156862745,4,1,0,100,0,0
225723,-96.1538461538461,4,1,0,100,0,0
225773,-94.3396226415094,4,1,0,100,0,0
225823,-92.5925925925926,4,1,0,100,0,0
225873,-90.9090909090909,4,1,0,100,0,0
225923,-89.2857142857143,4,1,0,100,0,0
225973,-87.719298245614,4,1,0,100,0,0
226023,-86.2068965517241,4,1,0,100,0,1
238823,400,4,1,0,100,1,0
238823,-50,4,1,0,100,0,0
238848,-100,4,1,0,100,0,0
261223,444.444444444444,4,1,0,100,1,0
263000,600,4,1,0,100,1,0
264200,800,4,1,0,100,1,0

[HitObjects]
320,128,278,5,6,0:0:0:0:
320,256,550,1,2,0:0:0:0:
192,256,687,1,0,0:0:0:0:
320,256,823,1,2,0:0:0:0:
320,256,1096,1,2,0:0:0:0:
320,256,1368,1,2,0:0:0:0:
192,256,1505,1,0,0:0:0:0:
320,256,1641,1,2,0:0:0:0:
320,256,1914,1,2,0:0:0:0:
320,256,2187,1,2,0:0:0:0:
320,256,2459,1,2,0:0:0:0:
320,256,2732,1,2,0:0:0:0:
192,256,2868,1,0,0:0:0:0:
320,256,3005,1,2,0:0:0:0:
320,256,3278,1,2,0:0:0:0:
320,256,3550,1,2,0:0:0:0:
192,256,3687,1,0,0:0:0:0:
320,256,3823,1,2,0:0:0:0:
320,256,4096,1,2,0:0:0:0:
320,256,4368,1,2,0:0:0:0:
320,256,4641,1,2,0:0:0:0:
320,256,4778,1,0,0:0:0:0:
320,256,4914,1,2,0:0:0:0:
320,256,5187,1,2,0:0:0:0:
192,256,5459,1,0,0:0:0:0:
320,256,5596,1,2,0:0:0:0:
192,256,5732,1,0,0:0:0:0:
192,256,5868,1,0,0:0:0:0:
320,256,6005,1,2,0:0:0:0:
320,256,6278,1,2,0:0:0:0:
320,256,6550,1,2,0:0:0:0:
320,256,6823,1,2,0:0:0:0:
192,256,6959,1,0,0:0:0:0:
320,256,7096,1,2,0:0:0:0:
192,256,7232,1,0,0:0:0:0:
320,256,7368,1,2,0:0:0:0:
320,256,7641,1,2,0:0:0:0:
320,256,7914,1,2,0:0:0:0:
192,256,8050,1,0,0:0:0:0:
320,256,8187,1,2,0:0:0:0:
320,256,8323,1,2,0:0:0:0:
320,256,8459,1,2,0:0:0:0:
320,256,8732,1,2,0:0:0:0:
192,256,9005,1,0,0:0:0:0:
192,256,9278,1,0,0:0:0:0:
192,256,9414,1,0,0:0:0:0:
320,256,9550,1,2,0:0:0:0:
192,256,9823,1,0,0:0:0:0:
192,256,10096,1,0,0:0:0:0:
192,256,10232,1,0,0:0:0:0:
192,256,10368,1,0,0:0:0:0:
192,256,10505,1,0,0:0:0:0:
320,256,10641,1,2,0:0:0:0:
320,256,10914,1,2,0:0:0:0:
192,256,11187,1,0,0:0:0:0:
192,256,11459,1,0,0:0:0:0:
192,256,11596,1,0,0:0:0:0:
320,256,11732,1,2,0:0:0:0:
320,256,12005,1,2,0:0:0:0:
320,256,12278,1,2,0:0:0:0:
320,256,12414,1,2,0:0:0:0:
320,256,12550,1,2,0:0:0:0:
320,256,12687,1,2,0:0:0:0:
192,256,12823,1,0,0:0:0:0:
192,256,13096,1,0,0:0:0:0:
320,256,13368,1,2,0:0:0:0:
320,256,13641,1,2,0:0:0:0:
192,256,13778,1,0,0:0:0:0:
320,256,13914,1,2,0:0:0:0:
320,256,14187,1,2,0:0:0:0:
192,256,14459,1,0,0:0:0:0:
192,256,14596,1,0,0:0:0:0:
192,256,14732,1,0,0:0:0:0:
192,256,14868,1,0,0:0:0:0:
320,256,15005,1,2,0:0:0:0:
320,256,15278,1,2,0:0:0:0:
320,256,15550,1,2,0:0:0:0:
320,256,15823,1,2,0:0:0:0:
320,256,15959,1,2,0:0:0:0:
320,256,16096,1,2,0:0:0:0:
320,256,16368,1,2,0:0:0:0:
192,256,16641,1,0,0:0:0:0:
320,256,16778,1,2,0:0:0:0:
192,256,16914,1,0,0:0:0:0:
320,256,17050,1,2,0:0:0:0:
320,256,17187,1,2,0:0:0:0:
320,256,17459,1,2,0:0:0:0:
192,128,17732,1,4,0:0:0:0:
192,256,17868,1,0,0:0:0:0:
192,256,18005,1,0,0:0:0:0:
192,256,18141,1,0,0:0:0:0:
320,256,18278,1,2,0:0:0:0:
192,256,18550,1,0,0:0:0:0:
192,256,18823,1,0,0:0:0:0:
192,256,18959,1,0,0:0:0:0:
192,256,19096,1,0,0:0:0:0:
320,256,19368,1,2,0:0:0:0:
192,256,19641,1,0,0:0:0:0:
192,256,19914,1,0,0:0:0:0:
192,256,20050,1,0,0:0:0:0:
192,256,20187,1,0,0:0:0:0:
192,256,20323,1,0,0:0:0:0:
320,256,20459,1,2,0:0:0:0:
192,256,20732,1,0,0:0:0:0:
320,256,21005,1,2,0:0:0:0:
192,256,21141,1,0,0:0:0:0:
320,256,21278,1,2,0:0:0:0:
320,256,21414,1,2,0:0:0:0:
320,256,21550,1,2,0:0:0:0:
192,256,21823,1,0,0:0:0:0:
192,256,22096,1,0,0:0:0:0:
192,256,22368,1,0,0:0:0:0:
192,256,22505,1,0,0:0:0:0:
320,256,22641,1,2,0:0:0:0:
192,256,22914,1,0,0:0:0:0:
192,256,23187,1,0,0:0:0:0:
320,256,23323,1,2,0:0:0:0:
192,256,23459,1,0,0:0:0:0:
192,256,23596,1,0,0:0:0:0:
320,256,23732,1,2,0:0:0:0:
192,256,24005,1,0,0:0:0:0:
320,256,24278,1,2,0:0:0:0:
320,256,24550,1,2,0:0:0:0:
320,256,24687,1,2,0:0:0:0:
320,256,24823,1,2,0:0:0:0:
320,256,25096,1,2,0:0:0:0:
192,256,25368,1,0,0:0:0:0:
320,256,25505,1,2,0:0:0:0:
192,256,25641,1,0,0:0:0:0:
320,256,25778,1,2,0:0:0:0:
320,256,25914,1,2,0:0:0:0:
192,256,26187,1,0,0:0:0:0:
192,128,26459,1,4,0:0:0:0:
192,256,26596,1,0,0:0:0:0:
192,256,26732,1,0,0:0:0:0:
192,256,26868,1,0,0:0:0:0:
320,256,27005,1,2,0:0:0:0:
192,256,27141,1,0,0:0:0:0:
192,256,27278,1,0,0:0:0:0:
192,256,27414,1,0,0:0:0:0:
192,256,27550,1,0,0:0:0:0:
192,256,27687,1,0,0:0:0:0:
192,256,27823,1,0,0:0:0:0:
192,256,27959,1,0,0:0:0:0:
320,256,28096,1,2,0:0:0:0:
192,256,28368,1,0,0:0:0:0:
192,256,28641,1,0,0:0:0:0:
320,256,28778,1,2,0:0:0:0:
192,256,28914,1,0,0:0:0:0:
320,256,29050,1,2,0:0:0:0:
320,256,29187,1,2,0:0:0:0:
192,256,29459,1,0,0:0:0:0:
320,256,29596,1,2,0:0:0:0:
192,256,29732,1,0,0:0:0:0:
320,256,29868,1,2,0:0:0:0:
320,256,30005,1,2,0:0:0:0:
320,256,30278,1,2,0:0:0:0:
192,256,30550,1,0,0:0:0:0:
192,256,30823,1,0,0:0:0:0:
320,256,30959,1,2,0:0:0:0:
320,256,31096,1,2,0:0:0:0:
320,256,31232,1,2,0:0:0:0:
320,256,31368,1,2,0:0:0:0:
192,256,31641,1,0,0:0:0:0:
320,256,31778,1,2,0:0:0:0:
320,256,31914,1,2,0:0:0:0:
320,256,32050,1,2,0:0:0:0:
320,256,32187,1,2,0:0:0:0:
192,256,32459,1,0,0:0:0:0:
320,256,32732,1,2,0:0:0:0:
192,256,33005,1,0,0:0:0:0:
192,256,33141,1,0,0:0:0:0:
320,256,33278,1,2,0:0:0:0:
320,256,33414,1,2,0:0:0:0:
320,256,33550,1,2,0:0:0:0:
192,256,33823,1,0,0:0:0:0:
192,256,33959,1,0,0:0:0:0:
320,256,34096,1,2,0:0:0:0:
320,256,34232,1,2,0:0:0:0:
320,256,34368,1,2,0:0:0:0:
192,256,34641,1,0,0:0:0:0:
320,256,34914,1,2,0:0:0:0:
192,128,35187,5,4,0:0:0:0:
320,256,35323,1,2,0:0:0:0:
320,256,35391,1,2,0:0:0:0:
320,256,35459,1,2,0:0:0:0:
320,256,35596,1,2,0:0:0:0:
320,256,35664,1,2,0:0:0:0:
192,256,35732,1,0,0:0:0:0:
320,256,35868,1,2,0:0:0:0:
320,256,35937,1,2,0:0:0:0:
192,256,36005,1,0,0:0:0:0:
320,256,36141,1,2,0:0:0:0:
192,256,36209,1,0,0:0:0:0:
192,256,36278,1,0,0:0:0:0:
320,256,36414,1,2,0:0:0:0:
192,256,36482,1,0,0:0:0:0:
192,256,36550,1,0,0:0:0:0:
192,256,36687,1,0,0:0:0:0:
192,256,36755,1,0,0:0:0:0:
192,256,36823,1,0,0:0:0:0:
192,256,36959,1,0,0:0:0:0:
192,256,37028,1,0,0:0:0:0:
320,256,37096,1,2,0:0:0:0:
320,256,37232,1,2,0:0:0:0:
320,256,37300,1,2,0:0:0:0:
320,256,37368,1,2,0:0:0:0:
320,256,37505,1,2,0:0:0:0:
320,256,37573,1,2,0:0:0:0:
192,256,37641,1,0,0:0:0:0:
320,256,37777,1,2,0:0:0:0:
320,256,37846,1,2,0:0:0:0:
192,256,37914,1,0,0:0:0:0:
320,256,38050,1,2,0:0:0:0:
192,256,38118,1,0,0:0:0:0:
192,256,38187,1,0,0:0:0:0:
320,256,38323,1,2,0:0:0:0:
192,256,38391,1,0,0:0:0:0:
192,256,38459,1,0,0:0:0:0:
192,256,38596,1,0,0:0:0:0:
192,256,38664,1,0,0:0:0:0:
192,256,38732,1,0,0:0:0:0:
192,256,38868,1,0,0:0:0:0:
192,256,38937,1,0,0:0:0:0:
320,256,39005,1,2,0:0:0:0:
192,256,39141,1,0,0:0:0:0:
192,256,39209,1,0,0:0:0:0:
192,256,39278,1,0,0:0:0:0:
192,256,39414,1,0,0:0:0:0:
192,256,39482,1,0,0:0:0:0:
192,256,39550,1,0,0:0:0:0:
192,256,39618,1,0,0:0:0:0:
192,256,39687,1,0,0:0:0:0:
192,256,39755,1,0,0:0:0:0:
320,256,39823,1,2,0:0:0:0:
320,256,39891,1,2,0:0:0:0:
192,256,39959,1,0,0:0:0:0:
192,256,40028,1,0,0:0:0:0:
320,256,40096,1,2,0:0:0:0:
320,256,40164,1,2,0:0:0:0:
192,256,40232,1,0,0:0:0:0:
192,256,40300,1,0,0:0:0:0:
320,256,40368,1,2,0:0:0:0:
320,256,40437,1,2,0:0:0:0:
192,256,40505,1,0,0:0:0:0:
192,256,40573,1,0,0:0:0:0:
192,256,40641,1,0,0:0:0:0:
192,256,40709,1,0,0:0:0:0:
320,256,40778,1,2,0:0:0:0:
320,256,40846,1,2,0:0:0:0:
192,256,40914,1,0,0:0:0:0:
192,256,40982,1,0,0:0:0:0:
320,256,41050,1,2,0:0:0:0:
320,256,41118,1,2,0:0:0:0:
192,256,41187,1,0,0:0:0:0:
192,256,41255,1,0,0:0:0:0:
320,256,41323,1,2,0:0:0:0:
320,256,41391,1,2,0:0:0:0:
192,256,41459,1,0,0:0:0:0:
192,256,41528,1,0,0:0:0:0:
320,256,41596,1,2,0:0:0:0:
320,256,41664,1,2,0:0:0:0:
192,256,41732,1,0,0:0:0:0:
192,256,41778,1,0,0:0:0:0:
192,256,41823,1,0,0:0:0:0:
192,256,41868,1,0,0:0:0:0:
320,256,42005,1,2,0:0:0:0:
320,256,42050,1,2,0:0:0:0:
320,256,42096,1,2,0:0:0:0:
320,256,42141,1,2,0:0:0:0:
192,256,42278,1,0,0:0:0:0:
192,256,42323,1,0,0:0:0:0:
192,256,42368,1,0,0:0:0:0:
192,256,42414,1,0,0:0:0:0:
320,256,42550,1,2,0:0:0:0:
320,256,42596,1,2,0:0:0:0:
320,256,42641,1,2,0:0:0:0:
320,256,42687,1,2,0:0:0:0:
192,128,43914,5,4,0:0:0:0:
192,256,44323,1,0,0:0:0:0:
320,256,44459,1,2,0:0:0:0:
192,256,44596,1,0,0:0:0:0:
192,256,44732,1,0,0:0:0:0:
192,256,45141,1,0,0:0:0:0:
192,256,45278,1,0,0:0:0:0:
192,256,45414,1,0,0:0:0:0:
320,256,45550,1,2,0:0:0:0:
192,256,45823,1,0,0:0:0:0:
192,256,46096,1,0,0:0:0:0:
320,256,46232,1,2,0:0:0:0:
320,256,46368,1,2,0:0:0:0:
192,256,46505,1,0,0:0:0:0:
192,256,46641,1,0,0:0:0:0:
320,256,46709,1,2,0:0:0:0:
192,256,46778,1,0,0:0:0:0:
320,256,46914,1,2,0:0:0:0:
192,256,47323,1,0,0:0:0:0:
320,256,47459,1,2,0:0:0:0:
192,256,47596,1,0,0:0:0:0:
320,256,47732,1,2,0:0:0:0:
320,256,48005,1,2,0:0:0:0:
320,256,48278,1,2,0:0:0:0:
192,256,48687,1,0,0:0:0:0:
320,256,48823,1,2,0:0:0:0:
320,256,48959,1,2,0:0:0:0:
320,256,49096,1,2,0:0:0:0:
320,256,49505,1,2,0:0:0:0:
320,256,49641,1,2,0:0:0:0:
192,256,49778,1,0,0:0:0:0:
192,256,49914,1,0,0:0:0:0:
320,256,50187,1,2,0:0:0:0:
192,256,50323,1,0,0:0:0:0:
192,256,50459,1,0,0:0:0:0:
192,256,50596,1,0,0:0:0:0:
320,256,50732,1,2,0:0:0:0:
320,256,50868,1,2,0:0:0:0:
192,256,51005,1,0,0:0:0:0:
192,256,51141,1,0,0:0:0:0:
320,256,51278,1,2,0:0:0:0:
320,256,51414,1,2,0:0:0:0:
320,256,51550,1,2,0:0:0:0:
192,256,51687,1,0,0:0:0:0:
320,256,51823,1,2,0:0:0:0:
192,256,51959,1,0,0:0:0:0:
320,256,52096,1,2,0:0:0:0:
192,256,52232,1,0,0:0:0:0:
192,256,52368,1,0,0:0:0:0:
192,256,52505,1,0,0:0:0:0:
320,256,52641,1,2,0:0:0:0:
192,256,52778,1,0,0:0:0:0:
192,256,52914,1,0,0:0:0:0:
320,256,53050,1,2,0:0:0:0:
320,256,53187,1,2,0:0:0:0:
320,256,53323,1,2,0:0:0:0:
320,256,53459,1,2,0:0:0:0:
192,256,53596,1,0,0:0:0:0:
192,256,53732,1,0,0:0:0:0:
320,256,53868,1,2,0:0:0:0:
320,256,54005,1,2,0:0:0:0:
320,256,54141,1,2,0:0:0:0:
320,256,54278,1,2,0:0:0:0:
192,256,54414,1,0,0:0:0:0:
320,256,54550,1,2,0:0:0:0:
192,256,54687,1,0,0:0:0:0:
320,256,54823,1,2,0:0:0:0:
320,256,54959,1,2,0:0:0:0:
320,256,55096,1,2,0:0:0:0:
320,256,55232,1,2,0:0:0:0:
192,256,55368,1,0,0:0:0:0:
320,256,55437,1,2,0:0:0:0:
192,256,55505,1,0,0:0:0:0:
320,256,55641,1,2,0:0:0:0:
192,256,55778,1,0,0:0:0:0:
192,256,55914,1,0,0:0:0:0:
320,256,56050,1,2,0:0:0:0:
320,256,56187,1,2,0:0:0:0:
320,256,56323,1,2,0:0:0:0:
320,256,56459,1,2,0:0:0:0:
192,256,56596,1,0,0:0:0:0:
320,256,56732,1,2,0:0:0:0:
192,256,56868,1,0,0:0:0:0:
320,256,57005,1,2,0:0:0:0:
192,256,57141,1,0,0:0:0:0:
192,256,57278,1,0,0:0:0:0:
192,256,57414,1,0,0:0:0:0:
320,256,57550,1,2,0:0:0:0:
320,256,57687,1,2,0:0:0:0:
320,256,57823,1,2,0:0:0:0:
192,256,57959,1,0,0:0:0:0:
192,256,58096,1,0,0:0:0:0:
320,256,58232,1,2,0:0:0:0:
192,256,58368,1,0,0:0:0:0:
192,256,58505,1,0,0:0:0:0:
320,256,58641,1,2,0:0:0:0:
192,256,58778,1,0,0:0:0:0:
320,256,58914,1,2,0:0:0:0:
192,256,59050,1,0,0:0:0:0:
192,256,59187,1,0,0:0:0:0:
192,256,59323,1,0,0:0:0:0:
320,256,59459,1,2,0:0:0:0:
320,256,59596,1,2,0:0:0:0:
192,256,59732,1,0,0:0:0:0:
192,256,59868,1,0,0:0:0:0:
320,256,60005,1,2,0:0:0:0:
320,256,60141,1,2,0:0:0:0:
320,256,60278,1,2,0:0:0:0:
192,256,60414,1,0,0:0:0:0:
320,256,60550,1,2,0:0:0:0:
192,256,60687,1,0,0:0:0:0:
320,256,60823,1,2,0:0:0:0:
320,256,60959,1,2,0:0:0:0:
192,256,61096,1,0,0:0:0:0:
192,256,61232,1,0,0:0:0:0:
320,256,61368,1,2,0:0:0:0:
192,256,61778,1,0,0:0:0:0:
320,256,61846,1,2,0:0:0:0:
320,256,61914,1,2,0:0:0:0:
192,256,61982,1,0,0:0:0:0:
192,256,62050,1,0,0:0:0:0:
320,256,62118,1,2,0:0:0:0:
320,256,62186,1,2,0:0:0:0:
192,256,62254,1,0,0:0:0:0:
192,256,62323,1,0,0:0:0:0:
320,256,62391,1,2,0:0:0:0:
320,256,62459,1,2,0:0:0:0:
192,256,62527,1,0,0:0:0:0:
192,256,62596,1,0,0:0:0:0:
320,256,62664,1,2,0:0:0:0:
320,256,62732,1,2,0:0:0:0:
192,256,62800,1,0,0:0:0:0:
192,256,62868,1,0,0:0:0:0:
320,256,62936,1,2,0:0:0:0:
320,256,63004,1,2,0:0:0:0:
192,256,63278,1,0,0:0:0:0:
192,256,63550,1,0,0:0:0:0:
320,256,63687,1,2,0:0:0:0:
320,256,63823,1,2,0:0:0:0:
192,256,63959,1,0,0:0:0:0:
192,256,64096,1,0,0:0:0:0:
320,256,64164,1,2,0:0:0:0:
192,256,64232,1,0,0:0:0:0:
192,256,64368,1,0,0:0:0:0:
192,256,64437,1,0,0:0:0:0:
320,256,64505,1,2,0:0:0:0:
320,256,64573,1,2,0:0:0:0:
192,256,64641,1,0,0:0:0:0:
192,256,64709,1,0,0:0:0:0:
320,256,64778,1,2,0:0:0:0:
320,256,64846,1,2,0:0:0:0:
192,256,64914,1,0,0:0:0:0:
192,256,64982,1,0,0:0:0:0:
320,256,65050,1,2,0:0:0:0:
320,256,65118,1,2,0:0:0:0:
192,256,65187,1,0,0:0:0:0:
192,256,65459,1,0,0:0:0:0:
320,256,65732,1,2,0:0:0:0:
192,256,65800,1,0,0:0:0:0:
192,256,65868,1,0,0:0:0:0:
192,256,65937,1,0,0:0:0:0:
192,256,66005,1,0,0:0:0:0:
192,256,66073,1,0,0:0:0:0:
320,256,66141,1,2,0:0:0:0:
320,256,66209,1,2,0:0:0:0:
320,256,66278,1,2,0:0:0:0:
320,256,66346,1,2,0:0:0:0:
320,256,66414,1,2,0:0:0:0:
320,256,66482,1,2,0:0:0:0:
320,256,66550,1,2,0:0:0:0:
320,256,66618,1,2,0:0:0:0:
320,256,66687,1,2,0:0:0:0:
320,256,66755,1,2,0:0:0:0:
320,256,66823,1,2,0:0:0:0:
320,256,66891,1,2,0:0:0:0:
320,256,66959,1,2,0:0:0:0:
192,256,67028,1,0,0:0:0:0:
320,256,67096,1,2,0:0:0:0:
192,256,67164,1,0,0:0:0:0:
320,256,67232,1,2,0:0:0:0:
192,256,67300,1,0,0:0:0:0:
320,256,67368,1,2,0:0:0:0:
192,256,67437,1,0,0:0:0:0:
192,256,67505,1,0,0:0:0:0:
192,256,67573,1,0,0:0:0:0:
320,256,67641,1,2,0:0:0:0:
192,256,67709,1,0,0:0:0:0:
320,256,67778,1,2,0:0:0:0:
192,256,67846,1,0,0:0:0:0:
320,256,67914,1,2,0:0:0:0:
192,256,67982,1,0,0:0:0:0:
320,256,68050,1,2,0:0:0:0:
192,256,68118,1,0,0:0:0:0:
320,256,68187,1,2,0:0:0:0:
320,256,68255,1,2,0:0:0:0:
320,256,68323,1,2,0:0:0:0:
320,256,68391,1,2,0:0:0:0:
320,256,68459,1,2,0:0:0:0:
192,256,68528,1,0,0:0:0:0:
320,256,68596,1,2,0:0:0:0:
320,256,68664,1,2,0:0:0:0:
320,256,68732,1,2,0:0:0:0:
192,256,68800,1,0,0:0:0:0:
320,256,68868,1,2,0:0:0:0:
320,256,68937,1,2,0:0:0:0:
320,256,69005,1,2,0:0:0:0:
320,256,69073,1,2,0:0:0:0:
320,256,69141,1,2,0:0:0:0:
320,256,69209,1,2,0:0:0:0:
320,256,69278,1,2,0:0:0:0:
320,256,69346,1,2,0:0:0:0:
320,256,69414,1,2,0:0:0:0:
320,256,69482,1,2,0:0:0:0:
320,256,69550,1,2,0:0:0:0:
192,256,69618,1,0,0:0:0:0:
320,256,69687,1,2,0:0:0:0:
192,256,69755,1,0,0:0:0:0:
320,256,69823,1,2,0:0:0:0:
192,256,69891,1,0,0:0:0:0:
320,256,69959,1,2,0:0:0:0:
192,256,70028,1,0,0:0:0:0:
320,256,70096,1,2,0:0:0:0:
192,256,70505,1,0,0:0:0:0:
320,256,70573,1,2,0:0:0:0:
320,256,70641,1,2,0:0:0:0:
192,256,70709,1,0,0:0:0:0:
192,256,70778,1,0,0:0:0:0:
320,256,70846,1,2,0:0:0:0:
320,256,70914,1,2,0:0:0:0:
192,256,70982,1,0,0:0:0:0:
192,256,71050,1,0,0:0:0:0:
320,256,71118,1,2,0:0:0:0:
320,256,71187,1,2,0:0:0:0:
192,256,71255,1,0,0:0:0:0:
192,256,71323,1,0,0:0:0:0:
320,256,71391,1,2,0:0:0:0:
320,256,71459,1,2,0:0:0:0:
192,256,71528,1,0,0:0:0:0:
192,256,71596,1,0,0:0:0:0:
320,256,71664,1,2,0:0:0:0:
320,256,71732,1,2,0:0:0:0:
192,256,72005,1,0,0:0:0:0:
192,256,72278,1,0,0:0:0:0:
320,256,72414,1,2,0:0:0:0:
320,256,72550,1,2,0:0:0:0:
192,256,72687,1,0,0:0:0:0:
192,256,72823,1,0,0:0:0:0:
320,256,72891,1,2,0:0:0:0:
192,256,72959,1,0,0:0:0:0:
192,256,73096,1,0,0:0:0:0:
192,256,73164,1,0,0:0:0:0:
320,256,73232,1,2,0:0:0:0:
320,256,73300,1,2,0:0:0:0:
192,256,73368,1,0,0:0:0:0:
192,256,73437,1,0,0:0:0:0:
320,256,73505,1,2,0:0:0:0:
320,256,73573,1,2,0:0:0:0:
192,256,73641,1,0,0:0:0:0:
192,256,73709,1,0,0:0:0:0:
320,256,73778,1,2,0:0:0:0:
320,256,73846,1,2,0:0:0:0:
192,256,73914,1,0,0:0:0:0:
192,256,74187,1,0,0:0:0:0:
320,256,74459,1,2,0:0:0:0:
192,256,74868,1,0,0:0:0:0:
320,256,74937,1,2,0:0:0:0:
192,256,75005,1,0,0:0:0:0:
320,256,75073,1,2,0:0:0:0:
192,256,75141,1,0,0:0:0:0:
320,256,75209,1,2,0:0:0:0:
192,256,75278,1,0,0:0:0:0:
320,256,75346,1,2,0:0:0:0:
192,256,75414,1,0,0:0:0:0:
320,256,75482,1,2,0:0:0:0:
320,256,75550,1,2,0:0:0:0:
320,256,75618,1,2,0:0:0:0:
320,256,75687,1,2,0:0:0:0:
320,256,75755,1,2,0:0:0:0:
320,256,75823,1,2,0:0:0:0:
320,256,75891,1,2,0:0:0:0:
192,256,75959,1,0,0:0:0:0:
320,256,76028,1,2,0:0:0:0:
192,256,76096,1,0,0:0:0:0:
320,256,76164,1,2,0:0:0:0:
320,256,76232,1,2,0:0:0:0:
320,256,76300,1,2,0:0:0:0:
320,256,76368,1,2,0:0:0:0:
320,256,76437,1,2,0:0:0:0:
192,256,76505,1,0,0:0:0:0:
192,256,76573,1,0,0:0:0:0:
256,192,76641,12,0,77187,0:0:0:0:
256,192,77187,12,0,77732,0:0:0:0:
256,192,77732,12,0,78278,0:0:0:0:
256,192,78278,12,0,78755,0:0:0:0:
192,128,78823,5,4,0:0:0:0:
320,256,78959,1,2,0:0:0:0:
320,256,79027,1,2,0:0:0:0:
320,256,79095,1,2,0:0:0:0:
320,256,79232,1,2,0:0:0:0:
320,256,79300,1,2,0:0:0:0:
192,256,79368,1,0,0:0:0:0:
320,256,79504,1,2,0:0:0:0:
320,256,79573,1,2,0:0:0:0:
192,256,79641,1,0,0:0:0:0:
320,256,79777,1,2,0:0:0:0:
192,256,79845,1,0,0:0:0:0:
192,256,79914,1,0,0:0:0:0:
320,256,80050,1,2,0:0:0:0:
192,256,80118,1,0,0:0:0:0:
192,256,80186,1,0,0:0:0:0:
192,256,80323,1,0,0:0:0:0:
192,256,80391,1,0,0:0:0:0:
192,256,80459,1,0,0:0:0:0:
192,256,80595,1,0,0:0:0:0:
192,256,80664,1,0,0:0:0:0:
320,256,80732,1,2,0:0:0:0:
320,256,80868,1,2,0:0:0:0:
320,256,80936,1,2,0:0:0:0:
320,256,81004,1,2,0:0:0:0:
320,256,81141,1,2,0:0:0:0:
320,256,81209,1,2,0:0:0:0:
192,256,81277,1,0,0:0:0:0:
320,256,81413,1,2,0:0:0:0:
320,256,81482,1,2,0:0:0:0:
192,256,81550,1,0,0:0:0:0:
320,256,81686,1,2,0:0:0:0:
192,256,81754,1,0,0:0:0:0:
192,256,81823,1,0,0:0:0:0:
320,256,81959,1,2,0:0:0:0:
192,256,82027,1,0,0:0:0:0:
192,256,82095,1,0,0:0:0:0:
192,256,82232,1,0,0:0:0:0:
192,256,82300,1,0,0:0:0:0:
192,256,82368,1,0,0:0:0:0:
192,256,82504,1,0,0:0:0:0:
192,256,82573,1,0,0:0:0:0:
320,256,82641,1,2,0:0:0:0:
192,256,82777,1,0,0:0:0:0:
192,256,82845,1,0,0:0:0:0:
192,256,82914,1,0,0:0:0:0:
192,256,83050,1,0,0:0:0:0:
192,256,83118,1,0,0:0:0:0:
192,256,83186,1,0,0:0:0:0:
192,256,83254,1,0,0:0:0:0:
192,256,83323,1,0,0:0:0:0:
192,256,83391,1,0,0:0:0:0:
320,256,83459,1,2,0:0:0:0:
320,256,83527,1,2,0:0:0:0:
192,256,83595,1,0,0:0:0:0:
192,256,83664,1,0,0:0:0:0:
320,256,83732,1,2,0:0:0:0:
320,256,83800,1,2,0:0:0:0:
192,256,83868,1,0,0:0:0:0:
192,256,83936,1,0,0:0:0:0:
320,256,84004,1,2,0:0:0:0:
320,256,84073,1,2,0:0:0:0:
192,256,84141,1,0,0:0:0:0:
192,256,84209,1,0,0:0:0:0:
192,256,84277,1,0,0:0:0:0:
192,256,84345,1,0,0:0:0:0:
320,256,84414,1,2,0:0:0:0:
320,256,84482,1,2,0:0:0:0:
192,256,84550,1,0,0:0:0:0:
192,256,84618,1,0,0:0:0:0:
320,256,84686,1,2,0:0:0:0:
320,256,84754,1,2,0:0:0:0:
192,256,84823,1,0,0:0:0:0:
192,256,84891,1,0,0:0:0:0:
320,256,84959,1,2,0:0:0:0:
320,256,85027,1,2,0:0:0:0:
192,256,85095,1,0,0:0:0:0:
192,256,85164,1,0,0:0:0:0:
320,256,85232,1,2,0:0:0:0:
320,256,85300,1,2,0:0:0:0:
192,256,85368,1,0,0:0:0:0:
192,256,85414,1,0,0:0:0:0:
192,256,85459,1,0,0:0:0:0:
192,256,85504,1,0,0:0:0:0:
320,256,85641,1,2,0:0:0:0:
320,256,85686,1,2,0:0:0:0:
320,256,85732,1,2,0:0:0:0:
320,256,85777,1,2,0:0:0:0:
192,256,85914,1,0,0:0:0:0:
192,256,85959,1,0,0:0:0:0:
192,256,86004,1,0,0:0:0:0:
192,256,86050,1,0,0:0:0:0:
320,256,86186,1,2,0:0:0:0:
320,256,86232,1,2,0:0:0:0:
320,256,86277,1,2,0:0:0:0:
320,256,86323,1,2,0:0:0:0:
192,128,87550,5,4,0:0:0:0:
320,256,87823,1,2,0:0:0:0:
192,256,87959,1,0,0:0:0:0:
320,256,88096,1,2,0:0:0:0:
192,256,88368,1,0,0:0:0:0:
192,256,88641,1,0,0:0:0:0:
320,256,88914,1,2,0:0:0:0:
192,256,89050,1,0,0:0:0:0:
192,256,89187,1,0,0:0:0:0:
192,256,89255,1,0,0:0:0:0:
192,256,89323,1,0,0:0:0:0:
192,256,89391,1,0,0:0:0:0:
192,256,89459,1,0,0:0:0:0:
192,256,89596,1,0,0:0:0:0:
192,256,89732,1,0,0:0:0:0:
192,256,89868,1,0,0:0:0:0:
320,256,90005,1,2,0:0:0:0:
192,256,90141,1,0,0:0:0:0:
320,256,90278,1,2,0:0:0:0:
192,256,90550,1,0,0:0:0:0:
320,256,90823,1,2,0:0:0:0:
320,256,91096,1,2,0:0:0:0:
192,256,91232,1,0,0:0:0:0:
320,256,91368,1,2,0:0:0:0:
192,256,91505,1,0,0:0:0:0:
192,256,91641,1,0,0:0:0:0:
192,256,91778,1,0,0:0:0:0:
192,256,91914,1,0,0:0:0:0:
192,256,91982,1,0,0:0:0:0:
192,256,92050,1,0,0:0:0:0:
192,256,92118,1,0,0:0:0:0:
320,256,92187,1,2,0:0:0:0:
320,256,92255,1,2,0:0:0:0:
192,256,92323,1,0,0:0:0:0:
320,256,92391,1,2,0:0:0:0:
320,256,92459,1,2,0:0:0:0:
192,256,92528,1,0,0:0:0:0:
192,256,92596,1,0,0:0:0:0:
192,256,92664,1,0,0:0:0:0:
192,256,92732,1,0,0:0:0:0:
320,256,92800,1,2,0:0:0:0:
320,256,92868,1,2,0:0:0:0:
192,256,92937,1,0,0:0:0:0:
320,256,93005,1,2,0:0:0:0:
320,256,93073,1,2,0:0:0:0:
192,256,93141,1,0,0:0:0:0:
192,256,93209,1,0,0:0:0:0:
320,256,93278,1,2,0:0:0:0:
320,256,93346,1,2,0:0:0:0:
192,256,93414,1,0,0:0:0:0:
320,256,93482,1,2,0:0:0:0:
192,256,93550,1,0,0:0:0:0:
192,256,93618,1,0,0:0:0:0:
192,256,93687,1,0,0:0:0:0:
192,256,93755,1,0,0:0:0:0:
192,256,93823,1,0,0:0:0:0:
192,256,93891,1,0,0:0:0:0:
192,256,93959,1,0,0:0:0:0:
320,256,94028,1,2,0:0:0:0:
320,256,94096,1,2,0:0:0:0:
192,256,94164,1,0,0:0:0:0:
192,256,94232,1,0,0:0:0:0:
192,256,94300,1,0,0:0:0:0:
320,256,94368,1,2,0:0:0:0:
320,256,94437,1,2,0:0:0:0:
192,256,94505,1,0,0:0:0:0:
192,256,94573,1,0,0:0:0:0:
320,256,94641,1,2,0:0:0:0:
320,256,94709,1,2,0:0:0:0:
320,256,94778,1,2,0:0:0:0:
320,256,94846,1,2,0:0:0:0:
320,256,94914,1,2,0:0:0:0:
320,256,94982,1,2,0:0:0:0:
192,256,95050,1,0,0:0:0:0:
192,256,95118,1,0,0:0:0:0:
192,256,95187,1,0,0:0:0:0:
192,256,95255,1,0,0:0:0:0:
192,256,95323,1,0,0:0:0:0:
192,256,95391,1,0,0:0:0:0:
256,192,95459,12,0,95868,0:0:0:0:
192,256,96005,5,0,0:0:0:0:
192,256,96073,1,0,0:0:0:0:
192,256,96141,1,0,0:0:0:0:
192,256,96209,1,0,0:0:0:0:
192,128,96278,1,4,0:0:0:0:
320,256,96550,1,2,0:0:0:0:
192,256,96687,1,0,0:0:0:0:
192,256,96823,1,0,0:0:0:0:
192,256,97096,1,0,0:0:0:0:
320,256,97368,1,2,0:0:0:0:
320,256,97641,1,2,0:0:0:0:
192,256,97778,1,0,0:0:0:0:
192,256,97914,1,0,0:0:0:0:
192,256,97982,1,0,0:0:0:0:
192,256,98050,1,0,0:0:0:0:
192,256,98118,1,0,0:0:0:0:
192,256,98187,1,0,0:0:0:0:
320,256,98323,1,2,0:0:0:0:
192,256,98459,1,0,0:0:0:0:
192,256,98596,1,0,0:0:0:0:
320,256,98732,1,2,0:0:0:0:
192,256,98868,1,0,0:0:0:0:
320,256,99005,1,2,0:0:0:0:
192,256,99278,1,0,0:0:0:0:
320,256,99550,1,2,0:0:0:0:
192,256,99823,1,0,0:0:0:0:
320,256,99959,1,2,0:0:0:0:
320,256,100096,1,2,0:0:0:0:
192,256,100232,1,0,0:0:0:0:
192,256,100368,1,0,0:0:0:0:
320,256,100505,1,2,0:0:0:0:
192,256,100641,1,0,0:0:0:0:
192,256,100709,1,0,0:0:0:0:
192,256,100778,1,0,0:0:0:0:
192,256,100846,1,0,0:0:0:0:
320,256,100914,1,2,0:0:0:0:
320,256,100982,1,2,0:0:0:0:
192,256,101050,1,0,0:0:0:0:
192,256,101118,1,0,0:0:0:0:
192,256,101187,1,0,0:0:0:0:
192,256,101255,1,0,0:0:0:0:
320,256,101323,1,2,0:0:0:0:
320,256,101391,1,2,0:0:0:0:
192,256,101459,1,0,0:0:0:0:
192,256,101528,1,0,0:0:0:0:
192,256,101596,1,0,0:0:0:0:
192,256,101664,1,0,0:0:0:0:
320,256,101732,1,2,0:0:0:0:
320,256,101800,1,2,0:0:0:0:
192,256,101868,1,0,0:0:0:0:
192,256,101937,1,0,0:0:0:0:
320,256,102005,1,2,0:0:0:0:
320,256,102073,1,2,0:0:0:0:
192,256,102141,1,0,0:0:0:0:
192,256,102209,1,0,0:0:0:0:
320,256,102278,1,2,0:0:0:0:
320,256,102346,1,2,0:0:0:0:
320,256,102414,1,2,0:0:0:0:
320,256,102482,1,2,0:0:0:0:
192,256,102550,1,0,0:0:0:0:
320,256,102618,1,2,0:0:0:0:
192,256,102687,1,0,0:0:0:0:
320,256,102755,1,2,0:0:0:0:
192,256,102823,1,0,0:0:0:0:
192,256,102891,1,0,0:0:0:0:
192,256,102959,1,0,0:0:0:0:
320,256,103028,1,2,0:0:0:0:
320,256,103096,1,2,0:0:0:0:
320,256,103164,1,2,0:0:0:0:
320,256,103232,1,2,0:0:0:0:
192,256,103300,1,0,0:0:0:0:
320,256,103368,1,2,0:0:0:0:
320,256,103437,1,2,0:0:0:0:
320,256,103505,1,2,0:0:0:0:
320,256,103573,1,2,0:0:0:0:
320,256,103641,1,2,0:0:0:0:
192,256,103709,1,0,0:0:0:0:
320,256,103778,1,2,0:0:0:0:
192,256,103846,1,0,0:0:0:0:
192,256,103914,1,0,0:0:0:0:
320,256,103982,1,2,0:0:0:0:
320,256,104050,1,2,0:0:0:0:
320,256,104118,1,2,0:0:0:0:
192,256,104187,1,0,0:0:0:0:
192,256,104255,1,0,0:0:0:0:
192,256,104323,1,0,0:0:0:0:
192,256,104391,1,0,0:0:0:0:
320,256,104459,1,2,0:0:0:0:
192,256,104528,1,0,0:0:0:0:
192,256,104596,1,0,0:0:0:0:
192,256,104664,1,0,0:0:0:0:
192,256,104732,1,0,0:0:0:0:
320,256,104800,1,2,0:0:0:0:
320,256,104868,1,2,0:0:0:0:
320,256,104937,1,2,0:0:0:0:
320,128,105005,1,6,0:0:0:0:
320,256,105141,1,2,0:0:0:0:
320,256,105278,1,2,0:0:0:0:
320,256,105550,1,2,0:0:0:0:
320,256,105687,1,2,0:0:0:0:
320,256,105823,1,2,0:0:0:0:
320,256,106096,1,2,0:0:0:0:
320,256,106232,1,2,0:0:0:0:
320,256,106368,1,2,0:0:0:0:
320,256,106641,1,2,0:0:0:0:
320,256,106778,1,2,0:0:0:0:
320,256,106914,1,2,0:0:0:0:
320,256,107187,1,2,0:0:0:0:
320,256,107323,1,2,0:0:0:0:
320,256,107459,1,2,0:0:0:0:
192,256,107493,1,0,0:0:0:0:
192,256,107596,1,0,0:0:0:0:
320,256,107630,1,2,0:0:0:0:
320,256,107732,1,2,0:0:0:0:
192,256,107766,1,0,0:0:0:0:
192,256,107869,1,0,0:0:0:0:
320,256,107903,1,2,0:0:0:0:
320,256,108005,1,2,0:0:0:0:
192,256,108039,1,0,0:0:0:0:
192,256,108142,1,0,0:0:0:0:
320,256,108176,1,2,0:0:0:0:
320,256,108278,1,2,0:0:0:0:
192,256,108312,1,0,0:0:0:0:
192,256,108415,1,0,0:0:0:0:
320,256,108449,1,2,0:0:0:0:
320,256,108550,1,2,0:0:0:0:
192,256,108584,1,0,0:0:0:0:
192,256,108687,1,0,0:0:0:0:
320,256,108721,1,2,0:0:0:0:
192,128,108823,1,4,0:0:0:0:
192,128,109096,1,4,0:0:0:0:
192,128,109368,5,4,0:0:0:0:
192,256,109437,1,0,0:0:0:0:
192,256,109505,1,0,0:0:0:0:
192,256,109573,1,0,0:0:0:0:
320,256,109641,1,2,0:0:0:0:
192,256,109709,1,0,0:0:0:0:
320,256,109778,1,2,0:0:0:0:
320,256,109846,1,2,0:0:0:0:
320,256,109914,1,2,0:0:0:0:
320,256,109982,1,2,0:0:0:0:
192,256,110050,1,0,0:0:0:0:
192,256,110118,1,0,0:0:0:0:
192,256,110187,1,0,0:0:0:0:
192,256,110255,1,0,0:0:0:0:
192,256,110323,1,0,0:0:0:0:
320,256,110391,1,2,0:0:0:0:
320,256,110459,1,2,0:0:0:0:
320,256,110528,1,2,0:0:0:0:
192,256,110596,1,0,0:0:0:0:
192,256,110664,1,0,0:0:0:0:
320,256,110732,1,2,0:0:0:0:
320,256,110800,1,2,0:0:0:0:
192,256,110868,1,0,0:0:0:0:
320,256,110937,1,2,0:0:0:0:
320,256,111005,1,2,0:0:0:0:
320,256,111073,1,2,0:0:0:0:
192,256,111141,1,0,0:0:0:0:
192,256,111209,1,0,0:0:0:0:
192,256,111278,1,0,0:0:0:0:
320,256,111346,1,2,0:0:0:0:
192,256,111414,1,0,0:0:0:0:
192,256,111482,1,0,0:0:0:0:
320,256,111550,1,2,0:0:0:0:
320,256,111618,1,2,0:0:0:0:
192,256,111687,1,0,0:0:0:0:
192,256,111755,1,0,0:0:0:0:
192,256,111823,1,0,0:0:0:0:
192,256,111891,1,0,0:0:0:0:
192,256,111959,1,0,0:0:0:0:
192,256,112028,1,0,0:0:0:0:
320,256,112096,1,2,0:0:0:0:
320,256,112164,1,2,0:0:0:0:
320,256,112232,1,2,0:0:0:0:
320,256,112300,1,2,0:0:0:0:
320,256,112368,1,2,0:0:0:0:
192,256,112437,1,0,0:0:0:0:
192,256,112505,1,0,0:0:0:0:
192,256,112573,1,0,0:0:0:0:
192,256,112641,1,0,0:0:0:0:
192,256,112709,1,0,0:0:0:0:
192,256,112778,1,0,0:0:0:0:
192,256,112846,1,0,0:0:0:0:
256,192,112914,12,0,113255,0:0:0:0:
320,256,113323,5,2,0:0:0:0:
320,256,113391,1,2,0:0:0:0:
192,256,113459,1,0,0:0:0:0:
192,256,113528,1,0,0:0:0:0:
192,256,113596,1,0,0:0:0:0:
192,256,113664,1,0,0:0:0:0:
192,128,113732,1,4,0:0:0:0:
320,256,113868,1,2,0:0:0:0:
320,256,113936,1,2,0:0:0:0:
320,256,114004,1,2,0:0:0:0:
192,256,114141,1,0,0:0:0:0:
320,256,114209,1,2,0:0:0:0:
192,256,114277,1,0,0:0:0:0:
320,256,114413,1,2,0:0:0:0:
320,256,114482,1,2,0:0:0:0:
192,256,114550,1,0,0:0:0:0:
320,256,114686,1,2,0:0:0:0:
192,256,114754,1,0,0:0:0:0:
320,256,114823,1,2,0:0:0:0:
320,256,114959,1,2,0:0:0:0:
192,256,115027,1,0,0:0:0:0:
320,256,115096,1,2,0:0:0:0:
192,256,115232,1,0,0:0:0:0:
192,256,115300,1,0,0:0:0:0:
192,256,115368,1,0,0:0:0:0:
192,256,115504,1,0,0:0:0:0:
192,256,115573,1,0,0:0:0:0:
192,256,115641,1,0,0:0:0:0:
320,256,115777,1,2,0:0:0:0:
320,256,115845,1,2,0:0:0:0:
192,256,115914,1,0,0:0:0:0:
320,256,116050,1,2,0:0:0:0:
320,256,116118,1,2,0:0:0:0:
320,256,116187,1,2,0:0:0:0:
320,256,116322,1,2,0:0:0:0:
320,256,116391,1,2,0:0:0:0:
192,256,116459,1,0,0:0:0:0:
320,256,116595,1,2,0:0:0:0:
192,256,116663,1,0,0:0:0:0:
192,256,116732,1,0,0:0:0:0:
320,256,116868,1,2,0:0:0:0:
192,256,116936,1,0,0:0:0:0:
320,256,117005,1,2,0:0:0:0:
192,256,117141,1,0,0:0:0:0:
192,256,117209,1,0,0:0:0:0:
192,256,117277,1,0,0:0:0:0:
320,256,117414,1,2,0:0:0:0:
192,256,117482,1,0,0:0:0:0:
320,256,117550,1,2,0:0:0:0:
192,256,117686,1,0,0:0:0:0:
192,256,117754,1,0,0:0:0:0:
192,256,117823,1,0,0:0:0:0:
320,256,117959,1,2,0:0:0:0:
192,256,118028,1,0,0:0:0:0:
192,256,118096,1,0,0:0:0:0:
192,256,118164,1,0,0:0:0:0:
192,256,118232,1,0,0:0:0:0:
320,256,118300,1,2,0:0:0:0:
320,256,118368,1,2,0:0:0:0:
192,256,118437,1,0,0:0:0:0:
320,256,118505,1,2,0:0:0:0:
192,256,118573,1,0,0:0:0:0:
320,256,118641,1,2,0:0:0:0:
320,256,118709,1,2,0:0:0:0:
192,256,118778,1,0,0:0:0:0:
320,256,118846,1,2,0:0:0:0:
320,256,118914,1,2,0:0:0:0:
192,256,118982,1,0,0:0:0:0:
192,256,119050,1,0,0:0:0:0:
192,256,119118,1,0,0:0:0:0:
320,256,119187,1,2,0:0:0:0:
320,256,119255,1,2,0:0:0:0:
320,256,119323,1,2,0:0:0:0:
192,256,119391,1,0,0:0:0:0:
320,256,119459,1,2,0:0:0:0:
192,256,119528,1,0,0:0:0:0:
320,256,119596,1,2,0:0:0:0:
192,256,119664,1,0,0:0:0:0:
320,256,119732,1,2,0:0:0:0:
320,256,119800,1,2,0:0:0:0:
192,256,119868,1,0,0:0:0:0:
192,256,119937,1,0,0:0:0:0:
320,256,120005,1,2,0:0:0:0:
192,256,120073,1,0,0:0:0:0:
320,256,120141,1,2,0:0:0:0:
320,256,120209,1,2,0:0:0:0:
192,128,120278,1,4,0:0:0:0:
192,128,120823,1,4,0:0:0:0:
192,128,121368,1,4,0:0:0:0:
256,192,121914,12,4,122323,0:0:0:0:
320,256,122459,5,2,0:0:0:0:
320,256,122732,1,2,0:0:0:0:
192,256,122868,1,0,0:0:0:0:
320,256,123005,1,2,0:0:0:0:
320,256,123278,1,2,0:0:0:0:
320,256,123550,1,2,0:0:0:0:
320,256,123687,1,2,0:0:0:0:
320,256,123823,1,2,0:0:0:0:
192,256,123959,1,0,0:0:0:0:
320,256,124096,1,2,0:0:0:0:
320,256,124368,1,2,0:0:0:0:
320,256,124641,1,2,0:0:0:0:
192,256,124778,1,0,0:0:0:0:
320,256,124914,1,2,0:0:0:0:
320,256,125187,1,2,0:0:0:0:
320,256,125459,1,2,0:0:0:0:
320,256,125732,1,2,0:0:0:0:
192,256,125868,1,0,0:0:0:0:
320,256,126005,1,2,0:0:0:0:
192,256,126141,1,0,0:0:0:0:
320,256,126278,1,2,0:0:0:0:
320,256,126550,1,2,0:0:0:0:
320,256,126823,1,2,0:0:0:0:
192,256,126959,1,0,0:0:0:0:
320,256,127096,1,2,0:0:0:0:
320,256,127368,1,2,0:0:0:0:
320,256,127641,1,2,0:0:0:0:
192,256,127778,1,0,0:0:0:0:
320,256,127914,1,2,0:0:0:0:
192,256,128050,1,0,0:0:0:0:
320,256,128187,1,2,0:0:0:0:
192,256,128323,1,0,0:0:0:0:
320,256,128459,1,2,0:0:0:0:
320,256,128732,1,2,0:0:0:0:
320,256,129005,1,2,0:0:0:0:
320,256,129278,1,2,0:0:0:0:
192,256,129414,1,0,0:0:0:0:
320,256,129550,1,2,0:0:0:0:
320,256,129823,1,2,0:0:0:0:
192,256,129959,1,0,0:0:0:0:
320,256,130096,1,2,0:0:0:0:
320,256,130368,1,2,0:0:0:0:
192,256,130505,1,0,0:0:0:0:
320,256,130641,1,2,0:0:0:0:
320,256,130914,1,2,0:0:0:0:
192,256,131050,1,0,0:0:0:0:
320,256,131187,1,2,0:0:0:0:
320,256,131459,1,2,0:0:0:0:
192,256,131596,1,0,0:0:0:0:
320,256,131732,1,2,0:0:0:0:
192,256,131868,1,0,0:0:0:0:
320,256,132005,1,2,0:0:0:0:
192,256,132141,1,0,0:0:0:0:
320,256,132278,1,2,0:0:0:0:
192,256,132414,1,0,0:0:0:0:
320,256,132550,1,2,0:0:0:0:
320,256,132823,1,2,0:0:0:0:
320,256,133096,1,2,0:0:0:0:
192,256,133232,1,0,0:0:0:0:
320,256,133368,1,2,0:0:0:0:
320,256,133641,1,2,0:0:0:0:
320,256,133914,1,2,0:0:0:0:
192,256,134050,1,0,0:0:0:0:
320,256,134187,1,2,0:0:0:0:
192,256,134323,1,0,0:0:0:0:
320,256,134459,1,2,0:0:0:0:
192,256,134732,1,0,0:0:0:0:
320,256,134868,1,2,0:0:0:0:
320,256,135005,1,2,0:0:0:0:
192,256,135141,1,0,0:0:0:0:
320,256,135278,1,2,0:0:0:0:
320,256,135414,1,2,0:0:0:0:
320,256,135550,1,2,0:0:0:0:
320,256,135823,1,2,0:0:0:0:
192,256,135959,1,0,0:0:0:0:
320,256,136096,1,2,0:0:0:0:
320,256,136368,1,2,0:0:0:0:
192,256,136505,1,0,0:0:0:0:
320,256,136641,1,2,0:0:0:0:
320,256,136914,1,2,0:0:0:0:
320,256,137187,1,2,0:0:0:0:
192,256,137323,1,0,0:0:0:0:
320,256,137459,1,2,0:0:0:0:
192,256,137596,1,0,0:0:0:0:
320,256,137732,1,2,0:0:0:0:
320,256,138005,1,2,0:0:0:0:
192,256,138141,1,0,0:0:0:0:
320,256,138278,1,2,0:0:0:0:
320,256,138550,1,2,0:0:0:0:
192,256,138823,1,0,0:0:0:0:
320,256,139096,1,2,0:0:0:0:
192,256,139232,1,0,0:0:0:0:
320,256,139368,1,2,0:0:0:0:
320,256,139641,1,2,0:0:0:0:
192,256,139778,1,0,0:0:0:0:
320,256,139914,1,2,0:0:0:0:
320,256,140050,1,2,0:0:0:0:
320,256,140187,1,2,0:0:0:0:
192,256,140323,1,0,0:0:0:0:
192,256,140459,1,0,0:0:0:0:
320,256,140732,1,2,0:0:0:0:
192,256,140868,1,0,0:0:0:0:
320,256,141005,1,2,0:0:0:0:
320,256,141278,1,2,0:0:0:0:
192,256,141414,1,0,0:0:0:0:
320,256,141550,1,2,0:0:0:0:
192,256,141687,1,0,0:0:0:0:
320,256,141823,1,2,0:0:0:0:
320,256,141959,1,2,0:0:0:0:
320,256,142096,1,2,0:0:0:0:
320,256,142368,1,2,0:0:0:0:
192,256,142505,1,0,0:0:0:0:
320,256,142641,1,2,0:0:0:0:
320,256,142914,1,2,0:0:0:0:
192,256,143050,1,0,0:0:0:0:
320,256,143187,1,2,0:0:0:0:
320,256,143459,1,2,0:0:0:0:
320,256,143732,1,2,0:0:0:0:
320,256,144005,1,2,0:0:0:0:
192,256,144141,1,0,0:0:0:0:
192,256,144278,1,0,0:0:0:0:
192,256,144550,1,0,0:0:0:0:
192,256,144687,1,0,0:0:0:0:
320,256,144823,1,2,0:0:0:0:
192,256,145096,1,0,0:0:0:0:
192,256,145368,1,0,0:0:0:0:
192,256,145505,1,0,0:0:0:0:
320,256,145641,1,2,0:0:0:0:
192,256,145914,1,0,0:0:0:0:
192,256,146050,1,0,0:0:0:0:
320,256,146187,1,2,0:0:0:0:
192,256,146459,1,0,0:0:0:0:
192,256,146596,1,0,0:0:0:0:
320,256,146732,1,2,0:0:0:0:
320,256,146868,1,2,0:0:0:0:
192,256,147005,1,0,0:0:0:0:
320,256,147141,1,2,0:0:0:0:
192,256,147278,1,0,0:0:0:0:
192,256,147414,1,0,0:0:0:0:
320,256,147550,1,2,0:0:0:0:
192,256,147823,1,0,0:0:0:0:
320,256,147959,1,2,0:0:0:0:
192,256,148096,1,0,0:0:0:0:
320,256,148232,1,2,0:0:0:0:
192,256,148368,1,0,0:0:0:0:
320,256,148505,1,2,0:0:0:0:
320,256,148641,1,2,0:0:0:0:
320,256,148914,1,2,0:0:0:0:
192,256,149050,1,0,0:0:0:0:
320,256,149187,1,2,0:0:0:0:
320,256,149459,1,2,0:0:0:0:
192,256,149596,1,0,0:0:0:0:
192,256,149732,1,0,0:0:0:0:
320,256,150005,1,2,0:0:0:0:
192,256,150141,1,0,0:0:0:0:
320,256,150278,1,2,0:0:0:0:
320,256,150550,1,2,0:0:0:0:
192,256,150687,1,0,0:0:0:0:
192,256,150823,1,0,0:0:0:0:
192,256,151096,1,0,0:0:0:0:
192,256,151232,1,0,0:0:0:0:
320,256,151368,1,2,0:0:0:0:
192,256,151641,1,0,0:0:0:0:
192,256,151778,1,0,0:0:0:0:
320,256,151914,1,2,0:0:0:0:
320,256,152187,1,2,0:0:0:0:
192,256,152323,1,0,0:0:0:0:
320,256,152459,1,2,0:0:0:0:
192,256,152732,1,0,0:0:0:0:
192,256,152868,1,0,0:0:0:0:
320,256,153005,1,2,0:0:0:0:
192,256,153141,1,0,0:0:0:0:
320,256,153278,1,2,0:0:0:0:
192,256,153414,1,0,0:0:0:0:
192,256,153550,1,0,0:0:0:0:
192,256,153687,1,0,0:0:0:0:
320,256,153823,1,2,0:0:0:0:
192,256,153959,1,0,0:0:0:0:
320,256,154096,1,2,0:0:0:0:
320,256,154232,1,2,0:0:0:0:
320,256,154368,1,2,0:0:0:0:
320,256,154641,1,2,0:0:0:0:
192,256,154914,1,0,0:0:0:0:
192,256,155050,1,0,0:0:0:0:
320,256,155187,1,2,0:0:0:0:
320,256,155459,1,2,0:0:0:0:
192,256,155596,1,0,0:0:0:0:
320,256,155732,1,2,0:0:0:0:
320,256,156005,1,2,0:0:0:0:
192,256,156141,1,0,0:0:0:0:
192,256,156278,1,0,0:0:0:0:
320,256,156550,1,2,0:0:0:0:
192,256,156687,1,0,0:0:0:0:
320,256,156823,1,2,0:0:0:0:
320,256,157096,1,2,0:0:0:0:
192,256,157232,1,0,0:0:0:0:
192,256,157368,1,0,0:0:0:0:
192,256,157641,1,0,0:0:0:0:
192,256,157778,1,0,0:0:0:0:
320,256,157914,1,2,0:0:0:0:
192,256,158187,1,0,0:0:0:0:
192,256,158323,1,0,0:0:0:0:
192,256,158459,1,0,0:0:0:0:
320,256,158732,1,2,0:0:0:0:
320,256,158868,1,2,0:0:0:0:
320,256,159005,1,2,0:0:0:0:
320,256,159278,1,2,0:0:0:0:
320,256,159414,1,2,0:0:0:0:
192,256,159550,1,0,0:0:0:0:
320,256,159687,1,2,0:0:0:0:
192,256,159823,1,0,0:0:0:0:
320,256,159959,1,2,0:0:0:0:
192,256,160096,1,0,0:0:0:0:
320,256,160232,1,2,0:0:0:0:
192,256,160368,1,0,0:0:0:0:
192,256,160505,1,0,0:0:0:0:
320,256,160641,1,2,0:0:0:0:
320,256,160914,1,2,0:0:0:0:
192,256,161050,1,0,0:0:0:0:
320,256,161187,1,2,0:0:0:0:
192,256,161459,1,0,0:0:0:0:
192,256,161732,1,0,0:0:0:0:
320,256,162005,1,2,0:0:0:0:
192,256,162141,1,0,0:0:0:0:
320,256,162278,1,2,0:0:0:0:
320,256,162550,1,2,0:0:0:0:
320,256,162823,1,2,0:0:0:0:
320,256,163096,1,2,0:0:0:0:
320,256,163368,1,2,0:0:0:0:
192,256,163641,1,0,0:0:0:0:
320,256,163709,1,2,0:0:0:0:
192,256,163778,1,0,0:0:0:0:
320,256,163914,1,2,0:0:0:0:
192,256,164187,1,0,0:0:0:0:
192,256,164459,1,0,0:0:0:0:
320,256,164732,1,2,0:0:0:0:
320,256,165005,1,2,0:0:0:0:
192,256,165073,1,0,0:0:0:0:
192,256,165141,1,0,0:0:0:0:
192,256,165278,1,0,0:0:0:0:
192,256,165414,1,0,0:0:0:0:
320,256,165550,1,2,0:0:0:0:
192,256,165687,1,0,0:0:0:0:
320,256,165823,1,2,0:0:0:0:
192,256,165959,1,0,0:0:0:0:
320,256,166096,1,2,0:0:0:0:
192,256,166368,1,0,0:0:0:0:
320,256,166641,1,2,0:0:0:0:
320,256,166914,1,2,0:0:0:0:
192,256,167050,1,0,0:0:0:0:
320,256,167187,1,2,0:0:0:0:
320,256,167459,1,2,0:0:0:0:
192,256,167596,1,0,0:0:0:0:
320,256,167732,1,2,0:0:0:0:
192,256,167868,1,0,0:0:0:0:
192,256,168005,1,0,0:0:0:0:
320,256,168141,1,2,0:0:0:0:
320,256,168278,1,2,0:0:0:0:
192,128,168687,1,4,0:0:0:0:
192,128,169096,1,4,0:0:0:0:
192,256,169368,1,0,0:0:0:0:
192,128,169505,1,4,0:0:0:0:
320,256,169641,1,2,0:0:0:0:
192,128,169914,1,4,0:0:0:0:
320,256,170187,1,2,0:0:0:0:
192,256,170255,1,0,0:0:0:0:
192,128,170323,1,4,0:0:0:0:
192,256,170459,1,0,0:0:0:0:
192,128,170732,1,4,0:0:0:0:
192,256,171005,1,0,0:0:0:0:
192,128,171141,1,4,0:0:0:0:
320,256,171278,1,2,0:0:0:0:
192,128,171550,1,4,0:0:0:0:
192,256,171618,1,0,0:0:0:0:
192,256,171687,1,0,0:0:0:0:
192,256,171823,1,0,0:0:0:0:
192,128,171959,1,4,0:0:0:0:
192,128,172368,1,4,0:0:0:0:
192,128,172778,1,4,0:0:0:0:
192,128,173187,1,4,0:0:0:0:
192,256,173459,1,0,0:0:0:0:
192,128,173596,1,4,0:0:0:0:
320,256,173732,1,2,0:0:0:0:
192,128,174005,1,4,0:0:0:0:
320,256,174278,1,2,0:0:0:0:
192,128,174414,1,4,0:0:0:0:
320,256,174550,1,2,0:0:0:0:
192,128,174823,5,4,0:0:0:0:
192,256,175023,1,0,0:0:0:0:
320,256,175223,1,2,0:0:0:0:
320,128,175623,1,6,0:0:0:0:
192,128,176023,1,4,0:0:0:0:
192,256,176223,1,0,0:0:0:0:
320,256,176423,1,2,0:0:0:0:
320,128,176823,1,6,0:0:0:0:
192,128,177223,1,4,0:0:0:0:
128,96,177623,1,6,0:0:0:0:
192,128,178023,1,4,0:0:0:0:
192,256,178223,1,0,0:0:0:0:
320,256,178423,1,2,0:0:0:0:
320,128,178823,1,6,0:0:0:0:
192,128,179223,1,4,0:0:0:0:
192,256,179423,1,0,0:0:0:0:
320,256,179623,1,2,0:0:0:0:
320,128,180023,1,6,0:0:0:0:
192,128,180423,1,4,0:0:0:0:
320,128,180823,1,6,0:0:0:0:
192,128,181223,1,4,0:0:0:0:
192,256,181323,1,0,0:0:0:0:
320,256,181423,1,2,0:0:0:0:
192,128,181623,1,4,0:0:0:0:
192,256,181723,1,0,0:0:0:0:
320,256,181823,1,2,0:0:0:0:
192,128,182023,1,4,0:0:0:0:
192,256,182123,1,0,0:0:0:0:
320,256,182223,1,2,0:0:0:0:
192,128,182423,1,4,0:0:0:0:
192,256,182523,1,0,0:0:0:0:
320,256,182623,1,2,0:0:0:0:
192,128,182823,1,4,0:0:0:0:
192,256,182923,1,0,0:0:0:0:
320,256,183023,1,2,0:0:0:0:
192,128,183223,1,4,0:0:0:0:
192,256,183323,1,0,0:0:0:0:
320,256,183423,1,2,0:0:0:0:
192,128,183623,1,4,0:0:0:0:
192,256,183723,1,0,0:0:0:0:
320,256,183823,1,2,0:0:0:0:
192,128,184023,1,4,0:0:0:0:
192,256,184123,1,0,0:0:0:0:
320,256,184223,1,2,0:0:0:0:
192,256,184423,1,0,0:0:0:0:
192,256,184473,1,0,0:0:0:0:
192,256,184523,1,0,0:0:0:0:
192,256,184573,1,0,0:0:0:0:
320,256,184623,1,2,0:0:0:0:
320,256,184673,1,2,0:0:0:0:
320,256,184723,1,2,0:0:0:0:
320,256,184773,1,2,0:0:0:0:
192,256,184823,1,0,0:0:0:0:
192,256,184873,1,0,0:0:0:0:
192,256,184923,1,0,0:0:0:0:
192,256,184973,1,0,0:0:0:0:
320,256,185023,1,2,0:0:0:0:
320,256,185073,1,2,0:0:0:0:
320,256,185123,1,2,0:0:0:0:
320,256,185173,1,2,0:0:0:0:
192,256,185223,1,0,0:0:0:0:
192,256,185273,1,0,0:0:0:0:
192,256,185323,1,0,0:0:0:0:
192,256,185373,1,0,0:0:0:0:
320,256,185423,1,2,0:0:0:0:
320,256,185473,1,2,0:0:0:0:
320,256,185523,1,2,0:0:0:0:
320,256,185573,1,2,0:0:0:0:
192,256,185623,1,0,0:0:0:0:
192,256,185673,1,0,0:0:0:0:
192,256,185723,1,0,0:0:0:0:
192,256,185773,1,0,0:0:0:0:
320,256,185823,1,2,0:0:0:0:
320,256,185873,1,2,0:0:0:0:
320,256,185923,1,2,0:0:0:0:
320,256,185973,1,2,0:0:0:0:
192,128,186023,1,4,0:0:0:0:
192,128,187623,5,4,0:0:0:0:
320,256,187723,1,2,0:0:0:0:
320,256,187823,1,2,0:0:0:0:
192,256,187923,1,0,0:0:0:0:
192,256,188023,1,0,0:0:0:0:
192,256,188123,1,0,0:0:0:0:
192,256,188223,1,0,0:0:0:0:
320,256,188323,1,2,0:0:0:0:
320,256,188423,1,2,0:0:0:0:
192,256,188523,1,0,0:0:0:0:
192,256,188623,1,0,0:0:0:0:
192,256,188723,1,0,0:0:0:0:
192,256,188823,1,0,0:0:0:0:
320,256,188923,1,2,0:0:0:0:
192,256,189023,1,0,0:0:0:0:
320,256,189123,1,2,0:0:0:0:
192,256,189223,1,0,0:0:0:0:
320,256,189323,1,2,0:0:0:0:
320,256,189423,1,2,0:0:0:0:
192,256,189523,1,0,0:0:0:0:
192,256,189623,1,0,0:0:0:0:
320,256,189673,1,2,0:0:0:0:
192,256,189723,1,0,0:0:0:0:
192,256,189823,1,0,0:0:0:0:
320,256,189923,1,2,0:0:0:0:
320,256,190023,1,2,0:0:0:0:
192,256,190123,1,0,0:0:0:0:
320,256,190223,1,2,0:0:0:0:
192,256,190323,1,0,0:0:0:0:
192,256,190423,1,0,0:0:0:0:
320,256,190523,1,2,0:0:0:0:
192,256,190623,1,0,0:0:0:0:
320,256,190723,1,2,0:0:0:0:
192,256,190823,1,0,0:0:0:0:
192,256,190923,1,0,0:0:0:0:
192,256,191023,1,0,0:0:0:0:
320,256,191123,1,2,0:0:0:0:
320,256,191223,1,2,0:0:0:0:
320,256,191323,1,2,0:0:0:0:
320,256,191423,1,2,0:0:0:0:
192,256,191523,1,0,0:0:0:0:
192,256,191623,1,0,0:0:0:0:
320,256,191723,1,2,0:0:0:0:
320,256,191823,1,2,0:0:0:0:
192,256,191923,1,0,0:0:0:0:
192,256,192023,1,0,0:0:0:0:
192,256,192123,1,0,0:0:0:0:
192,256,192223,1,0,0:0:0:0:
192,256,192323,1,0,0:0:0:0:
192,256,192423,1,0,0:0:0:0:
192,256,192523,1,0,0:0:0:0:
320,256,192623,1,2,0:0:0:0:
192,256,192723,1,0,0:0:0:0:
320,256,192823,1,2,0:0:0:0:
192,256,192923,1,0,0:0:0:0:
320,256,193023,1,2,0:0:0:0:
192,256,193123,1,0,0:0:0:0:
320,256,193223,1,2,0:0:0:0:
192,256,193323,1,0,0:0:0:0:
320,256,193423,1,2,0:0:0:0:
192,256,193523,1,0,0:0:0:0:
320,256,193623,1,2,0:0:0:0:
320,256,193723,1,2,0:0:0:0:
192,256,193823,1,0,0:0:0:0:
192,256,193923,1,0,0:0:0:0:
320,256,194023,1,2,0:0:0:0:
320,256,194123,1,2,0:0:0:0:
320,256,194223,1,2,0:0:0:0:
192,256,194323,1,0,0:0:0:0:
192,256,194423,1,0,0:0:0:0:
192,256,194523,1,0,0:0:0:0:
192,256,194623,1,0,0:0:0:0:
320,256,194723,1,2,0:0:0:0:
320,256,194823,1,2,0:0:0:0:
192,256,194923,1,0,0:0:0:0:
192,256,195023,1,0,0:0:0:0:
192,256,195123,1,0,0:0:0:0:
192,256,195223,1,0,0:0:0:0:
320,256,195323,1,2,0:0:0:0:
192,256,195423,1,0,0:0:0:0:
320,256,195523,1,2,0:0:0:0:
192,256,195623,1,0,0:0:0:0:
320,256,195723,1,2,0:0:0:0:
320,256,195823,1,2,0:0:0:0:
192,256,195923,1,0,0:0:0:0:
192,256,196023,1,0,0:0:0:0:
320,256,196073,1,2,0:0:0:0:
192,256,196123,1,0,0:0:0:0:
192,256,196223,1,0,0:0:0:0:
320,256,196323,1,2,0:0:0:0:
320,256,196423,1,2,0:0:0:0:
192,256,196523,1,0,0:0:0:0:
320,256,196623,1,2,0:0:0:0:
192,256,196723,1,0,0:0:0:0:
192,256,196823,1,0,0:0:0:0:
320,256,196923,1,2,0:0:0:0:
192,256,197023,1,0,0:0:0:0:
320,256,197123,1,2,0:0:0:0:
192,256,197223,1,0,0:0:0:0:
192,256,197323,1,0,0:0:0:0:
192,256,197423,1,0,0:0:0:0:
320,256,197523,1,2,0:0:0:0:
320,256,197623,1,2,0:0:0:0:
320,256,197723,1,2,0:0:0:0:
320,256,197823,1,2,0:0:0:0:
192,256,197923,1,0,0:0:0:0:
192,256,198023,1,0,0:0:0:0:
320,256,198123,1,2,0:0:0:0:
320,256,198223,1,2,0:0:0:0:
192,256,198323,1,0,0:0:0:0:
192,256,198423,1,0,0:0:0:0:
192,256,198523,1,0,0:0:0:0:
192,256,198623,1,0,0:0:0:0:
192,256,198723,1,0,0:0:0:0:
192,256,198823,1,0,0:0:0:0:
192,256,198923,1,0,0:0:0:0:
320,256,199023,1,2,0:0:0:0:
192,256,199123,1,0,0:0:0:0:
320,256,199223,1,2,0:0:0:0:
192,256,199323,1,0,0:0:0:0:
320,256,199423,1,2,0:0:0:0:
192,256,199523,1,0,0:0:0:0:
320,256,199623,1,2,0:0:0:0:
192,256,199723,1,0,0:0:0:0:
320,256,199823,1,2,0:0:0:0:
192,256,199923,1,0,0:0:0:0:
320,256,200023,1,2,0:0:0:0:
320,256,200123,1,2,0:0:0:0:
192,256,200223,1,0,0:0:0:0:
192,256,200323,1,0,0:0:0:0:
320,256,200423,1,2,0:0:0:0:
320,256,200723,1,2,0:0:0:0:
320,256,200823,1,2,0:0:0:0:
192,256,200923,1,0,0:0:0:0:
192,256,201023,1,0,0:0:0:0:
320,256,201123,1,2,0:0:0:0:
320,256,201223,1,2,0:0:0:0:
192,256,201323,1,0,0:0:0:0:
192,256,201423,1,0,0:0:0:0:
192,256,201523,1,0,0:0:0:0:
192,128,201623,1,4,0:0:0:0:
192,256,202023,1,0,0:0:0:0:
320,256,202123,1,2,0:0:0:0:
320,256,202223,1,2,0:0:0:0:
192,256,202323,1,0,0:0:0:0:
192,256,202423,1,0,0:0:0:0:
320,256,202473,1,2,0:0:0:0:
192,256,202523,1,0,0:0:0:0:
192,256,202623,1,0,0:0:0:0:
192,256,202673,1,0,0:0:0:0:
320,256,202723,1,2,0:0:0:0:
320,256,202773,1,2,0:0:0:0:
192,256,202823,1,0,0:0:0:0:
192,256,202873,1,0,0:0:0:0:
320,256,202923,1,2,0:0:0:0:
320,256,202973,1,2,0:0:0:0:
192,256,203023,1,0,0:0:0:0:
192,256,203073,1,0,0:0:0:0:
320,256,203123,1,2,0:0:0:0:
320,256,203173,1,2,0:0:0:0:
192,256,203223,1,0,0:0:0:0:
320,256,203623,1,2,0:0:0:0:
192,256,203923,1,0,0:0:0:0:
320,256,203973,1,2,0:0:0:0:
320,256,204023,1,2,0:0:0:0:
192,256,204073,1,0,0:0:0:0:
192,256,204123,1,0,0:0:0:0:
320,256,204173,1,2,0:0:0:0:
320,256,204223,1,2,0:0:0:0:
192,256,204273,1,0,0:0:0:0:
192,256,204323,1,0,0:0:0:0:
320,256,204373,1,2,0:0:0:0:
320,256,204423,1,2,0:0:0:0:
192,256,204473,1,0,0:0:0:0:
192,256,204523,1,0,0:0:0:0:
320,256,204573,1,2,0:0:0:0:
320,256,204623,1,2,0:0:0:0:
192,256,204673,1,0,0:0:0:0:
192,256,204723,1,0,0:0:0:0:
320,256,204773,1,2,0:0:0:0:
320,256,204823,1,2,0:0:0:0:
320,256,205023,1,2,0:0:0:0:
320,256,205073,1,2,0:0:0:0:
192,256,205123,1,0,0:0:0:0:
192,256,205173,1,0,0:0:0:0:
192,256,205223,1,0,0:0:0:0:
192,256,205273,1,0,0:0:0:0:
192,256,205323,1,0,0:0:0:0:
192,256,205373,1,0,0:0:0:0:
320,256,205423,1,2,0:0:0:0:
320,256,205473,1,2,0:0:0:0:
192,256,205523,1,0,0:0:0:0:
192,256,205573,1,0,0:0:0:0:
192,256,205623,1,0,0:0:0:0:
192,256,205673,1,0,0:0:0:0:
320,256,205723,1,2,0:0:0:0:
320,256,205773,1,2,0:0:0:0:
192,256,205823,1,0,0:0:0:0:
192,256,205873,1,0,0:0:0:0:
320,256,205923,1,2,0:0:0:0:
320,256,205973,1,2,0:0:0:0:
320,256,206023,1,2,0:0:0:0:
320,256,206073,1,2,0:0:0:0:
192,256,206123,1,0,0:0:0:0:
192,256,206173,1,0,0:0:0:0:
320,256,206223,1,2,0:0:0:0:
320,256,206273,1,2,0:0:0:0:
192,256,206323,1,0,0:0:0:0:
192,256,206373,1,0,0:0:0:0:
320,256,206423,1,2,0:0:0:0:
320,256,206473,1,2,0:0:0:0:
192,256,206523,1,0,0:0:0:0:
192,256,206573,1,0,0:0:0:0:
192,256,206623,1,0,0:0:0:0:
192,256,206673,1,0,0:0:0:0:
192,256,206723,1,0,0:0:0:0:
192,256,206773,1,0,0:0:0:0:
192,128,206823,1,4,0:0:0:0:
192,256,207123,1,0,0:0:0:0:
192,256,207223,1,0,0:0:0:0:
192,256,207323,1,0,0:0:0:0:
192,256,207423,1,0,0:0:0:0:
192,256,207523,1,0,0:0:0:0:
320,256,207623,1,2,0:0:0:0:
320,256,207723,1,2,0:0:0:0:
320,256,207823,1,2,0:0:0:0:
320,256,207923,1,2,0:0:0:0:
192,256,208023,1,0,0:0:0:0:
192,256,208123,1,0,0:0:0:0:
192,256,208223,1,0,0:0:0:0:
192,256,208323,1,0,0:0:0:0:
320,256,208423,1,2,0:0:0:0:
320,256,208523,1,2,0:0:0:0:
192,256,208623,1,0,0:0:0:0:
192,256,208723,1,0,0:0:0:0:
320,256,208823,1,2,0:0:0:0:
320,256,208923,1,2,0:0:0:0:
192,256,209023,1,0,0:0:0:0:
192,256,209123,1,0,0:0:0:0:
320,256,209223,1,2,0:0:0:0:
320,256,209323,1,2,0:0:0:0:
192,256,209423,1,0,0:0:0:0:
192,256,209523,1,0,0:0:0:0:
320,256,209623,1,2,0:0:0:0:
320,256,209723,1,2,0:0:0:0:
192,256,209823,1,0,0:0:0:0:
192,256,209923,1,0,0:0:0:0:
192,256,210023,1,0,0:0:0:0:
192,256,210073,1,0,0:0:0:0:
320,256,210123,1,2,0:0:0:0:
320,256,210173,1,2,0:0:0:0:
192,256,210223,1,0,0:0:0:0:
192,256,210273,1,0,0:0:0:0:
320,256,210323,1,2,0:0:0:0:
320,256,210373,1,2,0:0:0:0:
192,256,210423,1,0,0:0:0:0:
192,256,210473,1,0,0:0:0:0:
320,256,210523,1,2,0:0:0:0:
320,256,210573,1,2,0:0:0:0:
192,256,210623,1,0,0:0:0:0:
192,256,210673,1,0,0:0:0:0:
320,256,210723,1,2,0:0:0:0:
320,256,210773,1,2,0:0:0:0:
192,256,210823,1,0,0:0:0:0:
192,256,210873,1,0,0:0:0:0:
320,256,210923,1,2,0:0:0:0:
320,256,210973,1,2,0:0:0:0:
192,256,211023,1,0,0:0:0:0:
192,256,211073,1,0,0:0:0:0:
320,256,211123,1,2,0:0:0:0:
320,256,211173,1,2,0:0:0:0:
192,256,211223,1,0,0:0:0:0:
192,256,211273,1,0,0:0:0:0:
320,256,211323,1,2,0:0:0:0:
320,256,211373,1,2,0:0:0:0:
192,256,211423,1,0,0:0:0:0:
192,256,211473,1,0,0:0:0:0:
320,256,211523,1,2,0:0:0:0:
320,256,211573,1,2,0:0:0:0:
192,256,211623,1,0,0:0:0:0:
192,256,211673,1,0,0:0:0:0:
320,256,211723,1,2,0:0:0:0:
320,256,211773,1,2,0:0:0:0:
192,256,211823,1,0,0:0:0:0:
192,256,211873,1,0,0:0:0:0:
320,256,211923,1,2,0:0:0:0:
320,256,211973,1,2,0:0:0:0:
192,256,212023,1,0,0:0:0:0:
192,256,212073,1,0,0:0:0:0:
320,256,212123,1,2,0:0:0:0:
320,256,212173,1,2,0:0:0:0:
192,256,212223,1,0,0:0:0:0:
192,256,212273,1,0,0:0:0:0:
320,256,212323,1,2,0:0:0:0:
320,256,212373,1,2,0:0:0:0:
192,256,212423,1,0,0:0:0:0:
192,256,212473,1,0,0:0:0:0:
320,256,212523,1,2,0:0:0:0:
320,256,212573,1,2,0:0:0:0:
192,256,212623,1,0,0:0:0:0:
192,256,212673,1,0,0:0:0:0:
320,256,212723,1,2,0:0:0:0:
320,256,212773,1,2,0:0:0:0:
192,256,212823,1,0,0:0:0:0:
192,256,212873,1,0,0:0:0:0:
320,256,212923,1,2,0:0:0:0:
320,256,212973,1,2,0:0:0:0:
192,256,213023,1,0,0:0:0:0:
192,256,213073,1,0,0:0:0:0:
320,256,213123,1,2,0:0:0:0:
320,256,213173,1,2,0:0:0:0:
192,128,213223,1,4,0:0:0:0:
192,128,214623,1,4,0:0:0:0:
192,128,214823,1,4,0:0:0:0:
192,128,216423,5,4,0:0:0:0:
320,256,216623,1,2,0:0:0:0:
192,256,216723,1,0,0:0:0:0:
192,256,216823,1,0,0:0:0:0:
192,256,217023,1,0,0:0:0:0:
320,256,217223,1,2,0:0:0:0:
320,256,217423,1,2,0:0:0:0:
192,256,217523,1,0,0:0:0:0:
320,256,217623,1,2,0:0:0:0:
192,256,217723,1,0,0:0:0:0:
192,256,217773,1,0,0:0:0:0:
192,256,217823,1,0,0:0:0:0:
192,256,217873,1,0,0:0:0:0:
192,256,217923,1,0,0:0:0:0:
192,256,218023,1,0,0:0:0:0:
320,256,218123,1,2,0:0:0:0:
192,256,218223,1,0,0:0:0:0:
192,256,218323,1,0,0:0:0:0:
320,256,218423,1,2,0:0:0:0:
320,256,218473,1,2,0:0:0:0:
320,256,218523,1,2,0:0:0:0:
320,256,218573,1,2,0:0:0:0:
320,256,218623,1,2,0:0:0:0:
320,256,218723,1,2,0:0:0:0:
192,256,218823,1,0,0:0:0:0:
320,256,218923,1,2,0:0:0:0:
192,256,219023,1,0,0:0:0:0:
192,256,219073,1,0,0:0:0:0:
192,256,219123,1,0,0:0:0:0:
192,256,219173,1,0,0:0:0:0:
192,256,219223,1,0,0:0:0:0:
192,256,219273,1,0,0:0:0:0:
192,256,219323,1,0,0:0:0:0:
192,256,219373,1,0,0:0:0:0:
192,256,219423,1,0,0:0:0:0:
192,128,219623,1,4,0:0:0:0:
320,256,219823,1,2,0:0:0:0:
192,256,219923,1,0,0:0:0:0:
192,256,220023,1,0,0:0:0:0:
192,256,220223,1,0,0:0:0:0:
320,256,220423,1,2,0:0:0:0:
320,256,220623,1,2,0:0:0:0:
192,256,220723,1,0,0:0:0:0:
320,256,220823,1,2,0:0:0:0:
192,256,220923,1,0,0:0:0:0:
192,256,220973,1,0,0:0:0:0:
192,256,221023,1,0,0:0:0:0:
192,256,221073,1,0,0:0:0:0:
192,256,221123,1,0,0:0:0:0:
192,256,221223,1,0,0:0:0:0:
320,256,221323,1,2,0:0:0:0:
192,256,221423,1,0,0:0:0:0:
192,256,221523,1,0,0:0:0:0:
320,256,221623,1,2,0:0:0:0:
320,256,221673,1,2,0:0:0:0:
320,256,221723,1,2,0:0:0:0:
320,256,221773,1,2,0:0:0:0:
320,256,221823,1,2,0:0:0:0:
320,256,221923,1,2,0:0:0:0:
320,256,222023,1,2,0:0:0:0:
320,256,222073,1,2,0:0:0:0:
320,256,222123,1,2,0:0:0:0:
192,256,222223,1,0,0:0:0:0:
320,256,222323,1,2,0:0:0:0:
192,256,222423,1,0,0:0:0:0:
320,256,222523,1,2,0:0:0:0:
192,256,222623,1,0,0:0:0:0:
192,256,222723,1,0,0:0:0:0:
192,128,222823,1,4,0:0:0:0:
320,256,223023,1,2,0:0:0:0:
192,256,223123,1,0,0:0:0:0:
192,256,223223,1,0,0:0:0:0:
192,256,223273,1,0,0:0:0:0:
192,256,223323,1,0,0:0:0:0:
192,256,223373,1,0,0:0:0:0:
192,256,223423,1,0,0:0:0:0:
320,256,223623,1,2,0:0:0:0:
320,256,223823,1,2,0:0:0:0:
192,256,223923,1,0,0:0:0:0:
192,256,224023,1,0,0:0:0:0:
192,256,224223,1,0,0:0:0:0:
320,256,224323,1,2,0:0:0:0:
192,256,224423,1,0,0:0:0:0:
192,256,224523,1,0,0:0:0:0:
320,256,224623,1,2,0:0:0:0:
320,256,224723,1,2,0:0:0:0:
192,256,224823,1,0,0:0:0:0:
192,256,224923,1,0,0:0:0:0:
320,256,225023,1,2,0:0:0:0:
320,256,225123,1,2,0:0:0:0:
192,256,225223,1,0,0:0:0:0:
192,256,225323,1,0,0:0:0:0:
320,256,225423,1,2,0:0:0:0:
320,256,225523,1,2,0:0:0:0:
192,256,225623,1,0,0:0:0:0:
192,256,225673,1,0,0:0:0:0:
192,256,225723,1,0,0:0:0:0:
192,256,225773,1,0,0:0:0:0:
192,256,225823,1,0,0:0:0:0:
192,256,225873,1,0,0:0:0:0:
192,256,225923,1,0,0:0:0:0:
192,256,225973,1,0,0:0:0:0:
192,256,226023,1,0,0:0:0:0:
320,256,226223,1,2,0:0:0:0:
320,256,226323,1,2,0:0:0:0:
192,256,226423,1,0,0:0:0:0:
192,256,226623,1,0,0:0:0:0:
320,256,226823,1,2,0:0:0:0:
320,256,227023,1,2,0:0:0:0:
192,256,227123,1,0,0:0:0:0:
192,256,227223,1,0,0:0:0:0:
192,256,227273,1,0,0:0:0:0:
192,256,227323,1,0,0:0:0:0:
192,256,227373,1,0,0:0:0:0:
192,256,227423,1,0,0:0:0:0:
192,256,227523,1,0,0:0:0:0:
192,256,227623,1,0,0:0:0:0:
320,256,227723,1,2,0:0:0:0:
320,256,227773,1,2,0:0:0:0:
320,256,227823,1,2,0:0:0:0:
192,256,227923,1,0,0:0:0:0:
320,256,228023,1,2,0:0:0:0:
192,256,228073,1,0,0:0:0:0:
192,256,228123,1,0,0:0:0:0:
192,256,228173,1,0,0:0:0:0:
192,256,228223,1,0,0:0:0:0:
320,256,228423,1,2,0:0:0:0:
320,256,228473,1,2,0:0:0:0:
320,256,228523,1,2,0:0:0:0:
320,256,228573,1,2,0:0:0:0:
320,256,228623,1,2,0:0:0:0:
192,256,228723,1,0,0:0:0:0:
192,256,228823,1,0,0:0:0:0:
320,256,228923,1,2,0:0:0:0:
320,256,229023,1,2,0:0:0:0:
192,256,229123,1,0,0:0:0:0:
192,128,229223,1,4,0:0:0:0:
320,256,229423,1,2,0:0:0:0:
192,256,229523,1,0,0:0:0:0:
192,256,229623,1,0,0:0:0:0:
192,256,229673,1,0,0:0:0:0:
192,256,229723,1,0,0:0:0:0:
192,256,229773,1,0,0:0:0:0:
192,256,229823,1,0,0:0:0:0:
320,256,230023,1,2,0:0:0:0:
320,256,230223,1,2,0:0:0:0:
192,256,230323,1,0,0:0:0:0:
320,256,230423,1,2,0:0:0:0:
192,256,230473,1,0,0:0:0:0:
192,256,230523,1,0,0:0:0:0:
192,256,230573,1,0,0:0:0:0:
192,256,230623,1,0,0:0:0:0:
192,256,230723,1,0,0:0:0:0:
192,256,230823,1,0,0:0:0:0:
192,256,230923,1,0,0:0:0:0:
320,256,231023,1,2,0:0:0:0:
320,256,231123,1,2,0:0:0:0:
192,256,231223,1,0,0:0:0:0:
192,256,231323,1,0,0:0:0:0:
320,256,231423,1,2,0:0:0:0:
320,256,231523,1,2,0:0:0:0:
192,256,231623,1,0,0:0:0:0:
192,256,231673,1,0,0:0:0:0:
320,256,231723,1,2,0:0:0:0:
320,256,231773,1,2,0:0:0:0:
192,256,231823,1,0,0:0:0:0:
192,256,231873,1,0,0:0:0:0:
320,256,231923,1,2,0:0:0:0:
320,256,231973,1,2,0:0:0:0:
192,256,232023,1,0,0:0:0:0:
192,256,232073,1,0,0:0:0:0:
320,256,232123,1,2,0:0:0:0:
320,256,232173,1,2,0:0:0:0:
192,256,232223,1,0,0:0:0:0:
192,256,232273,1,0,0:0:0:0:
320,256,232323,1,2,0:0:0:0:
320,256,232373,1,2,0:0:0:0:
192,128,232423,1,4,0:0:0:0:
320,256,232623,1,2,0:0:0:0:
320,256,232723,1,2,0:0:0:0:
192,256,232823,1,0,0:0:0:0:
192,256,233023,1,0,0:0:0:0:
320,256,233223,1,2,0:0:0:0:
320,256,233423,1,2,0:0:0:0:
192,256,233523,1,0,0:0:0:0:
192,256,233623,1,0,0:0:0:0:
192,256,233673,1,0,0:0:0:0:
192,256,233723,1,0,0:0:0:0:
192,256,233773,1,0,0:0:0:0:
192,256,233823,1,0,0:0:0:0:
192,256,233923,1,0,0:0:0:0:
192,256,234023,1,0,0:0:0:0:
320,256,234123,1,2,0:0:0:0:
320,256,234173,1,2,0:0:0:0:
320,256,234223,1,2,0:0:0:0:
192,256,234323,1,0,0:0:0:0:
320,256,234423,1,2,0:0:0:0:
192,256,234473,1,0,0:0:0:0:
192,256,234523,1,0,0:0:0:0:
192,256,234573,1,0,0:0:0:0:
192,256,234623,1,0,0:0:0:0:
320,256,234823,1,2,0:0:0:0:
320,256,234873,1,2,0:0:0:0:
320,256,234923,1,2,0:0:0:0:
320,256,234973,1,2,0:0:0:0:
320,256,235023,1,2,0:0:0:0:
192,256,235123,1,0,0:0:0:0:
192,256,235223,1,0,0:0:0:0:
320,256,235323,1,2,0:0:0:0:
320,256,235423,1,2,0:0:0:0:
192,256,235523,1,0,0:0:0:0:
192,128,235623,1,4,0:0:0:0:
320,256,235823,1,2,0:0:0:0:
192,256,235923,1,0,0:0:0:0:
192,256,236023,1,0,0:0:0:0:
192,256,236073,1,0,0:0:0:0:
192,256,236123,1,0,0:0:0:0:
192,256,236173,1,0,0:0:0:0:
192,256,236223,1,0,0:0:0:0:
320,256,236423,1,2,0:0:0:0:
320,256,236623,1,2,0:0:0:0:
192,256,236723,1,0,0:0:0:0:
320,256,236823,1,2,0:0:0:0:
192,256,236873,1,0,0:0:0:0:
192,256,236923,1,0,0:0:0:0:
192,256,236973,1,0,0:0:0:0:
192,256,237023,1,0,0:0:0:0:
192,256,237123,1,0,0:0:0:0:
192,256,237223,1,0,0:0:0:0:
192,256,237273,1,0,0:0:0:0:
192,256,237323,1,0,0:0:0:0:
192,256,237373,1,0,0:0:0:0:
320,256,237423,1,2,0:0:0:0:
320,256,237473,1,2,0:0:0:0:
320,256,237523,1,2,0:0:0:0:
320,256,237573,1,2,0:0:0:0:
192,256,237623,1,0,0:0:0:0:
192,256,237673,1,0,0:0:0:0:
192,256,237723,1,0,0:0:0:0:
192,256,237773,1,0,0:0:0:0:
320,256,237823,1,2,0:0:0:0:
320,256,237873,1,2,0:0:0:0:
320,256,237923,1,2,0:0:0:0:
320,256,237973,1,2,0:0:0:0:
192,256,238023,1,0,0:0:0:0:
192,256,238073,1,0,0:0:0:0:
320,256,238123,1,2,0:0:0:0:
320,256,238173,1,2,0:0:0:0:
192,256,238223,1,0,0:0:0:0:
192,256,238273,1,0,0:0:0:0:
320,256,238323,1,2,0:0:0:0:
320,256,238373,1,2,0:0:0:0:
192,256,238423,1,0,0:0:0:0:
320,256,238473,1,2,0:0:0:0:
192,256,238523,1,0,0:0:0:0:
320,256,238573,1,2,0:0:0:0:
192,256,238623,1,0,0:0:0:0:
320,256,238673,1,2,0:0:0:0:
192,256,238723,1,0,0:0:0:0:
320,256,238773,1,2,0:0:0:0:
192,128,238823,5,4,0:0:0:0:
192,256,238923,1,0,0:0:0:0:
192,256,239023,1,0,0:0:0:0:
192,256,239123,1,0,0:0:0:0:
320,256,239223,1,2,0:0:0:0:
192,256,239323,1,0,0:0:0:0:
192,256,239423,1,0,0:0:0:0:
192,256,239523,1,0,0:0:0:0:
320,256,239623,1,2,0:0:0:0:
192,256,240023,1,0,0:0:0:0:
192,256,240123,1,0,0:0:0:0:
320,256,240223,1,2,0:0:0:0:
192,256,240323,1,0,0:0:0:0:
192,256,240423,1,0,0:0:0:0:
192,256,240623,1,0,0:0:0:0:
192,256,240723,1,0,0:0:0:0:
192,256,240823,1,0,0:0:0:0:
192,256,241023,1,0,0:0:0:0:
320,256,241223,1,2,0:0:0:0:
192,256,241623,1,0,0:0:0:0:
192,256,241723,1,0,0:0:0:0:
192,256,241823,1,0,0:0:0:0:
192,256,241923,1,0,0:0:0:0:
192,256,242023,1,0,0:0:0:0:
192,256,242423,1,0,0:0:0:0:
192,256,242623,1,0,0:0:0:0:
320,256,242823,1,2,0:0:0:0:
192,256,243223,1,0,0:0:0:0:
192,256,243323,1,0,0:0:0:0:
192,256,243423,1,0,0:0:0:0:
192,256,243523,1,0,0:0:0:0:
320,256,243623,1,2,0:0:0:0:
320,256,244023,1,2,0:0:0:0:
192,256,244223,1,0,0:0:0:0:
320,256,244423,1,2,0:0:0:0:
192,256,244623,1,0,0:0:0:0:
320,256,244823,1,2,0:0:0:0:
320,256,244923,1,2,0:0:0:0:
320,256,245023,1,2,0:0:0:0:
320,256,245123,1,2,0:0:0:0:
192,256,245223,1,0,0:0:0:0:
192,256,245623,1,0,0:0:0:0:
192,256,245723,1,0,0:0:0:0:
192,256,245823,1,0,0:0:0:0:
320,256,246023,1,2,0:0:0:0:
192,256,246423,1,0,0:0:0:0:
192,256,246523,1,0,0:0:0:0:
192,256,246623,1,0,0:0:0:0:
192,256,246723,1,0,0:0:0:0:
192,256,246823,1,0,0:0:0:0:
192,256,247023,1,0,0:0:0:0:
192,256,247123,1,0,0:0:0:0:
192,256,247223,1,0,0:0:0:0:
192,256,247423,1,0,0:0:0:0:
320,256,247623,1,2,0:0:0:0:
320,256,248023,1,2,0:0:0:0:
192,256,248123,1,0,0:0:0:0:
320,256,248223,1,2,0:0:0:0:
320,256,248323,1,2,0:0:0:0:
192,256,248423,1,0,0:0:0:0:
192,256,248823,1,0,0:0:0:0:
192,256,248923,1,0,0:0:0:0:
192,256,249023,1,0,0:0:0:0:
192,256,249223,1,0,0:0:0:0:
192,256,249623,1,0,0:0:0:0:
192,256,250023,1,0,0:0:0:0:
192,256,250423,1,0,0:0:0:0:
320,256,250523,1,2,0:0:0:0:
320,256,250623,1,2,0:0:0:0:
320,256,250723,1,2,0:0:0:0:
192,256,250823,1,0,0:0:0:0:
320,256,251223,1,2,0:0:0:0:
320,256,251423,1,2,0:0:0:0:
192,256,251623,1,0,0:0:0:0:
320,256,251823,1,2,0:0:0:0:
320,256,252023,1,2,0:0:0:0:
320,256,252223,1,2,0:0:0:0:
320,128,252423,1,6,0:0:0:0:
320,256,252823,1,2,0:0:0:0:
320,256,252923,1,2,0:0:0:0:
320,256,253023,1,2,0:0:0:0:
320,256,253123,1,2,0:0:0:0:
192,256,253223,1,0,0:0:0:0:
192,256,253423,1,0,0:0:0:0:
192,256,253523,1,0,0:0:0:0:
192,256,253623,1,0,0:0:0:0:
192,256,253823,1,0,0:0:0:0:
320,128,254023,1,6,0:0:0:0:
320,256,254423,1,2,0:0:0:0:
192,256,254523,1,0,0:0:0:0:
192,256,254623,1,0,0:0:0:0:
320,256,254723,1,2,0:0:0:0:
192,256,254823,1,0,0:0:0:0:
192,256,255023,1,0,0:0:0:0:
192,256,255123,1,0,0:0:0:0:
192,256,255223,1,0,0:0:0:0:
192,256,255423,1,0,0:0:0:0:
320,128,255623,1,6,0:0:0:0:
320,256,256023,1,2,0:0:0:0:
192,256,256123,1,0,0:0:0:0:
320,256,256223,1,2,0:0:0:0:
320,256,256323,1,2,0:0:0:0:
192,256,256423,1,0,0:0:0:0:
192,256,256623,1,0,0:0:0:0:
192,256,256823,1,0,0:0:0:0:
192,256,256923,1,0,0:0:0:0:
320,256,257023,1,2,0:0:0:0:
320,128,257223,1,6,0:0:0:0:
192,256,257623,1,0,0:0:0:0:
192,256,257723,1,0,0:0:0:0:
320,256,257823,1,2,0:0:0:0:
320,256,257923,1,2,0:0:0:0:
192,256,258023,1,0,0:0:0:0:
192,256,258223,1,0,0:0:0:0:
192,256,258423,1,0,0:0:0:0:
192,256,258523,1,0,0:0:0:0:
192,256,258623,1,0,0:0:0:0:
192,256,258723,1,0,0:0:0:0:
320,128,258823,1,6,0:0:0:0:
192,256,259223,1,0,0:0:0:0:
192,256,259423,1,0,0:0:0:0:
192,256,259623,1,0,0:0:0:0:
192,256,260023,1,0,0:0:0:0:
192,256,260123,1,0,0:0:0:0:
192,256,260223,1,0,0:0:0:0:
192,256,260323,1,0,0:0:0:0:
320,128,260423,1,6,0:0:0:0:
320,256,260823,1,2,0:0:0:0:
320,256,261023,1,2,0:0:0:0:
192,128,261223,1,4,0:0:0:0:
192,256,261667,1,0,0:0:0:0:
192,256,261778,1,0,0:0:0:0:
320,256,261889,1,2,0:0:0:0:
320,256,262111,1,2,0:0:0:0:
320,256,262556,1,2,0:0:0:0:
320,256,262778,1,2,0:0:0:0:
192,128,263000,1,4,0:0:0:0:
192,256,263300,1,0,0:0:0:0:
192,256,263450,1,0,0:0:0:0:
320,256,263600,1,2,0:0:0:0:
320,256,263900,1,2,0:0:0:0:
192,256,264200,1,0,0:0:0:0:
192,256,264400,1,0,0:0:0:0:
320,256,264600,1,2,0:0:0:0:
192,256,265000,1,0,0:0:0:0:
320,256,265400,1,2,0:0:0:0:
256,192,265800,12,2,272200,0:0:0:0:
