osu file format v14

[General]
AudioFilename: audio.mp3
AudioLeadIn: 0
PreviewTime: 35358
Countdown: 0
SampleSet: Normal
StackLeniency: 0.2
Mode: 0
LetterboxInBreaks: 0
WidescreenStoryboard: 0

[Editor]
Bookmarks: 9177,17904,35358,44085,61540,70267,76813,78994,87722,105176,109540,113904,122631,134904,148813,161904,168449,174994,184594,187794,200594,206994,213394,216594,226194,238994,251794,261394,272827
DistanceSpacing: 0.9
BeatDivisor: 4
GridSize: 4
TimelineZoom: 4.099999

[Metadata]
Title:Shun no Shifudo o Ikashita Kare Fumi Paeria
TitleUnicode:Shun no Shifudo o Ikashita Kare Fumi Paeria
Artist:Camellia
ArtistUnicode:Camellia
Creator:ddd4rk
Version:old diff
Source:
Tags:
BeatmapID:1205711
BeatmapSetID:568701

[Difficulty]
HPDrainRate:5.5
CircleSize:4.6
OverallDifficulty:8.8
ApproachRate:9.7
SliderMultiplier:2.3
SliderTickRate:1

[Events]
//Background and Video events
0,0,"Octopus-Wallpapers.jpg",0,0
//Break Periods
2,122831,134409
2,213594,214299
//Storyboard Layer 0 (Background)
//Storyboard Layer 1 (Fail)
//Storyboard Layer 2 (Pass)
//Storyboard Layer 3 (Foreground)
//Storyboard Sound Samples

[TimingPoints]
450,545.454545454546,4,2,0,36,1,0
17359,-50,4,2,0,36,0,0
17904,272.727272727273,4,1,0,49,1,0
35358,-100,4,2,0,43,0,0
39722,-100,4,1,0,49,0,0
44085,-66.6666666666667,4,3,0,49,0,1
61540,-100,4,1,0,43,0,0
66040,-100,4,2,0,43,0,0
66449,-100,4,1,0,43,0,0
66585,-100,4,2,0,43,0,0
66994,-100,4,1,0,43,0,0
67676,-100,4,2,0,43,0,0
68085,-100,4,1,0,43,0,0
68222,-100,4,2,0,43,0,0
68631,-100,4,1,0,43,0,0
69040,-100,4,2,0,43,0,0
70267,-100,4,1,0,43,0,0
76540,-100,4,2,0,43,0,0
83358,-100,4,1,0,49,0,0
87722,-66.6666666666667,4,3,0,49,0,1
105176,-100,4,1,0,36,0,0
109540,-100,4,3,0,43,0,0
113904,-100,4,2,0,43,0,0
122631,-200,4,2,0,25,0,0
168449,-133.333333333333,4,3,0,30,0,0
172813,-133.333333333333,4,3,0,45,0,0
174994,400,4,1,0,49,1,0
181394,200,4,1,0,49,1,0
201794,-100,4,2,0,25,0,1
202194,-100,4,1,0,49,0,1
203394,-100,4,2,0,25,0,1
203794,-100,4,1,0,49,0,1
205594,-83.3333333333333,4,1,0,49,0,1
205994,-69.4444444444444,4,1,0,49,0,1
206394,-57.8703703703704,4,1,0,49,0,1
206794,-50,4,1,0,49,0,1
206994,-100,4,1,0,49,0,0
207794,-90.9090909090909,4,1,0,49,0,0
208194,-82.6446280991736,4,1,0,49,0,0
208594,-75.187969924812,4,1,0,49,0,0
208994,-68.3013455365071,4,1,0,49,0,0
209594,-62.111801242236,4,1,0,49,0,0
209994,-56.4971751412429,4,1,0,49,0,0
210194,-56.4971751412429,4,1,0,49,0,0
210244,-56.4971751412429,4,2,0,5,0,0
210394,-56.4971751412429,4,1,0,49,0,0
210444,-56.4971751412429,4,2,0,5,0,0
210594,-56.4971751412429,4,1,0,49,0,0
210644,-56.4971751412429,4,2,0,5,0,0
210794,-56.4971751412429,4,1,0,49,0,0
210844,-56.4971751412429,4,2,0,5,0,0
210994,-56.4971751412429,4,1,0,49,0,0
211044,-56.4971751412429,4,2,0,5,0,0
211194,-56.4971751412429,4,1,0,49,0,0
211244,-56.4971751412429,4,2,0,5,0,0
211394,-56.4971751412429,4,1,0,49,0,0
211444,-56.4971751412429,4,2,0,5,0,0
211594,-56.4971751412429,4,1,0,49,0,0
211644,-56.4971751412429,4,2,0,5,0,0
211794,-56.4971751412429,4,1,0,49,0,0
216594,-100,4,1,0,49,0,0
217794,-100,4,2,0,39,0,1
218194,-100,4,1,0,49,0,1
218594,-100,4,2,0,39,0,1
218994,-100,4,1,0,49,0,1
224594,-100,4,1,0,49,0,0
226394,-100,4,1,0,49,0,1
227794,-1000,4,1,0,49,0,1
227994,-100,4,1,0,49,0,1
228594,-66.6666666666667,4,1,0,49,0,1
228794,-100,4,1,0,49,0,1
234194,-1000,4,1,0,49,0,1
234394,-100,4,1,0,49,0,1
234994,-66.6666666666667,4,1,0,49,0,1
235194,-100,4,1,0,49,0,1
238994,-100,4,2,0,30,0,0
240994,-200,4,2,0,30,0,0
241394,-100,4,2,0,30,0,0
244194,-200,4,2,0,30,0,0
244594,-100,4,2,0,30,0,0
247394,-200,4,2,0,30,0,0
247794,-100,4,2,0,30,0,0
250594,-200,4,2,0,30,0,0
250994,-100,4,2,0,30,0,0
251794,400,4,1,0,49,1,0
261394,666.666666666667,4,2,0,30,1,0
262727,545.454545454546,4,2,0,28,1,0
264363,750,4,2,0,24,1,0
265113,857.142857142857,4,2,0,20,1,0
268970,-100,4,2,0,5,0,0

[Colours]
Combo1 : 254,193,80
Combo2 : 147,201,255
Combo3 : 159,255,159
Combo4 : 255,170,170
Combo5 : 254,233,158
Combo6 : 255,0,128
Combo7 : 72,255,164
Combo8 : 255,64,64

[HitObjects]
144,116,450,6,0,P|184:104|220:104,1,57.5
240,168,722,2,0,P|276:176|304:208,1,57.5
300,264,995,1,0,0:0:0:0:
398,210,1268,6,0,P|375:175|347:151,1,57.5
291,188,1540,2,0,P|258:170|216:177,1,57.5
183,223,1813,1,0,0:0:0:0:
52,336,2086,5,0,0:0:0:0:
460,336,2359,1,0,0:0:0:0:
100,152,2631,6,0,P|156:116|220:144,1,115
252,192,3040,1,0,0:0:0:0:
336,172,3177,1,0,0:0:0:0:
245,349,3450,70,0,P|295:305|287:236,1,115
252,192,3859,1,0,0:0:0:0:
295,117,3996,1,0,0:0:0:0:
160,92,4268,6,0,L|132:192,1,57.5
220,156,4540,2,0,L|240:284,1,115
424,96,5086,5,0,0:0:0:0:
408,172,5222,1,0,0:0:0:0:
436,240,5359,1,0,0:0:0:0:
472,352,5631,6,0,P|480:312|476:280,1,57.5
436,240,5904,1,0,0:0:0:0:
408,172,6040,1,0,0:0:0:0:
424,96,6177,70,0,B|452:56|452:56|456:36|436:28|416:32|384:40,1,115
256,36,6722,1,0,0:0:0:0:
96,300,6995,6,0,P|106:269|156:240,1,57.5
133,305,7268,2,0,P|164:292|193:245,1,57.5
115,238,7540,2,0,P|129:187|175:178,1,57.5
388,236,7813,6,0,P|360:220|339:166,1,57.5
399,200,8086,2,0,P|391:167|350:130,1,57.5
330,206,8358,2,0,P|283:182|281:136,1,57.5
124,84,8631,6,0,P|172:48|128:112,1,230
168,92,9313,1,0,0:0:0:0:
236,60,9450,1,0,0:0:0:0:
304,96,9586,1,0,0:0:0:0:
376,68,9722,1,0,0:0:0:0:
128,72,9995,70,0,L|144:128,1,57.5
392,204,10268,2,0,L|348:256,1,57.5
120,288,10540,2,0,L|172:332,1,57.5
256,352,10813,1,0,0:0:0:0:
392,64,11086,6,0,P|400:128|368:168,1,115
184,244,11631,2,0,P|136:228|116:200,1,57.5
80,168,11904,1,0,0:0:0:0:
360,336,12177,6,0,P|368:296|368:260,1,57.5
128,284,12450,2,0,P|112:248|116:212,1,57.5
408,160,12722,2,0,P|424:120|416:88,1,57.5
256,32,12995,1,0,0:0:0:0:
312,192,13268,6,0,L|164:192,1,115
312,192,13813,1,0,0:0:0:0:
256,192,13950,1,0,0:0:0:0:
196,192,14086,1,0,0:0:0:0:
148,76,14359,70,0,L|136:152,1,57.5
368,336,14631,6,0,P|380:288|376:248,1,57.5
192,200,14904,6,0,L|216:272,1,57.5
320,192,15177,6,0,P|304:148|272:140,1,57.5
256,192,15450,70,0,B|244:172|244:172|276:192|276:192|240:208|240:208|256:192,1,115
216,128,15995,5,0,0:0:0:0:
324,193,16131,1,0,0:0:0:0:
216,253,16268,1,0,0:0:0:0:
234,159,16404,5,0,0:0:0:0:
288,192,16540,1,0,0:0:0:0:
234,222,16677,1,0,0:0:0:0:
243,175,16813,5,0,0:0:0:0:
270,191,16949,1,0,0:0:0:0:
243,206,17086,1,0,0:0:0:0:
252,192,17222,1,0,0:0:0:0:
304,336,17359,70,0,P|288:272|320:228,1,115
360,176,17631,2,0,B|368:104|288:68|288:68|304:120|260:172,1,230
52,48,18176,53,0,0:0:0:0:
460,48,18449,1,0,0:0:0:0:
192,120,18722,5,0,0:0:0:0:
192,200,18858,1,0,0:0:0:0:
224,272,18994,1,0,0:0:0:0:
292,312,19131,1,0,0:0:0:0:
368,316,19267,2,0,P|416:288|432:224,1,115
328,240,19540,6,0,P|252:160|256:112,1,115
336,56,19813,2,0,P|384:100|400:160,1,115
192,112,20085,2,0,P|252:88|316:120,1,115
168,264,20358,2,0,P|177:200|236:160,1,115
144,320,20631,6,0,P|92:268|112:108,1,230
232,72,21040,1,0,0:0:0:0:
172,176,21176,1,0,0:0:0:0:
288,136,21313,2,0,P|336:180|348:236,1,115
172,176,21585,1,0,0:0:0:0:
232,72,21722,70,0,P|296:68|352:112,1,115
232,296,21994,2,0,L|256:184,1,115
72,224,22267,2,0,P|76:288|116:332,1,115
300,296,22540,1,0,0:0:0:0:
192,220,22676,1,0,0:0:0:0:
213,123,22813,6,0,P|272:118|303:257,1,230
237,272,23222,1,0,0:0:0:0:
181,227,23359,1,0,0:0:0:0:
181,156,23494,1,0,0:0:0:0:
237,111,23631,1,0,0:0:0:0:
307,127,23767,1,0,0:0:0:0:
338,192,23904,6,0,P|300:260|240:276,1,115
304,60,24176,2,0,P|368:72|404:128,1,115
132,255,24449,2,0,P|112:199|132:151,1,115
268,160,24722,1,0,0:0:0:0:
324,272,24858,1,0,0:0:0:0:
132,255,24994,6,0,P|80:223|60:151,1,115
120,76,25267,1,0,0:0:0:0:
228,160,25404,1,0,0:0:0:0:
132,255,25540,2,0,P|88:319|96:371,1,115
212,328,25813,1,0,0:0:0:0:
252,192,25949,1,0,0:0:0:0:
132,255,26085,70,0,P|192:299|256:267,1,115
320,216,26358,1,0,0:0:0:0:
428,256,26494,1,0,0:0:0:0:
360,344,26631,6,0,L|324:80,1,230
348,56,27176,6,0,P|404:84|432:132,1,115
224,148,27449,1,0,0:0:0:0:
175,235,27585,1,0,0:0:0:0:
132,144,27722,2,0,P|188:93|245:98,1,115
268,236,27994,6,0,P|171:246|168:114,1,230
416,152,28540,70,0,P|432:216|420:272,1,115
288,200,28813,1,0,0:0:0:0:
232,328,28949,2,0,P|172:292|140:256,1,115
288,200,29222,1,0,0:0:0:0:
312,68,29358,6,0,P|244:72|188:124,1,115
416,212,29631,2,0,P|440:152|440:88,1,115
208,192,29904,1,0,0:0:0:0:
192,264,30040,1,0,0:0:0:0:
236,328,30176,1,0,0:0:0:0:
308,336,30313,1,0,0:0:0:0:
368,284,30449,6,0,P|388:208|324:64,1,230
110,264,30994,6,0,L|26:352,1,115
172,308,31267,1,0,0:0:0:0:
232,244,31404,1,0,0:0:0:0:
376,216,31540,70,0,L|284:308,1,115
232,244,31813,1,0,0:0:0:0:
172,308,31949,1,0,0:0:0:0:
80,224,32085,2,0,B|104:172|88:148|88:148|104:108,1,115
348,160,32358,2,0,B|324:108|340:84|340:84|324:44,1,115
284,332,32631,6,0,B|245:286|245:286|204:260|204:212|204:212|232:164|240:96,1,230
396,84,33176,6,0,P|432:144|432:200,1,115
356,184,33449,2,0,P|344:264|316:288,1,115
161,42,33722,6,0,P|107:86|87:139,1,115
164,150,33995,2,0,P|148:229|166:261,1,115
348,340,34267,1,0,0:0:0:0:
400,280,34404,1,0,0:0:0:0:
408,200,34540,1,0,0:0:0:0:
372,128,34676,1,0,0:0:0:0:
268,264,34813,70,0,B|216:236|184:180|208:124|208:124|232:80|192:24,1,230
148,88,35358,5,0,0:0:0:0:
168,184,35494,1,0,0:0:0:0:
188,276,35631,2,0,L|204:344,3,57.5
272,352,35904,1,0,0:0:0:0:
304,340,35972,1,0,0:0:0:0:
328,312,36040,1,0,0:0:0:0:
340,280,36108,1,0,0:0:0:0:
408,280,36176,5,0,0:0:0:0:
236,260,36312,1,0,0:0:0:0:
56,236,36449,2,0,L|128:272,3,57.5
180,236,36722,1,0,0:0:0:0:
200,204,36790,1,0,0:0:0:0:
220,168,36858,1,0,0:0:0:0:
240,136,36926,1,0,0:0:0:0:
256,116,36994,6,0,L|256:192,3,57.5
256,248,37267,1,0,0:0:0:0:
284,264,37335,1,0,0:0:0:0:
320,268,37404,1,0,0:0:0:0:
356,252,37472,1,0,0:0:0:0:
336,328,37540,69,0,0:0:0:0:
432,240,37676,1,0,0:0:0:0:
456,116,37813,2,0,L|468:48,3,57.5
400,40,38085,1,0,0:0:0:0:
372,72,38154,1,0,0:0:0:0:
364,120,38222,1,0,0:0:0:0:
384,164,38290,1,0,0:0:0:0:
392,260,38358,5,0,0:0:0:0:
304,156,38494,1,0,0:0:0:0:
236,268,38631,2,0,L|208:328,3,57.5
136,352,38904,5,0,0:0:0:0:
88,324,38972,1,0,0:0:0:0:
72,272,39040,1,0,0:0:0:0:
88,220,39108,1,0,0:0:0:0:
124,176,39176,6,0,L|172:120,3,57.5
256,32,39449,1,0,0:0:0:0:
136,272,39722,5,0,0:0:0:0:
76,172,39858,1,0,0:0:0:0:
112,72,39994,1,0,0:0:0:0:
324,324,40131,69,0,0:0:0:0:
408,236,40267,1,0,0:0:0:0:
328,124,40404,1,0,0:0:0:0:
400,32,40540,1,0,0:0:0:0:
168,344,40676,5,0,0:0:0:0:
48,220,40813,1,0,0:0:0:0:
112,56,40949,1,0,0:0:0:0:
292,32,41085,1,0,0:0:0:0:
424,352,41222,5,0,0:0:0:0:
204,272,41358,1,0,0:0:0:0:
464,132,41494,1,0,0:0:0:0:
152,44,41631,1,0,0:0:0:0:
320,128,41767,5,0,0:0:0:0:
367,244,41904,1,0,0:0:0:0:
355,288,41972,1,0,0:0:0:0:
319,324,42040,1,0,0:0:0:0:
267,332,42108,1,0,0:0:0:0:
219,312,42176,1,0,0:0:0:0:
191,272,42244,1,0,0:0:0:0:
163,228,42313,1,0,0:0:0:0:
123,196,42381,1,0,0:0:0:0:
56,208,42449,5,0,0:0:0:0:
30,270,42517,1,0,0:0:0:0:
74,318,42585,1,0,0:0:0:0:
136,307,42654,1,0,0:0:0:0:
155,244,42722,1,0,0:0:0:0:
144,176,42790,1,0,0:0:0:0:
176,112,42858,1,0,0:0:0:0:
240,80,42926,1,0,0:0:0:0:
304,104,42994,1,0,0:0:0:0:
256,192,43267,12,0,44085,0:0:0:0:
218,297,44358,5,0,0:0:0:0:
145,218,44494,1,0,0:0:0:0:
163,108,44631,2,0,P|187:66|316:43,1,172.500006580353
364,244,44904,2,0,L|256:96,1,172.500006580353
228,216,45176,1,0,0:0:0:0:
372,112,45313,5,0,0:0:0:0:
144,164,45449,1,0,0:0:0:0:
284,292,45585,1,0,0:0:0:0:
236,60,45722,2,0,P|140:52|88:260,1,345.000013160706
144,164,46131,1,0,0:0:0:0:
392,264,46267,5,0,0:0:0:0:
184,236,46404,1,0,0:0:0:0:
440,184,46540,1,0,0:0:0:0:
164,152,46676,1,0,0:0:0:0:
412,94,46813,6,0,P|366:78|312:81,1,86.2500032901765
188,82,46949,2,0,P|143:63|126:32,1,86.2500032901765
257,123,47085,1,0,0:0:0:0:
164,280,47494,5,0,0:0:0:0:
332,152,47631,1,0,0:0:0:0:
408,292,47767,1,0,0:0:0:0:
160,176,47904,6,0,P|156:92|232:36,1,172.500006580353
412,184,48176,6,0,L|172:300,1,258.75000987053
180,224,48449,6,0,P|104:276|76:200,1,172.500006580353
128,96,48722,1,0,0:0:0:0:
272,248,48858,1,0,0:0:0:0:
125,188,48994,6,0,P|60:139|80:60,1,172.500006580353
304,84,49267,1,0,0:0:0:0:
228,108,49404,1,0,0:0:0:0:
244,32,49540,1,0,0:0:0:0:
408,48,49676,5,0,0:0:0:0:
96,112,49813,1,0,0:0:0:0:
420,172,49949,1,0,0:0:0:0:
100,228,50085,6,0,L|288:192,1,172.500006580353
100,228,50358,6,0,L|356:288,1,258.75000987053
351,287,50631,5,0,0:0:0:0:
175,67,50767,1,0,0:0:0:0:
243,319,50904,1,0,0:0:0:0:
299,43,51040,1,0,0:0:0:0:
139,279,51176,5,0,0:0:0:0:
399,107,51313,1,0,0:0:0:0:
123,163,51449,1,0,0:0:0:0:
400,200,51585,1,0,0:0:0:0:
124,148,51722,5,0,0:0:0:0:
393,317,51858,1,0,0:0:0:0:
85,217,51994,5,0,0:0:0:0:
433,237,52131,1,0,0:0:0:0:
117,289,52267,5,0,0:0:0:0:
409,145,52404,1,0,0:0:0:0:
97,353,52540,5,0,0:0:0:0:
433,57,52676,1,0,0:0:0:0:
296,72,52813,6,0,L|240:244,1,172.500006580353
312,156,53085,1,0,0:0:0:0:
136,120,53222,6,0,L|148:220,1,86.2500032901765
204,152,53358,2,0,P|212:236|152:328,1,172.500006580353
76,168,53631,6,0,P|124:72|216:64,1,172.500006580353
280,128,53904,1,0,0:0:0:0:
292,248,54040,2,0,L|272:348,1,86.2500032901765
360,272,54176,2,0,P|408:192|392:100,1,172.500006580353
128,336,54449,6,0,P|44:236|104:48,1,345.000013160706
304,336,54994,5,0,0:0:0:0:
176,244,55131,1,0,0:0:0:0:
200,100,55267,1,0,0:0:0:0:
349,46,55404,1,0,0:0:0:0:
340,256,55540,6,0,L|304:160,1,86.2500032901765
384,180,55676,2,0,P|404:88|312:48,1,172.500006580353
116,148,55949,1,0,0:0:0:0:
288,144,56085,1,0,0:0:0:0:
64,248,56222,2,0,P|120:328|220:332,1,172.500006580353
304,248,56494,1,0,0:0:0:0:
372,128,56631,6,0,P|328:40|252:44,1,172.500006580353
396,344,56904,2,0,L|292:96,1,258.75000987053
276,176,57176,2,0,P|232:256|144:236,1,172.500006580353
168,112,57449,1,0,0:0:0:0:
208,176,57585,1,0,0:0:0:0:
92,180,57722,5,0,0:0:0:0:
220,60,57858,1,0,0:0:0:0:
384,128,57994,1,0,0:0:0:0:
148,344,58404,5,0,0:0:0:0:
232,232,58540,1,0,0:0:0:0:
136,116,58676,1,0,0:0:0:0:
272,36,58813,6,0,P|400:68|428:280,1,345.000013160706
256,160,59222,1,0,0:0:0:0:
76,336,59358,5,0,0:0:0:0:
256,160,59494,1,0,0:0:0:0:
336,352,59631,5,0,0:0:0:0:
256,160,59767,1,0,0:0:0:0:
204,332,59904,5,0,0:0:0:0:
256,160,60040,1,0,0:0:0:0:
456,316,60176,5,0,0:0:0:0:
256,160,60313,1,0,0:0:0:0:
40,224,60449,5,0,0:0:0:0:
256,160,60585,1,0,0:0:0:0:
452,108,60722,5,0,0:0:0:0:
256,160,60858,1,0,0:0:0:0:
76,56,60994,5,0,0:0:0:0:
256,160,61131,1,0,0:0:0:0:
328,40,61267,5,0,0:0:0:0:
256,160,61404,1,0,0:0:0:0:
256,160,61540,5,0,0:0:0:0:
296,236,61676,2,0,L|320:296,1,57.5
356,312,61813,2,0,B|360:232|328:196|328:196|296:156|316:76,1,230
120,152,62358,5,0,0:0:0:0:
204,212,62494,1,0,0:0:0:0:
120,152,62631,5,0,0:0:0:0:
216,144,62767,1,0,0:0:0:0:
120,152,62904,5,0,0:0:0:0:
172,88,63040,1,0,0:0:0:0:
224,32,63176,6,0,P|288:60|320:124,1,115
212,300,63449,2,0,B|162:256|159:200|199:166|199:166|221:150|252:125|246:54,1,230
148,128,63858,5,0,0:0:0:0:
276,228,63994,1,0,0:0:0:0:
400,132,64131,1,0,0:0:0:0:
332,84,64267,6,0,P|261:106|223:183,1,115
196,264,64540,1,0,0:0:0:0:
400,256,64676,1,0,0:0:0:0:
448,80,64813,1,0,0:0:0:0:
296,124,64949,5,0,0:0:0:0:
248,232,65085,1,0,0:0:0:0:
368,212,65222,1,0,0:0:0:0:
408,116,65358,6,0,P|328:108|272:148,1,115
212,304,65631,6,0,B|152:256|156:200|212:156|212:156|240:152|248:140,1,172.5
251,220,65904,6,0,P|175:220|131:172,1,115
127,176,66108,1,0,0:0:0:0:
123,152,66176,1,0,0:0:0:0:
135,136,66244,1,0,0:0:0:0:
151,128,66313,1,0,0:0:0:0:
171,128,66381,1,0,0:0:0:0:
203,136,66449,6,0,P|279:148|355:104,1,115
375,104,66654,1,0,0:0:0:0:
431,64,66722,2,0,P|459:44|487:32,2,57.5
375,104,66926,1,0,0:0:0:0:
359,172,66994,2,0,P|351:240|399:296,1,115
448,160,67267,2,0,P|400:104|336:104,1,115
124,184,67540,6,0,P|104:248|124:296,1,115
128,296,67744,1,0,0:0:0:0:
144,296,67813,1,0,0:0:0:0:
156,288,67881,1,0,0:0:0:0:
180,272,67949,1,0,0:0:0:0:
216,260,68017,1,0,0:0:0:0:
256,264,68085,6,0,P|316:280|360:328,1,115
296,354,68290,1,0,0:0:0:0:
228,328,68358,2,0,L|256:264,2,57.5
296,354,68563,1,0,0:0:0:0:
353,315,68631,6,0,P|384:244|368:180,1,115
192,80,68904,2,0,P|164:144|196:208,1,115
192,200,69108,1,0,0:0:0:0:
216,212,69176,5,0,0:0:0:0:
272,196,69244,1,0,0:0:0:0:
308,148,69313,1,0,0:0:0:0:
360,120,69381,1,0,0:0:0:0:
416,124,69449,5,0,0:0:0:0:
432,144,69517,1,0,0:0:0:0:
416,156,69585,1,0,0:0:0:0:
400,144,69654,1,0,0:0:0:0:
416,124,69722,5,0,0:0:0:0:
424,188,69790,1,0,0:0:0:0:
420,252,69858,1,0,0:0:0:0:
392,312,69926,1,0,0:0:0:0:
344,353,69994,5,0,0:0:0:0:
336,341,70063,1,0,0:0:0:0:
328,329,70131,1,0,0:0:0:0:
320,317,70199,1,0,0:0:0:0:
312,305,70267,6,0,P|316:233|360:201,1,115
388,272,70540,1,0,0:0:0:0:
212,220,70676,1,0,0:0:0:0:
252,64,70813,6,0,P|328:84|356:140,1,115
136,144,71085,1,0,0:0:0:0:
344,208,71222,1,0,0:0:0:0:
196,248,71358,2,0,L|192:120,1,115
196,248,71631,1,0,0:0:0:0:
264,120,71767,1,0,0:0:0:0:
380,64,71904,6,0,P|436:124|400:276,1,230
140,128,72449,6,0,P|132:164|136:196,1,57.5
192,280,72585,1,0,0:0:0:0:
240,84,72722,6,0,P|229:130|234:172,1,57.5
307,281,72858,1,0,0:0:0:0:
352,52,72994,6,0,P|338:112|345:166,1,115
448,288,73267,1,0,0:0:0:0:
292,216,73404,1,0,0:0:0:0:
164,312,73540,1,0,0:0:0:0:
48,232,73676,1,0,0:0:0:0:
96,92,73813,2,0,P|140:144|140:208,1,115
392,348,74085,6,0,P|364:288|376:240,1,115
356,64,74358,6,0,L|432:248,1,172.5
456,164,74631,6,0,P|440:100|400:68,1,115
324,160,74904,1,0,0:0:0:0:
216,92,75040,1,0,0:0:0:0:
132,184,75176,6,0,P|88:192|108:256,1,115
200,312,75449,1,0,0:0:0:0:
292,228,75585,1,0,0:0:0:0:
424,240,75722,5,0,0:0:0:0:
316,136,75858,1,0,0:0:0:0:
184,104,75994,5,0,0:0:0:0:
152,184,76131,1,0,0:0:0:0:
319,315,76267,6,0,B|356:272|268:227|364:200,1,115
200,288,76540,6,0,P|184:252|164:232,1,57.5
228,240,76676,2,0,P|232:204|248:184,1,57.5
224,192,76813,6,0,P|252:140|240:80,1,115
56,240,77085,6,0,P|68:276|60:312,1,57.5
108,280,77222,2,0,P|144:284|168:248,1,57.5
172,312,77358,6,0,P|248:296|284:248,1,115
376,128,77631,6,0,P|372:160|352:188,1,57.5
320,152,77767,2,0,P|292:172|280:200,1,57.5
244,204,77904,6,0,P|168:192|128:128,1,115
420,304,78176,6,0,P|384:320|364:352,1,57.5
340,300,78313,2,0,P|300:300|264:328,1,57.5
276,272,78449,6,0,P|240:216|268:148,1,115
260,160,78654,1,0,0:0:0:0:
276,152,78722,1,0,0:0:0:0:
292,152,78790,1,0,0:0:0:0:
308,160,78858,1,0,0:0:0:0:
324,164,78926,1,0,0:0:0:0:
360,152,78994,5,0,0:0:0:0:
480,108,79131,1,0,0:0:0:0:
400,168,79267,2,0,L|456:184,3,57.5
472,256,79540,1,0,0:0:0:0:
448,280,79608,1,0,0:0:0:0:
412,292,79676,1,0,0:0:0:0:
372,284,79744,1,0,0:0:0:0:
288,264,79813,5,0,0:0:0:0:
396,216,79949,1,0,0:0:0:0:
272,176,80085,2,0,L|196:204,3,57.5
104,228,80358,1,0,0:0:0:0:
128,272,80426,1,0,0:0:0:0:
180,292,80494,1,0,0:0:0:0:
232,276,80563,1,0,0:0:0:0:
256,248,80631,6,0,L|256:176,3,57.5
256,116,80904,1,0,0:0:0:0:
276,80,80972,1,0,0:0:0:0:
324,68,81040,1,0,0:0:0:0:
372,92,81108,1,0,0:0:0:0:
448,152,81176,5,0,0:0:0:0:
328,216,81313,1,0,0:0:0:0:
440,296,81449,2,0,L|376:308,3,57.5
284,304,81722,1,0,0:0:0:0:
236,276,81790,1,0,0:0:0:0:
204,228,81858,1,0,0:0:0:0:
196,172,81926,1,0,0:0:0:0:
232,84,81994,5,0,0:0:0:0:
84,48,82131,1,0,0:0:0:0:
232,48,82267,2,0,L|292:64,3,57.5
376,136,82540,1,0,0:0:0:0:
328,188,82608,1,0,0:0:0:0:
256,196,82676,1,0,0:0:0:0:
192,164,82744,1,0,0:0:0:0:
144,116,82813,6,0,L|176:164,3,57.5
256,276,83085,1,0,0:0:0:0:
144,48,83358,5,0,0:0:0:0:
96,120,83494,1,0,0:0:0:0:
128,224,83631,1,0,0:0:0:0:
256,120,83767,1,0,0:0:0:0:
344,80,83904,5,0,0:0:0:0:
376,212,84040,1,0,0:0:0:0:
312,348,84176,1,0,0:0:0:0:
256,120,84313,1,0,0:0:0:0:
56,32,84449,5,0,0:0:0:0:
152,152,84585,1,0,0:0:0:0:
100,332,84722,1,0,0:0:0:0:
256,120,84858,1,0,0:0:0:0:
337,31,84994,5,0,0:0:0:0:
466,175,85131,1,0,0:0:0:0:
392,354,85267,1,0,0:0:0:0:
256,120,85404,1,0,0:0:0:0:
232,204,85540,5,0,0:0:0:0:
192,176,85608,1,0,0:0:0:0:
172,124,85676,1,0,0:0:0:0:
184,72,85744,1,0,0:0:0:0:
236,40,85813,1,0,0:0:0:0:
288,44,85881,1,0,0:0:0:0:
328,84,85949,1,0,0:0:0:0:
332,144,86017,1,0,0:0:0:0:
328,196,86085,5,0,0:0:0:0:
308,248,86154,1,0,0:0:0:0:
328,304,86222,1,0,0:0:0:0:
384,320,86290,1,0,0:0:0:0:
424,280,86358,1,0,0:0:0:0:
420,232,86426,1,0,0:0:0:0:
408,164,86494,1,0,0:0:0:0:
440,108,86563,1,0,0:0:0:0:
460,128,86631,1,0,0:0:0:0:
256,192,86904,12,0,87722,0:0:0:0:
220,256,87994,5,0,0:0:0:0:
304,140,88131,1,0,0:0:0:0:
412,100,88267,6,0,B|440:88|460:112|464:136|464:136|468:156|456:196|440:200|404:212|404:212|372:224|340:244|320:280|316:300|316:324|316:324|320:352|352:368|376:368,1,345.000013160706
412,320,88676,1,0,0:0:0:0:
280,204,88813,2,0,P|216:184|136:248,1,172.500006580353
248,320,89085,5,0,0:0:0:0:
220,184,89222,1,0,0:0:0:0:
96,128,89358,2,0,P|80:216|108:304,1,172.500006580353
196,192,89631,1,0,0:0:0:0:
304,140,89767,1,0,0:0:0:0:
422,164,89904,2,0,P|473:216|448:327,1,172.500006580353
318,247,90176,1,0,0:0:0:0:
382,88,90313,1,0,0:0:0:0:
136,88,90449,6,0,L|196:284,1,172.500006580353
324,348,90722,1,0,0:0:0:0:
240,44,90858,1,0,0:0:0:0:
316,32,90994,2,0,P|384:96|272:68,1,258.75000987053
240,44,91267,1,0,0:0:0:0:
116,248,91404,1,0,0:0:0:0:
264,340,91540,5,0,0:0:0:0:
400,236,91676,1,0,0:0:0:0:
320,104,91813,2,0,L|260:12,1,86.2500032901765
116,248,91949,2,0,L|52:344,1,86.2500032901765
400,236,92085,1,0,0:0:0:0:
268,216,92358,6,0,L|248:132,1,86.2500032901765
116,64,92494,2,0,L|72:138,1,86.2500032901765
148,236,92631,6,0,P|220:168|224:88,1,172.500006580353
88,36,92904,2,0,P|56:72|64:200,1,172.500006580353
88,248,93108,1,0,0:0:0:0:
148,284,93176,2,0,P|180:306|215:350,3,86.2500032901765
320,344,93449,6,0,P|360:336|392:300,1,86.2500032901765
320,180,93585,2,0,P|282:162|235:173,1,86.2500032901765
384,276,93722,6,0,P|420:172|396:84,1,172.500006580353
264,52,93994,2,0,P|236:48|180:80,1,86.2500032901765
152,176,94131,2,0,P|128:200|112:248,1,86.2500032901765
320,236,94267,6,0,L|368:164,1,86.2500032901765
143,164,94404,2,0,L|192:236,1,86.2500032901765
344,240,94540,6,0,L|387:165,1,86.2500032901765
116,176,94676,2,0,L|171:243,1,86.2500032901765
244,328,94813,6,0,B|260:292|260:252|204:208|204:208|204:208|204:208|164:144|228:108|268:140|188:208|276:240,1,345.000013160706
288,248,95154,1,0,0:0:0:0:
336,268,95222,1,0,0:0:0:0:
384,244,95290,1,0,0:0:0:0:
396,196,95358,6,0,L|416:104,1,86.2500032901765
288,248,95494,2,0,L|304:348,1,86.2500032901765
136,344,95631,2,0,L|98:257,1,86.2500032901765
88,200,95767,1,0,0:0:0:0:
92,128,95835,1,0,0:0:0:0:
104,56,95904,6,0,P|200:36|292:96,1,172.500006580353
232,296,96176,2,0,P|192:204|216:128,1,172.500006580353
316,344,96449,1,0,0:0:0:0:
396,204,96722,6,0,L|384:292,1,86.2500032901765
412,92,96858,1,0,0:0:0:0:
104,176,96994,6,0,L|132:400,1,172.500006580353
312,200,97267,2,0,P|344:116|312:36,1,172.500006580353
104,176,97540,6,0,L|52:248,1,86.2500032901765
170,84,97676,1,0,0:0:0:0:
384,236,97813,2,0,L|464:198,1,86.2500032901765
281,284,97949,1,0,0:0:0:0:
170,84,98085,6,0,P|76:96|116:160,1,172.500006580353
212,332,98358,1,0,0:0:0:0:
296,144,98494,1,0,0:0:0:0:
53,245,98631,2,0,L|320:312,1,258.75000987053
372,241,98904,2,0,L|448:196,1,86.2500032901765
273,297,99040,1,0,0:0:0:0:
152,353,99176,1,0,0:0:0:0:
216,209,99313,1,0,0:0:0:0:
280,81,99449,6,0,P|348:145|336:225,1,172.500006580353
128,152,99722,2,0,L|176:156,6,43.1250016450883
48,148,99994,1,0,0:0:0:0:
104,244,100131,1,0,0:0:0:0:
208,68,100267,5,0,0:0:0:0:
256,312,100404,1,0,0:0:0:0:
304,68,100540,5,0,0:0:0:0:
408,244,100676,1,0,0:0:0:0:
464,148,100813,5,0,0:0:0:0:
456,144,100881,1,0,0:0:0:0:
448,140,100949,1,0,0:0:0:0:
440,136,101017,1,0,0:0:0:0:
432,132,101085,2,0,L|336:96,1,86.2500032901765
232,120,101222,1,0,0:0:0:0:
288,328,101358,6,0,P|340:252|336:148,1,172.500006580353
124,64,101631,1,0,0:0:0:0:
122,72,101699,1,0,0:0:0:0:
120,81,101767,1,0,0:0:0:0:
118,90,101835,1,0,0:0:0:0:
116,98,101903,2,0,L|104:199,1,86.2500032901765
152,295,102040,5,0,0:0:0:0:
156,280,102108,1,0,0:0:0:0:
160,268,102176,2,0,L|184:168,1,86.2500032901765
236,240,102313,2,0,L|260:140,1,86.2500032901765
220,316,102449,5,0,0:0:0:0:
400,328,102585,1,0,0:0:0:0:
484,192,102722,1,0,0:0:0:0:
408,40,102858,1,0,0:0:0:0:
156,64,102994,5,0,0:0:0:0:
156,68,103063,1,0,0:0:0:0:
156,72,103131,1,0,0:0:0:0:
156,76,103199,1,0,0:0:0:0:
156,80,103267,6,0,L|156:224,1,86.2500032901765
380,252,103404,2,0,L|304:324,1,86.2500032901765
120,352,103540,6,0,P|60:280|60:180,1,172.500006580353
64,184,103744,1,0,0:0:0:0:
92,168,103813,1,0,0:0:0:0:
148,176,103881,1,0,0:0:0:0:
212,164,103949,1,0,0:0:0:0:
260,108,104017,1,0,0:0:0:0:
260,40,104085,6,0,L|164:32,1,86.2500032901765
368,52,104222,1,0,0:0:0:0:
96,184,104358,6,0,L|26:251,1,86.2500032901765
176,110,104494,1,0,0:0:0:0:
392,280,104631,6,0,L|451:355,1,86.2500032901765
327,192,104768,1,0,0:0:0:0:
256,72,104904,5,0,0:0:0:0:
256,132,104972,1,0,0:0:0:0:
256,192,105040,1,0,0:0:0:0:
256,252,105108,1,0,0:0:0:0:
256,312,105176,1,0,0:0:0:0:
168,144,107085,5,0,0:0:0:0:
160,148,107358,1,0,0:0:0:0:
256,192,108449,12,0,109267,0:0:0:0:
276,136,109540,5,0,0:0:0:0:
288,184,109608,1,0,0:0:0:0:
324,216,109676,1,0,0:0:0:0:
376,224,109744,1,0,0:0:0:0:
424,216,109813,2,0,P|456:204|488:184,1,57.5
348,64,109949,2,0,P|320:72|288:84,1,57.5
228,184,110085,6,0,P|280:192|356:160,1,115
400,140,110290,1,0,0:0:0:0:
440,76,110358,2,0,P|456:52|480:32,2,57.5
400,140,110563,1,0,0:0:0:0:
388,212,110631,2,0,P|392:268|408:304,1,57.5
384,296,110767,1,0,0:0:0:0:
360,320,110835,1,0,0:0:0:0:
308,320,110904,1,0,0:0:0:0:
256,280,110972,1,0,0:0:0:0:
188,264,111040,1,0,0:0:0:0:
128,292,111108,1,0,0:0:0:0:
100,353,111176,6,0,P|64:305|96:225,1,115
312,208,111449,2,0,P|292:240|272:252,1,57.5
116,132,111585,2,0,P|144:104|168:100,1,57.5
316,52,111722,2,0,P|320:92|300:124,1,57.5
344,176,111858,1,0,0:0:0:0:
332,204,111926,1,0,0:0:0:0:
260,240,111994,1,0,0:0:0:0:
272,264,112063,1,0,0:0:0:0:
332,312,112131,1,0,0:0:0:0:
312,328,112199,1,0,0:0:0:0:
288,336,112267,6,0,B|264:336|264:336|216:336|220:284,1,57.5
200,300,112404,1,0,0:0:0:0:
188,232,112472,1,0,0:0:0:0:
148,172,112540,1,0,0:0:0:0:
80,176,112608,1,0,0:0:0:0:
32,224,112676,1,0,0:0:0:0:
48,148,112744,1,0,0:0:0:0:
72,80,112813,6,0,P|124:40|192:48,1,115
380,136,113086,2,0,P|388:201|347:255,1,115
168,336,113358,2,0,P|107:310|80:248,1,115
432,100,113631,2,0,P|406:160|344:187,1,115
144,96,113904,5,0,0:0:0:0:
156,108,113972,1,0,0:0:0:0:
168,120,114040,2,0,L|236:176,1,57.5
372,260,114176,1,0,0:0:0:0:
328,56,114313,1,0,0:0:0:0:
100,188,114449,2,0,P|88:252|112:304,1,115
116,308,114654,1,0,0:0:0:0:
136,320,114722,1,0,0:0:0:0:
332,160,114858,5,0,0:0:0:0:
328,168,114926,1,0,0:0:0:0:
324,176,114994,2,0,L|288:224,1,57.5
152,76,115131,5,0,0:0:0:0:
157,82,115199,1,0,0:0:0:0:
163,89,115267,2,0,L|208:127,1,57.5
392,268,115404,1,0,0:0:0:0:
112,300,115540,2,0,P|80:228|100:164,1,115
140,152,115744,1,0,0:0:0:0:
208,128,115813,6,0,P|252:128|280:136,1,57.5
392,268,115949,1,0,0:0:0:0:
208,128,116085,6,0,P|240:128|276:132,1,57.5
316,140,116222,1,0,0:0:0:0:
356,160,116290,1,0,0:0:0:0:
384,200,116358,1,0,0:0:0:0:
332,172,116426,1,0,0:0:0:0:
308,116,116494,1,0,0:0:0:0:
304,64,116563,1,0,0:0:0:0:
316,40,116631,6,0,P|344:112|320:176,1,115
324,184,116835,1,0,0:0:0:0:
304,208,116904,1,0,0:0:0:0:
256,360,117040,1,0,0:0:0:0:
256,348,117108,1,0,0:0:0:0:
256,336,117176,6,0,L|256:280,6,28.75
256,240,117449,1,0,0:0:0:0:
92,208,117585,1,0,0:0:0:0:
444,144,117722,1,0,0:0:0:0:
184,104,117858,1,0,0:0:0:0:
320,76,117994,1,0,0:0:0:0:
228,32,118131,1,0,0:0:0:0:
256,192,118267,2,0,L|256:256,1,57.5
256,280,118404,5,0,0:0:0:0:
264,308,118472,1,0,0:0:0:0:
284,324,118540,1,0,0:0:0:0:
308,328,118608,1,0,0:0:0:0:
332,312,118676,1,0,0:0:0:0:
340,284,118744,1,0,0:0:0:0:
344,256,118813,6,0,L|344:136,1,115
136,72,119085,2,0,P|104:144|116:200,1,115
264,108,119358,5,0,0:0:0:0:
212,124,119426,1,0,0:0:0:0:
180,168,119494,1,0,0:0:0:0:
168,220,119563,1,0,0:0:0:0:
192,268,119631,2,0,P|256:272|316:320,1,115
393,300,119904,5,0,0:0:0:0:
397,237,119972,1,0,0:0:0:0:
431,184,120040,1,0,0:0:0:0:
455,127,120108,1,0,0:0:0:0:
445,64,120176,1,0,0:0:0:0:
397,31,120244,1,0,0:0:0:0:
335,40,120313,1,0,0:0:0:0:
296,93,120381,1,0,0:0:0:0:
306,151,120449,6,0,L|316:197,14,28.75
228,180,120994,6,0,L|219:226,14,28.75
348,200,121540,6,0,L|365:243,14,28.75
152,216,122085,6,0,B|152:252|140:276|100:284|100:284|140:304|156:336|156:336|200:304|232:344,1,230
256,192,122631,1,0,0:0:0:0:
136,340,134904,5,0,0:0:0:0:
108,260,135040,1,0,0:0:0:0:
128,176,135176,1,0,0:0:0:0:
200,120,135313,1,0,0:0:0:0:
296,132,135449,1,0,0:0:0:0:
376,188,135585,1,0,0:0:0:0:
452,176,135722,6,0,B|489:145|508:87|458:28|406:88|407:142|457:175|457:175|473:200|472:219|472:219|461:189|424:231|424:231|438:191|381:220|381:220|412:178|378:181,1,460
232,56,137085,2,0,B|200:88|200:128|200:128|200:148,1,86.25
248,212,137358,2,0,L|264:248,1,28.75
424,40,137631,5,0,0:0:0:0:
304,104,137904,1,0,0:0:0:0:
248,216,138176,2,0,L|256:260,1,28.75
480,156,138449,5,0,0:0:0:0:
412,120,138585,1,0,0:0:0:0:
340,120,138722,1,0,0:0:0:0:
276,156,138858,1,0,0:0:0:0:
240,220,138994,2,0,L|232:256,1,28.75
216,316,139131,1,0,0:0:0:0:
188,244,139267,2,0,B|180:192|144:148|144:148|128:120|156:96|192:116|192:116|212:128|256:112,1,230
76,88,140085,5,0,0:0:0:0:
140,128,140222,1,0,0:0:0:0:
172,196,140358,1,0,0:0:0:0:
232,240,140494,1,0,0:0:0:0:
308,232,140631,2,0,L|352:208,1,28.75
388,176,140767,1,0,0:0:0:0:
312,180,140904,2,0,B|276:188|220:164|220:164|188:148|124:168|124:244|176:268|176:268|212:284|208:310|184:328,1,345
404,312,141994,5,0,0:0:0:0:
344,248,142131,1,0,0:0:0:0:
264,200,142267,2,0,B|228:180|184:164|112:172|64:188|64:188|42:180|34:139|72:104|120:116|88:48,1,345
380,176,143358,6,0,P|364:220|324:232,1,86.25
260,208,143631,2,0,P|232:200|172:212,1,86.25
184,284,143904,2,0,B|204:292|216:284|200:244|248:204,1,86.25
260,144,144176,2,0,P|276:188|264:228,1,86.25
308,304,144449,2,0,P|288:252|316:216,1,86.25
364,160,144722,2,0,P|368:172|368:192,1,28.75
320,236,144858,1,0,0:0:0:0:
260,212,144994,1,0,0:0:0:0:
220,160,145131,1,0,0:0:0:0:
176,108,145267,1,0,0:0:0:0:
112,96,145404,1,0,0:0:0:0:
60,144,145540,6,0,L|48:176,1,28.75
68,236,145676,1,0,0:0:0:0:
144,216,145813,2,0,B|184:196|216:180|228:120|228:120|236:136|280:176|328:168|328:168|364:164|392:192|404:216|376:240,1,345
344,280,146767,1,0,0:0:0:0:
264,280,146904,1,0,0:0:0:0:
196,232,147040,1,0,0:0:0:0:
168,136,147176,6,0,L|156:92,1,28.75
112,52,147313,1,0,0:0:0:0:
68,112,147449,2,0,B|51:135|48:164|68:200|68:200|84:236|77:265|77:265|65:253|65:227|82:210|104:200,1,230
152,172,148131,1,0,0:0:0:0:
228,164,148267,1,0,0:0:0:0:
304,184,148404,1,0,0:0:0:0:
364,240,148540,1,0,0:0:0:0:
392,324,148676,1,0,0:0:0:0:
320,304,148813,6,0,B|264:284|232:284|200:292|144:332|144:332|124:348|96:360|72:356|52:340|52:340|32:316|48:288,1,345
160,72,149904,5,0,0:0:0:0:
300,164,150176,1,0,0:0:0:0:
440,92,150449,2,0,L|476:64,1,28.75
116,232,150722,5,0,0:0:0:0:
304,200,150994,1,0,0:0:0:0:
440,88,151267,2,0,L|460:44,1,28.75
436,96,151404,1,0,0:0:0:0:
416,168,151540,1,0,0:0:0:0:
428,236,151676,1,0,0:0:0:0:
456,300,151813,1,0,0:0:0:0:
392,300,151949,1,0,0:0:0:0:
328,328,152085,2,0,P|292:348|260:352,1,57.5
240,280,152358,6,0,B|266:277|332:253|354:200|354:163|354:163|314:165|263:179|221:250|224:274,1,345
292,224,153313,1,0,0:0:0:0:
368,216,153449,1,0,0:0:0:0:
440,240,153585,1,0,0:0:0:0:
428,172,153722,2,0,P|424:152|424:136,1,28.75
428,72,153858,1,0,0:0:0:0:
360,100,153994,6,0,B|312:120|232:100|232:100|208:92|172:72|156:76|148:88|148:88|140:108|156:120|176:124|192:116|208:52|260:64,1,345
356,336,155085,5,0,0:0:0:0:
256,272,155222,1,0,0:0:0:0:
172,216,155358,2,0,B|192:196|196:184|196:184|216:176|232:168|232:168|232:148|232:148|316:132|316:132|276:200|276:200|256:192|256:192|236:196|232:200|232:200|200:204|180:228,1,345
160,172,156449,2,0,P|124:168|88:180,1,57.5
164,227,156722,2,0,P|132:243|108:273,1,57.5
216,264,156994,2,0,P|204:288|196:308,1,28.75
196,320,157131,1,0,0:0:0:0:
158,199,157267,2,0,P|122:205|91:226,1,57.5
184,256,157540,2,0,P|160:283|149:319,1,57.5
116,232,157813,5,0,0:0:0:0:
76,300,157949,1,0,0:0:0:0:
128,248,158085,1,0,0:0:0:0:
200,224,158222,1,0,0:0:0:0:
276,200,158358,1,0,0:0:0:0:
316,132,158494,1,0,0:0:0:0:
232,148,158631,2,0,L|260:184,1,28.75
421,344,158904,6,0,B|381:332|381:292|381:292|385:252|417:248|441:268|441:268|453:260|481:284|481:284|481:272|477:220|437:172|385:188|385:188|377:196,1,345
320,192,159858,1,0,0:0:0:0:
248,236,159994,1,0,0:0:0:0:
192,308,160131,1,0,0:0:0:0:
100,336,160267,1,0,0:0:0:0:
31,267,160404,1,0,0:0:0:0:
56,168,160540,2,0,B|108:172|144:152|156:112|140:80|140:80|128:60|140:36|168:40|184:56,1,230
268,176,161631,6,0,L|248:264,1,86.25
296,312,161904,6,0,B|324:279|324:240|281:218|216:218|216:218|213:240|213:240|177:254|130:232|123:178|166:146|166:146|191:132|220:132|242:160|242:160|256:182|288:153,1,460
392,92,163267,2,0,P|412:136|408:192,1,86.25
376,208,163540,2,0,B|364:176|348:172|348:172|324:164|300:172|284:148|292:124,1,115
288,136,163881,1,0,0:0:0:0:
284,132,163949,1,0,0:0:0:0:
168,116,164085,6,0,P|144:160|148:188,1,57.5
96,136,164358,2,0,P|88:152|108:192,1,57.5
32,168,164631,2,0,P|52:208|96:224,1,86.25
148,184,164904,2,0,P|108:180|80:216,1,86.25
132,240,165176,2,0,P|168:236|132:264,1,115
304,168,165722,5,0,0:0:0:0:
312,160,165994,1,0,0:0:0:0:
320,156,166267,1,0,0:0:0:0:
332,152,166540,2,0,P|372:160|392:204,1,86.25
312,216,166813,2,0,B|328:172|308:120|248:108|200:148|200:148|184:160|144:160|116:140|109:108|109:108|136:108|156:88,1,345
204,172,168176,6,0,L|224:264,1,86.25
195,192,168449,6,0,B|161:215|149:257|180:289|223:281|223:281|265:269|281:223|277:172|242:129|199:118|199:118|168:118|154:132|149:153|161:161|180:160|199:133|234:118|308:137,1,517.500019741059
100,88,169676,6,0,P|88:136|248:220,1,258.75000987053
292,180,170222,1,0,0:0:0:0:
304,108,170358,1,0,0:0:0:0:
164,160,170494,6,0,P|177:207|358:200,1,258.75000987053
352,136,171040,1,0,0:0:0:0:
308,80,171176,1,0,0:0:0:0:
256,188,171313,6,0,P|291:222|444:125,1,258.75000987053
400,88,171858,1,0,0:0:0:0:
332,72,171994,1,0,0:0:0:0:
352,168,172131,6,0,P|400:180|416:32,1,258.75000987053
344,52,172676,1,0,0:0:0:0:
396,96,172813,1,0,0:0:0:0:
416,32,172949,1,0,0:0:0:0:
140,296,173358,6,0,B|168:256|156:208|124:176|124:176|96:148|116:104|116:104|140:52|104:80,1,258.75000987053
372,296,174176,6,0,B|344:256|356:208|388:176|388:176|416:148|396:104|396:104|372:52|408:80,1,258.75000987053
112,128,174994,6,0,B|96:184|96:184|120:240,1,115
228,320,175394,2,0,B|272:268|264:200|244:192|244:192|188:164|188:112,1,230
420,112,176194,5,0,0:0:0:0:
364,184,176394,1,0,0:0:0:0:
264,204,176594,2,0,B|236:176|208:164|168:172|168:172|112:180|84:144|104:100,1,230
348,72,177394,6,0,B|352:108|384:136|384:136|416:160|436:208|400:280,1,230
104,252,178194,6,0,B|96:192|96:192|120:140,1,115
164,292,178594,2,0,B|136:296|120:336|120:336|100:316|80:312|80:312|60:308|32:280|32:240|72:184,1,230
376,108,179394,5,0,0:0:0:0:
408,192,179594,1,0,0:0:0:0:
360,280,179794,2,0,B|336:240|292:240|292:240|240:208|228:140|292:88,1,230
152,296,180594,6,0,B|182:261|162:217|162:217|165:177|206:136|260:110,1,230
96,144,181394,5,0,0:0:0:0:
152,188,181494,1,0,0:0:0:0:
224,208,181594,2,0,P|280:216|344:200,1,115
404,116,181794,5,0,0:0:0:0:
328,112,181894,1,0,0:0:0:0:
256,128,181994,2,0,P|201:142|148:182,1,115
94,232,182194,5,0,0:0:0:0:
164,241,182294,1,0,0:0:0:0:
235,221,182394,2,0,P|287:199|334:153,1,115
342,50,182594,5,0,0:0:0:0:
275,86,182694,1,0,0:0:0:0:
222,137,182794,2,0,P|183:176|158:237,1,115
138,310,182994,5,0,0:0:0:0:
203,281,183094,1,0,0:0:0:0:
248,220,183194,1,0,0:0:0:0:
272,148,183294,1,0,0:0:0:0:
352,92,183394,5,0,0:0:0:0:
424,160,183494,1,0,0:0:0:0:
348,240,183594,1,0,0:0:0:0:
312,152,183694,1,0,0:0:0:0:
344,168,183794,5,0,0:0:0:0:
256,208,183894,1,0,0:0:0:0:
148,176,183994,1,0,0:0:0:0:
88,56,184094,1,0,0:0:0:0:
216,56,184194,5,0,0:0:0:0:
130,189,184294,1,0,0:0:0:0:
224,148,184394,1,0,0:0:0:0:
171,304,184494,1,0,0:0:0:0:
304,140,184594,6,0,L|312:72,7,57.5
240,48,184994,2,0,L|232:128,7,57.5
228,152,185394,6,0,L|216:236,1,57.5
256,264,185494,2,0,L|268:200,1,57.5
140,164,185594,2,0,L|208:217,1,57.5
371,255,185694,2,0,L|294:207,1,57.5
100,276,185794,2,0,L|172:242,1,57.5
388,141,185894,2,0,L|292:184,1,57.5
244,212,185994,2,0,L|300:244,4,57.5
128,92,187794,6,0,P|96:168|176:280,1,230
244,280,188094,1,0,0:0:0:0:
280,220,188194,1,0,0:0:0:0:
244,160,188294,1,0,0:0:0:0:
320,272,188394,2,0,P|368:256|416:208,1,115
216,200,188594,2,0,P|164:220|120:268,1,115
444,260,188794,5,0,0:0:0:0:
400,316,188894,1,0,0:0:0:0:
444,260,188994,2,0,P|460:200|328:200,1,230
284,232,189294,1,0,0:0:0:0:
333,183,189394,2,0,P|368:140|392:76,1,115
116,100,189594,2,0,L|144:228,1,115
296,356,189794,1,0,0:0:0:0:
360,332,189894,2,0,P|396:288|420:224,1,115
64,244,190094,2,0,L|92:372,1,115
360,116,190294,5,0,0:0:0:0:
280,136,190394,1,0,0:0:0:0:
360,108,190494,1,0,0:0:0:0:
276,144,190594,1,0,0:0:0:0:
336,252,190794,2,0,P|272:324|240:332,1,115
268,220,190994,6,0,P|304:172|408:268,1,230
392,328,191294,1,0,0:0:0:0:
413,250,191394,1,0,0:0:0:0:
400,328,191494,1,0,0:0:0:0:
420,252,191594,2,0,P|428:128|360:52,1,230
320,120,191894,5,0,0:0:0:0:
368,48,191994,1,0,0:0:0:0:
312,120,192094,1,0,0:0:0:0:
368,60,192194,1,0,0:0:0:0:
336,332,192394,6,0,P|320:276|328:216,1,115
352,200,192594,1,0,0:0:0:0:
300,240,192694,1,0,0:0:0:0:
357,210,192794,1,0,0:0:0:0:
294,229,192894,1,0,0:0:0:0:
358,222,192994,1,0,0:0:0:0:
293,217,193094,1,0,0:0:0:0:
355,234,193194,1,0,0:0:0:0:
296,205,193294,1,0,0:0:0:0:
416,206,193394,5,0,0:0:0:0:
234,232,193494,1,0,0:0:0:0:
410,254,193594,1,0,0:0:0:0:
240,184,193694,1,0,0:0:0:0:
380,292,193794,1,0,0:0:0:0:
270,146,193894,1,0,0:0:0:0:
338,310,193994,1,0,0:0:0:0:
312,128,194094,1,0,0:0:0:0:
328,220,194194,6,0,B|332:272|336:320|248:316|216:272|248:188|320:216,1,230
380,152,194494,2,0,P|420:112|428:48,1,115
316,256,194694,2,0,P|352:212|406:197,1,115
236,336,194894,2,0,P|272:292|326:277,1,115
336,224,195094,5,0,0:0:0:0:
364,268,195194,1,0,0:0:0:0:
340,208,195294,1,0,0:0:0:0:
376,272,195394,1,0,0:0:0:0:
160,240,195594,6,0,P|144:176|236:228,1,230
96,280,195894,6,0,P|72:224|80:156,1,115
408,264,196094,2,0,P|364:312|308:320,1,115
256,32,196294,2,0,P|312:44|348:96,1,115
276,256,196494,2,0,L|292:132,1,115
216,124,196694,1,0,0:0:0:0:
297,119,196794,1,0,0:0:0:0:
196,100,196894,1,0,0:0:0:0:
308,103,196994,2,0,L|296:339,1,230
432,104,197394,6,0,B|440:156|416:196|368:204|324:180|324:180|292:160|256:172,1,230
236,212,197694,1,0,0:0:0:0:
224,152,197794,1,0,0:0:0:0:
232,224,197894,1,0,0:0:0:0:
212,148,197994,2,0,P|240:116|308:120,1,115
344,144,198194,1,0,0:0:0:0:
348,192,198294,5,0,0:0:0:0:
386,134,198394,1,0,0:0:0:0:
343,211,198494,1,0,0:0:0:0:
400,134,198594,1,0,0:0:0:0:
228,280,198794,5,0,0:0:0:0:
248,356,198894,1,0,0:0:0:0:
196,276,198994,2,0,L|140:212,2,57.5
272,200,199194,1,0,0:0:0:0:
296,284,199294,1,0,0:0:0:0:
228,168,199394,2,0,L|172:104,2,57.5
296,68,199594,5,0,0:0:0:0:
240,128,199694,1,0,0:0:0:0:
356,104,199794,2,0,L|420:80,2,57.5
344,200,199994,1,0,0:0:0:0:
304,284,200094,1,0,0:0:0:0:
408,224,200194,2,0,L|456:192,2,57.5
280,224,200394,5,0,0:0:0:0:
368,264,200494,1,0,0:0:0:0:
224,276,200594,2,0,P|288:312|356:108,1,345
306,128,200994,5,0,0:0:0:0:
392,128,201094,1,0,0:0:0:0:
284,180,201194,1,0,0:0:0:0:
396,124,201294,1,0,0:0:0:0:
352,212,201394,5,0,0:0:0:0:
296,44,201494,1,0,0:0:0:0:
416,144,201594,1,0,0:0:0:0:
288,40,201694,1,0,0:0:0:0:
441,48,201794,6,0,L|376:68,7,57.5
376,68,202194,5,0,0:0:0:0:
352,136,202294,1,0,0:0:0:0:
376,68,202394,5,0,0:0:0:0:
432,216,202494,1,0,0:0:0:0:
376,68,202594,5,0,0:0:0:0:
336,176,202694,1,0,0:0:0:0:
376,68,202794,5,0,0:0:0:0:
416,176,202894,1,0,0:0:0:0:
376,68,202994,5,0,0:0:0:0:
320,216,203094,1,0,0:0:0:0:
376,68,203194,5,0,0:0:0:0:
400,136,203294,1,0,0:0:0:0:
376,68,203394,6,0,L|368:132,7,57.5
368,136,203794,6,0,P|312:104|372:192,1,345
288,96,204194,1,0,0:0:0:0:
216,68,204294,1,0,0:0:0:0:
140,88,204394,1,0,0:0:0:0:
96,156,204494,1,0,0:0:0:0:
160,264,204594,5,0,0:0:0:0:
76,296,204694,1,0,0:0:0:0:
224,180,204794,1,0,0:0:0:0:
256,260,204894,1,0,0:0:0:0:
144,140,204994,1,0,0:0:0:0:
144,140,205194,6,0,P|132:196|136:264,1,115
212,284,205394,1,0,0:0:0:0:
292,256,205494,1,0,0:0:0:0:
184,126,205594,6,0,P|148:190|132:274,1,137.999995788574
224,284,205794,1,0,0:0:0:0:
312,253,205894,1,0,0:0:0:0:
228,126,205994,6,0,P|164:174|132:263,1,165.600004042969
236,284,206194,1,0,0:0:0:0:
332,249,206294,1,0,0:0:0:0:
282,127,206394,6,0,P|190:179|130:255,1,198.720004851563
248,284,206594,1,0,0:0:0:0:
353,245,206694,1,0,0:0:0:0:
326,136,206794,6,0,P|213:179|125:259,1,230
326,136,206994,6,0,P|372:96|288:124,1,230
296,212,207394,5,0,0:0:0:0:
324,228,207494,1,0,0:0:0:0:
452,148,207594,5,0,0:0:0:0:
452,184,207694,1,0,0:0:0:0:
236,112,207794,5,0,0:0:0:0:
236,144,207894,1,0,0:0:0:0:
392,48,207994,5,0,0:0:0:0:
416,68,208094,1,0,0:0:0:0:
266,182,208194,5,0,0:0:0:0:
436,108,208294,1,0,0:0:0:0:
260,184,208394,1,0,0:0:0:0:
440,108,208494,1,0,0:0:0:0:
120,108,208594,5,0,0:0:0:0:
124,112,208694,1,0,0:0:0:0:
132,184,208794,5,0,0:0:0:0:
136,188,208894,1,0,0:0:0:0:
164,264,208994,5,0,0:0:0:0:
168,268,209094,1,0,0:0:0:0:
236,336,209194,5,0,0:0:0:0:
240,340,209294,1,0,0:0:0:0:
372,324,209394,5,0,0:0:0:0:
368,328,209494,1,0,0:0:0:0:
456,196,209594,5,0,0:0:0:0:
452,200,209694,1,0,0:0:0:0:
327,37,209794,5,0,0:0:0:0:
229,92,209894,1,0,0:0:0:0:
344,52,209994,1,0,0:0:0:0:
208,84,210094,1,0,0:0:0:0:
84,100,210194,6,0,P|42:112|67:148,2,101.775003300047,0|0|0,2:0|2:0|2:0,2:0:0:0:
124,240,210394,2,0,P|120:284|164:274,2,101.775003300047
320,284,210594,6,0,P|364:277|344:237,2,101.775003300047
320,120,210794,2,0,P|327:77|283:82,2,101.775003300047
84,100,210994,6,0,P|42:112|67:148,2,101.775003300047,0|0|0,2:0|2:0|2:0,2:0:0:0:
124,240,211194,2,0,P|120:284|164:274,2,101.775003300047
340,120,211394,6,0,P|336:80|304:24,2,101.775003300047
205,26,211594,2,0,P|179:69|172:120,2,101.775003300047
324,184,211794,5,0,0:0:0:0:
216,288,211894,1,0,0:0:0:0:
188,184,211994,1,0,0:0:0:0:
292,288,212094,1,0,0:0:0:0:
176,299,212194,5,0,0:0:0:0:
292,232,212294,1,0,0:0:0:0:
220,232,212394,1,0,0:0:0:0:
336,299,212494,1,0,0:0:0:0:
128,276,212594,5,0,0:0:0:0:
384,272,212694,1,0,0:0:0:0:
62,317,212794,5,0,0:0:0:0:
449,317,212894,1,0,0:0:0:0:
136,352,212994,6,0,B|108:312|116:260|116:260|124:208|64:160,1,203.550006600094
376,352,213194,2,0,B|404:312|396:260|396:260|388:208|448:160,1,203.550006600094
256,192,213394,5,0,0:0:0:0:
92,148,214794,5,0,0:0:0:0:
428,248,214994,1,0,0:0:0:0:
256,192,215794,12,0,216594,0:0:0:0:
272,52,216894,5,0,0:0:0:0:
340,112,216994,2,0,B|380:184|348:256|348:256|304:252|264:240|252:188,1,230
268,192,217394,5,0,0:0:0:0:
324,128,217494,1,0,0:0:0:0:
336,44,217594,1,0,0:0:0:0:
268,192,217794,6,0,L|232:268,7,57.5
236,260,218194,1,0,0:0:0:0:
328,208,218294,1,0,0:0:0:0:
228,264,218394,5,0,0:0:0:0:
352,220,218494,1,0,0:0:0:0:
267,191,218594,2,0,L|219:161,7,57.5
204,152,218994,5,0,0:0:0:0:
136,140,219094,1,0,0:0:0:0:
88,196,219194,1,0,0:0:0:0:
112,264,219294,1,0,0:0:0:0:
184,260,219394,1,0,0:0:0:0:
248,284,219494,1,0,0:0:0:0:
292,344,219594,1,0,0:0:0:0:
368,272,219694,1,0,0:0:0:0:
468,256,219794,1,0,0:0:0:0:
336,80,219994,6,0,P|288:120|272:176,1,115
235,147,220194,2,0,B|251:173|243:189|243:189|232:211|232:248|256:262|256:262|283:246|283:211|272:189|272:189|261:171|283:155,1,230
240,184,220594,2,0,B|196:155|157:148|157:148|189:140|207:137|207:137|196:122|182:112|182:112|204:115|232:176,1,230
256,248,220894,1,0,0:0:0:0:
252,160,220994,2,0,B|244:124|264:80|244:40|216:24,1,115
264,156,221194,2,0,P|288:96|288:40,1,115
276,204,221394,2,0,B|290:176|307:170|307:170|295:179|294:193|294:193|301:187|317:198|317:198|301:198|288:208,1,115
208,296,221594,6,0,P|164:328|96:272,1,115
360,328,221794,2,0,P|416:264|344:112,1,230
104,116,222194,2,0,P|72:164|68:240,1,115
160,196,222394,5,0,0:0:0:0:
68,224,222494,1,0,0:0:0:0:
184,264,222594,1,0,0:0:0:0:
68,224,222694,1,0,0:0:0:0:
192,176,222794,1,0,0:0:0:0:
68,224,222894,1,0,0:0:0:0:
164,236,222994,1,0,0:0:0:0:
392,108,223194,6,0,P|340:136|268:152,1,115
120,192,223394,2,0,B|152:224|224:244|304:236|380:188,1,230
72,91,223794,6,0,P|85:146|120:192,1,115
164,106,223994,1,0,0:0:0:0:
192,31,224094,1,0,0:0:0:0:
72,91,224194,6,0,P|85:146|120:192,1,115
164,106,224394,1,0,0:0:0:0:
192,31,224494,1,0,0:0:0:0:
164,106,224594,6,0,P|196:174|192:50,1,402.5
244,108,224994,2,0,B|308:210|192:218|264:354|264:354|208:230|328:218|252:194,1,402.5
304,160,225394,2,0,B|304:80|360:64|408:76|408:76|440:88|456:152|412:196|344:204|344:204|312:200|264:224,1,402.5
224,228,225794,2,0,B|176:232|144:248|144:320|144:320|108:268|68:256|32:272|32:272|44:212|96:204|136:240,1,402.5
212,300,226194,1,0,0:0:0:0:
376,160,226394,5,0,0:0:0:0:
248,84,226494,2,0,L|240:144,1,57.5
232,208,226594,1,0,0:0:0:0:
304,160,226694,1,0,0:0:0:0:
256,84,226794,1,0,0:0:0:0:
84,312,226994,6,0,P|72:240|88:180,1,115
252,160,227194,1,0,0:0:0:0:
176,296,227294,1,0,0:0:0:0:
92,120,227394,2,0,P|159:92|221:94,1,115
336,256,227594,1,0,0:0:0:0:
164,168,227694,1,0,0:0:0:0:
352,124,227794,2,0,P|363:122|373:120,1,17.25
236,176,227994,5,0,0:0:0:0:
92,224,228094,2,0,L|99:147,1,57.5
108,100,228194,1,0,0:0:0:0:
164,176,228294,1,0,0:0:0:0:
104,228,228394,1,0,0:0:0:0:
276,96,228594,6,0,B|344:100|384:164|368:228|312:256|312:256|320:176|236:168,1,345.000013160706
180,160,228894,1,0,0:0:0:0:
250,170,228994,2,0,P|243:230|180:266,1,115
472,310,229194,2,0,P|416:350|364:350,1,115
396,260,229394,1,0,0:0:0:0:
348,116,229594,5,0,0:0:0:0:
430,103,229694,2,0,L|420:160,1,57.5
376,220,229794,1,0,0:0:0:0:
312,188,229894,1,0,0:0:0:0:
272,128,229994,1,0,0:0:0:0:
472,164,230094,5,0,0:0:0:0:
448,236,230194,2,0,P|408:284|360:300,1,115
288,271,230394,5,0,0:0:0:0:
209,230,230494,2,0,L|220:287,1,57.5
260,352,230594,1,0,0:0:0:0:
332,312,230694,1,0,0:0:0:0:
364,236,230794,1,0,0:0:0:0:
140,256,230894,5,0,0:0:0:0:
96,316,230994,1,0,0:0:0:0:
144,252,231094,5,0,0:0:0:0:
116,332,231194,1,0,0:0:0:0:
148,248,231294,21,0,0:0:0:0:
144,348,231394,1,0,0:0:0:0:
184,336,231444,1,0,0:0:0:0:
212,300,231494,1,0,0:0:0:0:
224,260,231544,1,0,0:0:0:0:
248,216,231594,1,0,0:0:0:0:
320,184,231694,1,0,0:0:0:0:
380,228,231794,6,0,P|337:266|280:272,1,115
148,204,231994,2,0,P|116:144|132:88,1,115
272,36,232194,2,0,P|339:45|375:88,1,115
356,232,232394,2,0,P|304:268|232:268,1,115
184,256,232594,1,0,0:0:0:0:
408,156,232794,5,0,0:0:0:0:
248,184,232894,2,0,P|208:167|185:133,1,57.5
144,100,232994,1,0,0:0:0:0:
432,244,233094,1,0,0:0:0:0:
340,200,233194,1,0,0:0:0:0:
304,120,233294,1,0,0:0:0:0:
368,144,233394,6,0,B|367:154|384:161|384:161|406:166|406:194|400:214|400:214|380:222|356:221|345:200|345:200|344:189|328:187,1,172.5
304,120,233594,1,0,0:0:0:0:
440,168,233694,1,0,0:0:0:0:
272,216,233794,1,0,0:0:0:0:
400,88,233894,1,0,0:0:0:0:
364,256,233994,1,0,0:0:0:0:
304,120,234094,1,0,0:0:0:0:
468,268,234194,2,0,L|452:256,1,17.25
104,156,234394,5,0,0:0:0:0:
240,60,234494,2,0,P|272:44|326:37,1,57.5
372,32,234594,1,0,0:0:0:0:
204,148,234694,1,0,0:0:0:0:
164,220,234794,1,0,0:0:0:0:
212,288,234894,1,0,0:0:0:0:
304,184,234994,6,0,B|296:132|243:122|188:155|210:221|210:221|225:263|238:299|238:299|304:240|340:268|308:340,1,345.000013160706
380,268,235294,1,0,0:0:0:0:
144,144,235394,1,0,0:0:0:0:
232,284,235494,1,0,0:0:0:0:
296,120,235594,1,0,0:0:0:0:
204,176,235694,1,0,0:0:0:0:
320,236,235794,1,0,0:0:0:0:
260,116,235994,6,0,P|202:141|179:193,1,115
368,304,236194,2,0,P|405:261|406:205,1,115
88,204,236394,6,0,L|124:248,1,57.5
168,300,236494,1,0,0:0:0:0:
260,332,236594,1,0,0:0:0:0:
356,300,236694,1,0,0:0:0:0:
405,204,236794,1,0,0:0:0:0:
428,56,236894,6,0,L|408:124,1,57.5
384,176,236994,1,0,0:0:0:0:
324,232,237094,1,0,0:0:0:0:
240,240,237194,1,0,0:0:0:0:
164,208,237294,1,0,0:0:0:0:
152,144,237394,2,0,L|108:196,7,57.5
116,264,237794,6,0,P|136:292|156:316,1,57.5
212,260,237894,2,0,P|241:276|272:292,1,57.5
288,212,237994,6,0,P|322:214|352:216,1,57.5
212,260,238094,2,0,P|241:276|272:292,1,57.5
368,296,238194,6,0,P|436:268|424:192,1,115
176,96,238394,2,0,P|168:156|212:208,1,115
356,136,238594,6,0,P|376:72|368:48,1,57.5
148,244,238694,2,0,P|140:312|156:340,1,57.5
288,144,238794,6,0,P|288:112|276:84,1,57.5
224,248,238894,2,0,P|224:276|240:304,1,57.5
256,192,238994,1,0,0:0:0:0:
72,160,239294,5,0,0:0:0:0:
128,132,239394,1,0,0:0:0:0:
192,128,239494,1,0,0:0:0:0:
248,156,239594,1,0,0:0:0:0:
296,196,239694,1,0,0:0:0:0:
344,232,239794,6,0,P|392:236|436:192,1,115
452,136,239994,1,0,0:0:0:0:
428,80,240094,1,0,0:0:0:0:
372,68,240194,1,0,0:0:0:0:
328,104,240294,1,0,0:0:0:0:
324,160,240394,1,0,0:0:0:0:
344,212,240494,1,0,0:0:0:0:
324,264,240594,5,0,0:0:0:0:
272,288,240694,1,0,0:0:0:0:
212,276,240794,1,0,0:0:0:0:
176,232,240894,1,0,0:0:0:0:
184,176,240994,2,0,L|196:116,1,57.5
152,88,241194,1,0,0:0:0:0:
96,100,241294,1,0,0:0:0:0:
60,140,241394,6,0,P|36:196|60:292,1,115
68,296,241594,1,0,0:0:0:0:
116,328,241694,1,0,0:0:0:0:
172,344,241794,1,0,0:0:0:0:
232,344,241894,1,0,0:0:0:0:
284,320,241994,1,0,0:0:0:0:
328,284,242094,1,0,0:0:0:0:
380,272,242194,5,0,0:0:0:0:
352,232,242294,1,0,0:0:0:0:
368,184,242394,1,0,0:0:0:0:
416,168,242494,1,0,0:0:0:0:
456,204,242594,1,0,0:0:0:0:
448,256,242694,1,0,0:0:0:0:
396,276,242794,1,0,0:0:0:0:
344,256,242894,1,0,0:0:0:0:
296,224,242994,6,0,P|256:196|228:96,1,115
236,88,243194,1,0,0:0:0:0:
268,44,243294,1,0,0:0:0:0:
324,40,243394,1,0,0:0:0:0:
372,72,243494,1,0,0:0:0:0:
372,128,243594,1,0,0:0:0:0:
344,176,243694,1,0,0:0:0:0:
328,228,243794,5,0,0:0:0:0:
360,276,243894,1,0,0:0:0:0:
400,316,243994,1,0,0:0:0:0:
436,276,244094,1,0,0:0:0:0:
456,228,244194,2,0,L|444:152,1,57.5
408,152,244394,1,0,0:0:0:0:
352,168,244494,1,0,0:0:0:0:
304,188,244594,6,0,P|264:224|192:248,1,115
160,256,244794,1,0,0:0:0:0:
104,236,244894,1,0,0:0:0:0:
72,188,244994,1,0,0:0:0:0:
76,132,245094,1,0,0:0:0:0:
124,96,245194,1,0,0:0:0:0:
176,116,245294,1,0,0:0:0:0:
172,180,245394,5,0,0:0:0:0:
228,164,245494,1,0,0:0:0:0:
248,112,245594,1,0,0:0:0:0:
224,64,245694,1,0,0:0:0:0:
172,48,245794,1,0,0:0:0:0:
124,76,245894,1,0,0:0:0:0:
112,128,245994,1,0,0:0:0:0:
136,184,246094,1,0,0:0:0:0:
176,220,246194,6,0,P|232:252|316:252,1,115
336,240,246394,1,0,0:0:0:0:
380,200,246494,1,0,0:0:0:0:
388,140,246594,1,0,0:0:0:0:
368,84,246694,1,0,0:0:0:0:
320,52,246794,1,0,0:0:0:0:
264,52,246894,1,0,0:0:0:0:
220,92,246994,5,0,0:0:0:0:
188,136,247094,1,0,0:0:0:0:
140,156,247194,1,0,0:0:0:0:
88,156,247294,1,0,0:0:0:0:
76,200,247394,2,0,L|88:292,1,57.5
116,296,247594,1,0,0:0:0:0:
168,316,247694,1,0,0:0:0:0:
228,312,247794,6,0,P|296:280|336:204,1,115
344,200,247994,1,0,0:0:0:0:
344,144,248094,1,0,0:0:0:0:
316,96,248194,2,0,P|292:68|184:36,1,115
168,120,248394,2,0,P|112:128|48:176,1,115
96,236,248594,5,0,0:0:0:0:
112,288,248694,1,0,0:0:0:0:
160,316,248794,1,0,0:0:0:0:
216,300,248894,1,0,0:0:0:0:
232,244,248994,1,0,0:0:0:0:
264,200,249094,1,0,0:0:0:0:
320,188,249194,1,0,0:0:0:0:
372,208,249294,1,0,0:0:0:0:
416,244,249394,6,0,P|444:292|440:368,1,115
416,336,249594,1,0,0:0:0:0:
380,292,249694,1,0,0:0:0:0:
368,236,249794,1,0,0:0:0:0:
384,176,249894,1,0,0:0:0:0:
376,112,249994,1,0,0:0:0:0:
332,68,250094,1,0,0:0:0:0:
272,52,250194,5,0,0:0:0:0:
216,76,250294,1,0,0:0:0:0:
188,132,250394,1,0,0:0:0:0:
192,192,250494,1,0,0:0:0:0:
208,248,250594,2,0,L|232:336,1,57.5
264,276,250794,1,0,0:0:0:0:
320,268,250894,1,0,0:0:0:0:
372,292,250994,6,0,P|392:220|436:172,1,115
452,152,251194,1,0,0:0:0:0:
464,104,251294,1,0,0:0:0:0:
440,56,251394,2,0,P|396:36|320:44,1,115
288,120,251594,2,0,P|236:128|180:176,1,115
212,240,251794,5,0,0:0:0:0:
289,134,251994,1,0,0:0:0:0:
289,265,252194,1,0,0:0:0:0:
212,159,252394,1,0,0:0:0:0:
336,199,252594,1,0,0:0:0:0:
206,261,252794,5,0,0:0:0:0:
281,108,252994,1,0,0:0:0:0:
310,276,253194,1,0,0:0:0:0:
188,158,253394,1,0,0:0:0:0:
356,181,253594,1,0,0:0:0:0:
202,295,253794,5,0,0:0:0:0:
263,83,253994,1,0,0:0:0:0:
339,291,254194,1,0,0:0:0:0:
156,167,254394,1,0,0:0:0:0:
375,159,254594,1,0,0:0:0:0:
206,337,254794,5,0,0:0:0:0:
236,51,254994,1,0,0:0:0:0:
380,300,255194,1,0,0:0:0:0:
117,183,255394,1,0,0:0:0:0:
397,123,255594,1,0,0:0:0:0:
224,351,255794,5,0,0:0:0:0:
200,30,255994,1,0,0:0:0:0:
406,276,256194,1,0,0:0:0:0:
95,198,256394,1,0,0:0:0:0:
390,79,256594,1,0,0:0:0:0:
112,260,256794,5,0,0:0:0:0:
342,37,256994,1,0,0:0:0:0:
286,353,257194,1,0,0:0:0:0:
146,65,257394,1,0,0:0:0:0:
427,214,257594,1,0,0:0:0:0:
256,188,257794,1,0,0:0:0:0:
256,188,257994,1,0,0:0:0:0:
88,40,258194,5,0,0:0:0:0:
36,200,258394,1,0,0:0:0:0:
148,84,258594,1,0,0:0:0:0:
116,316,258794,1,0,0:0:0:0:
232,116,258994,5,0,0:0:0:0:
208,352,259194,1,0,0:0:0:0:
304,116,259394,1,0,0:0:0:0:
328,352,259594,1,0,0:0:0:0:
360,84,259794,5,0,0:0:0:0:
412,312,259994,1,0,0:0:0:0:
415,34,260194,1,0,0:0:0:0:
481,189,260394,1,0,0:0:0:0:
32,352,260594,5,0,0:0:0:0:
480,352,260794,1,0,0:0:0:0:
256,192,260994,1,0,0:0:0:0:
256,192,261194,1,0,0:0:0:0:
168,172,261394,6,0,P|204:116|316:144,1,172.5
312,132,261977,1,0,0:0:0:0:
328,136,262060,1,0,0:0:0:0:
344,132,262144,1,0,0:0:0:0:
360,128,262227,1,0,0:0:0:0:
372,124,262310,2,0,L|408:108,1,28.75
416,176,262477,2,0,L|456:160,1,28.75
344,256,262727,5,0,0:0:0:0:
336,260,262795,2,0,P|264:264|304:188,1,186.875
297,187,263272,5,0,0:0:0:0:
120,188,263681,2,0,P|140:160|168:148,1,57.5
288,104,264090,1,0,0:0:0:0:
416,256,264363,2,0,P|376:272|412:208,1,172.5
308,160,265113,2,0,P|276:224|340:332,1,201.25
280,268,265970,2,0,B|236:268|200:300|200:300|152:296|116:264|112:212|156:184|156:184|192:164|176:116|132:120|112:156|112:156|140:164|208:120|228:80|280:104|280:104|316:128|336:200|408:208|464:152|440:68|382:56|336:84,1,862.5
256,192,269398,12,0,272398,0:0:0:0:
