osu file format v14

[General]
AudioFilename: audio.mp3
AudioLeadIn: 0
PreviewTime: 42823
Countdown: 0
SampleSet: Normal
StackLeniency: 0.7
Mode: 1
LetterboxInBreaks: 0
WidescreenStoryboard: 0

[Editor]
DistanceSpacing: 2
BeatDivisor: 8
GridSize: 32
TimelineZoom: 2.759999

[Metadata]
Title:Shun no Shifudo o Ikashita Kare Fumi Paeria
TitleUnicode:旬のシーフードを活かしたカレー風味パエリア ~808シェフのTwerkとTrap仕立て~
Artist:Camellia
ArtistUnicode:かめりあ
Creator:Nishizumi
Version:Kraken
Source:
Tags:
BeatmapID:1149263
BeatmapSetID:542058

[Difficulty]
HPDrainRate:5
CircleSize:4
OverallDifficulty:6
ApproachRate:5
SliderMultiplier:1.4
SliderTickRate:1

[Events]
//Background and Video events
0,0,"Yusuke.Nakamura.full.634972.jpg",0,0
//Break Periods
//Storyboard Layer 0 (Background)
//Storyboard Layer 1 (Fail)
//Storyboard Layer 2 (Pass)
//Storyboard Layer 3 (Foreground)
//Storyboard Sound Samples

[TimingPoints]
278,272.727272727273,4,1,0,100,1,0
278,-142.857142857143,4,1,0,100,0,0
8937,-125,4,1,0,100,0,0
17664,-111.111111111111,4,1,0,100,0,0
17937,-113.636363636364,4,1,0,100,0,0
18073,-116.279069767442,4,1,0,100,0,0
18209,-119.047619047619,4,1,0,100,0,0
18482,-121.951219512195,4,1,0,100,0,0
18755,-119.047619047619,4,1,0,100,0,0
18891,-116.279069767442,4,1,0,100,0,0
19028,-113.636363636364,4,1,0,100,0,0
19300,-111.111111111111,4,1,0,100,0,0
20118,-113.636363636364,4,1,0,100,0,0
20255,-116.279069767442,4,1,0,100,0,0
20391,-119.047619047619,4,1,0,100,0,0
20664,-121.951219512195,4,1,0,100,0,0
20937,-119.047619047619,4,1,0,100,0,0
21073,-116.279069767442,4,1,0,100,0,0
21209,-113.636363636364,4,1,0,100,0,0
21482,-111.111111111111,4,1,0,100,0,0
22300,-108.695652173913,4,1,0,100,0,0
22437,-106.382978723404,4,1,0,100,0,0
22573,-104.166666666667,4,1,0,100,0,0
22846,-102.040816326531,4,1,0,100,0,0
23118,-104.166666666667,4,1,0,100,0,0
23255,-106.382978723404,4,1,0,100,0,0
23391,-108.695652173913,4,1,0,100,0,0
23664,-111.111111111111,4,1,0,100,0,0
24482,-107.52688172043,4,1,0,100,0,0
24618,-104.166666666667,4,1,0,100,0,0
24755,-101.010101010101,4,1,0,100,0,0
25028,-98.0392156862745,4,1,0,100,0,0
25300,-100,4,1,0,100,0,0
25437,-102.040816326531,4,1,0,100,0,0
25573,-104.166666666667,4,1,0,100,0,0
25846,-106.382978723404,4,1,0,100,0,0
26118,-108.695652173913,4,1,0,100,0,0
26391,-111.111111111111,4,1,0,100,0,0
26664,-113.636363636364,4,1,0,100,0,0
26800,-116.279069767442,4,1,0,100,0,0
26937,-119.047619047619,4,1,0,100,0,0
27209,-121.951219512195,4,1,0,100,0,0
27482,-125,4,1,0,100,0,0
27618,-128.205128205128,4,1,0,100,0,0
27755,-135.135135135135,4,1,0,100,0,0
28028,-138.888888888889,4,1,0,100,0,0
28846,-135.135135135135,4,1,0,100,0,0
28982,-131.578947368421,4,1,0,100,0,0
29118,-128.205128205128,4,1,0,100,0,0
29391,-125,4,1,0,100,0,0
29664,-121.951219512195,4,1,0,100,0,0
29800,-119.047619047619,4,1,0,100,0,0
29937,-116.279069767442,4,1,0,100,0,0
30209,-113.636363636364,4,1,0,100,0,0
31028,-111.111111111111,4,1,0,100,0,0
31164,-107.52688172043,4,1,0,100,0,0
31300,-104.166666666667,4,1,0,100,0,0
31573,-101.010101010101,4,1,0,100,0,0
31846,-98.0392156862745,4,1,0,100,0,0
31982,-95.2380952380952,4,1,0,100,0,0
32118,-92.5925925925926,4,1,0,100,0,0
32391,-90.0900900900901,4,1,0,100,0,0
33209,-91.743119266055,4,1,0,100,0,0
33346,-93.4579439252336,4,1,0,100,0,0
33482,-95.2380952380952,4,1,0,100,0,0
33755,-97.0873786407767,4,1,0,100,0,0
34028,-99.009900990099,4,1,0,100,0,0
34164,-101.010101010101,4,1,0,100,0,0
34300,-103.092783505155,4,1,0,100,0,0
34573,-105.263157894737,4,1,0,100,0,0
34846,-107.52688172043,4,1,0,100,0,0
34982,-109.89010989011,4,1,0,100,0,0
35118,-111.111111111111,4,1,0,100,0,0
35289,-104.166666666667,4,1,0,100,0,0
35357,-107.52688172043,4,1,0,100,0,0
35425,-111.111111111111,4,1,0,100,0,0
35562,-119.047619047619,4,1,0,100,0,0
35630,-114.942528735632,4,1,0,100,0,0
35698,-111.111111111111,4,1,0,100,0,0
35834,-104.166666666667,4,1,0,100,0,0
35903,-107.52688172043,4,1,0,100,0,0
35971,-111.111111111111,4,1,0,100,0,0
36107,-119.047619047619,4,1,0,100,0,0
36175,-114.942528735632,4,1,0,100,0,0
36243,-111.111111111111,4,1,0,100,0,0
36380,-104.166666666667,4,1,0,100,0,0
36448,-107.52688172043,4,1,0,100,0,0
36516,-111.111111111111,4,1,0,100,0,0
36653,-128.205128205128,4,1,0,100,0,0
36721,-125,4,1,0,100,0,0
36789,-121.951219512195,4,1,0,100,0,0
36857,-119.047619047619,4,1,0,100,0,0
36925,-116.279069767442,4,1,0,100,0,0
36993,-113.636363636364,4,1,0,100,0,0
37062,-111.111111111111,4,1,0,100,0,0
37198,-104.166666666667,4,1,0,100,0,0
37266,-107.52688172043,4,1,0,100,0,0
37334,-111.111111111111,4,1,0,100,0,0
37471,-121.951219512195,4,1,0,100,0,0
37539,-116.279069767442,4,1,0,100,0,0
37607,-111.111111111111,4,1,0,100,0,0
37743,-102.040816326531,4,1,0,100,0,0
37812,-106.382978723404,4,1,0,100,0,0
37880,-111.111111111111,4,1,0,100,0,0
38016,-121.951219512195,4,1,0,100,0,0
38084,-116.279069767442,4,1,0,100,0,0
38153,-111.111111111111,4,1,0,100,0,0
38289,-102.040816326531,4,1,0,100,0,0
38357,-106.382978723404,4,1,0,100,0,0
38425,-111.111111111111,4,1,0,100,0,0
38562,-121.951219512195,4,1,0,100,0,0
38630,-116.279069767442,4,1,0,100,0,0
38698,-111.111111111111,4,1,0,100,0,0
38834,-92.5925925925926,4,1,0,100,0,0
38903,-95.2380952380952,4,1,0,100,0,0
38971,-98.0392156862745,4,1,0,100,0,0
39039,-101.010101010101,4,1,0,100,0,0
39107,-104.166666666667,4,1,0,100,0,0
39175,-107.52688172043,4,1,0,100,0,0
39243,-111.111111111111,4,1,0,100,0,0
39380,-121.951219512195,4,1,0,100,0,0
39448,-116.279069767442,4,1,0,100,0,0
39516,-111.111111111111,4,1,0,100,0,0
39618,-107.52688172043,4,1,0,100,0,0
39755,-104.166666666667,4,1,0,100,0,0
39891,-101.010101010101,4,1,0,100,0,0
40028,-98.0392156862745,4,1,0,100,0,0
40164,-95.2380952380952,4,1,0,100,0,0
40300,-92.5925925925926,4,1,0,100,0,0
40437,-90.0900900900901,4,1,0,100,0,0
40573,-87.719298245614,4,1,0,100,0,0
40709,-85.4700854700855,4,1,0,100,0,0
40846,-83.3333333333333,4,1,0,100,0,0
40982,-81.3008130081301,4,1,0,100,0,0
41118,-79.3650793650794,4,1,0,100,0,0
41255,-77.5193798449612,4,1,0,100,0,0
41391,-75.7575757575758,4,1,0,100,0,0
41528,-74.0740740740741,4,1,0,100,0,0
41698,-75.7575757575758,4,1,0,100,0,0
41766,-77.5193798449612,4,1,0,100,0,0
41834,-79.3650793650794,4,1,0,100,0,0
41903,-81.3008130081301,4,1,0,100,0,0
41971,-83.3333333333333,4,1,0,100,0,0
42039,-85.4700854700855,4,1,0,100,0,0
42107,-87.719298245614,4,1,0,100,0,0
42175,-90.0900900900901,4,1,0,100,0,0
42243,-92.5925925925926,4,1,0,100,0,0
42312,-95.2380952380952,4,1,0,100,0,0
42380,-98.0392156862745,4,1,0,100,0,0
42448,-101.010101010101,4,1,0,100,0,0
42516,-104.166666666667,4,1,0,100,0,0
42584,-107.52688172043,4,1,0,100,0,0
42653,-111.111111111111,4,1,0,100,0,0
42721,-114.942528735632,4,1,0,100,0,0
42789,-119.047619047619,4,1,0,100,0,0
43880,-64.5161290322581,4,1,0,100,0,0
43948,-100,4,1,0,100,0,0
46062,-102.040816326531,4,1,0,100,0,0
46198,-104.166666666667,4,1,0,100,0,0
46266,-106.382978723404,4,1,0,100,0,0
46334,-108.695652173913,4,1,0,100,0,0
46471,-111.111111111111,4,1,0,100,0,0
46607,-113.636363636364,4,1,0,100,0,0
46743,-116.279069767442,4,1,0,100,0,0
46812,-119.047619047619,4,1,0,100,0,0
46880,-121.951219512195,4,1,0,100,0,0
47289,-125,4,1,0,100,0,0
47425,-128.205128205128,4,1,0,100,0,0
47562,-131.578947368421,4,1,0,100,0,0
47630,-135.135135135135,4,1,0,100,0,0
47698,-138.888888888889,4,1,0,100,0,0
47834,-142.857142857143,4,1,0,100,0,0
47971,-147.058823529412,4,1,0,100,0,0
48243,-66.6666666666667,4,1,0,100,0,0
48312,-100,4,1,0,100,0,0
50425,-99.009900990099,4,1,0,100,0,0
50562,-98.0392156862745,4,1,0,100,0,0
50630,-97.0873786407767,4,1,0,100,0,0
50698,-96.1538461538461,4,1,0,100,0,0
50834,-95.2380952380952,4,1,0,100,0,0
50971,-94.3396226415094,4,1,0,100,0,0
51107,-93.4579439252336,4,1,0,100,0,0
51243,-92.5925925925926,4,1,0,100,0,0
51380,-91.743119266055,4,1,0,100,0,0
51448,-90.9090909090909,4,1,0,100,0,0
51516,-90.0900900900901,4,1,0,100,0,0
51584,-89.2857142857143,4,1,0,100,0,0
51653,-88.4955752212389,4,1,0,100,0,0
51789,-87.719298245614,4,1,0,100,0,0
51925,-86.9565217391304,4,1,0,100,0,0
52062,-86.2068965517241,4,1,0,100,0,0
52198,-85.4700854700855,4,1,0,100,0,0
52266,-84.7457627118644,4,1,0,100,0,0
52334,-84.0336134453781,4,1,0,100,0,0
52403,-83.3333333333333,4,1,0,100,0,0
52471,-82.6446280991736,4,1,0,100,0,0
52607,-66.6666666666667,4,1,0,100,0,0
52675,-100,4,1,0,100,0,0
54789,-102.040816326531,4,1,0,100,0,0
54925,-104.166666666667,4,1,0,100,0,0
54993,-106.382978723404,4,1,0,100,0,0
55062,-108.695652173913,4,1,0,100,0,0
55198,-111.111111111111,4,1,0,100,0,0
55334,-113.636363636364,4,1,0,100,0,0
55471,-116.279069767442,4,1,0,100,0,0
55539,-119.047619047619,4,1,0,100,0,0
55607,-121.951219512195,4,1,0,100,0,0
56016,-125,4,1,0,100,0,0
56153,-128.205128205128,4,1,0,100,0,0
56289,-131.578947368422,4,1,0,100,0,0
56357,-135.135135135135,4,1,0,100,0,0
56425,-138.888888888889,4,1,0,100,0,0
56562,-142.857142857143,4,1,0,100,0,0
56698,-147.058823529412,4,1,0,100,0,0
56971,-66.6666666666667,4,1,0,100,0,0
57073,-100,4,1,0,100,0,0
59153,-99.009900990099,4,1,0,100,0,0
59290,-98.0392156862745,4,1,0,100,0,0
59358,-97.0873786407767,4,1,0,100,0,0
59426,-96.1538461538461,4,1,0,100,0,0
59562,-95.2380952380952,4,1,0,100,0,0
59699,-94.3396226415094,4,1,0,100,0,0
59835,-93.4579439252336,4,1,0,100,0,0
59971,-92.5925925925926,4,1,0,100,0,0
60108,-91.743119266055,4,1,0,100,0,0
60176,-90.9090909090909,4,1,0,100,0,0
60244,-90.0900900900901,4,1,0,100,0,0
60312,-89.2857142857143,4,1,0,100,0,0
60381,-88.4955752212389,4,1,0,100,0,0
60517,-87.719298245614,4,1,0,100,0,0
60653,-86.9565217391304,4,1,0,100,0,0
60790,-86.2068965517241,4,1,0,100,0,0
60926,-85.4700854700855,4,1,0,100,0,0
60994,-84.7457627118644,4,1,0,100,0,0
61062,-84.0336134453781,4,1,0,100,0,0
61131,-83.3333333333333,4,1,0,100,0,0
61199,-82.6446280991736,4,1,0,100,0,0
61334,-66.6666666666667,4,1,0,100,0,0
61471,-74.0740740740741,4,1,0,100,0,0
61539,-76.3358778625954,4,1,0,100,0,0
61607,-78.7401574803149,4,1,0,100,0,0
61743,-86.9565217391304,4,1,0,100,0,0
61880,-90.9090909090909,4,1,0,100,0,0
61948,-92.5925925925926,4,1,0,100,0,0
62016,-94.3396226415094,4,1,0,100,0,0
62087,-96.1538461538461,4,1,0,100,0,0
62153,-98.0392156862745,4,1,0,100,0,0
62255,-100,4,1,0,100,0,0
62425,-90.9090909090909,4,1,0,100,0,0
62493,-92.5925925925926,4,1,0,100,0,0
62561,-94.3396226415094,4,1,0,100,0,0
62630,-96.1538461538461,4,1,0,100,0,0
62698,-98.0392156862745,4,1,0,100,0,0
62800,-100,4,1,0,100,0,0
63243,-66.6666666666667,4,1,0,100,0,0
63312,-100,4,1,0,100,0,0
64062,-80,4,1,0,100,0,0
64130,-83.3333333333333,4,1,0,100,0,0
64198,-86.9565217391304,4,1,0,100,0,0
64266,-90.9090909090909,4,1,0,100,0,0
64334,-95.2380952380952,4,1,0,100,0,0
64471,-100,4,1,0,100,0,0
64607,-76.9230769230769,4,1,0,100,0,0
64675,-80,4,1,0,100,0,0
64743,-83.3333333333333,4,1,0,100,0,0
64811,-86.9565217391304,4,1,0,100,0,0
64879,-90.9090909090909,4,1,0,100,0,0
64948,-95.2380952380952,4,1,0,100,0,0
65016,-100,4,1,0,100,0,0
65084,-105.263157894737,4,1,0,100,0,0
65152,-111.111111111111,4,1,0,100,0,0
65425,-66.6666666666667,4,1,0,100,0,0
65493,-100,4,1,0,100,0,0
66243,-80,4,1,0,100,0,0
66311,-83.3333333333333,4,1,0,100,0,0
66379,-86.9565217391304,4,1,0,100,0,0
66447,-90.9090909090909,4,1,0,100,0,0
66515,-95.2380952380952,4,1,0,100,0,0
66652,-100,4,1,0,100,0,0
66789,-76.9230769230769,4,1,0,100,0,0
66857,-80,4,1,0,100,0,0
66925,-83.3333333333333,4,1,0,100,0,0
66993,-86.9565217391304,4,1,0,100,0,0
67061,-90.9090909090909,4,1,0,100,0,0
67130,-95.2380952380952,4,1,0,100,0,0
67198,-100,4,1,0,100,0,0
67266,-105.263157894737,4,1,0,100,0,0
67334,-111.111111111111,4,1,0,100,0,0
67471,-117.647058823529,4,1,0,100,0,0
67607,-66.6666666666667,4,1,0,100,0,0
67675,-68.0272108843537,4,1,0,100,0,0
67743,-69.4444444444444,4,1,0,100,0,0
67811,-70.9219858156028,4,1,0,100,0,0
67879,-72.463768115942,4,1,0,100,0,0
67948,-74.0740740740741,4,1,0,100,0,0
68016,-75.7575757575758,4,1,0,100,0,0
68084,-77.5193798449612,4,1,0,100,0,0
68153,-79.3650793650794,4,1,0,100,0,0
68221,-81.3008130081301,4,1,0,100,0,0
68289,-83.3333333333333,4,1,0,100,0,0
68357,-85.4700854700855,4,1,0,100,0,0
68425,-87.719298245614,4,1,0,100,0,0
68494,-90.0900900900901,4,1,0,100,0,0
68562,-92.5925925925926,4,1,0,100,0,0
68698,-98.0392156862745,4,1,0,100,0,0
68766,-95.2380952380952,4,1,0,100,0,0
68835,-92.5925925925926,4,1,0,100,0,0
68903,-90.0900900900901,4,1,0,100,0,0
68971,-87.719298245614,4,1,0,100,0,0
69039,-85.4700854700855,4,1,0,100,0,0
69107,-83.3333333333333,4,1,0,100,0,0
69175,-81.3008130081301,4,1,0,100,0,0
69243,-79.3650793650794,4,1,0,100,0,0
69312,-77.5193798449612,4,1,0,100,0,0
69380,-75.7575757575758,4,1,0,100,0,0
69449,-74.0740740740741,4,1,0,100,0,0
69517,-72.463768115942,4,1,0,100,0,0
69585,-70.9219858156028,4,1,0,100,0,0
69653,-69.4444444444444,4,1,0,100,0,0
69721,-68.0272108843537,4,1,0,100,0,0
69790,-66.6666666666667,4,1,0,100,0,0
70130,-100,4,1,0,100,0,0
70948,-97.0873786407767,4,1,0,100,0,0
71016,-100,4,1,0,100,0,0
71084,-97.0873786407767,4,1,0,100,0,0
71153,-100,4,1,0,100,0,0
71221,-97.0873786407767,4,1,0,100,0,0
71289,-100,4,1,0,100,0,0
71357,-97.0873786407767,4,1,0,100,0,0
71425,-100,4,1,0,100,0,0
71493,-97.0873786407767,4,1,0,100,0,0
71562,-100,4,1,0,100,0,0
71630,-97.0873786407767,4,1,0,100,0,0
71698,-100,4,1,0,100,0,0
71971,-66.6666666666667,4,1,0,100,0,0
72039,-100,4,1,0,100,0,0
73130,-97.0873786407767,4,1,0,100,0,0
73198,-100,4,1,0,100,0,0
73266,-97.0873786407767,4,1,0,100,0,0
73335,-100,4,1,0,100,0,0
73403,-97.0873786407767,4,1,0,100,0,0
73471,-100,4,1,0,100,0,0
73539,-97.0873786407767,4,1,0,100,0,0
73607,-100,4,1,0,100,0,0
73675,-97.0873786407767,4,1,0,100,0,0
73744,-100,4,1,0,100,0,0
73812,-97.0873786407767,4,1,0,100,0,0
73880,-100,4,1,0,100,0,0
74153,-66.6666666666667,4,1,0,100,0,0
74221,-100,4,1,0,100,0,0
75448,-97.0873786407767,4,1,0,100,0,0
75516,-100,4,1,0,100,0,0
75584,-97.0873786407767,4,1,0,100,0,0
75653,-100,4,1,0,100,0,0
75721,-97.0873786407767,4,1,0,100,0,0
75789,-100,4,1,0,100,0,0
75857,-97.0873786407767,4,1,0,100,0,0
75925,-100,4,1,0,100,0,0
75993,-97.0873786407767,4,1,0,100,0,0
76062,-100,4,1,0,100,0,0
76573,-66.6666666666667,4,1,0,100,0,0
76709,-100,4,1,0,100,0,0
77118,-50,4,1,0,100,0,0
77255,-100,4,1,0,100,0,0
77664,-33.3333333333333,4,1,0,100,0,0
77800,-100,4,1,0,100,0,0
78209,-25,4,1,0,100,0,0
78346,-100,4,1,0,100,0,0
78925,-94.3396226415097,4,1,0,100,0,0
78993,-97.0873786407766,4,1,0,100,0,0
79061,-99.9999999999999,4,1,0,100,0,0
79198,-106.382978723404,4,1,0,100,0,0
79266,-103.092783505155,4,1,0,100,0,0
79334,-99.9999999999999,4,1,0,100,0,0
79470,-94.3396226415097,4,1,0,100,0,0
79539,-97.0873786407766,4,1,0,100,0,0
79607,-99.9999999999999,4,1,0,100,0,0
79743,-106.382978723404,4,1,0,100,0,0
79811,-103.092783505155,4,1,0,100,0,0
79879,-99.9999999999999,4,1,0,100,0,0
80016,-94.3396226415097,4,1,0,100,0,0
80084,-97.0873786407766,4,1,0,100,0,0
80152,-99.9999999999999,4,1,0,100,0,0
80289,-113.636363636364,4,1,0,100,0,0
80357,-111.111111111111,4,1,0,100,0,0
80425,-108.695652173913,4,1,0,100,0,0
80493,-106.382978723404,4,1,0,100,0,0
80561,-104.166666666667,4,1,0,100,0,0
80629,-102.040816326531,4,1,0,100,0,0
80698,-99.9999999999999,4,1,0,100,0,0
80834,-94.3396226415097,4,1,0,100,0,0
80902,-97.0873786407766,4,1,0,100,0,0
80970,-99.9999999999999,4,1,0,100,0,0
81107,-108.695652173913,4,1,0,100,0,0
81175,-104.166666666667,4,1,0,100,0,0
81243,-99.9999999999999,4,1,0,100,0,0
81379,-92.5925925925929,4,1,0,100,0,0
81448,-96.153846153846,4,1,0,100,0,0
81516,-99.9999999999999,4,1,0,100,0,0
81652,-108.695652173913,4,1,0,100,0,0
81720,-104.166666666667,4,1,0,100,0,0
81789,-99.9999999999999,4,1,0,100,0,0
81925,-92.5925925925929,4,1,0,100,0,0
81993,-96.153846153846,4,1,0,100,0,0
82061,-99.9999999999999,4,1,0,100,0,0
82198,-108.695652173913,4,1,0,100,0,0
82266,-104.166666666667,4,1,0,100,0,0
82334,-99.9999999999999,4,1,0,100,0,0
82470,-84.7457627118644,4,1,0,100,0,0
82539,-86.9565217391304,4,1,0,100,0,0
82607,-89.2857142857143,4,1,0,100,0,0
82675,-91.743119266055,4,1,0,100,0,0
82743,-94.3396226415097,4,1,0,100,0,0
82811,-97.0873786407766,4,1,0,100,0,0
82879,-99.9999999999999,4,1,0,100,0,0
83016,-108.695652173913,4,1,0,100,0,0
83084,-104.166666666667,4,1,0,100,0,0
83152,-99.9999999999999,4,1,0,100,0,0
83289,-97.0873786407766,4,1,0,100,0,0
83426,-94.3396226415097,4,1,0,100,0,0
83562,-91.743119266055,4,1,0,100,0,0
83698,-89.2857142857143,4,1,0,100,0,0
83835,-86.9565217391304,4,1,0,100,0,0
83971,-84.7457627118644,4,1,0,100,0,0
84107,-82.6446280991736,4,1,0,100,0,0
84244,-80.6451612903226,4,1,0,100,0,0
84380,-78.7401574803149,4,1,0,100,0,0
84516,-76.9230769230769,4,1,0,100,0,0
84653,-75.187969924812,4,1,0,100,0,0
84789,-73.5294117647059,4,1,0,100,0,0
84925,-71.9424460431655,4,1,0,100,0,0
85062,-70.4225352112676,4,1,0,100,0,0
85198,-68.9655172413793,4,1,0,100,0,0
85334,-70.4225352112676,4,1,0,100,0,0
85402,-71.9424460431655,4,1,0,100,0,0
85470,-73.5294117647059,4,1,0,100,0,0
85539,-75.187969924812,4,1,0,100,0,0
85607,-76.9230769230769,4,1,0,100,0,0
85675,-78.7401574803149,4,1,0,100,0,0
85743,-80.6451612903226,4,1,0,100,0,0
85811,-82.6446280991736,4,1,0,100,0,0
85879,-84.7457627118644,4,1,0,100,0,0
85948,-86.9565217391304,4,1,0,100,0,0
86016,-89.2857142857143,4,1,0,100,0,0
86084,-91.743119266055,4,1,0,100,0,0
86152,-94.3396226415097,4,1,0,100,0,0
86220,-97.0873786407766,4,1,0,100,0,0
86289,-99.9999999999999,4,1,0,100,0,0
86357,-103.092783505155,4,1,0,100,0,0
86425,-106.382978723404,4,1,0,100,0,0
87516,-66.6666666666667,4,1,0,100,0,0
87584,-100,4,1,0,100,0,0
88471,-111.111111111111,4,1,0,100,0,0
88607,-117.647058823529,4,1,0,100,0,0
88675,-113.636363636364,4,1,0,100,0,0
88743,-109.89010989011,4,1,0,100,0,0
88812,-106.382978723404,4,1,0,100,0,0
88880,-103.092783505155,4,1,0,100,0,0
89016,-100,4,1,0,100,0,0
89153,-83.3333333333333,4,1,0,100,0,0
89221,-85.4700854700855,4,1,0,100,0,0
89289,-87.719298245614,4,1,0,100,0,0
89357,-90.0900900900901,4,1,0,100,0,0
89425,-92.5925925925926,4,1,0,100,0,0
89562,-96.1538461538461,4,1,0,100,0,0
89698,-66.6666666666667,4,1,0,100,0,0
89766,-100,4,1,0,100,0,0
90788,-83.3333333333333,4,1,0,100,0,0
90856,-85.4700854700855,4,1,0,100,0,0
90924,-87.719298245614,4,1,0,100,0,0
90992,-90.0900900900901,4,1,0,100,0,0
91060,-92.5925925925926,4,1,0,100,0,0
91266,-90.9090909090909,4,1,0,100,0,0
91334,-89.2857142857143,4,1,0,100,0,0
91402,-90.0900900900901,4,1,0,100,0,0
91470,-87.719298245614,4,1,0,100,0,0
91538,-88.4955752212389,4,1,0,100,0,0
91607,-86.2068965517241,4,1,0,100,0,0
91675,-86.9565217391304,4,1,0,100,0,0
91743,-84.7457627118644,4,1,0,100,0,0
91879,-66.6666666666667,4,1,0,100,0,0
91948,-100,4,1,0,100,0,0
92834,-111.111111111111,4,1,0,100,0,0
92970,-117.647058823529,4,1,0,100,0,0
93038,-113.636363636364,4,1,0,100,0,0
93106,-109.89010989011,4,1,0,100,0,0
93175,-106.382978723404,4,1,0,100,0,0
93243,-103.092783505155,4,1,0,100,0,0
93379,-100,4,1,0,100,0,0
93516,-83.3333333333333,4,1,0,100,0,0
93584,-85.4700854700855,4,1,0,100,0,0
93652,-87.719298245614,4,1,0,100,0,0
93720,-90.0900900900901,4,1,0,100,0,0
93788,-92.5925925925926,4,1,0,100,0,0
93925,-96.1538461538461,4,1,0,100,0,0
94061,-66.6666666666667,4,1,0,100,0,0
94129,-100,4,1,0,100,0,0
95152,-71.4285714285714,4,1,0,100,0,0
95220,-74.6268656716418,4,1,0,100,0,0
95288,-78.125,4,1,0,100,0,0
95357,-81.9672131147541,4,1,0,100,0,0
95425,-86.2068965517241,4,1,0,100,0,0
95493,-90.9090909090908,4,1,0,100,0,0
95561,-96.1538461538461,4,1,0,100,0,0
95629,-102.040816326531,4,1,0,100,0,0
95698,-108.695652173913,4,1,0,100,0,0
95766,-116.279069767442,4,1,0,100,0,0
95834,-125,4,1,0,100,0,0
95902,-135.135135135135,4,1,0,100,0,0
95970,-147.058823529412,4,1,0,100,0,0
96243,-66.6666666666667,4,1,0,100,0,0
96311,-100,4,1,0,100,0,0
97198,-111.111111111111,4,1,0,100,0,0
97334,-117.647058823529,4,1,0,100,0,0
97402,-113.636363636364,4,1,0,100,0,0
97470,-109.89010989011,4,1,0,100,0,0
97539,-106.382978723404,4,1,0,100,0,0
97607,-103.092783505155,4,1,0,100,0,0
97743,-100,4,1,0,100,0,0
97880,-83.3333333333333,4,1,0,100,0,0
97948,-85.4700854700855,4,1,0,100,0,0
98016,-87.719298245614,4,1,0,100,0,0
98084,-90.0900900900901,4,1,0,100,0,0
98152,-92.5925925925926,4,1,0,100,0,0
98289,-96.1538461538461,4,1,0,100,0,0
98425,-66.6666666666667,4,1,0,100,0,0
99107,-74.0740740740741,4,1,0,100,0,0
99243,-83.3333333333333,4,1,0,100,0,0
99379,-86.9565217391304,4,1,0,100,0,0
99516,-83.3333333333333,4,1,0,100,0,0
99584,-85.4700854700855,4,1,0,100,0,0
99652,-87.719298245614,4,1,0,100,0,0
99720,-90.0900900900901,4,1,0,100,0,0
99788,-92.5925925925926,4,1,0,100,0,0
99994,-90.9090909090909,4,1,0,100,0,0
100062,-89.2857142857143,4,1,0,100,0,0
100130,-90.0900900900901,4,1,0,100,0,0
100198,-87.719298245614,4,1,0,100,0,0
100266,-88.4955752212389,4,1,0,100,0,0
100335,-86.2068965517241,4,1,0,100,0,0
100403,-86.9565217391304,4,1,0,100,0,0
100471,-84.7457627118644,4,1,0,100,0,0
100607,-66.6666666666667,4,1,0,100,0,0
100675,-100,4,1,0,100,0,0
101561,-111.111111111111,4,1,0,100,0,0
101697,-117.647058823529,4,1,0,100,0,0
101765,-113.636363636364,4,1,0,100,0,0
101833,-109.89010989011,4,1,0,100,0,0
101902,-106.382978723404,4,1,0,100,0,0
101970,-103.092783505155,4,1,0,100,0,0
102106,-100,4,1,0,100,0,0
102243,-83.3333333333333,4,1,0,100,0,0
102311,-85.4700854700855,4,1,0,100,0,0
102379,-87.719298245614,4,1,0,100,0,0
102447,-90.0900900900901,4,1,0,100,0,0
102515,-92.5925925925926,4,1,0,100,0,0
102652,-96.1538461538461,4,1,0,100,0,0
102788,-66.6666666666667,4,1,0,100,0,0
102856,-100,4,1,0,100,0,0
103879,-71.4285714285714,4,1,0,100,0,0
103947,-74.6268656716418,4,1,0,100,0,0
104015,-78.125,4,1,0,100,0,0
104084,-81.9672131147541,4,1,0,100,0,0
104152,-86.2068965517241,4,1,0,100,0,0
104220,-90.9090909090908,4,1,0,100,0,0
104288,-96.1538461538461,4,1,0,100,0,0
104356,-102.040816326531,4,1,0,100,0,0
104425,-108.695652173913,4,1,0,100,0,0
104493,-116.279069767442,4,1,0,100,0,0
104561,-125,4,1,0,100,0,0
104629,-135.135135135135,4,1,0,100,0,0
104697,-147.058823529412,4,1,0,100,0,0
104970,-50,4,1,0,100,0,0
105038,-100,4,1,0,100,0,0
106879,-50,4,1,0,100,0,0
106948,-100,4,1,0,100,0,0
107152,-50,4,1,0,100,0,0
107220,-100,4,1,0,100,0,0
108788,-50,4,1,0,100,0,0
108857,-100,4,1,0,100,0,0
109061,-50,4,1,0,100,0,0
109129,-100,4,1,0,100,0,0
109338,-50,4,1,0,100,0,0
109402,-100,4,1,0,100,0,0
110254,-105.263157894737,4,1,0,100,0,0
110425,-111.111111111111,4,1,0,100,0,0
110493,-108.695652173913,4,1,0,100,0,0
110561,-106.382978723404,4,1,0,100,0,0
110629,-104.166666666667,4,1,0,100,0,0
110698,-102.040816326531,4,1,0,100,0,0
110834,-100,4,1,0,100,0,0
110970,-90.9090909090909,4,1,0,100,0,0
111038,-92.5925925925926,4,1,0,100,0,0
111107,-94.3396226415094,4,1,0,100,0,0
111175,-96.1538461538461,4,1,0,100,0,0
111243,-98.0392156862745,4,1,0,100,0,0
111311,-100,4,1,0,100,0,0
111379,-102.040816326531,4,1,0,100,0,0
111516,-66.6666666666667,4,1,0,100,0,0
111584,-100,4,1,0,100,0,0
112470,-83.3333333333333,4,1,0,100,0,0
112538,-86.2068965517241,4,1,0,100,0,0
112607,-89.2857142857143,4,1,0,100,0,0
112675,-92.5925925925926,4,1,0,100,0,0
112743,-96.1538461538461,4,1,0,100,0,0
112879,-100,4,1,0,100,0,0
113016,-104.166666666667,4,1,0,100,0,0
113084,-108.695652173913,4,1,0,100,0,0
113152,-113.636363636364,4,1,0,100,0,0
113288,-119.047619047619,4,1,0,100,0,0
113425,-125,4,1,0,100,0,0
113698,-83.3333333333333,4,1,0,100,0,0
113766,-100,4,1,0,100,0,0
113834,-94.3396226415097,4,1,0,100,0,0
113902,-97.0873786407766,4,1,0,100,0,0
113970,-99.9999999999999,4,1,0,100,0,0
114107,-106.382978723404,4,1,0,100,0,0
114175,-103.092783505155,4,1,0,100,0,0
114243,-99.9999999999999,4,1,0,100,0,0
114379,-94.3396226415097,4,1,0,100,0,0
114448,-97.0873786407766,4,1,0,100,0,0
114516,-99.9999999999999,4,1,0,100,0,0
114652,-106.382978723404,4,1,0,100,0,0
114720,-103.092783505155,4,1,0,100,0,0
114788,-99.9999999999999,4,1,0,100,0,0
114925,-94.3396226415097,4,1,0,100,0,0
114993,-97.0873786407766,4,1,0,100,0,0
115061,-99.9999999999999,4,1,0,100,0,0
115198,-113.636363636364,4,1,0,100,0,0
115266,-111.111111111111,4,1,0,100,0,0
115334,-108.695652173913,4,1,0,100,0,0
115402,-106.382978723404,4,1,0,100,0,0
115470,-104.166666666667,4,1,0,100,0,0
115538,-102.040816326531,4,1,0,100,0,0
115607,-99.9999999999999,4,1,0,100,0,0
115675,-98.0392156862745,4,1,0,100,0,0
115743,-96.1538461538461,4,1,0,100,0,0
115811,-94.3396226415094,4,1,0,100,0,0
115879,-92.5925925925926,4,1,0,100,0,0
116016,-108.695652173913,4,1,0,100,0,0
116084,-104.166666666667,4,1,0,100,0,0
116152,-99.9999999999999,4,1,0,100,0,0
116288,-92.5925925925929,4,1,0,100,0,0
116357,-96.153846153846,4,1,0,100,0,0
116425,-99.9999999999999,4,1,0,100,0,0
116561,-108.695652173913,4,1,0,100,0,0
116629,-104.166666666667,4,1,0,100,0,0
116698,-99.9999999999999,4,1,0,100,0,0
116834,-92.5925925925929,4,1,0,100,0,0
116902,-96.153846153846,4,1,0,100,0,0
116970,-99.9999999999999,4,1,0,100,0,0
117107,-108.695652173913,4,1,0,100,0,0
117175,-104.166666666667,4,1,0,100,0,0
117243,-99.9999999999999,4,1,0,100,0,0
117379,-84.7457627118644,4,1,0,100,0,0
117448,-86.9565217391304,4,1,0,100,0,0
117516,-89.2857142857143,4,1,0,100,0,0
117584,-91.743119266055,4,1,0,100,0,0
117652,-100,4,1,0,100,0,0
117720,-98.0392156862745,4,1,0,100,0,0
117788,-96.1538461538461,4,1,0,100,0,0
117857,-94.3396226415094,4,1,0,100,0,0
117925,-92.5925925925926,4,1,0,100,0,0
117993,-90.9090909090909,4,1,0,100,0,0
118061,-89.2857142857143,4,1,0,100,0,0
118129,-87.719298245614,4,1,0,100,0,0
118198,-86.2068965517241,4,1,0,100,0,0
118266,-84.7457627118644,4,1,0,100,0,0
118334,-83.3333333333333,4,1,0,100,0,0
118402,-81.9672131147541,4,1,0,100,0,0
118470,-80.6451612903226,4,1,0,100,0,0
118538,-79.3650793650794,4,1,0,100,0,0
118607,-78.125,4,1,0,100,0,0
118675,-76.9230769230769,4,1,0,100,0,0
118743,-75.7575757575758,4,1,0,100,0,0
118811,-74.6268656716418,4,1,0,100,0,0
118879,-73.5294117647059,4,1,0,100,0,0
118948,-72.463768115942,4,1,0,100,0,0
119016,-71.4285714285714,4,1,0,100,0,0
119084,-70.4225352112676,4,1,0,100,0,0
119152,-69.4444444444444,4,1,0,100,0,0
119220,-68.4931506849315,4,1,0,100,0,0
119288,-67.5675675675676,4,1,0,100,0,0
119357,-66.6666666666667,4,1,0,100,0,0
119425,-65.7894736842105,4,1,0,100,0,0
119493,-64.9350649350649,4,1,0,100,0,0
119561,-64.1025641025641,4,1,0,100,0,0
119629,-63.2911392405063,4,1,0,100,0,0
119698,-62.5,4,1,0,100,0,0
119766,-61.7283950617284,4,1,0,100,0,0
119834,-60.9756097560976,4,1,0,100,0,0
119902,-60.2409638554217,4,1,0,100,0,0
119970,-59.5238095238095,4,1,0,100,0,0
120038,-58.8235294117647,4,1,0,100,0,0
120107,-58.1395348837209,4,1,0,100,0,0
120175,-57.4712643678161,4,1,0,100,0,0
120243,-56.8181818181818,4,1,0,100,0,0
120311,-57.8034682080925,4,1,0,100,0,0
120379,-58.8235294117647,4,1,0,100,0,0
120448,-59.8802395209581,4,1,0,100,0,0
120516,-60.9756097560976,4,1,0,100,0,0
120584,-62.111801242236,4,1,0,100,0,0
120652,-63.2911392405063,4,1,0,100,0,0
120720,-64.5161290322581,4,1,0,100,0,0
120788,-65.7894736842105,4,1,0,100,0,0
120857,-67.1140939597315,4,1,0,100,0,0
120925,-68.4931506849315,4,1,0,100,0,0
120993,-69.9300699300699,4,1,0,100,0,0
121061,-71.4285714285714,4,1,0,100,0,0
121129,-72.992700729927,4,1,0,100,0,0
121198,-74.6268656716418,4,1,0,100,0,0
121266,-76.3358778625954,4,1,0,100,0,0
121334,-78.125,4,1,0,100,0,0
121402,-80,4,1,0,100,0,0
121470,-81.9672131147541,4,1,0,100,0,0
121538,-84.0336134453781,4,1,0,100,0,0
121607,-86.2068965517241,4,1,0,100,0,0
121675,-88.4955752212389,4,1,0,100,0,0
121743,-90.9090909090909,4,1,0,100,0,0
121811,-93.4579439252336,4,1,0,100,0,0
121879,-96.1538461538461,4,1,0,100,0,0
121948,-99.009900990099,4,1,0,100,0,0
122016,-102.040816326531,4,1,0,100,0,0
122084,-105.263157894737,4,1,0,100,0,0
122152,-108.695652173913,4,1,0,100,0,0
122220,-112.359550561798,4,1,0,100,0,0
122288,-116.279069767442,4,1,0,100,0,0
122357,-120.481927710843,4,1,0,100,0,0
122425,-125,4,1,0,100,0,0
122459,272.727272727273,3,1,0,100,1,0
122459,-125,3,1,0,100,0,0
122493,-153.846153846154,3,1,0,100,0,0
134936,-151.515151515152,3,1,0,100,0,0
135072,-149.253731343284,3,1,0,100,0,0
135209,-147.058823529412,3,1,0,100,0,0
135345,-144.927536231884,3,1,0,100,0,0
135481,-142.857142857143,3,1,0,100,0,0
148027,-138.888888888889,3,1,0,100,0,0
148163,-135.135135135135,3,1,0,100,0,0
148299,-131.578947368421,3,1,0,100,0,0
148436,-128.205128205128,3,1,0,100,0,0
148572,-125,3,1,0,100,0,0
168209,-120.481927710843,3,1,0,100,0,0
168618,-116.279069767442,3,1,0,100,0,0
169027,-112.359550561798,3,1,0,100,0,0
169436,-108.695652173913,3,1,0,100,0,0
169845,-105.263157894737,3,1,0,100,0,0
170254,-102.040816326531,3,1,0,100,0,0
170663,-99.009900990099,3,1,0,100,0,0
171072,-96.1538461538461,3,1,0,100,0,0
171481,-93.4579439252336,3,1,0,100,0,0
171890,-90.9090909090909,3,1,0,100,0,0
172299,-88.4955752212389,3,1,0,100,0,0
172709,-86.2068965517241,3,1,0,100,0,0
173118,-84.0336134453781,3,1,0,100,0,0
173527,-81.9672131147541,3,1,0,100,0,0
173936,-80,3,1,0,100,0,0
174345,-78.125,3,1,0,100,0,0
174822,405.405405405405,4,1,0,100,1,0
175126,-97.0873786407767,4,1,0,100,0,0
175632,401.785714285714,3,1,0,100,1,8
175632,-94.3396226415094,3,1,0,100,0,0
175933,-91.743119266055,3,1,0,100,0,0
176435,398.230088495575,3,1,0,100,1,0
176435,-89.2857142857143,3,1,0,100,0,0
176733,-86.9565217391304,3,1,0,100,0,0
177231,394.736842105263,3,1,0,100,1,8
177231,-84.7457627118644,3,1,0,100,0,0
177527,-82.6446280991736,3,1,0,100,0,0
178020,398.229207457506,3,1,0,100,1,0
178020,-80.6451612903226,3,1,0,100,0,0
178318,-78.7401574803149,3,1,0,100,0,0
178816,401.786611130828,3,1,0,100,1,8
178816,-76.9230769230769,3,1,0,100,0,0
179117,-75.187969924812,3,1,0,100,0,0
179619,405.405405405405,3,1,0,100,1,0
179619,-73.5294117647059,3,1,0,100,0,0
179923,-72.463768115942,3,1,0,100,0,0
180429,409.090909090909,3,1,0,100,1,8
180429,-70.9219858156028,3,1,0,100,0,0
180735,-69.4444444444444,3,1,0,100,0,0
181247,193.548387096774,4,1,0,100,1,0
181247,-142.857142857143,4,1,0,100,0,0
182021,200,4,1,0,100,1,0
182021,-133.333333333333,4,1,0,100,0,0
182821,-125,4,1,0,100,0,0
184387,-117.647058823529,4,1,0,100,0,0
184454,-116.279069767442,4,1,0,100,0,0
184521,-114.942528735632,4,1,0,100,0,0
184587,-113.636363636364,4,1,0,100,0,0
184654,-112.359550561798,4,1,0,100,0,0
184721,-111.111111111111,4,1,0,100,0,0
184787,-109.89010989011,4,1,0,100,0,0
184854,-108.695652173913,4,1,0,100,0,0
184921,-107.52688172043,4,1,0,100,0,0
184987,-106.382978723404,4,1,0,100,0,0
185054,-105.263157894737,4,1,0,100,0,0
185121,-104.166666666667,4,1,0,100,0,0
185187,-103.092783505155,4,1,0,100,0,0
185254,-102.040816326531,4,1,0,100,0,0
185321,-101.010101010101,4,1,0,100,0,0
185387,-100,4,1,0,100,0,0
185454,-99.009900990099,4,1,0,100,0,0
185521,-98.0392156862745,4,1,0,100,0,0
185587,-97.0873786407767,4,1,0,100,0,0
185654,-96.1538461538461,4,1,0,100,0,0
185721,-95.2380952380952,4,1,0,100,0,0
185787,-94.3396226415094,4,1,0,100,0,0
185854,-93.4579439252336,4,1,0,100,0,0
185921,-92.5925925925926,4,1,0,100,0,0
185987,-91.743119266055,4,1,0,100,0,0
186071,-100,4,1,0,100,0,0
187571,-83.3333333333333,4,1,0,100,0,0
187671,-100,4,1,0,100,0,0
187871,-102.040816326531,4,1,0,100,0,0
187971,-104.166666666667,4,1,0,100,0,0
188071,-106.382978723404,4,1,0,100,0,0
188171,-108.695652173913,4,1,0,100,0,0
188371,-111.111111111111,4,1,0,100,0,0
188471,-113.636363636364,4,1,0,100,0,0
188571,-116.279069767442,4,1,0,100,0,0
188671,-119.047619047619,4,1,0,100,0,0
188771,-121.951219512195,4,1,0,100,0,0
188871,-125,4,1,0,100,0,0
188971,-128.205128205128,4,1,0,100,0,0
189171,-131.578947368421,4,1,0,100,0,0
189271,-135.135135135135,4,1,0,100,0,0
189371,-138.888888888889,4,1,0,100,0,0
189471,-142.857142857143,4,1,0,100,0,0
189596,-147.058823529412,4,1,0,100,0,0
189646,-151.515151515152,4,1,0,100,0,0
189696,-156.25,4,1,0,100,0,0
189796,-161.290322580645,4,1,0,100,0,0
189971,-166.666666666667,4,1,0,100,0,0
190071,-172.413793103448,4,1,0,100,0,0
190171,-178.571428571429,4,1,0,100,0,0
190271,-185.185185185185,4,1,0,100,0,0
190371,-192.307692307692,4,1,0,100,0,0
190471,-200,4,1,0,100,0,0
190571,-208.333333333333,4,1,0,100,0,0
190771,-83.3333333333333,4,1,0,100,0,0
190871,-100,4,1,0,100,0,0
191071,-102.040816326531,4,1,0,100,0,0
191171,-104.166666666667,4,1,0,100,0,0
191271,-106.382978723404,4,1,0,100,0,0
191371,-108.695652173913,4,1,0,100,0,0
191571,-111.111111111111,4,1,0,100,0,0
191671,-113.636363636364,4,1,0,100,0,0
191771,-116.279069767442,4,1,0,100,0,0
191871,-119.047619047619,4,1,0,100,0,0
191971,-121.951219512195,4,1,0,100,0,0
192371,-120.481927710843,4,1,0,100,0,0
192471,-119.047619047619,4,1,0,100,0,0
192596,-117.647058823529,4,1,0,100,0,0
192646,-116.279069767442,4,1,0,100,0,0
192696,-114.942528735632,4,1,0,100,0,0
192771,-113.636363636364,4,1,0,100,0,0
192871,-112.359550561798,4,1,0,100,0,0
192996,-111.111111111111,4,1,0,100,0,0
193046,-109.89010989011,4,1,0,100,0,0
193096,-108.695652173913,4,1,0,100,0,0
193171,-107.52688172043,4,1,0,100,0,0
193271,-106.382978723404,4,1,0,100,0,0
193371,-105.263157894737,4,1,0,100,0,0
193471,-104.166666666667,4,1,0,100,0,0
193596,-103.092783505155,4,1,0,100,0,0
193646,-102.040816326531,4,1,0,100,0,0
193696,-101.010101010101,4,1,0,100,0,0
193796,-100,4,1,0,100,0,0
193846,-99.009900990099,4,1,0,100,0,0
193896,-98.0392156862745,4,1,0,100,0,0
193996,-83.3333333333333,4,1,0,100,0,0
194046,-100,4,1,0,100,0,0
194271,-102.040816326531,4,1,0,100,0,0
194371,-104.166666666667,4,1,0,100,0,0
194471,-106.382978723404,4,1,0,100,0,0
194571,-108.695652173913,4,1,0,100,0,0
194771,-111.111111111111,4,1,0,100,0,0
194871,-113.636363636364,4,1,0,100,0,0
194971,-116.279069767442,4,1,0,100,0,0
195071,-119.047619047619,4,1,0,100,0,0
195171,-121.951219512195,4,1,0,100,0,0
195271,-125,4,1,0,100,0,0
195371,-128.205128205128,4,1,0,100,0,0
195571,-131.578947368421,4,1,0,100,0,0
195671,-135.135135135135,4,1,0,100,0,0
195771,-138.888888888889,4,1,0,100,0,0
195871,-142.857142857143,4,1,0,100,0,0
195996,-147.058823529412,4,1,0,100,0,0
196046,-151.515151515152,4,1,0,100,0,0
196096,-156.25,4,1,0,100,0,0
196196,-161.290322580645,4,1,0,100,0,0
196371,-166.666666666667,4,1,0,100,0,0
196471,-172.413793103448,4,1,0,100,0,0
196571,-178.571428571429,4,1,0,100,0,0
196671,-185.185185185185,4,1,0,100,0,0
196771,-192.307692307692,4,1,0,100,0,0
196871,-200,4,1,0,100,0,0
196971,-208.333333333333,4,1,0,100,0,0
197171,-83.3333333333333,4,1,0,100,0,0
197271,-100,4,1,0,100,0,0
197471,-102.040816326531,4,1,0,100,0,0
197571,-104.166666666667,4,1,0,100,0,0
197671,-106.382978723404,4,1,0,100,0,0
197771,-108.695652173913,4,1,0,100,0,0
197971,-111.111111111111,4,1,0,100,0,0
198071,-113.636363636364,4,1,0,100,0,0
198171,-116.279069767442,4,1,0,100,0,0
198271,-119.047619047619,4,1,0,100,0,0
198371,-121.951219512195,4,1,0,100,0,0
198771,-120.481927710843,4,1,0,100,0,0
198896,-119.047619047619,4,1,0,100,0,0
198946,-117.647058823529,4,1,0,100,0,0
198996,-116.279069767442,4,1,0,100,0,0
199071,-114.942528735632,4,1,0,100,0,0
199196,-113.636363636364,4,1,0,100,0,0
199246,-112.359550561798,4,1,0,100,0,0
199296,-111.111111111111,4,1,0,100,0,0
199371,-109.89010989011,4,1,0,100,0,0
199496,-108.695652173913,4,1,0,100,0,0
199546,-107.52688172043,4,1,0,100,0,0
199596,-106.382978723404,4,1,0,100,0,0
199671,-105.263157894737,4,1,0,100,0,0
199796,-104.166666666667,4,1,0,100,0,0
199846,-103.092783505155,4,1,0,100,0,0
199896,-102.040816326531,4,1,0,100,0,0
199996,-101.010101010101,4,1,0,100,0,0
200046,-100,4,1,0,100,0,0
200096,-99.009900990099,4,1,0,100,0,0
200146,-98.0392156862745,4,1,0,100,0,0
200196,-97.0873786407767,4,1,0,100,0,0
200296,-95.2380952380952,4,1,0,100,0,0
200371,-83.3333333333333,4,1,0,100,0,0
200471,-100,4,1,0,100,0,0
200571,-103.092783505155,4,1,0,100,0,0
200671,-106.382978723404,4,1,0,100,0,0
200771,-109.89010989011,4,1,0,100,0,0
200871,-113.636363636364,4,1,0,100,0,0
200971,-117.647058823529,4,1,0,100,0,0
201071,-121.951219512195,4,1,0,100,0,0
201171,-100,4,1,0,100,0,0
201271,-104.166666666667,4,1,0,100,0,0
201371,-108.695652173913,4,1,0,100,0,0
201471,-113.636363636364,4,1,0,100,0,0
201571,-119.047619047619,4,1,0,100,0,0
201971,-102.040816326531,4,1,0,100,0,0
202096,-104.166666666667,4,1,0,100,0,0
202146,-106.382978723404,4,1,0,100,0,0
202196,-108.695652173913,4,1,0,100,0,0
202296,-111.111111111111,4,1,0,100,0,0
202396,-113.636363636364,4,1,0,100,0,0
202496,-116.279069767442,4,1,0,100,0,0
202546,-119.047619047619,4,1,0,100,0,0
202596,-121.951219512195,4,1,0,100,0,0
202696,-125,4,1,0,100,0,0
202796,-100,4,1,0,100,0,0
202896,-103.092783505155,4,1,0,100,0,0
202996,-106.382978723404,4,1,0,100,0,0
203096,-109.89010989011,4,1,0,100,0,0
203196,-113.636363636364,4,1,0,100,0,0
203596,-83.3333333333333,4,1,0,100,0,0
203646,-100,4,1,0,100,0,0
203771,-103.092783505155,4,1,0,100,0,0
203871,-106.382978723404,4,1,0,100,0,0
203971,-109.89010989011,4,1,0,100,0,0
204071,-113.636363636364,4,1,0,100,0,0
204171,-117.647058823529,4,1,0,100,0,0
204271,-121.951219512195,4,1,0,100,0,0
204371,-100,4,1,0,100,0,0
204471,-104.166666666667,4,1,0,100,0,0
204571,-108.695652173913,4,1,0,100,0,0
204671,-113.636363636364,4,1,0,100,0,0
204771,-119.047619047619,4,1,0,100,0,0
205171,-117.647058823529,4,1,0,100,0,0
205296,-116.279069767442,4,1,0,100,0,0
205346,-114.942528735632,4,1,0,100,0,0
205396,-113.636363636364,4,1,0,100,0,0
205471,-112.359550561798,4,1,0,100,0,0
205596,-111.111111111111,4,1,0,100,0,0
205646,-109.89010989011,4,1,0,100,0,0
205696,-108.695652173913,4,1,0,100,0,0
205771,-107.52688172043,4,1,0,100,0,0
205871,-106.382978723404,4,1,0,100,0,0
205996,-105.263157894737,4,1,0,100,0,0
206046,-104.166666666667,4,1,0,100,0,0
206096,-103.092783505155,4,1,0,100,0,0
206171,-102.040816326531,4,1,0,100,0,0
206271,-101.010101010101,4,1,0,100,0,0
206396,-100,4,1,0,100,0,0
206446,-99.009900990099,4,1,0,100,0,0
206496,-98.0392156862745,4,1,0,100,0,0
206596,-97.0873786407767,4,1,0,100,0,0
206646,-96.1538461538461,4,1,0,100,0,0
206696,-95.2380952380952,4,1,0,100,0,0
206771,-83.3333333333333,4,1,0,100,0,0
206871,-125,4,1,0,100,0,0
208371,-100,4,1,0,100,0,0
208471,-117.647058823529,4,1,0,100,0,0
209971,-111.111111111111,4,1,0,100,0,0
211571,-99.9999999999999,4,1,0,100,0,0
211671,-99.009900990099,4,1,0,100,0,0
211771,-98.0392156862745,4,1,0,100,0,0
211871,-97.0873786407767,4,1,0,100,0,0
211971,-96.1538461538461,4,1,0,100,0,0
212071,-95.2380952380952,4,1,0,100,0,0
212171,-94.3396226415094,4,1,0,100,0,0
212271,-93.4579439252336,4,1,0,100,0,0
212371,-92.5925925925926,4,1,0,100,0,0
212471,-91.743119266055,4,1,0,100,0,0
212571,-90.9090909090909,4,1,0,100,0,0
212671,-90.0900900900901,4,1,0,100,0,0
212771,-89.2857142857143,4,1,0,100,0,0
213271,-100,4,1,0,100,0,0
214571,-83.3333333333333,4,1,0,100,0,0
214671,-100,4,1,0,100,0,0
214771,-83.3333333333333,4,1,0,100,0,0
214871,-100,4,1,0,100,0,0
215971,-80,4,1,0,100,0,0
216071,-100,4,1,0,100,0,0
216171,-76.9230769230769,4,1,0,100,0,0
216271,-100,4,1,0,100,0,0
216371,-71.4285714285714,4,1,0,100,0,0
217921,-125,4,1,0,100,0,0
219571,-111.111111111111,4,1,0,100,0,0
225971,-83.3333333333333,4,1,0,100,0,0
226071,-100,4,1,0,100,0,0
226271,-102.040816326531,4,1,0,100,0,0
226371,-104.166666666667,4,1,0,100,0,0
226571,-106.382978723404,4,1,0,100,0,0
226771,-108.695652173913,4,1,0,100,0,0
226971,-111.111111111111,4,1,0,100,0,0
227071,-113.636363636364,4,1,0,100,0,0
227171,-116.279069767442,4,1,0,100,0,0
227371,-119.047619047619,4,1,0,100,0,0
227571,-83.3333333333333,4,1,0,100,0,0
227671,-100,4,1,0,100,0,0
227871,-102.040816326531,4,1,0,100,0,0
227971,-104.166666666667,4,1,0,100,0,0
228171,-106.382978723404,4,1,0,100,0,0
228471,-104.166666666667,4,1,0,100,0,0
228571,-102.040816326531,4,1,0,100,0,0
228671,-100,4,1,0,100,0,0
228771,-98.0392156862745,4,1,0,100,0,0
228896,-96.1538461538461,4,1,0,100,0,0
228946,-94.3396226415094,4,1,0,100,0,0
228996,-92.5925925925926,4,1,0,100,0,0
229071,-90.9090909090909,4,1,0,100,0,0
229171,-83.3333333333333,4,1,0,100,0,0
229271,-100,4,1,0,100,0,0
229471,-102.040816326531,4,1,0,100,0,0
229571,-104.166666666667,4,1,0,100,0,0
229771,-106.382978723404,4,1,0,100,0,0
229971,-108.695652173913,4,1,0,100,0,0
230171,-111.111111111111,4,1,0,100,0,0
230271,-113.636363636364,4,1,0,100,0,0
230371,-116.279069767442,4,1,0,100,0,0
230571,-119.047619047619,4,1,0,100,0,0
230671,-121.951219512195,4,1,0,100,0,0
230871,-119.047619047619,4,1,0,100,0,0
230996,-116.279069767442,4,1,0,100,0,0
231046,-113.636363636364,4,1,0,100,0,0
231096,-111.111111111111,4,1,0,100,0,0
231171,-108.695652173913,4,1,0,100,0,0
231371,-106.382978723404,4,1,0,100,0,0
231471,-104.166666666667,4,1,0,100,0,0
231571,-102.040816326531,4,1,0,100,0,0
231696,-100,4,1,0,100,0,0
231746,-98.0392156862745,4,1,0,100,0,0
231796,-96.1538461538461,4,1,0,100,0,0
231871,-94.3396226415094,4,1,0,100,0,0
231996,-92.5925925925929,4,1,0,100,0,0
232046,-90.9090909090909,4,1,0,100,0,0
232096,-89.2857142857143,4,1,0,100,0,0
232196,-87.719298245614,4,1,0,100,0,0
232246,-86.2068965517241,4,1,0,100,0,0
232296,-84.7457627118643,4,1,0,100,0,0
232371,-83.3333333333333,4,1,0,100,0,0
232471,-108.695652173913,4,1,0,100,0,0
232671,-102.040816326531,4,1,0,100,0,0
232771,-104.166666666667,4,1,0,100,0,0
232971,-106.382978723404,4,1,0,100,0,0
233171,-108.695652173913,4,1,0,100,0,0
233371,-111.111111111111,4,1,0,100,0,0
233471,-113.636363636364,4,1,0,100,0,0
233571,-116.279069767442,4,1,0,100,0,0
233771,-119.047619047619,4,1,0,100,0,0
233971,-83.3333333333333,4,1,0,100,0,0
234071,-100,4,1,0,100,0,0
234271,-102.040816326531,4,1,0,100,0,0
234371,-104.166666666667,4,1,0,100,0,0
234571,-106.382978723404,4,1,0,100,0,0
234871,-104.166666666667,4,1,0,100,0,0
234971,-102.040816326531,4,1,0,100,0,0
235071,-100,4,1,0,100,0,0
235171,-98.0392156862745,4,1,0,100,0,0
235296,-96.1538461538461,4,1,0,100,0,0
235346,-94.3396226415094,4,1,0,100,0,0
235396,-92.5925925925926,4,1,0,100,0,0
235471,-90.9090909090909,4,1,0,100,0,0
235571,-99.009900990099,4,1,0,100,0,0
235671,-98.0392156862745,4,1,0,100,0,0
235771,-97.0873786407767,4,1,0,100,0,0
235871,-96.1538461538461,4,1,0,100,0,0
235971,-95.2380952380952,4,1,0,100,0,0
236071,-94.3396226415094,4,1,0,100,0,0
236171,-93.4579439252336,4,1,0,100,0,0
236271,-92.5925925925926,4,1,0,100,0,0
236371,-91.743119266055,4,1,0,100,0,0
236471,-90.9090909090909,4,1,0,100,0,0
236571,-90.0900900900901,4,1,0,100,0,0
236671,-89.2857142857143,4,1,0,100,0,0
236771,-88.4955752212389,4,1,0,100,0,0
236871,-87.719298245614,4,1,0,100,0,0
236971,-86.9565217391304,4,1,0,100,0,0
237071,-86.2068965517241,4,1,0,100,0,0
237171,-84.0336134453781,4,1,0,100,0,0
237571,-81.9672131147541,4,1,0,100,0,0
237971,-80,4,1,0,100,0,0
261221,218.181818181818,4,1,0,100,1,0
262093,240,4,1,0,100,1,0
263053,285.714285714286,4,1,0,100,1,0
264195,375,4,1,0,100,1,0
264945,413.793103448276,4,1,0,100,1,0
265358,461.538461538462,4,1,0,100,1,0

[HitObjects]
256,192,278,5,0,0:0:0:0:
256,192,550,1,0,0:0:0:0:
256,192,687,1,0,0:0:0:0:
256,192,823,1,8,0:0:0:0:
256,192,1096,1,8,0:0:0:0:
256,192,1368,1,0,0:0:0:0:
256,192,1505,1,0,0:0:0:0:
256,192,1641,1,8,0:0:0:0:
256,192,1914,1,8,0:0:0:0:
256,192,2187,1,0,0:0:0:0:
256,192,2459,5,0,0:0:0:0:
256,192,2732,1,0,0:0:0:0:
256,192,2868,1,0,0:0:0:0:
256,192,3005,1,8,0:0:0:0:
256,192,3278,1,8,0:0:0:0:
256,192,3550,1,0,0:0:0:0:
256,192,3687,1,0,0:0:0:0:
256,192,3823,1,8,0:0:0:0:
256,192,4096,1,8,0:0:0:0:
256,192,4368,1,0,0:0:0:0:
256,192,4641,1,8,0:0:0:0:
256,192,4914,1,8,0:0:0:0:
256,192,5050,1,0,0:0:0:0:
256,192,5187,1,8,0:0:0:0:
256,192,5459,1,8,0:0:0:0:
256,192,5732,1,8,0:0:0:0:
256,192,5868,1,0,0:0:0:0:
256,192,6005,1,8,0:0:0:0:
256,192,6278,1,8,0:0:0:0:
256,192,6550,1,0,0:0:0:0:
256,192,6823,1,8,0:0:0:0:
256,192,7096,1,8,0:0:0:0:
256,192,7232,1,0,0:0:0:0:
256,192,7368,1,8,0:0:0:0:
256,192,7641,1,8,0:0:0:0:
256,192,7914,1,8,0:0:0:0:
256,192,8050,1,0,0:0:0:0:
256,192,8187,1,8,0:0:0:0:
256,192,8459,1,8,0:0:0:0:
256,192,8732,1,8,0:0:0:0:
256,192,9005,1,0,0:0:0:0:
256,192,9278,1,0,0:0:0:0:
256,192,9414,1,0,0:0:0:0:
256,192,9550,1,8,0:0:0:0:
256,192,9823,1,8,0:0:0:0:
256,192,10096,1,0,0:0:0:0:
256,192,10232,1,0,0:0:0:0:
256,192,10368,1,8,0:0:0:0:
256,192,10641,1,8,0:0:0:0:
256,192,10914,1,0,0:0:0:0:
256,192,11187,5,0,0:0:0:0:
256,192,11459,1,0,0:0:0:0:
256,192,11596,1,0,0:0:0:0:
256,192,11732,1,8,0:0:0:0:
256,192,12005,1,8,0:0:0:0:
256,192,12278,1,0,0:0:0:0:
256,192,12414,1,0,0:0:0:0:
256,192,12550,1,8,0:0:0:0:
256,192,12823,1,8,0:0:0:0:
256,192,13096,1,0,0:0:0:0:
256,192,13368,1,8,0:0:0:0:
256,192,13641,1,8,0:0:0:0:
256,192,13778,1,0,0:0:0:0:
256,192,13914,1,8,0:0:0:0:
256,192,14187,1,8,0:0:0:0:
256,192,14459,1,8,0:0:0:0:
256,192,14596,1,0,0:0:0:0:
256,192,14732,1,8,0:0:0:0:
256,192,15005,1,8,0:0:0:0:
256,192,15278,1,0,0:0:0:0:
256,192,15550,1,8,0:0:0:0:
256,192,15823,1,8,0:0:0:0:
256,192,15959,1,0,0:0:0:0:
256,192,16096,1,8,0:0:0:0:
256,192,16368,1,8,0:0:0:0:
256,192,16641,1,8,0:0:0:0:
256,192,16778,1,0,0:0:0:0:
256,192,16914,1,8,0:0:0:0:
256,192,17187,1,8,0:0:0:0:
256,192,17459,1,8,0:0:0:0:
256,192,17732,1,4,0:0:0:0:
256,192,18005,1,0,0:0:0:0:
256,192,18141,1,0,0:0:0:0:
256,192,18278,1,12,0:0:0:0:
256,192,18550,1,4,0:0:0:0:
256,192,18823,1,8,0:0:0:0:
256,192,18959,1,8,0:0:0:0:
256,192,19096,1,4,0:0:0:0:
256,192,19368,1,12,0:0:0:0:
256,192,19914,1,4,0:0:0:0:
256,192,20187,1,0,0:0:0:0:
256,192,20323,1,0,0:0:0:0:
256,192,20459,1,12,0:0:0:0:
256,192,20732,1,4,0:0:0:0:
256,192,21005,1,8,0:0:0:0:
256,192,21141,1,8,0:0:0:0:
256,192,21278,1,4,0:0:0:0:
256,192,21550,1,12,0:0:0:0:
256,192,22096,1,4,0:0:0:0:
256,192,22368,1,8,0:0:0:0:
256,192,22505,1,0,0:0:0:0:
256,192,22641,1,12,0:0:0:0:
256,192,22914,1,4,0:0:0:0:
256,192,23187,1,0,0:0:0:0:
256,192,23323,1,8,0:0:0:0:
256,192,23459,1,4,0:0:0:0:
256,192,23732,1,12,0:0:0:0:
256,192,24278,1,4,0:0:0:0:
256,192,24550,1,8,0:0:0:0:
256,192,24687,1,0,0:0:0:0:
256,192,24823,1,12,0:0:0:0:
256,192,25096,1,4,0:0:0:0:
256,192,25368,1,0,0:0:0:0:
256,192,25505,1,8,0:0:0:0:
256,192,25641,1,4,0:0:0:0:
256,192,25914,1,12,0:0:0:0:
256,192,26187,1,8,0:0:0:0:
256,192,26459,1,4,0:0:0:0:
256,192,26732,1,0,0:0:0:0:
256,192,26868,1,0,0:0:0:0:
256,192,27005,1,12,0:0:0:0:
256,192,27278,1,4,0:0:0:0:
256,192,27550,1,8,0:0:0:0:
256,192,27687,1,8,0:0:0:0:
256,192,27823,1,4,0:0:0:0:
256,192,28096,1,12,0:0:0:0:
256,192,28641,1,4,0:0:0:0:
256,192,28914,1,0,0:0:0:0:
256,192,29050,1,0,0:0:0:0:
256,192,29187,1,12,0:0:0:0:
256,192,29459,1,4,0:0:0:0:
256,192,29732,1,8,0:0:0:0:
256,192,29868,1,8,0:0:0:0:
256,192,30005,1,4,0:0:0:0:
256,192,30278,1,12,0:0:0:0:
256,192,30823,1,4,0:0:0:0:
256,192,31096,1,8,0:0:0:0:
256,192,31232,1,0,0:0:0:0:
256,192,31368,1,12,0:0:0:0:
256,192,31641,1,4,0:0:0:0:
256,192,31914,1,0,0:0:0:0:
256,192,32050,1,8,0:0:0:0:
256,192,32187,1,4,0:0:0:0:
256,192,32459,1,12,0:0:0:0:
256,192,33005,1,4,0:0:0:0:
256,192,33278,1,8,0:0:0:0:
256,192,33414,1,0,0:0:0:0:
256,192,33550,1,12,0:0:0:0:
256,192,33823,1,4,0:0:0:0:
256,192,34096,1,0,0:0:0:0:
256,192,34232,1,8,0:0:0:0:
256,192,34368,1,4,0:0:0:0:
256,192,34641,1,12,0:0:0:0:
256,192,34914,1,8,0:0:0:0:
256,192,35050,1,8,0:0:0:0:
256,192,35187,1,4,0:0:0:0:
256,192,35323,5,8,0:0:0:0:
256,192,35391,1,8,0:0:0:0:
256,192,35459,1,0,0:0:0:0:
256,192,35596,1,0,0:0:0:0:
256,192,35664,1,0,0:0:0:0:
256,192,35732,1,8,0:0:0:0:
256,192,35868,1,8,0:0:0:0:
256,192,35937,1,8,0:0:0:0:
256,192,36005,1,0,0:0:0:0:
256,192,36141,1,0,0:0:0:0:
256,192,36209,1,0,0:0:0:0:
256,192,36278,1,8,0:0:0:0:
256,192,36414,1,8,0:0:0:0:
256,192,36482,1,8,0:0:0:0:
256,192,36550,1,0,0:0:0:0:
256,192,36687,1,0,0:0:0:0:
256,192,36755,1,0,0:0:0:0:
256,192,36823,1,8,0:0:0:0:
256,192,36891,1,8,0:0:0:0:
256,192,36959,1,0,0:0:0:0:
256,192,37028,1,0,0:0:0:0:
256,192,37096,1,8,0:0:0:0:
256,192,37232,1,8,0:0:0:0:
256,192,37300,1,8,0:0:0:0:
256,192,37368,1,0,0:0:0:0:
256,192,37505,1,0,0:0:0:0:
256,192,37573,1,0,0:0:0:0:
256,192,37641,1,8,0:0:0:0:
256,192,37778,1,8,0:0:0:0:
256,192,37846,1,8,0:0:0:0:
256,192,37914,1,0,0:0:0:0:
256,192,38050,1,0,0:0:0:0:
256,192,38118,1,0,0:0:0:0:
256,192,38187,1,8,0:0:0:0:
256,192,38323,1,8,0:0:0:0:
256,192,38391,1,8,0:0:0:0:
256,192,38459,1,0,0:0:0:0:
256,192,38596,1,0,0:0:0:0:
256,192,38664,1,0,0:0:0:0:
256,192,38732,1,8,0:0:0:0:
256,192,38868,1,8,0:0:0:0:
256,192,38937,1,8,0:0:0:0:
256,192,39005,1,0,0:0:0:0:
256,192,39073,1,0,0:0:0:0:
256,192,39141,1,0,0:0:0:0:
256,192,39209,1,0,0:0:0:0:
256,192,39278,1,8,0:0:0:0:
256,192,39414,1,8,0:0:0:0:
256,192,39482,1,8,0:0:0:0:
256,192,39550,5,0,0:0:0:0:
256,192,39687,1,8,0:0:0:0:
256,192,39823,1,0,0:0:0:0:
256,192,39959,1,8,0:0:0:0:
256,192,40096,1,0,0:0:0:0:
256,192,40232,1,8,0:0:0:0:
256,192,40368,1,0,0:0:0:0:
256,192,40505,1,8,0:0:0:0:
256,192,40641,1,0,0:0:0:0:
256,192,40778,1,8,0:0:0:0:
256,192,40914,1,0,0:0:0:0:
256,192,41050,1,8,0:0:0:0:
256,192,41187,1,0,0:0:0:0:
256,192,41323,1,8,0:0:0:0:
256,192,41459,1,0,0:0:0:0:
256,192,41596,1,8,0:0:0:0:
256,192,41732,5,0,0:0:0:0:
256,192,41800,1,0,0:0:0:0:
256,192,41868,1,8,0:0:0:0:
256,192,41937,1,8,0:0:0:0:
256,192,42005,1,0,0:0:0:0:
256,192,42073,1,0,0:0:0:0:
256,192,42141,1,8,0:0:0:0:
256,192,42209,1,8,0:0:0:0:
256,192,42278,1,0,0:0:0:0:
256,192,42346,1,0,0:0:0:0:
256,192,42414,1,8,0:0:0:0:
256,192,42482,1,8,0:0:0:0:
256,192,42550,1,0,0:0:0:0:
256,192,42618,1,0,0:0:0:0:
256,192,42687,1,8,0:0:0:0:
256,192,42755,1,8,0:0:0:0:
256,192,42823,1,0,0:0:0:0:
256,192,43914,1,4,0:0:0:0:
256,192,44323,1,0,0:0:0:0:
256,192,44459,1,12,0:0:0:0:
256,192,44596,1,8,0:0:0:0:
256,192,44732,1,4,0:0:0:0:
256,192,45141,1,8,0:0:0:0:
256,192,45278,1,4,0:0:0:0:
256,192,45414,1,0,0:0:0:0:
256,192,45550,1,12,0:0:0:0:
256,192,45687,1,0,0:0:0:0:
256,192,45823,1,8,0:0:0:0:
256,192,46096,5,4,0:0:0:0:
256,192,46232,1,8,0:0:0:0:
256,192,46300,1,8,0:0:0:0:
256,192,46368,1,8,0:0:0:0:
256,192,46505,1,0,0:0:0:0:
256,192,46641,1,12,0:0:0:0:
256,192,46778,1,8,0:0:0:0:
256,192,46846,1,8,0:0:0:0:
256,192,46914,1,0,0:0:0:0:
256,192,47323,5,8,0:0:0:0:
256,192,47459,1,4,0:0:0:0:
256,192,47596,1,0,0:0:0:0:
256,192,47664,1,0,0:0:0:0:
256,192,47732,1,8,0:0:0:0:
256,192,47868,1,0,0:0:0:0:
256,192,48005,1,8,0:0:0:0:
256,192,48278,1,4,0:0:0:0:
256,192,48687,1,0,0:0:0:0:
256,192,48823,1,12,0:0:0:0:
256,192,48959,1,0,0:0:0:0:
256,192,49096,1,4,0:0:0:0:
256,192,49505,1,8,0:0:0:0:
256,192,49641,1,4,0:0:0:0:
256,192,49778,1,0,0:0:0:0:
256,192,49914,1,12,0:0:0:0:
256,192,50187,1,8,0:0:0:0:
256,192,50323,1,8,0:0:0:0:
256,192,50459,5,4,0:0:0:0:
256,192,50596,1,8,0:0:0:0:
256,192,50664,1,8,0:0:0:0:
256,192,50732,1,0,0:0:0:0:
256,192,50868,1,0,0:0:0:0:
256,192,51005,1,12,0:0:0:0:
256,192,51141,1,8,0:0:0:0:
256,192,51278,1,4,0:0:0:0:
256,192,51414,1,0,0:0:0:0:
256,192,51482,1,0,0:0:0:0:
256,192,51550,1,8,0:0:0:0:
256,192,51618,1,8,0:0:0:0:
256,192,51687,1,0,0:0:0:0:
256,192,51823,1,4,0:0:0:0:
256,192,51959,1,0,0:0:0:0:
256,192,52096,1,12,0:0:0:0:
256,192,52232,1,0,0:0:0:0:
256,192,52300,1,0,0:0:0:0:
256,192,52368,1,8,0:0:0:0:
256,192,52437,1,0,0:0:0:0:
256,192,52505,1,8,0:0:0:0:
256,192,52641,5,4,0:0:0:0:
256,192,53050,1,0,0:0:0:0:
256,192,53187,1,12,0:0:0:0:
256,192,53323,1,8,0:0:0:0:
256,192,53459,1,4,0:0:0:0:
256,192,53868,1,8,0:0:0:0:
256,192,54005,1,4,0:0:0:0:
256,192,54141,1,0,0:0:0:0:
256,192,54278,1,12,0:0:0:0:
256,192,54414,1,0,0:0:0:0:
256,192,54550,1,8,0:0:0:0:
256,192,54823,1,4,0:0:0:0:
256,192,54959,1,8,0:0:0:0:
256,192,55028,1,8,0:0:0:0:
256,192,55096,1,0,0:0:0:0:
256,192,55232,1,0,0:0:0:0:
256,192,55368,1,12,0:0:0:0:
256,192,55505,1,8,0:0:0:0:
256,192,55573,1,8,0:0:0:0:
256,192,55641,1,0,0:0:0:0:
256,192,56050,1,8,0:0:0:0:
256,192,56187,1,4,0:0:0:0:
256,192,56323,1,0,0:0:0:0:
256,192,56391,1,0,0:0:0:0:
256,192,56459,1,8,0:0:0:0:
256,192,56596,1,0,0:0:0:0:
256,192,56732,1,8,0:0:0:0:
256,192,57005,1,4,0:0:0:0:
256,192,57414,1,0,0:0:0:0:
256,192,57550,1,12,0:0:0:0:
256,192,57687,1,0,0:0:0:0:
256,192,57823,1,4,0:0:0:0:
256,192,58232,1,8,0:0:0:0:
256,192,58368,1,4,0:0:0:0:
256,192,58505,1,0,0:0:0:0:
256,192,58641,1,12,0:0:0:0:
256,192,58914,1,8,0:0:0:0:
256,192,59050,1,8,0:0:0:0:
256,192,59187,5,4,0:0:0:0:
256,192,59323,1,8,0:0:0:0:
256,192,59391,1,8,0:0:0:0:
256,192,59459,1,0,0:0:0:0:
256,192,59596,1,0,0:0:0:0:
256,192,59732,1,12,0:0:0:0:
256,192,59868,1,8,0:0:0:0:
256,192,60005,1,4,0:0:0:0:
256,192,60141,1,0,0:0:0:0:
256,192,60209,1,0,0:0:0:0:
256,192,60278,1,8,0:0:0:0:
256,192,60346,1,8,0:0:0:0:
256,192,60414,1,0,0:0:0:0:
256,192,60550,1,4,0:0:0:0:
256,192,60687,1,0,0:0:0:0:
256,192,60823,1,12,0:0:0:0:
256,192,60959,1,0,0:0:0:0:
256,192,61028,1,0,0:0:0:0:
256,192,61096,1,8,0:0:0:0:
256,192,61164,1,0,0:0:0:0:
256,192,61232,1,8,0:0:0:0:
256,192,61368,1,4,0:0:0:0:
256,192,61505,1,0,0:0:0:0:
256,192,61573,1,0,0:0:0:0:
256,192,61641,1,8,0:0:0:0:
256,192,61778,1,0,0:0:0:0:
256,192,61914,1,8,0:0:0:0:
256,192,61982,1,8,0:0:0:0:
256,192,62050,1,8,0:0:0:0:
256,192,62118,1,8,0:0:0:0:
256,192,62187,1,0,0:0:0:0:
256,192,62323,1,0,0:0:0:0:
256,192,62459,1,8,0:0:0:0:
256,192,62528,1,8,0:0:0:0:
256,192,62596,1,8,0:0:0:0:
256,192,62664,1,8,0:0:0:0:
256,192,62732,1,0,0:0:0:0:
256,192,62868,1,0,0:0:0:0:
256,192,63005,1,8,0:0:0:0:
256,192,63278,1,12,0:0:0:0:
256,192,63550,1,4,0:0:0:0:
256,192,63687,1,0,0:0:0:0:
256,192,63755,1,0,0:0:0:0:
256,192,63823,1,8,0:0:0:0:
256,192,63959,1,0,0:0:0:0:
256,192,64096,1,8,0:0:0:0:
256,192,64164,1,8,0:0:0:0:
256,192,64232,1,8,0:0:0:0:
256,192,64300,1,8,0:0:0:0:
256,192,64368,1,0,0:0:0:0:
256,192,64505,1,0,0:0:0:0:
256,192,64641,1,8,0:0:0:0:
256,192,64709,1,8,0:0:0:0:
256,192,64778,1,8,0:0:0:0:
256,192,64846,1,8,0:0:0:0:
256,192,64914,1,0,0:0:0:0:
256,192,64982,1,0,0:0:0:0:
256,192,65050,1,0,0:0:0:0:
256,192,65118,1,0,0:0:0:0:
256,192,65187,1,8,0:0:0:0:
256,192,65459,1,12,0:0:0:0:
256,192,65732,1,4,0:0:0:0:
256,192,65868,1,0,0:0:0:0:
256,192,65937,1,0,0:0:0:0:
256,192,66005,1,8,0:0:0:0:
256,192,66141,1,0,0:0:0:0:
256,192,66278,1,8,0:0:0:0:
256,192,66346,1,8,0:0:0:0:
256,192,66414,1,8,0:0:0:0:
256,192,66482,1,8,0:0:0:0:
256,192,66550,1,0,0:0:0:0:
256,192,66687,1,0,0:0:0:0:
256,192,66823,1,8,0:0:0:0:
256,192,66891,1,8,0:0:0:0:
256,192,66959,1,8,0:0:0:0:
256,192,67028,1,8,0:0:0:0:
256,192,67096,1,0,0:0:0:0:
256,192,67164,1,0,0:0:0:0:
256,192,67232,1,0,0:0:0:0:
256,192,67300,1,0,0:0:0:0:
256,192,67368,1,8,0:0:0:0:
256,192,67505,1,0,0:0:0:0:
256,192,67641,5,8,0:0:0:0:
256,192,67709,1,8,0:0:0:0:
256,192,67778,1,8,0:0:0:0:
256,192,67846,1,8,0:0:0:0:
256,192,67914,1,0,0:0:0:0:
256,192,67982,1,0,0:0:0:0:
256,192,68050,1,0,0:0:0:0:
256,192,68118,1,0,0:0:0:0:
256,192,68187,1,8,0:0:0:0:
256,192,68255,1,8,0:0:0:0:
256,192,68323,1,0,0:0:0:0:
256,192,68391,1,0,0:0:0:0:
256,192,68459,1,8,0:0:0:0:
256,192,68528,1,8,0:0:0:0:
256,192,68596,1,0,0:0:0:0:
256,192,68732,5,0,0:0:0:0:
256,192,68800,1,0,0:0:0:0:
256,192,68868,1,8,0:0:0:0:
256,192,68937,1,8,0:0:0:0:
256,192,69005,1,0,0:0:0:0:
256,192,69073,1,0,0:0:0:0:
256,192,69141,1,0,0:0:0:0:
256,192,69209,1,0,0:0:0:0:
256,192,69278,1,8,0:0:0:0:
256,192,69346,1,8,0:0:0:0:
256,192,69414,1,0,0:0:0:0:
256,192,69482,1,0,0:0:0:0:
256,192,69550,1,8,0:0:0:0:
256,192,69618,1,8,0:0:0:0:
256,192,69687,1,8,0:0:0:0:
256,192,69755,1,8,0:0:0:0:
256,192,69823,1,0,0:0:0:0:
256,192,69959,1,8,0:0:0:0:
256,192,70096,1,4,0:0:0:0:
256,192,70505,1,0,0:0:0:0:
256,192,70641,1,12,0:0:0:0:
256,192,70778,1,0,0:0:0:0:
256,192,70914,1,8,0:0:0:0:
256,192,70982,1,0,0:0:0:0:
256,192,71050,1,8,0:0:0:0:
256,192,71118,1,0,0:0:0:0:
256,192,71187,1,8,0:0:0:0:
256,192,71255,1,0,0:0:0:0:
256,192,71323,1,8,0:0:0:0:
256,192,71391,1,0,0:0:0:0:
256,192,71459,1,8,0:0:0:0:
256,192,71527,1,0,0:0:0:0:
256,192,71595,1,8,0:0:0:0:
256,192,71663,1,0,0:0:0:0:
256,192,71732,1,8,0:0:0:0:
256,192,72005,1,12,0:0:0:0:
256,192,72278,1,4,0:0:0:0:
256,192,72414,1,8,0:0:0:0:
256,192,72550,1,4,0:0:0:0:
256,192,72687,1,0,0:0:0:0:
256,192,72823,1,8,0:0:0:0:
256,192,72891,1,8,0:0:0:0:
256,192,72959,1,0,0:0:0:0:
256,192,73028,1,0,0:0:0:0:
256,192,73096,1,8,0:0:0:0:
256,192,73164,1,0,0:0:0:0:
256,192,73232,1,8,0:0:0:0:
256,192,73300,1,0,0:0:0:0:
256,192,73368,1,8,0:0:0:0:
256,192,73437,1,0,0:0:0:0:
256,192,73505,1,8,0:0:0:0:
256,192,73573,1,0,0:0:0:0:
256,192,73641,1,8,0:0:0:0:
256,192,73709,1,0,0:0:0:0:
256,192,73777,1,8,0:0:0:0:
256,192,73846,1,0,0:0:0:0:
256,192,73914,1,8,0:0:0:0:
256,192,74187,1,12,0:0:0:0:
256,192,74459,1,4,0:0:0:0:
256,192,74868,1,0,0:0:0:0:
256,192,75005,1,12,0:0:0:0:
256,192,75141,1,0,0:0:0:0:
256,192,75278,1,0,0:0:0:0:
256,192,75346,1,0,0:0:0:0:
256,192,75414,1,8,0:0:0:0:
256,192,75482,1,0,0:0:0:0:
256,192,75550,1,8,0:0:0:0:
256,192,75618,1,0,0:0:0:0:
256,192,75687,1,8,0:0:0:0:
256,192,75755,1,0,0:0:0:0:
256,192,75823,1,8,0:0:0:0:
256,192,75891,1,0,0:0:0:0:
256,192,75959,1,8,0:0:0:0:
256,192,76027,1,0,0:0:0:0:
256,192,76095,1,8,0:0:0:0:
256,192,76368,1,8,0:0:0:0:
256,192,76505,1,8,0:0:0:0:
256,192,76641,1,4,0:0:0:0:
256,192,76778,1,8,0:0:0:0:
256,192,76914,1,8,0:0:0:0:
256,192,77050,1,8,0:0:0:0:
256,192,77187,1,4,0:0:0:0:
256,192,77323,1,8,0:0:0:0:
256,192,77459,1,8,0:0:0:0:
256,192,77596,1,8,0:0:0:0:
256,192,77732,5,4,0:0:0:0:
256,192,77868,1,8,0:0:0:0:
256,192,78005,1,8,0:0:0:0:
256,192,78141,1,8,0:0:0:0:
256,192,78278,1,4,0:0:0:0:
256,192,78823,5,4,0:0:0:0:
256,192,78959,5,8,0:0:0:0:
256,192,79027,1,8,0:0:0:0:
256,192,79095,1,0,0:0:0:0:
256,192,79232,1,0,0:0:0:0:
256,192,79300,1,0,0:0:0:0:
256,192,79368,1,8,0:0:0:0:
256,192,79504,1,8,0:0:0:0:
256,192,79573,1,8,0:0:0:0:
256,192,79641,1,0,0:0:0:0:
256,192,79777,1,0,0:0:0:0:
256,192,79845,1,0,0:0:0:0:
256,192,79913,1,8,0:0:0:0:
256,192,80050,1,8,0:0:0:0:
256,192,80118,1,8,0:0:0:0:
256,192,80186,1,0,0:0:0:0:
256,192,80323,1,0,0:0:0:0:
256,192,80391,1,0,0:0:0:0:
256,192,80459,1,8,0:0:0:0:
256,192,80527,1,8,0:0:0:0:
256,192,80595,1,0,0:0:0:0:
256,192,80663,1,0,0:0:0:0:
256,192,80732,1,8,0:0:0:0:
256,192,80868,1,8,0:0:0:0:
256,192,80936,1,8,0:0:0:0:
256,192,81004,1,0,0:0:0:0:
256,192,81141,1,0,0:0:0:0:
256,192,81209,1,0,0:0:0:0:
256,192,81277,1,8,0:0:0:0:
256,192,81413,1,8,0:0:0:0:
256,192,81482,1,8,0:0:0:0:
256,192,81550,1,0,0:0:0:0:
256,192,81686,1,0,0:0:0:0:
256,192,81754,1,0,0:0:0:0:
256,192,81823,1,8,0:0:0:0:
256,192,81959,1,8,0:0:0:0:
256,192,82027,1,8,0:0:0:0:
256,192,82095,1,0,0:0:0:0:
256,192,82232,1,0,0:0:0:0:
256,192,82300,1,0,0:0:0:0:
256,192,82368,1,8,0:0:0:0:
256,192,82504,1,8,0:0:0:0:
256,192,82573,1,8,0:0:0:0:
256,192,82641,1,0,0:0:0:0:
256,192,82709,1,0,0:0:0:0:
256,192,82777,1,0,0:0:0:0:
256,192,82845,1,0,0:0:0:0:
256,192,82913,1,8,0:0:0:0:
256,192,83050,1,8,0:0:0:0:
256,192,83118,1,8,0:0:0:0:
256,192,83186,5,0,0:0:0:0:
256,192,83323,1,8,0:0:0:0:
256,192,83459,1,0,0:0:0:0:
256,192,83595,1,8,0:0:0:0:
256,192,83732,1,0,0:0:0:0:
256,192,83868,1,8,0:0:0:0:
256,192,84004,1,0,0:0:0:0:
256,192,84141,1,8,0:0:0:0:
256,192,84277,1,0,0:0:0:0:
256,192,84413,1,8,0:0:0:0:
256,192,84550,1,0,0:0:0:0:
256,192,84686,1,8,0:0:0:0:
256,192,84823,1,0,0:0:0:0:
256,192,84959,1,8,0:0:0:0:
256,192,85095,1,0,0:0:0:0:
256,192,85232,1,8,0:0:0:0:
256,192,85368,5,0,0:0:0:0:
256,192,85436,1,0,0:0:0:0:
256,192,85504,1,8,0:0:0:0:
256,192,85573,1,8,0:0:0:0:
256,192,85641,1,0,0:0:0:0:
256,192,85709,1,0,0:0:0:0:
256,192,85777,1,8,0:0:0:0:
256,192,85845,1,8,0:0:0:0:
256,192,85913,1,0,0:0:0:0:
256,192,85982,1,0,0:0:0:0:
256,192,86050,1,8,0:0:0:0:
256,192,86118,1,8,0:0:0:0:
256,192,86186,1,0,0:0:0:0:
256,192,86254,1,0,0:0:0:0:
256,192,86323,1,8,0:0:0:0:
256,192,86391,1,8,0:0:0:0:
256,192,86459,1,0,0:0:0:0:
256,192,87550,1,4,0:0:0:0:
256,192,87823,1,8,0:0:0:0:
256,192,87959,1,0,0:0:0:0:
256,192,88095,1,12,0:0:0:0:
256,192,88368,1,4,0:0:0:0:
256,192,88504,1,8,0:0:0:0:
256,192,88641,1,0,0:0:0:0:
256,192,88709,1,0,0:0:0:0:
256,192,88777,1,0,0:0:0:0:
256,192,88845,1,0,0:0:0:0:
256,192,88913,1,8,0:0:0:0:
256,192,89050,1,0,0:0:0:0:
256,192,89186,1,8,0:0:0:0:
256,192,89254,1,8,0:0:0:0:
256,192,89323,1,8,0:0:0:0:
256,192,89391,1,8,0:0:0:0:
256,192,89459,1,0,0:0:0:0:
256,192,89595,1,8,0:0:0:0:
256,192,89732,1,4,0:0:0:0:
256,192,90004,1,8,0:0:0:0:
256,192,90141,1,0,0:0:0:0:
256,192,90277,1,12,0:0:0:0:
256,192,90550,1,4,0:0:0:0:
256,192,90686,1,0,0:0:0:0:
256,192,90823,1,8,0:0:0:0:
256,192,90891,1,8,0:0:0:0:
256,192,90959,1,8,0:0:0:0:
256,192,91027,1,8,0:0:0:0:
256,192,91095,1,0,0:0:0:0:
256,192,91232,1,0,0:0:0:0:
256,192,91300,1,0,0:0:0:0:
256,192,91368,1,8,0:0:0:0:
256,192,91436,1,0,0:0:0:0:
256,192,91504,1,8,0:0:0:0:
256,192,91573,1,0,0:0:0:0:
256,192,91641,1,8,0:0:0:0:
256,192,91709,1,0,0:0:0:0:
256,192,91777,1,8,0:0:0:0:
256,192,91913,1,4,0:0:0:0:
256,192,92186,1,8,0:0:0:0:
256,192,92323,1,0,0:0:0:0:
256,192,92459,1,12,0:0:0:0:
256,192,92732,1,4,0:0:0:0:
256,192,92868,1,8,0:0:0:0:
256,192,93004,1,0,0:0:0:0:
256,192,93073,1,0,0:0:0:0:
256,192,93141,1,0,0:0:0:0:
256,192,93209,1,0,0:0:0:0:
256,192,93277,1,8,0:0:0:0:
256,192,93413,1,0,0:0:0:0:
256,192,93550,1,8,0:0:0:0:
256,192,93618,1,8,0:0:0:0:
256,192,93686,1,8,0:0:0:0:
256,192,93754,1,8,0:0:0:0:
256,192,93823,1,0,0:0:0:0:
256,192,93959,1,8,0:0:0:0:
256,192,94095,1,4,0:0:0:0:
256,192,94368,1,8,0:0:0:0:
256,192,94504,1,0,0:0:0:0:
256,192,94641,1,12,0:0:0:0:
256,192,94913,1,4,0:0:0:0:
256,192,95050,1,0,0:0:0:0:
256,192,95186,5,8,0:0:0:0:
256,192,95254,1,8,0:0:0:0:
256,192,95323,1,8,0:0:0:0:
256,192,95391,1,8,0:0:0:0:
256,192,95459,1,0,0:0:0:0:
256,192,95527,1,0,0:0:0:0:
256,192,95595,1,0,0:0:0:0:
256,192,95663,1,0,0:0:0:0:
256,192,95732,1,8,0:0:0:0:
256,192,95800,1,8,0:0:0:0:
256,192,95868,1,0,0:0:0:0:
256,192,95936,1,0,0:0:0:0:
256,192,96004,1,8,0:0:0:0:
256,192,96277,1,4,0:0:0:0:
256,192,96550,1,8,0:0:0:0:
256,192,96686,1,0,0:0:0:0:
256,192,96823,1,12,0:0:0:0:
256,192,97095,1,4,0:0:0:0:
256,192,97232,1,8,0:0:0:0:
256,192,97368,1,0,0:0:0:0:
256,192,97436,1,0,0:0:0:0:
256,192,97504,1,0,0:0:0:0:
256,192,97573,1,0,0:0:0:0:
256,192,97641,1,8,0:0:0:0:
256,192,97777,1,0,0:0:0:0:
256,192,97913,1,8,0:0:0:0:
256,192,97982,1,8,0:0:0:0:
256,192,98050,1,8,0:0:0:0:
256,192,98118,1,8,0:0:0:0:
256,192,98186,1,0,0:0:0:0:
256,192,98323,1,8,0:0:0:0:
256,192,98459,1,4,0:0:0:0:
256,192,98595,1,8,0:0:0:0:
256,192,98732,1,4,0:0:0:0:
256,192,98868,1,0,0:0:0:0:
256,192,99004,1,12,0:0:0:0:
256,192,99141,1,8,0:0:0:0:
256,192,99277,1,4,0:0:0:0:
256,192,99413,1,0,0:0:0:0:
256,192,99550,1,8,0:0:0:0:
256,192,99618,1,8,0:0:0:0:
256,192,99686,1,8,0:0:0:0:
256,192,99754,1,8,0:0:0:0:
256,192,99823,1,0,0:0:0:0:
256,192,99959,1,0,0:0:0:0:
256,192,100027,1,0,0:0:0:0:
256,192,100095,1,8,0:0:0:0:
256,192,100163,1,0,0:0:0:0:
256,192,100232,1,8,0:0:0:0:
256,192,100300,1,0,0:0:0:0:
256,192,100368,1,8,0:0:0:0:
256,192,100436,1,0,0:0:0:0:
256,192,100504,1,8,0:0:0:0:
256,192,100641,1,4,0:0:0:0:
256,192,100913,1,8,0:0:0:0:
256,192,101050,1,0,0:0:0:0:
256,192,101186,1,12,0:0:0:0:
256,192,101459,1,4,0:0:0:0:
256,192,101595,1,8,0:0:0:0:
256,192,101732,1,0,0:0:0:0:
256,192,101800,1,0,0:0:0:0:
256,192,101868,1,0,0:0:0:0:
256,192,101936,1,0,0:0:0:0:
256,192,102004,1,8,0:0:0:0:
256,192,102141,1,0,0:0:0:0:
256,192,102277,1,8,0:0:0:0:
256,192,102345,1,8,0:0:0:0:
256,192,102413,1,8,0:0:0:0:
256,192,102482,1,8,0:0:0:0:
256,192,102550,1,0,0:0:0:0:
256,192,102686,1,8,0:0:0:0:
256,192,102823,1,4,0:0:0:0:
256,192,103095,1,8,0:0:0:0:
256,192,103232,1,0,0:0:0:0:
256,192,103368,1,12,0:0:0:0:
256,192,103641,1,4,0:0:0:0:
256,192,103777,1,0,0:0:0:0:
256,192,103913,5,8,0:0:0:0:
256,192,103982,1,8,0:0:0:0:
256,192,104050,1,8,0:0:0:0:
256,192,104118,1,8,0:0:0:0:
256,192,104186,1,0,0:0:0:0:
256,192,104254,1,0,0:0:0:0:
256,192,104323,1,0,0:0:0:0:
256,192,104391,1,0,0:0:0:0:
256,192,104459,1,8,0:0:0:0:
256,192,104527,1,8,0:0:0:0:
256,192,104595,1,0,0:0:0:0:
256,192,104663,1,0,0:0:0:0:
256,192,104732,1,8,0:0:0:0:
256,192,105004,1,4,0:0:0:0:
256,192,106913,1,4,0:0:0:0:
256,192,107186,1,4,0:0:0:0:
256,192,108823,1,12,0:0:0:0:
256,192,109095,1,12,0:0:0:0:
256,192,109368,1,4,0:0:0:0:
256,192,109641,1,8,0:0:0:0:
256,192,109777,1,0,0:0:0:0:
256,192,109913,1,12,0:0:0:0:
256,192,110186,1,4,0:0:0:0:
256,192,110323,1,8,0:0:0:0:
256,192,110459,1,0,0:0:0:0:
256,192,110527,1,0,0:0:0:0:
256,192,110595,1,0,0:0:0:0:
256,192,110663,1,0,0:0:0:0:
256,192,110732,1,8,0:0:0:0:
256,192,110868,1,0,0:0:0:0:
256,192,111004,1,8,0:0:0:0:
256,192,111073,1,8,0:0:0:0:
256,192,111141,1,8,0:0:0:0:
256,192,111209,1,8,0:0:0:0:
256,192,111277,1,0,0:0:0:0:
256,192,111413,1,8,0:0:0:0:
256,160,111550,1,4,0:0:0:0:
256,160,111823,1,8,0:0:0:0:
256,160,111959,1,0,0:0:0:0:
256,160,112095,1,12,0:0:0:0:
256,160,112368,1,4,0:0:0:0:
256,160,112504,1,8,0:0:0:0:
256,160,112573,1,8,0:0:0:0:
256,160,112641,1,8,0:0:0:0:
256,160,112709,1,8,0:0:0:0:
256,160,112777,1,0,0:0:0:0:
256,160,112913,1,4,0:0:0:0:
256,160,113050,1,0,0:0:0:0:
256,160,113118,1,0,0:0:0:0:
256,160,113186,1,8,0:0:0:0:
256,160,113323,1,0,0:0:0:0:
256,160,113459,1,8,0:0:0:0:
256,192,113732,1,4,0:0:0:0:
256,192,113868,1,8,0:0:0:0:
256,192,113936,1,8,0:0:0:0:
256,192,114004,1,0,0:0:0:0:
256,192,114141,1,0,0:0:0:0:
256,192,114209,1,0,0:0:0:0:
256,192,114277,1,8,0:0:0:0:
256,192,114413,1,8,0:0:0:0:
256,192,114482,1,8,0:0:0:0:
256,192,114550,1,0,0:0:0:0:
256,192,114686,1,0,0:0:0:0:
256,192,114754,1,0,0:0:0:0:
256,192,114823,1,8,0:0:0:0:
256,192,114959,1,8,0:0:0:0:
256,192,115027,1,8,0:0:0:0:
256,192,115095,1,0,0:0:0:0:
256,192,115232,1,0,0:0:0:0:
256,192,115300,1,0,0:0:0:0:
256,192,115368,1,8,0:0:0:0:
256,192,115436,1,8,0:0:0:0:
256,192,115504,1,0,0:0:0:0:
256,192,115573,1,0,0:0:0:0:
256,192,115641,1,8,0:0:0:0:
256,192,115709,1,8,0:0:0:0:
256,192,115777,1,8,0:0:0:0:
256,192,115845,1,8,0:0:0:0:
256,192,115913,1,0,0:0:0:0:
256,192,116050,1,0,0:0:0:0:
256,192,116118,1,0,0:0:0:0:
256,192,116186,1,8,0:0:0:0:
256,192,116323,1,8,0:0:0:0:
256,192,116391,1,8,0:0:0:0:
256,192,116459,1,0,0:0:0:0:
256,192,116595,1,0,0:0:0:0:
256,192,116663,1,0,0:0:0:0:
256,192,116732,1,8,0:0:0:0:
256,192,116868,1,8,0:0:0:0:
256,192,116936,1,8,0:0:0:0:
256,192,117004,1,0,0:0:0:0:
256,192,117141,1,0,0:0:0:0:
256,192,117209,1,0,0:0:0:0:
256,192,117277,1,8,0:0:0:0:
256,192,117413,1,8,0:0:0:0:
256,192,117482,1,8,0:0:0:0:
256,192,117550,1,0,0:0:0:0:
256,192,117686,1,0,0:0:0:0:
256,192,117754,1,0,0:0:0:0:
256,192,117823,1,8,0:0:0:0:
256,192,117891,1,0,0:0:0:0:
256,192,117959,1,8,0:0:0:0:
256,192,118027,1,8,0:0:0:0:
256,192,118095,5,0,0:0:0:0:
256,192,118163,1,0,0:0:0:0:
256,192,118232,1,0,0:0:0:0:
256,192,118300,1,0,0:0:0:0:
256,192,118368,1,8,0:0:0:0:
256,192,118436,1,8,0:0:0:0:
256,192,118504,1,0,0:0:0:0:
256,192,118573,1,0,0:0:0:0:
256,192,118641,1,8,0:0:0:0:
256,192,118709,1,8,0:0:0:0:
256,192,118777,1,8,0:0:0:0:
256,192,118845,1,8,0:0:0:0:
256,192,118913,1,0,0:0:0:0:
256,192,118982,1,0,0:0:0:0:
256,192,119050,1,0,0:0:0:0:
256,192,119118,1,0,0:0:0:0:
256,192,119186,1,8,0:0:0:0:
256,192,119254,1,8,0:0:0:0:
256,192,119323,1,8,0:0:0:0:
256,192,119391,1,8,0:0:0:0:
256,192,119459,1,0,0:0:0:0:
256,192,119527,1,0,0:0:0:0:
256,192,119595,1,0,0:0:0:0:
256,192,119663,1,0,0:0:0:0:
256,192,119732,1,8,0:0:0:0:
256,192,119800,1,8,0:0:0:0:
256,192,119868,1,0,0:0:0:0:
256,192,119936,1,0,0:0:0:0:
256,192,120004,1,8,0:0:0:0:
256,192,120073,1,8,0:0:0:0:
256,192,120141,1,8,0:0:0:0:
256,192,120209,1,8,0:0:0:0:
256,192,120277,5,0,0:0:0:0:
256,192,120345,1,0,0:0:0:0:
256,192,120413,1,0,0:0:0:0:
256,192,120482,1,0,0:0:0:0:
256,192,120550,1,0,0:0:0:0:
256,192,120618,1,0,0:0:0:0:
256,192,120686,1,0,0:0:0:0:
256,192,120754,1,0,0:0:0:0:
256,192,120823,1,8,0:0:0:0:
256,192,120891,1,8,0:0:0:0:
256,192,120959,1,8,0:0:0:0:
256,192,121027,1,8,0:0:0:0:
256,192,121095,1,8,0:0:0:0:
256,192,121164,1,8,0:0:0:0:
256,192,121232,1,8,0:0:0:0:
256,192,121300,1,8,0:0:0:0:
256,192,121368,1,0,0:0:0:0:
256,192,121436,1,0,0:0:0:0:
256,192,121504,1,0,0:0:0:0:
256,192,121573,1,0,0:0:0:0:
256,192,121641,1,0,0:0:0:0:
256,192,121709,1,0,0:0:0:0:
256,192,121777,1,0,0:0:0:0:
256,192,121845,1,0,0:0:0:0:
256,192,121914,1,8,0:0:0:0:
256,192,121982,1,8,0:0:0:0:
256,192,122050,1,8,0:0:0:0:
256,192,122118,1,8,0:0:0:0:
256,192,122186,1,8,0:0:0:0:
256,192,122254,1,8,0:0:0:0:
256,192,122323,1,8,0:0:0:0:
256,192,122391,1,8,0:0:0:0:
256,192,122459,5,4,0:0:0:0:
256,192,122731,1,8,0:0:0:0:
256,192,122868,1,0,0:0:0:0:
256,192,123004,1,8,0:0:0:0:
256,192,123277,1,0,0:0:0:0:
256,192,123311,1,0,0:0:0:0:
256,192,123549,5,8,0:0:0:0:
256,192,123686,1,0,0:0:0:0:
256,192,123822,1,8,0:0:0:0:
256,192,124095,1,0,0:0:0:0:
256,192,124129,1,0,0:0:0:0:
256,192,124368,5,8,0:0:0:0:
256,192,124505,1,0,0:0:0:0:
256,192,124641,1,8,0:0:0:0:
256,192,124913,1,0,0:0:0:0:
256,192,124947,1,0,0:0:0:0:
256,192,125186,5,8,0:0:0:0:
256,192,125323,1,0,0:0:0:0:
256,192,125459,1,8,0:0:0:0:
256,192,125731,1,0,0:0:0:0:
256,192,125765,1,0,0:0:0:0:
256,192,126004,5,8,0:0:0:0:
256,192,126141,1,0,0:0:0:0:
256,192,126277,1,8,0:0:0:0:
256,192,126549,1,0,0:0:0:0:
256,192,126583,1,0,0:0:0:0:
256,192,126823,5,8,0:0:0:0:
256,192,126960,1,0,0:0:0:0:
256,192,127096,1,8,0:0:0:0:
256,192,127368,1,0,0:0:0:0:
256,192,127402,1,0,0:0:0:0:
256,192,127640,5,8,0:0:0:0:
256,192,127777,1,0,0:0:0:0:
256,192,127913,1,8,0:0:0:0:
256,192,128186,1,0,0:0:0:0:
256,192,128220,1,0,0:0:0:0:
256,192,128458,5,8,0:0:0:0:
256,192,128595,1,0,0:0:0:0:
256,192,128731,1,8,0:0:0:0:
256,192,129004,1,0,0:0:0:0:
256,192,129038,1,0,0:0:0:0:
256,192,129277,5,8,0:0:0:0:
256,192,129414,1,0,0:0:0:0:
256,192,129550,1,8,0:0:0:0:
256,192,129822,1,0,0:0:0:0:
256,192,129856,1,0,0:0:0:0:
256,192,130095,5,8,0:0:0:0:
256,192,130232,1,0,0:0:0:0:
256,192,130368,1,8,0:0:0:0:
256,192,130640,1,0,0:0:0:0:
256,192,130674,1,0,0:0:0:0:
256,192,130913,5,8,0:0:0:0:
256,192,131050,1,0,0:0:0:0:
256,192,131186,1,8,0:0:0:0:
256,192,131459,1,0,0:0:0:0:
256,192,131493,1,0,0:0:0:0:
256,192,131732,5,8,0:0:0:0:
256,192,131869,1,0,0:0:0:0:
256,192,132005,1,8,0:0:0:0:
256,192,132277,1,0,0:0:0:0:
256,192,132311,1,0,0:0:0:0:
256,192,132549,5,8,0:0:0:0:
256,192,132686,1,0,0:0:0:0:
256,192,132822,1,8,0:0:0:0:
256,192,133095,1,0,0:0:0:0:
256,192,133129,1,0,0:0:0:0:
256,192,133367,5,8,0:0:0:0:
256,192,133504,1,0,0:0:0:0:
256,192,133640,1,8,0:0:0:0:
256,192,133913,1,0,0:0:0:0:
256,192,133947,1,0,0:0:0:0:
256,192,134186,5,8,0:0:0:0:
256,192,134323,1,0,0:0:0:0:
256,192,134459,1,8,0:0:0:0:
256,192,134731,1,0,0:0:0:0:
256,192,134765,1,0,0:0:0:0:
256,192,135004,5,8,0:0:0:0:
256,192,135140,1,0,0:0:0:0:
256,192,135277,1,8,0:0:0:0:
256,192,135413,1,8,0:0:0:0:
256,192,135549,1,0,0:0:0:0:
256,192,135822,1,8,0:0:0:0:
256,192,135959,1,0,0:0:0:0:
256,192,136095,1,8,0:0:0:0:
256,192,136368,1,0,0:0:0:0:
256,192,136402,1,0,0:0:0:0:
256,192,136640,1,8,0:0:0:0:
256,192,136777,1,0,0:0:0:0:
256,192,136913,1,8,0:0:0:0:
256,192,137186,1,0,0:0:0:0:
256,192,137220,1,0,0:0:0:0:
256,192,137459,1,8,0:0:0:0:
256,192,137596,1,0,0:0:0:0:
256,192,137732,1,8,0:0:0:0:
256,192,138004,1,0,0:0:0:0:
256,192,138038,1,0,0:0:0:0:
256,192,138277,1,8,0:0:0:0:
256,192,138414,1,0,0:0:0:0:
256,192,138550,1,8,0:0:0:0:
256,192,138822,1,0,0:0:0:0:
256,192,138856,1,0,0:0:0:0:
256,192,139095,1,8,0:0:0:0:
256,192,139232,1,0,0:0:0:0:
256,192,139368,1,8,0:0:0:0:
256,192,139640,1,0,0:0:0:0:
256,192,139674,1,0,0:0:0:0:
256,192,139913,1,8,0:0:0:0:
256,192,140050,1,0,0:0:0:0:
256,192,140186,1,8,0:0:0:0:
256,192,140459,1,0,0:0:0:0:
256,192,140493,1,0,0:0:0:0:
256,192,140731,1,8,0:0:0:0:
256,192,140868,1,0,0:0:0:0:
256,192,141004,1,8,0:0:0:0:
256,192,141277,1,0,0:0:0:0:
256,192,141311,1,0,0:0:0:0:
256,192,141549,1,8,0:0:0:0:
256,192,141686,1,0,0:0:0:0:
256,192,141822,1,8,0:0:0:0:
256,192,142095,1,0,0:0:0:0:
256,192,142129,1,0,0:0:0:0:
256,192,142368,1,8,0:0:0:0:
256,192,142505,1,0,0:0:0:0:
256,192,142641,1,8,0:0:0:0:
256,192,142913,1,0,0:0:0:0:
256,192,142947,1,0,0:0:0:0:
256,192,143186,1,8,0:0:0:0:
256,192,143323,1,0,0:0:0:0:
256,192,143459,1,8,0:0:0:0:
256,192,143731,1,0,0:0:0:0:
256,192,143765,1,0,0:0:0:0:
256,192,144004,1,8,0:0:0:0:
256,192,144141,1,0,0:0:0:0:
256,192,144277,1,8,0:0:0:0:
256,192,144549,1,0,0:0:0:0:
256,192,144584,1,0,0:0:0:0:
256,192,144822,1,8,0:0:0:0:
256,192,144959,1,0,0:0:0:0:
256,192,145095,1,8,0:0:0:0:
256,192,145368,1,0,0:0:0:0:
256,192,145402,1,0,0:0:0:0:
256,192,145640,1,8,0:0:0:0:
256,192,145777,1,0,0:0:0:0:
256,192,145913,1,8,0:0:0:0:
256,192,146186,1,0,0:0:0:0:
256,192,146220,1,0,0:0:0:0:
256,192,146459,1,8,0:0:0:0:
256,192,146596,1,0,0:0:0:0:
256,192,146732,1,8,0:0:0:0:
256,192,147004,1,0,0:0:0:0:
256,192,147038,1,0,0:0:0:0:
256,192,147277,1,8,0:0:0:0:
256,192,147414,1,0,0:0:0:0:
256,192,147550,1,8,0:0:0:0:
256,192,147822,1,0,0:0:0:0:
256,192,147856,1,0,0:0:0:0:
256,192,148095,1,8,0:0:0:0:
256,192,148231,1,0,0:0:0:0:
256,192,148368,1,8,0:0:0:0:
256,192,148504,1,8,0:0:0:0:
256,192,148640,1,0,0:0:0:0:
256,192,148913,1,8,0:0:0:0:
256,192,149049,1,0,0:0:0:0:
256,192,149186,1,8,0:0:0:0:
256,192,149322,1,0,0:0:0:0:
256,192,149459,1,8,0:0:0:0:
256,192,149731,1,0,0:0:0:0:
256,192,149765,1,0,0:0:0:0:
256,192,150004,1,0,0:0:0:0:
256,192,150038,1,0,0:0:0:0:
256,192,150277,1,0,0:0:0:0:
256,192,150311,1,0,0:0:0:0:
256,192,150549,5,8,0:0:0:0:
256,192,150685,1,0,0:0:0:0:
256,192,150822,1,8,0:0:0:0:
256,192,150958,1,0,0:0:0:0:
256,192,151095,1,8,0:0:0:0:
256,192,151368,1,0,0:0:0:0:
256,192,151402,1,0,0:0:0:0:
256,192,151641,1,0,0:0:0:0:
256,192,151675,1,0,0:0:0:0:
256,192,151914,1,0,0:0:0:0:
256,192,151948,1,0,0:0:0:0:
256,192,152186,1,8,0:0:0:0:
256,192,152322,1,0,0:0:0:0:
256,192,152459,1,8,0:0:0:0:
256,192,152595,1,0,0:0:0:0:
256,192,152732,1,8,0:0:0:0:
256,192,153004,1,0,0:0:0:0:
256,192,153038,1,0,0:0:0:0:
256,192,153277,1,0,0:0:0:0:
256,192,153311,1,0,0:0:0:0:
256,192,153550,1,0,0:0:0:0:
256,192,153584,1,0,0:0:0:0:
256,192,153822,5,8,0:0:0:0:
256,192,153958,1,0,0:0:0:0:
256,192,154095,1,8,0:0:0:0:
256,192,154231,1,0,0:0:0:0:
256,192,154368,1,8,0:0:0:0:
256,192,154640,1,0,0:0:0:0:
256,192,154674,1,0,0:0:0:0:
256,192,154913,1,0,0:0:0:0:
256,192,154947,1,0,0:0:0:0:
256,192,155186,1,0,0:0:0:0:
256,192,155220,1,0,0:0:0:0:
256,192,155459,1,8,0:0:0:0:
256,192,155595,1,0,0:0:0:0:
256,192,155732,1,8,0:0:0:0:
256,192,155868,1,0,0:0:0:0:
256,192,156005,1,8,0:0:0:0:
256,192,156277,1,0,0:0:0:0:
256,192,156311,1,0,0:0:0:0:
256,192,156550,1,0,0:0:0:0:
256,192,156584,1,0,0:0:0:0:
256,192,156823,1,0,0:0:0:0:
256,192,156857,1,0,0:0:0:0:
256,192,157095,5,8,0:0:0:0:
256,192,157231,1,0,0:0:0:0:
256,192,157368,1,8,0:0:0:0:
256,192,157504,1,0,0:0:0:0:
256,192,157641,1,8,0:0:0:0:
256,192,157913,1,0,0:0:0:0:
256,192,157947,1,0,0:0:0:0:
256,192,158186,1,0,0:0:0:0:
256,192,158220,1,0,0:0:0:0:
256,192,158459,1,0,0:0:0:0:
256,192,158493,1,0,0:0:0:0:
256,192,158731,1,8,0:0:0:0:
256,192,158867,1,0,0:0:0:0:
256,192,159004,1,8,0:0:0:0:
256,192,159140,1,0,0:0:0:0:
256,192,159277,1,8,0:0:0:0:
256,192,159549,1,0,0:0:0:0:
256,192,159583,1,0,0:0:0:0:
256,192,159822,1,0,0:0:0:0:
256,192,159856,1,0,0:0:0:0:
256,192,160095,1,0,0:0:0:0:
256,192,160129,1,0,0:0:0:0:
256,192,160368,5,8,0:0:0:0:
256,192,160504,1,0,0:0:0:0:
256,192,160641,1,8,0:0:0:0:
256,192,160777,1,0,0:0:0:0:
256,192,160914,1,8,0:0:0:0:
256,192,161186,1,0,0:0:0:0:
256,192,161220,1,0,0:0:0:0:
256,192,161459,1,0,0:0:0:0:
256,192,161493,1,0,0:0:0:0:
256,192,161732,1,0,0:0:0:0:
256,192,161766,1,0,0:0:0:0:
256,192,162140,1,8,0:0:0:0:
256,192,162549,1,8,0:0:0:0:
256,192,163095,1,0,0:0:0:0:
256,192,163368,1,0,0:0:0:0:
256,192,163777,1,8,0:0:0:0:
256,192,164186,1,8,0:0:0:0:
256,192,164731,1,0,0:0:0:0:
256,192,165004,1,0,0:0:0:0:
256,192,165413,1,8,0:0:0:0:
256,192,165822,1,8,0:0:0:0:
256,192,166368,1,0,0:0:0:0:
256,192,166640,1,0,0:0:0:0:
256,192,167049,1,8,0:0:0:0:
256,192,167459,1,8,0:0:0:0:
256,192,168004,1,0,0:0:0:0:
256,192,168277,5,4,0:0:0:0:
256,192,168686,1,4,0:0:0:0:
256,192,169095,1,4,0:0:0:0:
256,192,169504,1,4,0:0:0:0:
256,192,169913,1,4,0:0:0:0:
256,192,170322,1,4,0:0:0:0:
256,192,170731,1,4,0:0:0:0:
256,192,171140,1,4,0:0:0:0:
256,192,171549,1,4,0:0:0:0:
256,192,171959,1,4,0:0:0:0:
256,192,172368,1,4,0:0:0:0:
256,192,172777,1,4,0:0:0:0:
256,192,173186,1,4,0:0:0:0:
256,192,173595,1,4,0:0:0:0:
256,192,174004,1,4,0:0:0:0:
256,192,174413,1,4,0:0:0:0:
256,192,174822,5,4,0:0:0:0:
256,192,175227,1,12,0:0:0:0:
256,192,175632,1,4,0:0:0:0:
256,192,176033,1,12,0:0:0:0:
256,192,176435,1,4,0:0:0:0:
256,192,176833,1,12,0:0:0:0:
256,192,177231,1,4,0:0:0:0:
256,192,177625,1,12,0:0:0:0:
256,192,178020,1,4,0:0:0:0:
256,192,178418,1,12,0:0:0:0:
256,192,178816,1,4,0:0:0:0:
256,192,179217,1,12,0:0:0:0:
256,192,179619,1,4,0:0:0:0:
256,192,180024,1,12,0:0:0:0:
256,192,180429,1,4,0:0:0:0:
256,192,180838,1,12,0:0:0:0:
256,192,181247,1,0,0:0:0:0:
256,192,181343,1,0,0:0:0:0:
256,192,181440,1,8,0:0:0:0:
256,192,181634,1,0,0:0:0:0:
256,192,181730,1,0,0:0:0:0:
256,192,181827,1,8,0:0:0:0:
256,192,182021,1,0,0:0:0:0:
256,192,182121,1,0,0:0:0:0:
256,192,182221,1,8,0:0:0:0:
256,192,182421,1,0,0:0:0:0:
256,192,182521,1,0,0:0:0:0:
256,192,182621,1,8,0:0:0:0:
256,192,182821,5,0,0:0:0:0:
256,192,182921,1,0,0:0:0:0:
256,192,183021,1,8,0:0:0:0:
256,192,183121,1,0,0:0:0:0:
256,192,183221,1,0,0:0:0:0:
256,192,183321,1,0,0:0:0:0:
256,192,183421,1,8,0:0:0:0:
256,192,183521,1,0,0:0:0:0:
256,192,183621,1,0,0:0:0:0:
256,192,183721,1,0,0:0:0:0:
256,192,183821,1,8,0:0:0:0:
256,192,183921,1,0,0:0:0:0:
256,192,184021,1,0,0:0:0:0:
256,192,184121,1,0,0:0:0:0:
256,192,184221,1,8,0:0:0:0:
256,192,184321,1,0,0:0:0:0:
256,192,184421,5,8,0:0:0:0:
256,192,184487,1,8,0:0:0:0:
256,192,184554,1,0,0:0:0:0:
256,192,184621,1,0,0:0:0:0:
256,192,184687,1,8,0:0:0:0:
256,192,184754,1,8,0:0:0:0:
256,192,184821,1,0,0:0:0:0:
256,192,184887,1,8,0:0:0:0:
256,192,184954,1,0,0:0:0:0:
256,192,185021,1,0,0:0:0:0:
256,192,185087,1,8,0:0:0:0:
256,192,185154,1,8,0:0:0:0:
256,192,185221,1,0,0:0:0:0:
256,192,185287,1,8,0:0:0:0:
256,192,185354,1,0,0:0:0:0:
256,192,185421,1,0,0:0:0:0:
256,192,185487,1,8,0:0:0:0:
256,192,185554,1,8,0:0:0:0:
256,192,185621,1,0,0:0:0:0:
256,192,185687,1,8,0:0:0:0:
256,192,185754,1,0,0:0:0:0:
256,192,185821,1,0,0:0:0:0:
256,192,185887,1,8,0:0:0:0:
256,192,185954,1,8,0:0:0:0:
256,192,186021,1,0,0:0:0:0:
256,192,187621,1,4,0:0:0:0:
256,192,187921,5,8,0:0:0:0:
256,192,188021,1,0,0:0:0:0:
256,192,188121,1,0,0:0:0:0:
256,192,188221,1,8,0:0:0:0:
256,192,188421,1,0,0:0:0:0:
256,192,188521,1,0,0:0:0:0:
256,192,188621,1,0,0:0:0:0:
256,192,188721,1,8,0:0:0:0:
256,192,188821,1,0,0:0:0:0:
256,192,188921,1,0,0:0:0:0:
256,192,189021,1,8,0:0:0:0:
256,192,189221,1,0,0:0:0:0:
256,192,189321,1,8,0:0:0:0:
256,192,189421,1,8,0:0:0:0:
256,192,189521,1,0,0:0:0:0:
256,192,189621,1,8,0:0:0:0:
256,192,189671,1,8,0:0:0:0:
256,192,189721,1,0,0:0:0:0:
256,192,189821,1,8,0:0:0:0:
256,192,190021,1,0,0:0:0:0:
256,192,190121,1,8,0:0:0:0:
256,192,190221,1,0,0:0:0:0:
256,192,190321,1,0,0:0:0:0:
256,192,190421,1,8,0:0:0:0:
256,192,190521,1,0,0:0:0:0:
256,192,190621,1,8,0:0:0:0:
256,192,190821,5,4,0:0:0:0:
256,192,191121,1,8,0:0:0:0:
256,192,191221,1,0,0:0:0:0:
256,192,191321,1,8,0:0:0:0:
256,192,191421,1,8,0:0:0:0:
256,192,191621,1,0,0:0:0:0:
256,192,191721,1,8,0:0:0:0:
256,192,191821,1,8,0:0:0:0:
256,192,191921,1,8,0:0:0:0:
256,192,192021,1,0,0:0:0:0:
256,192,192221,5,8,0:0:0:0:
256,192,192321,1,8,0:0:0:0:
256,192,192421,5,0,0:0:0:0:
256,192,192521,1,0,0:0:0:0:
256,192,192621,1,8,0:0:0:0:
256,192,192671,1,8,0:0:0:0:
256,192,192721,1,8,0:0:0:0:
256,192,192821,1,0,0:0:0:0:
256,192,192921,1,0,0:0:0:0:
256,192,193021,1,8,0:0:0:0:
256,192,193071,1,8,0:0:0:0:
256,192,193121,1,8,0:0:0:0:
256,192,193221,1,0,0:0:0:0:
256,192,193321,1,8,0:0:0:0:
256,192,193421,1,8,0:0:0:0:
256,192,193521,1,0,0:0:0:0:
256,192,193621,1,8,0:0:0:0:
256,192,193671,1,8,0:0:0:0:
256,192,193721,1,0,0:0:0:0:
256,192,193821,1,8,0:0:0:0:
256,192,193871,1,8,0:0:0:0:
256,192,193921,1,0,0:0:0:0:
256,192,194021,1,4,0:0:0:0:
256,192,194321,5,8,0:0:0:0:
256,192,194421,1,0,0:0:0:0:
256,192,194521,1,0,0:0:0:0:
256,192,194621,1,8,0:0:0:0:
256,192,194821,1,0,0:0:0:0:
256,192,194921,1,0,0:0:0:0:
256,192,195021,1,0,0:0:0:0:
256,192,195121,1,8,0:0:0:0:
256,192,195221,1,0,0:0:0:0:
256,192,195321,1,0,0:0:0:0:
256,192,195421,1,8,0:0:0:0:
256,192,195621,1,0,0:0:0:0:
256,192,195721,1,8,0:0:0:0:
256,192,195821,1,8,0:0:0:0:
256,192,195921,1,0,0:0:0:0:
256,192,196021,1,8,0:0:0:0:
256,192,196071,1,8,0:0:0:0:
256,192,196121,1,0,0:0:0:0:
256,192,196221,1,8,0:0:0:0:
256,192,196421,1,0,0:0:0:0:
256,192,196521,1,8,0:0:0:0:
256,192,196621,1,0,0:0:0:0:
256,192,196721,1,0,0:0:0:0:
256,192,196821,1,8,0:0:0:0:
256,192,196921,1,0,0:0:0:0:
256,192,197021,1,8,0:0:0:0:
256,192,197221,5,4,0:0:0:0:
256,192,197521,1,8,0:0:0:0:
256,192,197621,1,0,0:0:0:0:
256,192,197721,1,8,0:0:0:0:
256,192,197821,1,8,0:0:0:0:
256,192,198021,1,0,0:0:0:0:
256,192,198121,1,8,0:0:0:0:
256,192,198221,1,8,0:0:0:0:
256,192,198321,1,8,0:0:0:0:
256,192,198421,1,0,0:0:0:0:
256,192,198621,1,8,0:0:0:0:
256,192,198721,1,8,0:0:0:0:
256,192,198821,5,4,0:0:0:0:
256,192,198921,1,8,0:0:0:0:
256,192,198971,1,8,0:0:0:0:
256,192,199021,1,8,0:0:0:0:
256,192,199121,1,4,0:0:0:0:
256,192,199221,1,8,0:0:0:0:
256,192,199271,1,8,0:0:0:0:
256,192,199321,1,8,0:0:0:0:
256,192,199421,1,4,0:0:0:0:
256,192,199521,1,8,0:0:0:0:
256,192,199571,1,8,0:0:0:0:
256,192,199621,1,8,0:0:0:0:
256,192,199721,1,4,0:0:0:0:
256,192,199821,1,8,0:0:0:0:
256,192,199871,1,8,0:0:0:0:
256,192,199921,1,8,0:0:0:0:
256,192,200021,1,8,0:0:0:0:
256,192,200071,1,0,0:0:0:0:
256,192,200121,1,0,0:0:0:0:
256,192,200171,1,0,0:0:0:0:
256,192,200221,1,8,0:0:0:0:
256,192,200321,1,8,0:0:0:0:
256,192,200421,1,4,0:0:0:0:
256,192,200621,5,0,0:0:0:0:
256,192,200721,1,0,0:0:0:0:
256,192,200821,1,0,0:0:0:0:
256,192,200921,1,0,0:0:0:0:
256,192,201021,1,0,0:0:0:0:
256,192,201121,1,0,0:0:0:0:
256,192,201221,5,12,0:0:0:0:
256,192,201321,1,0,0:0:0:0:
256,192,201421,1,8,0:0:0:0:
256,192,201521,1,8,0:0:0:0:
256,192,201621,1,4,0:0:0:0:
256,192,202021,5,0,0:0:0:0:
256,192,202121,1,0,0:0:0:0:
256,192,202171,1,0,0:0:0:0:
256,192,202221,1,8,0:0:0:0:
256,192,202321,1,8,0:0:0:0:
256,192,202421,1,4,0:0:0:0:
256,192,202521,1,8,0:0:0:0:
256,192,202571,1,8,0:0:0:0:
256,192,202621,1,8,0:0:0:0:
256,192,202721,1,0,0:0:0:0:
256,192,202821,1,12,0:0:0:0:
256,192,202921,1,0,0:0:0:0:
256,192,203021,1,8,0:0:0:0:
256,192,203121,1,8,0:0:0:0:
256,192,203221,1,0,0:0:0:0:
256,192,203621,1,4,0:0:0:0:
256,192,203821,5,0,0:0:0:0:
256,192,203921,1,0,0:0:0:0:
256,192,204021,1,0,0:0:0:0:
256,192,204121,1,0,0:0:0:0:
256,192,204221,1,0,0:0:0:0:
256,192,204321,1,0,0:0:0:0:
256,192,204421,5,12,0:0:0:0:
256,192,204521,1,0,0:0:0:0:
256,192,204621,1,8,0:0:0:0:
256,192,204721,1,8,0:0:0:0:
256,192,204821,1,4,0:0:0:0:
256,192,205021,5,8,0:0:0:0:
256,192,205121,1,8,0:0:0:0:
256,192,205221,5,0,0:0:0:0:
256,192,205321,1,0,0:0:0:0:
256,192,205371,1,0,0:0:0:0:
256,192,205421,1,8,0:0:0:0:
256,192,205521,1,8,0:0:0:0:
256,192,205621,1,0,0:0:0:0:
256,192,205671,1,0,0:0:0:0:
256,192,205721,1,0,0:0:0:0:
256,192,205821,1,8,0:0:0:0:
256,192,205921,1,0,0:0:0:0:
256,192,206021,1,8,0:0:0:0:
256,192,206071,1,8,0:0:0:0:
256,192,206121,1,8,0:0:0:0:
256,192,206221,1,0,0:0:0:0:
256,192,206321,1,0,0:0:0:0:
256,192,206421,1,8,0:0:0:0:
256,192,206471,1,8,0:0:0:0:
256,192,206521,1,0,0:0:0:0:
256,192,206621,1,8,0:0:0:0:
256,192,206671,1,8,0:0:0:0:
256,192,206721,1,0,0:0:0:0:
256,192,206821,1,4,0:0:0:0:
256,192,207121,1,8,0:0:0:0:
256,192,207221,1,4,0:0:0:0:
256,192,207421,1,8,0:0:0:0:
256,192,207621,1,4,0:0:0:0:
256,192,207821,1,8,0:0:0:0:
256,192,207921,1,4,0:0:0:0:
256,192,208021,1,8,0:0:0:0:
256,192,208121,1,8,0:0:0:0:
256,192,208221,1,4,0:0:0:0:
256,192,208321,1,8,0:0:0:0:
256,192,208421,1,4,0:0:0:0:
256,192,208721,1,8,0:0:0:0:
256,192,208821,1,4,0:0:0:0:
256,192,209021,1,8,0:0:0:0:
256,192,209221,1,4,0:0:0:0:
256,192,209421,1,8,0:0:0:0:
256,192,209521,1,4,0:0:0:0:
256,192,209621,1,8,0:0:0:0:
256,192,209721,1,8,0:0:0:0:
256,192,209821,1,4,0:0:0:0:
256,192,209921,1,8,0:0:0:0:
256,192,210021,5,4,0:0:0:0:
256,192,210221,1,4,0:0:0:0:
256,192,210421,1,12,0:0:0:0:
256,192,210621,1,4,0:0:0:0:
256,192,210821,1,4,0:0:0:0:
256,192,211021,1,4,0:0:0:0:
256,192,211221,1,12,0:0:0:0:
256,192,211421,1,4,0:0:0:0:
256,192,211621,5,8,0:0:0:0:
256,192,211721,1,8,0:0:0:0:
256,192,211821,1,0,0:0:0:0:
256,192,211921,1,0,0:0:0:0:
256,192,212021,1,8,0:0:0:0:
256,192,212121,1,8,0:0:0:0:
256,192,212221,1,0,0:0:0:0:
256,192,212321,1,0,0:0:0:0:
256,192,212421,1,8,0:0:0:0:
256,192,212521,1,8,0:0:0:0:
256,192,212621,1,0,0:0:0:0:
256,192,212721,1,0,0:0:0:0:
256,192,212821,5,8,0:0:0:0:
256,192,212871,1,8,0:0:0:0:
256,192,212921,1,8,0:0:0:0:
256,192,212971,1,8,0:0:0:0:
256,192,213021,1,8,0:0:0:0:
256,192,213071,1,8,0:0:0:0:
256,192,213121,1,8,0:0:0:0:
256,192,213171,1,8,0:0:0:0:
256,192,213221,1,0,0:0:0:0:
256,192,214621,1,4,0:0:0:0:
256,192,214821,1,4,0:0:0:0:
256,192,216021,1,12,0:0:0:0:
256,192,216221,1,12,0:0:0:0:
256,192,216421,1,4,0:0:0:0:
256,192,216721,1,4,0:0:0:0:
256,192,216821,1,12,0:0:0:0:
256,192,217021,1,4,0:0:0:0:
256,192,217321,1,4,0:0:0:0:
256,192,217421,1,4,0:0:0:0:
256,192,217621,1,12,0:0:0:0:
256,192,218021,1,0,0:0:0:0:
256,192,218421,1,4,0:0:0:0:
256,192,218821,1,12,0:0:0:0:
256,192,219621,1,0,0:0:0:0:
256,192,220421,1,12,0:0:0:0:
256,192,220821,1,4,0:0:0:0:
256,192,221621,1,4,0:0:0:0:
256,192,222021,1,12,0:0:0:0:
256,192,222821,1,4,0:0:0:0:
256,192,223621,1,12,0:0:0:0:
256,192,224021,1,4,0:0:0:0:
256,192,224421,1,4,0:0:0:0:
256,192,224821,1,4,0:0:0:0:
256,192,225221,1,4,0:0:0:0:
256,192,225621,1,4,0:0:0:0:
256,192,226021,1,4,0:0:0:0:
256,192,226321,1,8,0:0:0:0:
256,192,226421,1,0,0:0:0:0:
256,192,226621,1,8,0:0:0:0:
256,192,226821,1,0,0:0:0:0:
256,192,227021,1,8,0:0:0:0:
256,192,227121,1,8,0:0:0:0:
256,192,227221,1,0,0:0:0:0:
256,192,227421,1,8,0:0:0:0:
256,192,227621,1,4,0:0:0:0:
256,192,227921,1,8,0:0:0:0:
256,192,228021,1,0,0:0:0:0:
256,192,228221,1,8,0:0:0:0:
256,192,228421,1,0,0:0:0:0:
256,192,228521,1,8,0:0:0:0:
256,192,228621,1,8,0:0:0:0:
256,192,228721,1,0,0:0:0:0:
256,192,228821,1,8,0:0:0:0:
256,192,228921,1,0,0:0:0:0:
256,192,228971,1,0,0:0:0:0:
256,192,229021,1,8,0:0:0:0:
256,192,229121,1,8,0:0:0:0:
256,192,229221,1,4,0:0:0:0:
256,192,229521,1,8,0:0:0:0:
256,192,229621,1,0,0:0:0:0:
256,192,229821,1,8,0:0:0:0:
256,192,230021,1,0,0:0:0:0:
256,192,230221,1,8,0:0:0:0:
256,192,230321,1,8,0:0:0:0:
256,192,230421,1,0,0:0:0:0:
256,192,230621,1,8,0:0:0:0:
256,192,230721,1,8,0:0:0:0:
256,192,230821,1,0,0:0:0:0:
256,192,230921,1,8,0:0:0:0:
256,192,231021,1,0,0:0:0:0:
256,192,231071,1,0,0:0:0:0:
256,192,231121,1,0,0:0:0:0:
256,192,231221,1,8,0:0:0:0:
256,192,231421,1,0,0:0:0:0:
256,192,231521,1,8,0:0:0:0:
256,192,231621,1,8,0:0:0:0:
256,192,231721,1,0,0:0:0:0:
256,192,231771,1,0,0:0:0:0:
256,192,231821,1,0,0:0:0:0:
256,192,231921,1,8,0:0:0:0:
256,192,232021,1,8,0:0:0:0:
256,192,232071,1,8,0:0:0:0:
256,192,232121,1,0,0:0:0:0:
256,192,232221,1,0,0:0:0:0:
256,192,232271,1,0,0:0:0:0:
256,192,232321,1,8,0:0:0:0:
256,192,232421,1,4,0:0:0:0:
256,192,232721,1,8,0:0:0:0:
256,192,232821,1,0,0:0:0:0:
256,192,233021,1,8,0:0:0:0:
256,192,233221,1,0,0:0:0:0:
256,192,233421,1,8,0:0:0:0:
256,192,233521,1,8,0:0:0:0:
256,192,233621,1,0,0:0:0:0:
256,192,233821,1,8,0:0:0:0:
256,192,234021,1,4,0:0:0:0:
256,192,234321,1,8,0:0:0:0:
256,192,234421,1,0,0:0:0:0:
256,192,234621,5,8,0:0:0:0:
256,192,234821,1,0,0:0:0:0:
256,192,234921,1,8,0:0:0:0:
256,192,235021,1,8,0:0:0:0:
256,192,235121,1,0,0:0:0:0:
256,192,235221,1,8,0:0:0:0:
256,192,235321,1,0,0:0:0:0:
256,192,235371,1,0,0:0:0:0:
256,192,235421,1,8,0:0:0:0:
256,192,235521,1,8,0:0:0:0:
256,192,235621,1,4,0:0:0:0:
256,192,235721,5,0,0:0:0:0:
256,192,235821,1,0,0:0:0:0:
256,192,235921,1,0,0:0:0:0:
256,192,236021,1,8,0:0:0:0:
256,192,236121,1,0,0:0:0:0:
256,192,236221,1,8,0:0:0:0:
256,192,236321,1,8,0:0:0:0:
256,192,236421,1,4,0:0:0:0:
256,192,236521,1,0,0:0:0:0:
256,192,236621,1,0,0:0:0:0:
256,192,236721,1,0,0:0:0:0:
256,192,236821,1,8,0:0:0:0:
256,192,236921,1,0,0:0:0:0:
256,192,237021,1,8,0:0:0:0:
256,192,237121,1,8,0:0:0:0:
256,192,237221,1,0,0:0:0:0:
256,192,237271,1,0,0:0:0:0:
256,192,237321,1,0,0:0:0:0:
256,192,237371,1,0,0:0:0:0:
256,192,237421,1,8,0:0:0:0:
256,192,237521,1,8,0:0:0:0:
256,192,237621,1,0,0:0:0:0:
256,192,237671,1,0,0:0:0:0:
256,192,237721,1,0,0:0:0:0:
256,192,237771,1,0,0:0:0:0:
256,192,237821,1,8,0:0:0:0:
256,192,237921,1,8,0:0:0:0:
256,192,238021,1,0,0:0:0:0:
256,192,238071,1,0,0:0:0:0:
256,192,238121,1,0,0:0:0:0:
256,192,238171,1,0,0:0:0:0:
256,192,238221,1,0,0:0:0:0:
256,192,238271,1,0,0:0:0:0:
256,192,238321,1,0,0:0:0:0:
256,192,238371,1,0,0:0:0:0:
256,192,238421,1,8,0:0:0:0:
256,192,238471,1,8,0:0:0:0:
256,192,238521,1,8,0:0:0:0:
256,192,238571,1,8,0:0:0:0:
256,192,238621,1,8,0:0:0:0:
256,192,238671,1,8,0:0:0:0:
256,192,238721,1,8,0:0:0:0:
256,192,238771,1,8,0:0:0:0:
256,192,238821,1,0,0:0:0:0:
