osu file format v14

[General]
AudioFilename: audio.mp3
AudioLeadIn: 0
PreviewTime: 42823
Countdown: 1
SampleSet: Normal
StackLeniency: 0.7
Mode: 3
LetterboxInBreaks: 0
SpecialStyle: 0
WidescreenStoryboard: 0

[Editor]
Bookmarks: 134731,134868
DistanceSpacing: 2
BeatDivisor: 4
GridSize: 8
TimelineZoom: 2.1

[Metadata]
Title:Shun no Shifudo o Ikashita Kare Fumi Paeria
TitleUnicode:旬のシーフードを活かしたカレー風味パエリア ~808シェフのTwerkとTrap仕立て~
Artist:Camellia
ArtistUnicode:かめりあ
Creator:Evening
Version:Giant Pacific Octopus
Source:
Tags:
BeatmapID:973452
BeatmapSetID:453985

[Difficulty]
HPDrainRate:8
CircleSize:4
OverallDifficulty:8
ApproachRate:5
SliderMultiplier:1.4
SliderTickRate:1

[Events]
//Background and Video events
0,0,"Yusuke.Nakamura.full.634972.jpg",0,0
//Break Periods
//Storyboard Layer 0 (Background)
//Storyboard Layer 1 (Fail)
//Storyboard Layer 2 (Pass)
//Storyboard Layer 3 (Foreground)
//Storyboard Sound Samples

[TimingPoints]
278,272.727272727273,4,1,0,5,1,0
278,-99.9999999999999,4,1,0,5,0,0
122459,272.727272727273,3,1,0,5,1,0
122459,-99.9999999999999,3,1,0,5,0,0
174822,405.405405405405,4,1,0,5,1,0
174822,-67.2727272727273,4,1,0,5,0,0
175632,401.785714285714,3,1,0,5,1,0
175632,-67.8787878787879,3,1,0,5,0,0
176435,398.230088495575,3,1,0,5,1,0
176435,-68.4848484848485,3,1,0,5,0,0
177231,394.736842105263,3,1,0,5,1,0
177231,-69.0909090909091,3,1,0,5,0,0
178020,398.229207457506,3,1,0,5,1,0
178020,-68.4849999999999,3,1,0,5,0,0
178816,401.786611130828,3,1,0,5,1,0
178816,-67.8786363636364,3,1,0,5,0,0
179619,405.405405405405,3,1,0,5,1,0
179619,-67.2727272727273,3,1,0,5,0,0
180429,409.090909090909,3,1,0,5,1,0
180429,-66.6666666666667,3,1,0,5,0,0
181247,193.548387096774,4,1,0,5,1,0
181247,-140.909090909091,4,1,0,5,0,0
182021,200,4,1,0,5,1,0
182021,-136.363636363636,4,1,0,5,0,0
261221,218.181818181818,4,1,0,5,1,0
261221,-125,4,1,0,5,0,0
262093,240,4,1,0,5,1,0
262093,-113.636363636364,4,1,0,5,0,0
263053,285.714285714286,4,1,0,5,1,0
263053,-95.4545454545454,4,1,0,5,0,0
264195,375,4,1,0,5,1,0
264195,-72.7272727272727,4,1,0,5,0,0
264945,413.793103448276,4,1,0,5,1,0
264945,-65.9090909090909,4,1,0,5,0,0
265358,461.538461538462,4,1,0,5,1,0
265358,-59.090909090909,4,1,0,5,0,0

[HitObjects]
448,192,278,5,0,0:0:0:0:
320,192,278,1,0,0:0:0:0:
64,192,278,1,0,0:0:0:0:
448,192,550,1,0,0:0:0:0:
64,192,550,1,0,0:0:0:0:
320,192,687,1,0,0:0:0:0:
64,192,687,1,0,0:0:0:0:
448,192,823,1,0,0:0:0:0:
192,192,823,1,0,0:0:0:0:
448,192,1096,1,0,0:0:0:0:
320,192,1096,1,0,0:0:0:0:
64,192,1096,1,0,0:0:0:0:
448,192,1232,1,0,0:0:0:0:
320,192,1232,1,0,0:0:0:0:
448,192,1368,1,0,0:0:0:0:
64,192,1368,1,0,0:0:0:0:
320,192,1505,1,0,0:0:0:0:
64,192,1505,1,0,0:0:0:0:
448,192,1641,1,0,0:0:0:0:
192,192,1641,1,0,0:0:0:0:
448,192,1914,1,0,0:0:0:0:
64,192,1914,1,0,0:0:0:0:
448,192,2187,1,0,0:0:0:0:
64,192,2187,1,0,0:0:0:0:
320,192,2187,1,0,0:0:0:0:
64,192,2459,1,0,0:0:0:0:
320,192,2459,1,0,0:0:0:0:
448,192,2459,1,0,0:0:0:0:
64,192,2732,1,0,0:0:0:0:
448,192,2732,1,0,0:0:0:0:
64,192,2868,1,0,0:0:0:0:
320,192,2868,1,0,0:0:0:0:
192,192,3005,1,0,0:0:0:0:
448,192,3005,1,0,0:0:0:0:
64,192,3278,1,0,0:0:0:0:
320,192,3278,1,0,0:0:0:0:
448,192,3278,1,0,0:0:0:0:
320,192,3414,1,0,0:0:0:0:
448,192,3414,1,0,0:0:0:0:
64,192,3550,1,0,0:0:0:0:
448,192,3550,1,0,0:0:0:0:
64,192,3687,1,0,0:0:0:0:
320,192,3687,1,0,0:0:0:0:
192,192,3823,1,0,0:0:0:0:
448,192,3823,1,0,0:0:0:0:
64,192,4096,1,0,0:0:0:0:
448,192,4096,1,0,0:0:0:0:
320,192,4368,1,0,0:0:0:0:
64,192,4368,1,0,0:0:0:0:
448,192,4368,1,0,0:0:0:0:
64,192,4641,1,0,0:0:0:0:
448,192,4641,1,0,0:0:0:0:
192,192,4641,1,0,0:0:0:0:
448,192,4914,1,0,0:0:0:0:
64,192,4914,1,0,0:0:0:0:
448,192,5050,1,0,0:0:0:0:
192,192,5050,1,0,0:0:0:0:
320,192,5187,1,0,0:0:0:0:
64,192,5187,1,0,0:0:0:0:
448,192,5459,1,0,0:0:0:0:
192,192,5459,1,0,0:0:0:0:
64,192,5459,1,0,0:0:0:0:
192,192,5596,1,0,0:0:0:0:
64,192,5596,1,0,0:0:0:0:
448,192,5732,1,0,0:0:0:0:
64,192,5732,1,0,0:0:0:0:
448,192,5868,1,0,0:0:0:0:
192,192,5868,1,0,0:0:0:0:
320,192,6005,1,0,0:0:0:0:
64,192,6005,1,0,0:0:0:0:
448,192,6278,1,0,0:0:0:0:
64,192,6278,1,0,0:0:0:0:
192,192,6550,1,0,0:0:0:0:
448,192,6550,1,0,0:0:0:0:
64,192,6550,1,0,0:0:0:0:
320,192,6823,1,0,0:0:0:0:
64,192,6823,1,0,0:0:0:0:
448,192,6823,1,0,0:0:0:0:
192,192,6891,1,0,0:0:0:0:
320,192,6959,1,0,0:0:0:0:
448,192,7096,1,0,0:0:0:0:
64,192,7096,1,0,0:0:0:0:
320,192,7232,1,0,0:0:0:0:
192,192,7232,1,0,0:0:0:0:
448,192,7368,1,0,0:0:0:0:
192,192,7368,1,0,0:0:0:0:
320,192,7505,1,0,0:0:0:0:
192,192,7505,1,0,0:0:0:0:
448,192,7641,1,0,0:0:0:0:
64,192,7641,1,0,0:0:0:0:
448,192,7914,1,0,0:0:0:0:
64,192,7914,1,0,0:0:0:0:
320,192,8050,1,0,0:0:0:0:
192,192,8050,1,0,0:0:0:0:
448,192,8187,1,0,0:0:0:0:
64,192,8187,1,0,0:0:0:0:
320,192,8323,1,0,0:0:0:0:
64,192,8323,1,0,0:0:0:0:
448,192,8459,1,0,0:0:0:0:
192,192,8459,1,0,0:0:0:0:
320,192,8459,1,0,0:0:0:0:
448,192,8732,1,0,0:0:0:0:
64,192,8732,1,0,0:0:0:0:
448,192,9005,5,0,0:0:0:0:
64,192,9005,1,0,0:0:0:0:
320,192,9005,1,0,0:0:0:0:
320,192,9141,1,0,0:0:0:0:
192,192,9141,1,0,0:0:0:0:
64,192,9278,1,0,0:0:0:0:
448,192,9278,1,0,0:0:0:0:
64,192,9414,1,0,0:0:0:0:
320,192,9414,1,0,0:0:0:0:
192,192,9550,1,0,0:0:0:0:
448,192,9550,1,0,0:0:0:0:
64,192,9823,1,0,0:0:0:0:
320,192,9823,1,0,0:0:0:0:
448,192,9823,1,0,0:0:0:0:
320,192,9959,1,0,0:0:0:0:
448,192,9959,1,0,0:0:0:0:
64,192,10096,1,0,0:0:0:0:
448,192,10096,1,0,0:0:0:0:
64,192,10232,1,0,0:0:0:0:
320,192,10232,1,0,0:0:0:0:
192,192,10368,1,0,0:0:0:0:
448,192,10368,1,0,0:0:0:0:
64,192,10641,1,0,0:0:0:0:
448,192,10641,1,0,0:0:0:0:
320,192,10914,1,0,0:0:0:0:
64,192,10914,1,0,0:0:0:0:
448,192,10914,1,0,0:0:0:0:
448,192,11187,1,0,0:0:0:0:
320,192,11187,1,0,0:0:0:0:
64,192,11187,1,0,0:0:0:0:
320,192,11323,1,0,0:0:0:0:
192,192,11323,1,0,0:0:0:0:
448,192,11459,1,0,0:0:0:0:
64,192,11459,1,0,0:0:0:0:
320,192,11596,1,0,0:0:0:0:
64,192,11596,1,0,0:0:0:0:
448,192,11732,1,0,0:0:0:0:
192,192,11732,1,0,0:0:0:0:
448,192,12005,1,0,0:0:0:0:
320,192,12005,1,0,0:0:0:0:
64,192,12005,1,0,0:0:0:0:
448,192,12141,1,0,0:0:0:0:
320,192,12141,1,0,0:0:0:0:
448,192,12278,1,0,0:0:0:0:
64,192,12278,1,0,0:0:0:0:
320,192,12414,1,0,0:0:0:0:
64,192,12414,1,0,0:0:0:0:
448,192,12550,1,0,0:0:0:0:
192,192,12550,1,0,0:0:0:0:
448,192,12823,1,0,0:0:0:0:
64,192,12823,1,0,0:0:0:0:
448,192,13096,1,0,0:0:0:0:
64,192,13096,1,0,0:0:0:0:
320,192,13096,1,0,0:0:0:0:
192,192,13368,1,0,0:0:0:0:
448,192,13368,1,0,0:0:0:0:
64,192,13368,1,0,0:0:0:0:
320,192,13505,1,0,0:0:0:0:
192,192,13505,1,0,0:0:0:0:
64,192,13641,1,0,0:0:0:0:
448,192,13641,1,0,0:0:0:0:
192,192,13778,1,0,0:0:0:0:
448,192,13778,1,0,0:0:0:0:
64,192,13914,1,0,0:0:0:0:
320,192,13914,1,0,0:0:0:0:
64,192,14187,1,0,0:0:0:0:
192,192,14187,1,0,0:0:0:0:
448,192,14187,1,0,0:0:0:0:
64,192,14323,1,0,0:0:0:0:
192,192,14323,1,0,0:0:0:0:
64,192,14459,1,0,0:0:0:0:
448,192,14459,1,0,0:0:0:0:
192,192,14596,1,0,0:0:0:0:
448,192,14596,1,0,0:0:0:0:
64,192,14732,1,0,0:0:0:0:
320,192,14732,1,0,0:0:0:0:
64,192,15005,1,0,0:0:0:0:
448,192,15005,1,0,0:0:0:0:
64,192,15278,1,0,0:0:0:0:
448,192,15278,1,0,0:0:0:0:
192,192,15278,1,0,0:0:0:0:
448,192,15550,1,0,0:0:0:0:
64,192,15550,1,0,0:0:0:0:
320,192,15550,1,0,0:0:0:0:
192,192,15618,1,0,0:0:0:0:
320,192,15687,1,0,0:0:0:0:
64,192,15823,1,0,0:0:0:0:
448,192,15823,1,0,0:0:0:0:
192,192,15959,1,0,0:0:0:0:
320,192,15959,1,0,0:0:0:0:
192,192,16096,1,0,0:0:0:0:
448,192,16096,1,0,0:0:0:0:
192,192,16232,1,0,0:0:0:0:
320,192,16232,1,0,0:0:0:0:
64,192,16368,1,0,0:0:0:0:
448,192,16368,1,0,0:0:0:0:
64,192,16641,1,0,0:0:0:0:
448,192,16641,1,0,0:0:0:0:
192,192,16778,1,0,0:0:0:0:
320,192,16778,1,0,0:0:0:0:
64,192,16914,1,0,0:0:0:0:
448,192,16914,1,0,0:0:0:0:
64,192,17050,1,0,0:0:0:0:
320,192,17050,1,0,0:0:0:0:
320,192,17187,1,0,0:0:0:0:
192,192,17187,1,0,0:0:0:0:
448,192,17187,1,0,0:0:0:0:
64,192,17459,1,0,0:0:0:0:
448,192,17459,1,0,0:0:0:0:
448,192,17732,1,0,0:0:0:0:
320,192,17732,1,0,0:0:0:0:
192,192,17732,1,0,0:0:0:0:
64,192,17732,1,0,0:0:0:0:
64,192,17868,1,0,0:0:0:0:
64,192,18005,1,0,0:0:0:0:
64,192,18141,1,0,0:0:0:0:
64,192,18278,1,0,0:0:0:0:
448,192,18278,1,0,0:0:0:0:
320,192,18278,1,0,0:0:0:0:
192,192,18278,1,0,0:0:0:0:
448,192,18414,1,0,0:0:0:0:
448,192,18550,1,0,0:0:0:0:
192,192,18550,1,0,0:0:0:0:
64,192,18550,1,0,0:0:0:0:
320,192,18550,1,0,0:0:0:0:
192,192,18687,1,0,0:0:0:0:
192,192,18823,1,0,0:0:0:0:
192,192,18959,1,0,0:0:0:0:
448,192,19096,1,0,0:0:0:0:
320,192,19096,1,0,0:0:0:0:
192,192,19096,1,0,0:0:0:0:
64,192,19096,1,0,0:0:0:0:
192,192,19232,1,0,0:0:0:0:
448,192,19368,1,0,0:0:0:0:
320,192,19368,1,0,0:0:0:0:
192,192,19368,1,0,0:0:0:0:
64,192,19368,1,0,0:0:0:0:
448,192,19505,1,0,0:0:0:0:
448,192,19641,1,0,0:0:0:0:
192,192,19641,1,0,0:0:0:0:
64,192,19641,1,0,0:0:0:0:
448,192,19778,1,0,0:0:0:0:
448,192,19914,1,0,0:0:0:0:
320,192,19914,1,0,0:0:0:0:
64,192,19914,1,0,0:0:0:0:
192,192,19914,1,0,0:0:0:0:
64,192,20050,1,0,0:0:0:0:
64,192,20187,1,0,0:0:0:0:
64,192,20323,1,0,0:0:0:0:
448,192,20459,1,0,0:0:0:0:
320,192,20459,1,0,0:0:0:0:
192,192,20459,1,0,0:0:0:0:
64,192,20459,1,0,0:0:0:0:
448,192,20596,1,0,0:0:0:0:
448,192,20732,1,0,0:0:0:0:
320,192,20732,1,0,0:0:0:0:
192,192,20732,1,0,0:0:0:0:
64,192,20732,1,0,0:0:0:0:
320,192,20868,1,0,0:0:0:0:
320,192,21005,1,0,0:0:0:0:
320,192,21141,1,0,0:0:0:0:
448,192,21278,1,0,0:0:0:0:
320,192,21278,1,0,0:0:0:0:
192,192,21278,1,0,0:0:0:0:
64,192,21278,1,0,0:0:0:0:
192,192,21414,1,0,0:0:0:0:
448,192,21550,1,0,0:0:0:0:
320,192,21550,1,0,0:0:0:0:
64,192,21550,1,0,0:0:0:0:
192,192,21550,1,0,0:0:0:0:
448,192,21687,1,0,0:0:0:0:
448,192,21823,1,0,0:0:0:0:
320,192,21823,1,0,0:0:0:0:
64,192,21823,1,0,0:0:0:0:
448,192,21959,1,0,0:0:0:0:
448,192,22096,1,0,0:0:0:0:
320,192,22096,1,0,0:0:0:0:
192,192,22096,1,0,0:0:0:0:
64,192,22096,1,0,0:0:0:0:
192,192,22232,1,0,0:0:0:0:
64,192,22232,1,0,0:0:0:0:
192,192,22368,1,0,0:0:0:0:
64,192,22368,1,0,0:0:0:0:
192,192,22505,1,0,0:0:0:0:
64,192,22505,1,0,0:0:0:0:
448,192,22641,1,0,0:0:0:0:
320,192,22641,1,0,0:0:0:0:
192,192,22641,1,0,0:0:0:0:
64,192,22641,1,0,0:0:0:0:
448,192,22778,1,0,0:0:0:0:
448,192,22914,1,0,0:0:0:0:
320,192,22914,1,0,0:0:0:0:
192,192,22914,1,0,0:0:0:0:
64,192,22914,1,0,0:0:0:0:
192,192,23050,1,0,0:0:0:0:
192,192,23187,1,0,0:0:0:0:
192,192,23323,1,0,0:0:0:0:
192,192,23459,1,0,0:0:0:0:
64,192,23459,1,0,0:0:0:0:
448,192,23459,1,0,0:0:0:0:
320,192,23459,1,0,0:0:0:0:
320,192,23596,1,0,0:0:0:0:
320,192,23732,1,0,0:0:0:0:
448,192,23732,1,0,0:0:0:0:
192,192,23732,1,0,0:0:0:0:
64,192,23732,1,0,0:0:0:0:
64,192,23868,1,0,0:0:0:0:
64,192,24005,1,0,0:0:0:0:
64,192,24141,1,0,0:0:0:0:
448,192,24278,1,0,0:0:0:0:
320,192,24278,1,0,0:0:0:0:
192,192,24278,1,0,0:0:0:0:
64,192,24278,1,0,0:0:0:0:
192,192,24414,1,0,0:0:0:0:
448,192,24414,1,0,0:0:0:0:
192,192,24550,1,0,0:0:0:0:
448,192,24550,1,0,0:0:0:0:
192,192,24687,1,0,0:0:0:0:
448,192,24687,1,0,0:0:0:0:
192,192,24823,1,0,0:0:0:0:
64,192,24823,1,0,0:0:0:0:
320,192,24823,1,0,0:0:0:0:
448,192,24823,1,0,0:0:0:0:
64,192,24959,1,0,0:0:0:0:
192,192,24959,1,0,0:0:0:0:
448,192,25096,1,0,0:0:0:0:
192,192,25096,1,0,0:0:0:0:
64,192,25096,1,0,0:0:0:0:
320,192,25096,1,0,0:0:0:0:
448,192,25232,1,0,0:0:0:0:
320,192,25232,1,0,0:0:0:0:
448,192,25368,1,0,0:0:0:0:
448,192,25505,1,0,0:0:0:0:
320,192,25505,1,0,0:0:0:0:
448,192,25641,1,0,0:0:0:0:
320,192,25641,1,0,0:0:0:0:
448,192,25778,1,0,0:0:0:0:
320,192,25778,1,0,0:0:0:0:
448,192,25914,1,0,0:0:0:0:
192,192,25914,1,0,0:0:0:0:
64,192,25914,1,0,0:0:0:0:
320,192,25914,1,0,0:0:0:0:
192,192,26050,1,0,0:0:0:0:
64,192,26050,1,0,0:0:0:0:
192,192,26187,1,0,0:0:0:0:
64,192,26187,1,0,0:0:0:0:
192,192,26323,1,0,0:0:0:0:
64,192,26323,1,0,0:0:0:0:
448,192,26459,1,0,0:0:0:0:
320,192,26459,1,0,0:0:0:0:
192,192,26459,1,0,0:0:0:0:
64,192,26459,1,0,0:0:0:0:
448,192,26596,1,0,0:0:0:0:
320,192,26596,1,0,0:0:0:0:
320,192,26732,1,0,0:0:0:0:
448,192,26732,1,0,0:0:0:0:
448,192,26868,1,0,0:0:0:0:
320,192,26868,1,0,0:0:0:0:
320,192,27005,1,0,0:0:0:0:
448,192,27005,1,0,0:0:0:0:
192,192,27005,1,0,0:0:0:0:
64,192,27005,1,0,0:0:0:0:
64,192,27141,1,0,0:0:0:0:
64,192,27278,1,0,0:0:0:0:
448,192,27278,1,0,0:0:0:0:
320,192,27278,1,0,0:0:0:0:
192,192,27278,1,0,0:0:0:0:
320,192,27414,1,0,0:0:0:0:
320,192,27550,1,0,0:0:0:0:
320,192,27687,1,0,0:0:0:0:
448,192,27823,1,0,0:0:0:0:
320,192,27823,1,0,0:0:0:0:
192,192,27823,1,0,0:0:0:0:
64,192,27823,1,0,0:0:0:0:
192,192,27959,1,0,0:0:0:0:
192,192,28096,1,0,0:0:0:0:
64,192,28096,1,0,0:0:0:0:
448,192,28096,1,0,0:0:0:0:
320,192,28096,1,0,0:0:0:0:
448,192,28232,1,0,0:0:0:0:
448,192,28368,1,0,0:0:0:0:
192,192,28368,1,0,0:0:0:0:
64,192,28368,1,0,0:0:0:0:
448,192,28505,1,0,0:0:0:0:
448,192,28641,1,0,0:0:0:0:
320,192,28641,1,0,0:0:0:0:
192,192,28641,1,0,0:0:0:0:
64,192,28641,1,0,0:0:0:0:
64,192,28778,1,0,0:0:0:0:
64,192,28914,1,0,0:0:0:0:
64,192,29050,1,0,0:0:0:0:
448,192,29187,1,0,0:0:0:0:
192,192,29187,1,0,0:0:0:0:
64,192,29187,1,0,0:0:0:0:
320,192,29187,1,0,0:0:0:0:
448,192,29323,1,0,0:0:0:0:
448,192,29459,1,0,0:0:0:0:
320,192,29459,1,0,0:0:0:0:
192,192,29459,1,0,0:0:0:0:
64,192,29459,1,0,0:0:0:0:
192,192,29596,1,0,0:0:0:0:
192,192,29732,1,0,0:0:0:0:
192,192,29868,1,0,0:0:0:0:
192,192,30005,1,0,0:0:0:0:
448,192,30005,1,0,0:0:0:0:
320,192,30005,1,0,0:0:0:0:
64,192,30005,1,0,0:0:0:0:
320,192,30141,1,0,0:0:0:0:
448,192,30278,1,0,0:0:0:0:
320,192,30278,1,0,0:0:0:0:
192,192,30278,1,0,0:0:0:0:
64,192,30278,1,0,0:0:0:0:
64,192,30414,1,0,0:0:0:0:
64,192,30550,1,0,0:0:0:0:
448,192,30550,1,0,0:0:0:0:
192,192,30550,1,0,0:0:0:0:
64,192,30687,1,0,0:0:0:0:
448,192,30823,1,0,0:0:0:0:
320,192,30823,1,0,0:0:0:0:
192,192,30823,1,0,0:0:0:0:
64,192,30823,1,0,0:0:0:0:
448,192,30959,1,0,0:0:0:0:
192,192,30959,1,0,0:0:0:0:
192,192,31096,1,0,0:0:0:0:
448,192,31096,1,0,0:0:0:0:
192,192,31232,1,0,0:0:0:0:
448,192,31232,1,0,0:0:0:0:
448,192,31368,1,0,0:0:0:0:
320,192,31368,1,0,0:0:0:0:
192,192,31368,1,0,0:0:0:0:
64,192,31368,1,0,0:0:0:0:
320,192,31505,1,0,0:0:0:0:
320,192,31641,1,0,0:0:0:0:
448,192,31641,1,0,0:0:0:0:
192,192,31641,1,0,0:0:0:0:
64,192,31641,1,0,0:0:0:0:
64,192,31778,1,0,0:0:0:0:
64,192,31914,1,0,0:0:0:0:
64,192,32050,1,0,0:0:0:0:
448,192,32187,1,0,0:0:0:0:
320,192,32187,1,0,0:0:0:0:
192,192,32187,1,0,0:0:0:0:
64,192,32187,1,0,0:0:0:0:
320,192,32323,1,0,0:0:0:0:
448,192,32459,1,0,0:0:0:0:
320,192,32459,1,0,0:0:0:0:
192,192,32459,1,0,0:0:0:0:
64,192,32459,1,0,0:0:0:0:
192,192,32596,1,0,0:0:0:0:
448,192,32732,1,0,0:0:0:0:
320,192,32732,1,0,0:0:0:0:
192,192,32732,1,0,0:0:0:0:
192,192,32868,1,0,0:0:0:0:
192,192,33005,1,0,0:0:0:0:
64,192,33005,1,0,0:0:0:0:
448,192,33005,1,0,0:0:0:0:
320,192,33005,1,0,0:0:0:0:
448,192,33141,1,0,0:0:0:0:
64,192,33141,1,0,0:0:0:0:
64,192,33278,1,0,0:0:0:0:
448,192,33278,1,0,0:0:0:0:
448,192,33414,1,0,0:0:0:0:
64,192,33414,1,0,0:0:0:0:
448,192,33550,1,0,0:0:0:0:
320,192,33550,1,0,0:0:0:0:
192,192,33550,1,0,0:0:0:0:
64,192,33550,1,0,0:0:0:0:
192,192,33687,1,0,0:0:0:0:
320,192,33687,1,0,0:0:0:0:
64,192,33823,1,0,0:0:0:0:
448,192,33823,1,0,0:0:0:0:
320,192,33823,1,0,0:0:0:0:
192,192,33823,1,0,0:0:0:0:
448,192,33959,1,0,0:0:0:0:
64,192,33959,1,0,0:0:0:0:
448,192,34096,1,0,0:0:0:0:
448,192,34232,1,0,0:0:0:0:
448,192,34368,1,0,0:0:0:0:
64,192,34368,1,0,0:0:0:0:
448,192,34505,1,0,0:0:0:0:
64,192,34505,1,0,0:0:0:0:
448,192,34641,1,0,0:0:0:0:
64,192,34641,1,0,0:0:0:0:
192,192,34641,1,0,0:0:0:0:
320,192,34641,1,0,0:0:0:0:
320,192,34778,1,0,0:0:0:0:
192,192,34778,1,0,0:0:0:0:
192,192,34914,1,0,0:0:0:0:
320,192,34914,1,0,0:0:0:0:
320,192,35050,1,0,0:0:0:0:
192,192,35050,1,0,0:0:0:0:
448,192,35187,1,0,0:0:0:0:
320,192,35187,1,0,0:0:0:0:
192,192,35187,1,0,0:0:0:0:
64,192,35187,1,0,0:0:0:0:
320,192,35323,1,0,0:0:0:0:
64,192,35323,1,0,0:0:0:0:
192,192,35391,1,0,0:0:0:0:
320,192,35459,1,0,0:0:0:0:
192,192,35596,1,0,0:0:0:0:
64,192,35664,1,0,0:0:0:0:
448,192,35732,1,0,0:0:0:0:
320,192,35732,1,0,0:0:0:0:
64,192,35868,1,0,0:0:0:0:
192,192,35937,1,0,0:0:0:0:
320,192,36005,1,0,0:0:0:0:
320,192,36141,1,0,0:0:0:0:
192,192,36141,1,0,0:0:0:0:
64,192,36209,1,0,0:0:0:0:
320,192,36278,1,0,0:0:0:0:
64,192,36414,1,0,0:0:0:0:
192,192,36482,1,0,0:0:0:0:
448,192,36550,1,0,0:0:0:0:
320,192,36550,1,0,0:0:0:0:
192,192,36687,1,0,0:0:0:0:
64,192,36755,1,0,0:0:0:0:
320,192,36823,1,0,0:0:0:0:
64,192,36959,1,0,0:0:0:0:
192,192,37028,1,0,0:0:0:0:
448,192,37096,1,0,0:0:0:0:
320,192,37096,1,0,0:0:0:0:
192,192,37232,1,0,0:0:0:0:
64,192,37300,1,0,0:0:0:0:
448,192,37368,1,0,0:0:0:0:
320,192,37368,1,0,0:0:0:0:
448,192,37505,1,0,0:0:0:0:
192,192,37505,1,0,0:0:0:0:
320,192,37573,1,0,0:0:0:0:
192,192,37641,1,0,0:0:0:0:
320,192,37778,1,0,0:0:0:0:
448,192,37846,1,0,0:0:0:0:
192,192,37914,1,0,0:0:0:0:
64,192,37914,1,0,0:0:0:0:
448,192,38050,1,0,0:0:0:0:
320,192,38118,1,0,0:0:0:0:
192,192,38187,1,0,0:0:0:0:
320,192,38323,1,0,0:0:0:0:
192,192,38323,1,0,0:0:0:0:
448,192,38391,1,0,0:0:0:0:
192,192,38459,1,0,0:0:0:0:
448,192,38596,1,0,0:0:0:0:
320,192,38664,1,0,0:0:0:0:
64,192,38732,1,0,0:0:0:0:
192,192,38732,1,0,0:0:0:0:
320,192,38868,1,0,0:0:0:0:
448,192,38937,1,0,0:0:0:0:
192,192,39005,1,0,0:0:0:0:
448,192,39141,1,0,0:0:0:0:
320,192,39209,1,0,0:0:0:0:
64,192,39278,1,0,0:0:0:0:
192,192,39278,1,0,0:0:0:0:
320,192,39414,1,0,0:0:0:0:
448,192,39482,1,0,0:0:0:0:
64,192,39550,1,0,0:0:0:0:
192,192,39550,1,0,0:0:0:0:
320,192,39618,1,0,0:0:0:0:
192,192,39687,1,0,0:0:0:0:
64,192,39687,1,0,0:0:0:0:
320,192,39755,1,0,0:0:0:0:
192,192,39823,1,0,0:0:0:0:
64,192,39823,1,0,0:0:0:0:
448,192,39823,1,0,0:0:0:0:
320,192,39891,1,0,0:0:0:0:
448,192,39959,1,0,0:0:0:0:
64,192,39959,1,0,0:0:0:0:
192,192,40028,1,0,0:0:0:0:
448,192,40096,1,0,0:0:0:0:
320,192,40096,1,0,0:0:0:0:
192,192,40164,1,0,0:0:0:0:
448,192,40232,1,0,0:0:0:0:
320,192,40232,1,0,0:0:0:0:
192,192,40300,1,0,0:0:0:0:
448,192,40368,1,0,0:0:0:0:
320,192,40368,1,0,0:0:0:0:
64,192,40368,1,0,0:0:0:0:
192,192,40437,1,0,0:0:0:0:
64,192,40505,1,0,0:0:0:0:
448,192,40505,1,0,0:0:0:0:
320,192,40573,1,0,0:0:0:0:
192,192,40641,1,0,0:0:0:0:
64,192,40641,1,0,0:0:0:0:
320,192,40709,1,0,0:0:0:0:
192,192,40778,1,0,0:0:0:0:
64,192,40778,1,0,0:0:0:0:
320,192,40846,1,0,0:0:0:0:
192,192,40914,1,0,0:0:0:0:
64,192,40914,1,0,0:0:0:0:
448,192,40914,1,0,0:0:0:0:
320,192,40982,1,0,0:0:0:0:
448,192,41050,1,0,0:0:0:0:
64,192,41050,1,0,0:0:0:0:
192,192,41118,1,0,0:0:0:0:
448,192,41187,1,0,0:0:0:0:
320,192,41187,1,0,0:0:0:0:
192,192,41255,1,0,0:0:0:0:
448,192,41323,1,0,0:0:0:0:
320,192,41323,1,0,0:0:0:0:
192,192,41391,1,0,0:0:0:0:
64,192,41459,1,0,0:0:0:0:
448,192,41459,1,0,0:0:0:0:
320,192,41459,1,0,0:0:0:0:
192,192,41528,1,0,0:0:0:0:
64,192,41596,1,0,0:0:0:0:
448,192,41596,1,0,0:0:0:0:
320,192,41664,1,0,0:0:0:0:
64,192,41732,1,0,0:0:0:0:
192,192,41732,1,0,0:0:0:0:
320,192,41800,1,0,0:0:0:0:
448,192,41800,1,0,0:0:0:0:
64,192,41868,1,0,0:0:0:0:
192,192,41868,1,0,0:0:0:0:
448,192,41937,1,0,0:0:0:0:
320,192,42005,1,0,0:0:0:0:
64,192,42005,1,0,0:0:0:0:
192,192,42073,1,0,0:0:0:0:
448,192,42073,1,0,0:0:0:0:
320,192,42141,1,0,0:0:0:0:
64,192,42141,1,0,0:0:0:0:
192,192,42209,1,0,0:0:0:0:
448,192,42278,1,0,0:0:0:0:
320,192,42278,1,0,0:0:0:0:
192,192,42346,1,0,0:0:0:0:
64,192,42346,1,0,0:0:0:0:
320,192,42414,1,0,0:0:0:0:
448,192,42414,1,0,0:0:0:0:
192,192,42482,1,0,0:0:0:0:
64,192,42550,1,0,0:0:0:0:
448,192,42550,1,0,0:0:0:0:
320,192,42618,1,0,0:0:0:0:
192,192,42618,1,0,0:0:0:0:
448,192,42687,1,0,0:0:0:0:
64,192,42687,1,0,0:0:0:0:
320,192,42755,1,0,0:0:0:0:
192,192,42823,1,0,0:0:0:0:
64,192,42823,1,0,0:0:0:0:
448,192,42823,1,0,0:0:0:0:
192,192,43096,1,0,0:0:0:0:
448,192,43096,1,0,0:0:0:0:
448,192,43232,1,0,0:0:0:0:
448,192,43368,1,0,0:0:0:0:
64,192,43368,1,0,0:0:0:0:
320,192,43505,1,0,0:0:0:0:
64,192,43505,1,0,0:0:0:0:
192,192,43641,1,0,0:0:0:0:
448,192,43914,1,0,0:0:0:0:
320,192,43914,1,0,0:0:0:0:
192,192,43914,1,0,0:0:0:0:
64,192,43914,1,0,0:0:0:0:
448,192,44323,1,0,0:0:0:0:
320,192,44323,1,0,0:0:0:0:
448,192,44459,1,0,0:0:0:0:
320,192,44459,1,0,0:0:0:0:
64,192,44459,1,0,0:0:0:0:
64,192,44596,1,0,0:0:0:0:
192,192,44596,1,0,0:0:0:0:
448,192,44732,1,0,0:0:0:0:
192,192,44732,1,0,0:0:0:0:
320,192,44732,1,0,0:0:0:0:
448,192,45141,1,0,0:0:0:0:
192,192,45141,1,0,0:0:0:0:
448,192,45278,1,0,0:0:0:0:
320,192,45278,1,0,0:0:0:0:
64,192,45278,1,0,0:0:0:0:
192,192,45414,1,0,0:0:0:0:
64,192,45414,1,0,0:0:0:0:
448,192,45550,1,0,0:0:0:0:
320,192,45550,1,0,0:0:0:0:
192,192,45550,1,0,0:0:0:0:
448,192,45823,1,0,0:0:0:0:
320,192,45823,1,0,0:0:0:0:
64,192,45823,1,0,0:0:0:0:
448,192,46096,1,0,0:0:0:0:
192,192,46096,1,0,0:0:0:0:
64,192,46096,1,0,0:0:0:0:
320,192,46232,1,0,0:0:0:0:
192,192,46232,1,0,0:0:0:0:
448,192,46368,1,0,0:0:0:0:
64,192,46368,1,0,0:0:0:0:
320,192,46505,1,0,0:0:0:0:
192,192,46505,1,0,0:0:0:0:
448,192,46641,1,0,0:0:0:0:
320,192,46641,1,0,0:0:0:0:
64,192,46641,1,0,0:0:0:0:
192,192,46709,1,0,0:0:0:0:
320,192,46778,1,0,0:0:0:0:
448,192,46914,1,0,0:0:0:0:
320,192,46914,1,0,0:0:0:0:
64,192,46914,1,0,0:0:0:0:
448,192,47323,1,0,0:0:0:0:
192,192,47323,1,0,0:0:0:0:
448,192,47459,1,0,0:0:0:0:
320,192,47459,1,0,0:0:0:0:
64,192,47459,1,0,0:0:0:0:
192,192,47596,1,0,0:0:0:0:
64,192,47596,1,0,0:0:0:0:
448,192,47732,1,0,0:0:0:0:
64,192,47732,1,0,0:0:0:0:
320,192,47732,1,0,0:0:0:0:
448,192,48005,1,0,0:0:0:0:
192,192,48005,1,0,0:0:0:0:
64,192,48005,1,0,0:0:0:0:
192,192,48278,1,0,0:0:0:0:
64,192,48278,1,0,0:0:0:0:
448,192,48278,1,0,0:0:0:0:
320,192,48278,1,0,0:0:0:0:
64,192,48687,1,0,0:0:0:0:
448,192,48687,1,0,0:0:0:0:
448,192,48823,1,0,0:0:0:0:
192,192,48823,1,0,0:0:0:0:
320,192,48823,1,0,0:0:0:0:
320,192,48959,1,0,0:0:0:0:
64,192,48959,1,0,0:0:0:0:
192,192,49096,1,0,0:0:0:0:
64,192,49096,1,0,0:0:0:0:
448,192,49096,1,0,0:0:0:0:
448,192,49505,1,0,0:0:0:0:
320,192,49505,1,0,0:0:0:0:
448,192,49641,1,0,0:0:0:0:
192,192,49641,1,0,0:0:0:0:
64,192,49641,1,0,0:0:0:0:
320,192,49778,1,0,0:0:0:0:
192,192,49778,1,0,0:0:0:0:
448,192,49914,1,0,0:0:0:0:
320,192,49914,1,0,0:0:0:0:
64,192,49914,1,0,0:0:0:0:
448,192,50187,1,0,0:0:0:0:
64,192,50187,1,0,0:0:0:0:
320,192,50323,1,0,0:0:0:0:
64,192,50323,1,0,0:0:0:0:
448,192,50459,1,0,0:0:0:0:
320,192,50459,1,0,0:0:0:0:
192,192,50459,1,0,0:0:0:0:
448,192,50596,1,0,0:0:0:0:
64,192,50596,1,0,0:0:0:0:
320,192,50732,1,0,0:0:0:0:
192,192,50732,1,0,0:0:0:0:
448,192,50868,1,0,0:0:0:0:
192,192,50868,1,0,0:0:0:0:
448,192,51005,1,0,0:0:0:0:
320,192,51005,1,0,0:0:0:0:
64,192,51005,1,0,0:0:0:0:
320,192,51141,1,0,0:0:0:0:
192,192,51141,1,0,0:0:0:0:
448,192,51278,1,0,0:0:0:0:
192,192,51278,1,0,0:0:0:0:
64,192,51278,1,0,0:0:0:0:
320,192,51414,1,0,0:0:0:0:
64,192,51414,1,0,0:0:0:0:
448,192,51550,1,0,0:0:0:0:
192,192,51550,1,0,0:0:0:0:
320,192,51687,1,0,0:0:0:0:
64,192,51687,1,0,0:0:0:0:
448,192,51823,1,0,0:0:0:0:
192,192,51823,1,0,0:0:0:0:
64,192,51823,1,0,0:0:0:0:
320,192,51959,1,0,0:0:0:0:
192,192,51959,1,0,0:0:0:0:
448,192,52096,1,0,0:0:0:0:
320,192,52096,1,0,0:0:0:0:
64,192,52096,1,0,0:0:0:0:
192,192,52232,1,0,0:0:0:0:
64,192,52232,1,0,0:0:0:0:
448,192,52368,1,0,0:0:0:0:
192,192,52368,1,0,0:0:0:0:
320,192,52505,1,0,0:0:0:0:
64,192,52505,1,0,0:0:0:0:
448,192,52641,1,0,0:0:0:0:
192,192,52641,1,0,0:0:0:0:
64,192,52641,1,0,0:0:0:0:
64,192,53050,1,0,0:0:0:0:
192,192,53050,1,0,0:0:0:0:
64,192,53187,1,0,0:0:0:0:
192,192,53187,1,0,0:0:0:0:
448,192,53187,1,0,0:0:0:0:
448,192,53323,1,0,0:0:0:0:
320,192,53323,1,0,0:0:0:0:
64,192,53459,1,0,0:0:0:0:
320,192,53459,1,0,0:0:0:0:
192,192,53459,1,0,0:0:0:0:
64,192,53868,1,0,0:0:0:0:
320,192,53868,1,0,0:0:0:0:
64,192,54005,1,0,0:0:0:0:
192,192,54005,1,0,0:0:0:0:
448,192,54005,1,0,0:0:0:0:
320,192,54141,1,0,0:0:0:0:
448,192,54141,1,0,0:0:0:0:
64,192,54278,1,0,0:0:0:0:
192,192,54278,1,0,0:0:0:0:
320,192,54278,1,0,0:0:0:0:
64,192,54550,1,0,0:0:0:0:
192,192,54550,1,0,0:0:0:0:
448,192,54550,1,0,0:0:0:0:
64,192,54823,1,0,0:0:0:0:
320,192,54823,1,0,0:0:0:0:
448,192,54823,1,0,0:0:0:0:
192,192,54959,1,0,0:0:0:0:
320,192,54959,1,0,0:0:0:0:
64,192,55096,1,0,0:0:0:0:
448,192,55096,1,0,0:0:0:0:
192,192,55232,1,0,0:0:0:0:
320,192,55232,1,0,0:0:0:0:
64,192,55368,1,0,0:0:0:0:
192,192,55368,1,0,0:0:0:0:
448,192,55368,1,0,0:0:0:0:
320,192,55437,1,0,0:0:0:0:
192,192,55505,1,0,0:0:0:0:
64,192,55641,1,0,0:0:0:0:
192,192,55641,1,0,0:0:0:0:
448,192,55641,1,0,0:0:0:0:
64,192,56050,1,0,0:0:0:0:
320,192,56050,1,0,0:0:0:0:
64,192,56187,1,0,0:0:0:0:
192,192,56187,1,0,0:0:0:0:
448,192,56187,1,0,0:0:0:0:
320,192,56323,1,0,0:0:0:0:
448,192,56323,1,0,0:0:0:0:
64,192,56459,1,0,0:0:0:0:
448,192,56459,1,0,0:0:0:0:
192,192,56459,1,0,0:0:0:0:
64,192,56732,1,0,0:0:0:0:
320,192,56732,1,0,0:0:0:0:
448,192,56732,1,0,0:0:0:0:
320,192,57005,1,0,0:0:0:0:
448,192,57005,1,0,0:0:0:0:
64,192,57005,1,0,0:0:0:0:
192,192,57005,1,0,0:0:0:0:
448,192,57414,1,0,0:0:0:0:
64,192,57414,1,0,0:0:0:0:
64,192,57550,1,0,0:0:0:0:
320,192,57550,1,0,0:0:0:0:
192,192,57550,1,0,0:0:0:0:
192,192,57687,1,0,0:0:0:0:
448,192,57687,1,0,0:0:0:0:
320,192,57823,1,0,0:0:0:0:
448,192,57823,1,0,0:0:0:0:
64,192,57823,1,0,0:0:0:0:
64,192,58232,1,0,0:0:0:0:
192,192,58232,1,0,0:0:0:0:
64,192,58368,1,0,0:0:0:0:
320,192,58368,1,0,0:0:0:0:
448,192,58368,1,0,0:0:0:0:
192,192,58505,1,0,0:0:0:0:
320,192,58505,1,0,0:0:0:0:
64,192,58641,1,0,0:0:0:0:
192,192,58641,1,0,0:0:0:0:
448,192,58641,1,0,0:0:0:0:
64,192,58914,1,0,0:0:0:0:
448,192,58914,1,0,0:0:0:0:
192,192,59050,1,0,0:0:0:0:
448,192,59050,1,0,0:0:0:0:
64,192,59187,1,0,0:0:0:0:
192,192,59187,1,0,0:0:0:0:
320,192,59187,1,0,0:0:0:0:
64,192,59323,1,0,0:0:0:0:
448,192,59323,1,0,0:0:0:0:
192,192,59459,1,0,0:0:0:0:
320,192,59459,1,0,0:0:0:0:
64,192,59596,1,0,0:0:0:0:
320,192,59596,1,0,0:0:0:0:
64,192,59732,1,0,0:0:0:0:
192,192,59732,1,0,0:0:0:0:
448,192,59732,1,0,0:0:0:0:
192,192,59868,1,0,0:0:0:0:
320,192,59868,1,0,0:0:0:0:
64,192,60005,1,0,0:0:0:0:
320,192,60005,1,0,0:0:0:0:
448,192,60005,1,0,0:0:0:0:
192,192,60141,1,0,0:0:0:0:
448,192,60141,1,0,0:0:0:0:
64,192,60278,1,0,0:0:0:0:
320,192,60278,1,0,0:0:0:0:
192,192,60414,1,0,0:0:0:0:
448,192,60414,1,0,0:0:0:0:
64,192,60550,1,0,0:0:0:0:
320,192,60550,1,0,0:0:0:0:
448,192,60550,1,0,0:0:0:0:
192,192,60687,1,0,0:0:0:0:
320,192,60687,1,0,0:0:0:0:
64,192,60823,1,0,0:0:0:0:
192,192,60823,1,0,0:0:0:0:
448,192,60823,1,0,0:0:0:0:
320,192,60959,1,0,0:0:0:0:
448,192,60959,1,0,0:0:0:0:
64,192,61096,1,0,0:0:0:0:
320,192,61096,1,0,0:0:0:0:
192,192,61232,1,0,0:0:0:0:
448,192,61232,1,0,0:0:0:0:
64,192,61368,1,0,0:0:0:0:
320,192,61368,1,0,0:0:0:0:
448,192,61368,1,0,0:0:0:0:
192,192,61505,1,0,0:0:0:0:
64,192,61505,1,0,0:0:0:0:
192,192,61641,1,0,0:0:0:0:
64,192,61641,1,0,0:0:0:0:
448,192,61914,1,0,0:0:0:0:
320,192,61914,1,0,0:0:0:0:
64,192,61914,1,0,0:0:0:0:
448,192,62187,1,0,0:0:0:0:
320,192,62187,1,0,0:0:0:0:
64,192,62187,1,0,0:0:0:0:
192,192,62232,1,0,0:0:0:0:
320,192,62278,1,0,0:0:0:0:
448,192,62323,1,0,0:0:0:0:
192,192,62368,1,0,0:0:0:0:
64,192,62414,1,0,0:0:0:0:
448,192,62459,1,0,0:0:0:0:
320,192,62459,1,0,0:0:0:0:
192,192,62505,1,0,0:0:0:0:
64,192,62550,1,0,0:0:0:0:
320,192,62596,1,0,0:0:0:0:
192,192,62641,1,0,0:0:0:0:
448,192,62687,1,0,0:0:0:0:
64,192,62732,1,0,0:0:0:0:
320,192,62732,1,0,0:0:0:0:
192,192,62778,1,0,0:0:0:0:
448,192,62823,1,0,0:0:0:0:
320,192,62868,1,0,0:0:0:0:
192,192,62914,1,0,0:0:0:0:
64,192,62959,1,0,0:0:0:0:
448,192,63005,1,0,0:0:0:0:
320,192,63005,1,0,0:0:0:0:
192,192,63050,1,0,0:0:0:0:
64,192,63096,1,0,0:0:0:0:
320,192,63141,1,0,0:0:0:0:
192,192,63187,1,0,0:0:0:0:
448,192,63232,1,0,0:0:0:0:
64,192,63278,1,0,0:0:0:0:
320,192,63278,1,0,0:0:0:0:
192,192,63323,1,0,0:0:0:0:
448,192,63368,1,0,0:0:0:0:
320,192,63414,1,0,0:0:0:0:
64,192,63459,1,0,0:0:0:0:
192,192,63505,1,0,0:0:0:0:
320,192,63550,1,0,0:0:0:0:
448,192,63550,1,0,0:0:0:0:
64,192,63596,1,0,0:0:0:0:
192,192,63641,1,0,0:0:0:0:
448,192,63687,1,0,0:0:0:0:
320,192,63687,1,0,0:0:0:0:
64,192,63732,1,0,0:0:0:0:
192,192,63778,1,0,0:0:0:0:
448,192,63823,1,0,0:0:0:0:
320,192,63823,1,0,0:0:0:0:
64,192,63868,1,0,0:0:0:0:
192,192,63914,1,0,0:0:0:0:
448,192,63959,1,0,0:0:0:0:
320,192,64005,1,0,0:0:0:0:
64,192,64050,1,0,0:0:0:0:
192,192,64096,1,0,0:0:0:0:
448,192,64096,1,0,0:0:0:0:
320,192,64141,1,0,0:0:0:0:
64,192,64187,1,0,0:0:0:0:
192,192,64232,1,0,0:0:0:0:
448,192,64278,1,0,0:0:0:0:
320,192,64323,1,0,0:0:0:0:
192,192,64368,1,0,0:0:0:0:
64,192,64368,1,0,0:0:0:0:
448,192,64414,1,0,0:0:0:0:
320,192,64459,1,0,0:0:0:0:
192,192,64505,1,0,0:0:0:0:
64,192,64505,1,0,0:0:0:0:
448,192,64550,1,0,0:0:0:0:
320,192,64596,1,0,0:0:0:0:
192,192,64641,1,0,0:0:0:0:
64,192,64641,1,0,0:0:0:0:
448,192,64687,1,0,0:0:0:0:
320,192,64732,1,0,0:0:0:0:
192,192,64778,1,0,0:0:0:0:
64,192,64823,1,0,0:0:0:0:
320,192,64868,1,0,0:0:0:0:
448,192,64914,1,0,0:0:0:0:
192,192,64914,1,0,0:0:0:0:
64,192,64959,1,0,0:0:0:0:
320,192,65005,1,0,0:0:0:0:
448,192,65050,1,0,0:0:0:0:
192,192,65096,1,0,0:0:0:0:
320,192,65141,1,0,0:0:0:0:
448,192,65187,1,0,0:0:0:0:
64,192,65187,1,0,0:0:0:0:
192,192,65232,1,0,0:0:0:0:
320,192,65278,1,0,0:0:0:0:
64,192,65323,1,0,0:0:0:0:
192,192,65368,1,0,0:0:0:0:
448,192,65414,1,0,0:0:0:0:
320,192,65459,1,0,0:0:0:0:
64,192,65459,1,0,0:0:0:0:
192,192,65505,1,0,0:0:0:0:
448,192,65550,1,0,0:0:0:0:
320,192,65596,1,0,0:0:0:0:
192,192,65641,1,0,0:0:0:0:
64,192,65687,1,0,0:0:0:0:
448,192,65732,1,0,0:0:0:0:
320,192,65732,1,0,0:0:0:0:
192,192,65800,1,0,0:0:0:0:
448,192,65868,1,0,0:0:0:0:
320,192,65868,1,0,0:0:0:0:
192,192,65937,1,0,0:0:0:0:
448,192,66005,1,0,0:0:0:0:
320,192,66005,1,0,0:0:0:0:
64,192,66073,1,0,0:0:0:0:
192,192,66141,1,0,0:0:0:0:
448,192,66141,1,0,0:0:0:0:
320,192,66209,1,0,0:0:0:0:
192,192,66278,1,0,0:0:0:0:
64,192,66278,1,0,0:0:0:0:
448,192,66278,1,0,0:0:0:0:
320,192,66346,1,0,0:0:0:0:
448,192,66414,1,0,0:0:0:0:
64,192,66414,1,0,0:0:0:0:
192,192,66482,1,0,0:0:0:0:
448,192,66550,1,0,0:0:0:0:
320,192,66550,1,0,0:0:0:0:
64,192,66550,1,0,0:0:0:0:
192,192,66618,1,0,0:0:0:0:
448,192,66687,1,0,0:0:0:0:
320,192,66687,1,0,0:0:0:0:
192,192,66755,1,0,0:0:0:0:
448,192,66823,1,0,0:0:0:0:
320,192,66823,1,0,0:0:0:0:
64,192,66891,1,0,0:0:0:0:
192,192,66959,1,0,0:0:0:0:
448,192,66959,1,0,0:0:0:0:
320,192,67028,1,0,0:0:0:0:
192,192,67096,1,0,0:0:0:0:
64,192,67096,1,0,0:0:0:0:
448,192,67096,1,0,0:0:0:0:
320,192,67164,1,0,0:0:0:0:
64,192,67232,1,0,0:0:0:0:
192,192,67232,1,0,0:0:0:0:
448,192,67300,1,0,0:0:0:0:
320,192,67368,1,0,0:0:0:0:
192,192,67368,1,0,0:0:0:0:
64,192,67368,1,0,0:0:0:0:
448,192,67437,1,0,0:0:0:0:
192,192,67505,1,0,0:0:0:0:
64,192,67505,1,0,0:0:0:0:
320,192,67573,1,0,0:0:0:0:
192,192,67641,1,0,0:0:0:0:
448,192,67641,1,0,0:0:0:0:
64,192,67709,1,0,0:0:0:0:
448,192,67778,1,0,0:0:0:0:
320,192,67778,1,0,0:0:0:0:
64,192,67846,1,0,0:0:0:0:
192,192,67914,1,0,0:0:0:0:
448,192,67914,1,0,0:0:0:0:
320,192,67914,1,0,0:0:0:0:
64,192,67982,1,0,0:0:0:0:
448,192,68050,1,0,0:0:0:0:
192,192,68050,1,0,0:0:0:0:
64,192,68118,1,0,0:0:0:0:
448,192,68187,1,0,0:0:0:0:
192,192,68187,1,0,0:0:0:0:
320,192,68255,1,0,0:0:0:0:
64,192,68323,1,0,0:0:0:0:
448,192,68323,1,0,0:0:0:0:
192,192,68391,1,0,0:0:0:0:
448,192,68459,1,0,0:0:0:0:
320,192,68459,1,0,0:0:0:0:
64,192,68459,1,0,0:0:0:0:
192,192,68528,1,0,0:0:0:0:
320,192,68596,1,0,0:0:0:0:
64,192,68596,1,0,0:0:0:0:
448,192,68664,1,0,0:0:0:0:
192,192,68732,1,0,0:0:0:0:
64,192,68732,1,0,0:0:0:0:
320,192,68732,1,0,0:0:0:0:
448,192,68800,1,0,0:0:0:0:
192,192,68868,1,0,0:0:0:0:
64,192,68868,1,0,0:0:0:0:
320,192,68937,1,0,0:0:0:0:
448,192,69005,1,0,0:0:0:0:
192,192,69005,1,0,0:0:0:0:
320,192,69073,1,0,0:0:0:0:
448,192,69141,1,0,0:0:0:0:
64,192,69141,1,0,0:0:0:0:
192,192,69209,1,0,0:0:0:0:
448,192,69278,1,0,0:0:0:0:
320,192,69278,1,0,0:0:0:0:
64,192,69278,1,0,0:0:0:0:
192,192,69346,1,0,0:0:0:0:
448,192,69414,1,0,0:0:0:0:
320,192,69414,1,0,0:0:0:0:
64,192,69482,1,0,0:0:0:0:
192,192,69550,1,0,0:0:0:0:
448,192,69550,1,0,0:0:0:0:
320,192,69550,1,0,0:0:0:0:
64,192,69618,1,0,0:0:0:0:
448,192,69687,1,0,0:0:0:0:
320,192,69687,1,0,0:0:0:0:
192,192,69755,1,0,0:0:0:0:
64,192,69823,1,0,0:0:0:0:
448,192,69823,1,0,0:0:0:0:
320,192,69823,1,0,0:0:0:0:
192,192,69891,1,0,0:0:0:0:
64,192,69959,1,0,0:0:0:0:
320,192,70028,1,0,0:0:0:0:
64,192,70096,1,0,0:0:0:0:
448,192,70096,1,0,0:0:0:0:
192,192,70141,1,0,0:0:0:0:
320,192,70187,1,0,0:0:0:0:
448,192,70232,1,0,0:0:0:0:
64,192,70232,1,0,0:0:0:0:
192,192,70278,1,0,0:0:0:0:
320,192,70323,1,0,0:0:0:0:
448,192,70368,1,0,0:0:0:0:
64,192,70368,1,0,0:0:0:0:
192,192,70414,1,0,0:0:0:0:
320,192,70459,1,0,0:0:0:0:
64,192,70505,1,0,0:0:0:0:
192,192,70550,1,0,0:0:0:0:
448,192,70596,1,0,0:0:0:0:
320,192,70641,1,0,0:0:0:0:
64,192,70641,1,0,0:0:0:0:
192,192,70687,1,0,0:0:0:0:
448,192,70732,1,0,0:0:0:0:
320,192,70778,1,0,0:0:0:0:
192,192,70823,1,0,0:0:0:0:
64,192,70868,1,0,0:0:0:0:
448,192,70914,1,0,0:0:0:0:
320,192,70914,1,0,0:0:0:0:
192,192,70959,1,0,0:0:0:0:
64,192,71005,1,0,0:0:0:0:
448,192,71050,1,0,0:0:0:0:
320,192,71050,1,0,0:0:0:0:
192,192,71096,1,0,0:0:0:0:
64,192,71141,1,0,0:0:0:0:
448,192,71187,1,0,0:0:0:0:
320,192,71187,1,0,0:0:0:0:
192,192,71232,1,0,0:0:0:0:
64,192,71278,1,0,0:0:0:0:
320,192,71323,1,0,0:0:0:0:
192,192,71368,1,0,0:0:0:0:
448,192,71414,1,0,0:0:0:0:
320,192,71459,1,0,0:0:0:0:
64,192,71459,1,0,0:0:0:0:
192,192,71505,1,0,0:0:0:0:
448,192,71550,1,0,0:0:0:0:
320,192,71596,1,0,0:0:0:0:
64,192,71641,1,0,0:0:0:0:
192,192,71687,1,0,0:0:0:0:
448,192,71732,1,0,0:0:0:0:
320,192,71732,1,0,0:0:0:0:
64,192,71778,1,0,0:0:0:0:
192,192,71823,1,0,0:0:0:0:
448,192,71868,1,0,0:0:0:0:
320,192,71914,1,0,0:0:0:0:
192,192,71959,1,0,0:0:0:0:
448,192,72005,1,0,0:0:0:0:
64,192,72005,1,0,0:0:0:0:
320,192,72050,1,0,0:0:0:0:
192,192,72096,1,0,0:0:0:0:
448,192,72141,1,0,0:0:0:0:
64,192,72187,1,0,0:0:0:0:
192,192,72232,1,0,0:0:0:0:
320,192,72278,1,0,0:0:0:0:
448,192,72278,1,0,0:0:0:0:
64,192,72323,1,0,0:0:0:0:
192,192,72368,1,0,0:0:0:0:
448,192,72414,1,0,0:0:0:0:
320,192,72414,1,0,0:0:0:0:
64,192,72459,1,0,0:0:0:0:
192,192,72505,1,0,0:0:0:0:
448,192,72550,1,0,0:0:0:0:
320,192,72550,1,0,0:0:0:0:
64,192,72596,1,0,0:0:0:0:
192,192,72641,1,0,0:0:0:0:
448,192,72687,1,0,0:0:0:0:
320,192,72732,1,0,0:0:0:0:
64,192,72778,1,0,0:0:0:0:
192,192,72823,1,0,0:0:0:0:
448,192,72823,1,0,0:0:0:0:
320,192,72868,1,0,0:0:0:0:
64,192,72914,1,0,0:0:0:0:
192,192,72959,1,0,0:0:0:0:
320,192,73005,1,0,0:0:0:0:
448,192,73050,1,0,0:0:0:0:
192,192,73096,1,0,0:0:0:0:
64,192,73096,1,0,0:0:0:0:
320,192,73141,1,0,0:0:0:0:
448,192,73187,1,0,0:0:0:0:
192,192,73232,1,0,0:0:0:0:
64,192,73232,1,0,0:0:0:0:
320,192,73278,1,0,0:0:0:0:
448,192,73323,1,0,0:0:0:0:
192,192,73368,1,0,0:0:0:0:
64,192,73368,1,0,0:0:0:0:
320,192,73414,1,0,0:0:0:0:
448,192,73459,1,0,0:0:0:0:
192,192,73505,1,0,0:0:0:0:
320,192,73550,1,0,0:0:0:0:
64,192,73596,1,0,0:0:0:0:
192,192,73641,1,0,0:0:0:0:
448,192,73641,1,0,0:0:0:0:
320,192,73687,1,0,0:0:0:0:
64,192,73732,1,0,0:0:0:0:
192,192,73778,1,0,0:0:0:0:
448,192,73823,1,0,0:0:0:0:
320,192,73868,1,0,0:0:0:0:
64,192,73914,1,0,0:0:0:0:
192,192,73914,1,0,0:0:0:0:
448,192,73959,1,0,0:0:0:0:
320,192,74005,1,0,0:0:0:0:
192,192,74050,1,0,0:0:0:0:
64,192,74096,1,0,0:0:0:0:
320,192,74141,1,0,0:0:0:0:
192,192,74187,1,0,0:0:0:0:
448,192,74187,1,0,0:0:0:0:
64,192,74232,1,0,0:0:0:0:
320,192,74278,1,0,0:0:0:0:
448,192,74323,1,0,0:0:0:0:
192,192,74368,1,0,0:0:0:0:
320,192,74414,1,0,0:0:0:0:
448,192,74459,1,0,0:0:0:0:
64,192,74459,1,0,0:0:0:0:
192,192,74528,1,0,0:0:0:0:
448,192,74596,1,0,0:0:0:0:
64,192,74596,1,0,0:0:0:0:
192,192,74664,1,0,0:0:0:0:
64,192,74732,1,0,0:0:0:0:
448,192,74732,1,0,0:0:0:0:
320,192,74800,1,0,0:0:0:0:
192,192,74868,1,0,0:0:0:0:
64,192,74868,1,0,0:0:0:0:
448,192,74937,1,0,0:0:0:0:
320,192,75005,1,0,0:0:0:0:
64,192,75005,1,0,0:0:0:0:
192,192,75005,1,0,0:0:0:0:
448,192,75073,1,0,0:0:0:0:
192,192,75141,1,0,0:0:0:0:
320,192,75141,1,0,0:0:0:0:
64,192,75209,1,0,0:0:0:0:
448,192,75278,1,0,0:0:0:0:
192,192,75278,1,0,0:0:0:0:
320,192,75278,1,0,0:0:0:0:
64,192,75346,1,0,0:0:0:0:
448,192,75414,1,0,0:0:0:0:
320,192,75414,1,0,0:0:0:0:
64,192,75482,1,0,0:0:0:0:
448,192,75550,1,0,0:0:0:0:
320,192,75550,1,0,0:0:0:0:
192,192,75618,1,0,0:0:0:0:
64,192,75687,1,0,0:0:0:0:
320,192,75687,1,0,0:0:0:0:
448,192,75755,1,0,0:0:0:0:
192,192,75823,1,0,0:0:0:0:
64,192,75823,1,0,0:0:0:0:
320,192,75823,1,0,0:0:0:0:
448,192,75891,1,0,0:0:0:0:
192,192,75959,1,0,0:0:0:0:
64,192,75959,1,0,0:0:0:0:
448,192,76028,1,0,0:0:0:0:
192,192,76096,1,0,0:0:0:0:
320,192,76096,1,0,0:0:0:0:
64,192,76096,1,0,0:0:0:0:
448,192,76164,1,0,0:0:0:0:
320,192,76232,1,0,0:0:0:0:
64,192,76232,1,0,0:0:0:0:
192,192,76300,1,0,0:0:0:0:
64,192,76368,1,0,0:0:0:0:
448,192,76368,1,0,0:0:0:0:
320,192,76368,1,0,0:0:0:0:
192,192,76437,1,0,0:0:0:0:
64,192,76505,1,0,0:0:0:0:
448,192,76505,1,0,0:0:0:0:
320,192,76573,1,0,0:0:0:0:
192,192,76641,1,0,0:0:0:0:
64,192,76641,1,0,0:0:0:0:
448,192,76641,1,0,0:0:0:0:
320,192,76641,1,0,0:0:0:0:
64,192,76709,1,0,0:0:0:0:
320,192,76778,1,0,0:0:0:0:
192,192,76846,1,0,0:0:0:0:
448,192,76914,1,0,0:0:0:0:
320,192,76914,1,0,0:0:0:0:
64,192,76914,1,0,0:0:0:0:
192,192,76982,1,0,0:0:0:0:
448,192,77050,1,0,0:0:0:0:
320,192,77118,1,0,0:0:0:0:
448,192,77187,1,0,0:0:0:0:
192,192,77187,1,0,0:0:0:0:
64,192,77187,1,0,0:0:0:0:
320,192,77187,1,0,0:0:0:0:
64,192,77255,1,0,0:0:0:0:
320,192,77323,1,0,0:0:0:0:
192,192,77391,1,0,0:0:0:0:
448,192,77459,1,0,0:0:0:0:
64,192,77459,1,0,0:0:0:0:
320,192,77459,1,0,0:0:0:0:
192,192,77528,1,0,0:0:0:0:
448,192,77596,1,0,0:0:0:0:
320,192,77664,1,0,0:0:0:0:
448,192,77732,1,0,0:0:0:0:
320,192,77732,1,0,0:0:0:0:
192,192,77732,1,0,0:0:0:0:
64,192,77732,1,0,0:0:0:0:
64,192,77800,1,0,0:0:0:0:
320,192,77868,1,0,0:0:0:0:
192,192,77937,1,0,0:0:0:0:
448,192,78005,1,0,0:0:0:0:
320,192,78005,1,0,0:0:0:0:
64,192,78005,1,0,0:0:0:0:
192,192,78073,1,0,0:0:0:0:
320,192,78141,1,0,0:0:0:0:
64,192,78209,1,0,0:0:0:0:
192,192,78209,1,0,0:0:0:0:
64,192,78278,1,0,0:0:0:0:
192,192,78278,1,0,0:0:0:0:
320,192,78278,1,0,0:0:0:0:
448,192,78278,1,0,0:0:0:0:
448,192,78346,1,0,0:0:0:0:
192,192,78414,1,0,0:0:0:0:
448,192,78482,1,0,0:0:0:0:
192,192,78550,1,0,0:0:0:0:
448,192,78618,1,0,0:0:0:0:
192,192,78687,1,0,0:0:0:0:
448,192,78755,1,0,0:0:0:0:
192,192,78823,1,0,0:0:0:0:
64,192,78823,1,0,0:0:0:0:
320,192,78823,1,0,0:0:0:0:
64,192,78959,1,0,0:0:0:0:
320,192,78959,1,0,0:0:0:0:
192,192,79028,1,0,0:0:0:0:
448,192,79096,1,0,0:0:0:0:
320,192,79096,1,0,0:0:0:0:
64,192,79096,1,0,0:0:0:0:
64,192,79232,1,0,0:0:0:0:
192,192,79300,1,0,0:0:0:0:
448,192,79368,1,0,0:0:0:0:
320,192,79368,1,0,0:0:0:0:
64,192,79368,1,0,0:0:0:0:
320,192,79505,1,0,0:0:0:0:
192,192,79573,1,0,0:0:0:0:
64,192,79641,1,0,0:0:0:0:
448,192,79641,1,0,0:0:0:0:
320,192,79641,1,0,0:0:0:0:
192,192,79778,1,0,0:0:0:0:
320,192,79778,1,0,0:0:0:0:
64,192,79846,1,0,0:0:0:0:
448,192,79914,1,0,0:0:0:0:
320,192,79914,1,0,0:0:0:0:
192,192,79914,1,0,0:0:0:0:
64,192,80050,1,0,0:0:0:0:
320,192,80118,1,0,0:0:0:0:
448,192,80187,1,0,0:0:0:0:
192,192,80187,1,0,0:0:0:0:
64,192,80187,1,0,0:0:0:0:
448,192,80323,1,0,0:0:0:0:
192,192,80391,1,0,0:0:0:0:
448,192,80459,1,0,0:0:0:0:
320,192,80459,1,0,0:0:0:0:
64,192,80459,1,0,0:0:0:0:
64,192,80596,1,0,0:0:0:0:
192,192,80664,1,0,0:0:0:0:
448,192,80732,1,0,0:0:0:0:
320,192,80732,1,0,0:0:0:0:
64,192,80732,1,0,0:0:0:0:
192,192,80868,1,0,0:0:0:0:
320,192,80937,1,0,0:0:0:0:
448,192,81005,1,0,0:0:0:0:
192,192,81005,1,0,0:0:0:0:
64,192,81005,1,0,0:0:0:0:
448,192,81141,1,0,0:0:0:0:
192,192,81141,1,0,0:0:0:0:
64,192,81209,1,0,0:0:0:0:
448,192,81278,1,0,0:0:0:0:
320,192,81278,1,0,0:0:0:0:
192,192,81278,1,0,0:0:0:0:
64,192,81414,1,0,0:0:0:0:
320,192,81482,1,0,0:0:0:0:
448,192,81550,1,0,0:0:0:0:
192,192,81550,1,0,0:0:0:0:
64,192,81550,1,0,0:0:0:0:
192,192,81687,1,0,0:0:0:0:
320,192,81755,1,0,0:0:0:0:
448,192,81823,1,0,0:0:0:0:
192,192,81823,1,0,0:0:0:0:
64,192,81823,1,0,0:0:0:0:
448,192,81959,1,0,0:0:0:0:
64,192,81959,1,0,0:0:0:0:
320,192,82028,1,0,0:0:0:0:
192,192,82096,1,0,0:0:0:0:
64,192,82096,1,0,0:0:0:0:
448,192,82096,1,0,0:0:0:0:
192,192,82232,1,0,0:0:0:0:
320,192,82300,1,0,0:0:0:0:
448,192,82368,1,0,0:0:0:0:
192,192,82368,1,0,0:0:0:0:
64,192,82368,1,0,0:0:0:0:
64,192,82505,1,0,0:0:0:0:
192,192,82573,1,0,0:0:0:0:
448,192,82641,1,0,0:0:0:0:
320,192,82641,1,0,0:0:0:0:
64,192,82641,1,0,0:0:0:0:
448,192,82778,1,0,0:0:0:0:
320,192,82846,1,0,0:0:0:0:
192,192,82914,1,0,0:0:0:0:
64,192,82914,1,0,0:0:0:0:
448,192,82914,1,0,0:0:0:0:
192,192,83050,1,0,0:0:0:0:
320,192,83118,1,0,0:0:0:0:
448,192,83187,1,0,0:0:0:0:
192,192,83187,1,0,0:0:0:0:
64,192,83187,1,0,0:0:0:0:
320,192,83255,1,0,0:0:0:0:
192,192,83323,1,0,0:0:0:0:
64,192,83323,1,0,0:0:0:0:
320,192,83391,1,0,0:0:0:0:
192,192,83459,1,0,0:0:0:0:
64,192,83459,1,0,0:0:0:0:
320,192,83528,1,0,0:0:0:0:
192,192,83596,1,0,0:0:0:0:
320,192,83664,1,0,0:0:0:0:
192,192,83732,1,0,0:0:0:0:
448,192,83732,1,0,0:0:0:0:
320,192,83800,1,0,0:0:0:0:
448,192,83868,1,0,0:0:0:0:
192,192,83868,1,0,0:0:0:0:
320,192,83937,1,0,0:0:0:0:
448,192,84005,1,0,0:0:0:0:
192,192,84005,1,0,0:0:0:0:
320,192,84073,1,0,0:0:0:0:
192,192,84141,1,0,0:0:0:0:
320,192,84209,1,0,0:0:0:0:
192,192,84278,1,0,0:0:0:0:
64,192,84278,1,0,0:0:0:0:
320,192,84346,1,0,0:0:0:0:
192,192,84414,1,0,0:0:0:0:
64,192,84414,1,0,0:0:0:0:
320,192,84482,1,0,0:0:0:0:
192,192,84550,1,0,0:0:0:0:
64,192,84550,1,0,0:0:0:0:
320,192,84618,1,0,0:0:0:0:
192,192,84687,1,0,0:0:0:0:
320,192,84755,1,0,0:0:0:0:
448,192,84823,1,0,0:0:0:0:
192,192,84823,1,0,0:0:0:0:
320,192,84891,1,0,0:0:0:0:
192,192,84959,1,0,0:0:0:0:
448,192,84959,1,0,0:0:0:0:
320,192,85028,1,0,0:0:0:0:
448,192,85096,1,0,0:0:0:0:
192,192,85096,1,0,0:0:0:0:
320,192,85164,1,0,0:0:0:0:
192,192,85232,1,0,0:0:0:0:
320,192,85300,1,0,0:0:0:0:
448,192,85368,1,0,0:0:0:0:
64,192,85368,1,0,0:0:0:0:
192,192,85437,1,0,0:0:0:0:
448,192,85505,1,0,0:0:0:0:
320,192,85505,1,0,0:0:0:0:
192,192,85573,1,0,0:0:0:0:
64,192,85573,1,0,0:0:0:0:
448,192,85641,1,0,0:0:0:0:
320,192,85641,1,0,0:0:0:0:
64,192,85709,1,0,0:0:0:0:
192,192,85778,1,0,0:0:0:0:
448,192,85778,1,0,0:0:0:0:
320,192,85846,1,0,0:0:0:0:
64,192,85846,1,0,0:0:0:0:
192,192,85914,1,0,0:0:0:0:
448,192,85914,1,0,0:0:0:0:
320,192,85982,1,0,0:0:0:0:
192,192,86050,1,0,0:0:0:0:
64,192,86050,1,0,0:0:0:0:
448,192,86118,1,0,0:0:0:0:
320,192,86118,1,0,0:0:0:0:
192,192,86187,1,0,0:0:0:0:
64,192,86187,1,0,0:0:0:0:
448,192,86255,1,0,0:0:0:0:
320,192,86323,1,0,0:0:0:0:
64,192,86323,1,0,0:0:0:0:
448,192,86391,1,0,0:0:0:0:
192,192,86391,1,0,0:0:0:0:
320,192,86459,1,0,0:0:0:0:
192,192,86459,1,0,0:0:0:0:
64,192,86459,128,0,86732:0:0:0:0:
320,192,86732,1,0,0:0:0:0:
320,192,86868,1,0,0:0:0:0:
448,192,87005,1,0,0:0:0:0:
192,192,87005,1,0,0:0:0:0:
64,192,87141,1,0,0:0:0:0:
448,192,87278,1,0,0:0:0:0:
320,192,87278,1,0,0:0:0:0:
448,192,87414,1,0,0:0:0:0:
192,192,87414,1,0,0:0:0:0:
448,192,87550,1,0,0:0:0:0:
320,192,87550,1,0,0:0:0:0:
192,192,87550,1,0,0:0:0:0:
64,192,87550,1,0,0:0:0:0:
448,192,87823,1,0,0:0:0:0:
192,192,87823,1,0,0:0:0:0:
320,192,87959,1,0,0:0:0:0:
64,192,87959,1,0,0:0:0:0:
448,192,88096,1,0,0:0:0:0:
192,192,88096,1,0,0:0:0:0:
64,192,88096,1,0,0:0:0:0:
320,192,88232,1,0,0:0:0:0:
192,192,88232,1,0,0:0:0:0:
448,192,88368,1,0,0:0:0:0:
320,192,88368,1,0,0:0:0:0:
64,192,88368,1,0,0:0:0:0:
192,192,88414,1,0,0:0:0:0:
320,192,88459,1,0,0:0:0:0:
448,192,88505,1,0,0:0:0:0:
192,192,88550,1,0,0:0:0:0:
320,192,88596,1,0,0:0:0:0:
64,192,88641,1,0,0:0:0:0:
448,192,88641,1,0,0:0:0:0:
192,192,88687,1,0,0:0:0:0:
448,192,88732,1,0,0:0:0:0:
320,192,88778,1,0,0:0:0:0:
192,192,88823,1,0,0:0:0:0:
64,192,88868,1,0,0:0:0:0:
448,192,88914,1,0,0:0:0:0:
320,192,88914,1,0,0:0:0:0:
192,192,88959,1,0,0:0:0:0:
64,192,89005,1,0,0:0:0:0:
320,192,89050,1,0,0:0:0:0:
192,192,89096,1,0,0:0:0:0:
448,192,89141,1,0,0:0:0:0:
64,192,89187,1,0,0:0:0:0:
320,192,89187,1,0,0:0:0:0:
192,192,89232,1,0,0:0:0:0:
448,192,89278,1,0,0:0:0:0:
320,192,89323,1,0,0:0:0:0:
64,192,89368,1,0,0:0:0:0:
192,192,89414,1,0,0:0:0:0:
448,192,89459,1,0,0:0:0:0:
320,192,89459,1,0,0:0:0:0:
64,192,89505,1,0,0:0:0:0:
192,192,89550,1,0,0:0:0:0:
320,192,89596,1,0,0:0:0:0:
448,192,89596,1,0,0:0:0:0:
64,192,89641,1,0,0:0:0:0:
192,192,89687,1,0,0:0:0:0:
320,192,89732,1,0,0:0:0:0:
448,192,89732,1,0,0:0:0:0:
64,192,89778,1,0,0:0:0:0:
192,192,89823,1,0,0:0:0:0:
320,192,89868,1,0,0:0:0:0:
448,192,89914,1,0,0:0:0:0:
192,192,89959,1,0,0:0:0:0:
64,192,90005,1,0,0:0:0:0:
448,192,90005,1,0,0:0:0:0:
320,192,90050,1,0,0:0:0:0:
192,192,90096,1,0,0:0:0:0:
64,192,90141,1,0,0:0:0:0:
320,192,90187,1,0,0:0:0:0:
192,192,90232,1,0,0:0:0:0:
448,192,90278,1,0,0:0:0:0:
64,192,90278,1,0,0:0:0:0:
320,192,90323,1,0,0:0:0:0:
192,192,90368,1,0,0:0:0:0:
448,192,90414,1,0,0:0:0:0:
320,192,90459,1,0,0:0:0:0:
64,192,90505,1,0,0:0:0:0:
448,192,90550,1,0,0:0:0:0:
192,192,90550,1,0,0:0:0:0:
320,192,90596,1,0,0:0:0:0:
64,192,90641,1,0,0:0:0:0:
192,192,90687,1,0,0:0:0:0:
448,192,90732,1,0,0:0:0:0:
320,192,90778,1,0,0:0:0:0:
192,192,90823,1,0,0:0:0:0:
64,192,90823,1,0,0:0:0:0:
448,192,90868,1,0,0:0:0:0:
320,192,90914,1,0,0:0:0:0:
64,192,90959,1,0,0:0:0:0:
192,192,91005,1,0,0:0:0:0:
320,192,91050,1,0,0:0:0:0:
448,192,91096,1,0,0:0:0:0:
64,192,91096,1,0,0:0:0:0:
192,192,91141,1,0,0:0:0:0:
320,192,91187,1,0,0:0:0:0:
448,192,91232,1,0,0:0:0:0:
64,192,91232,1,0,0:0:0:0:
192,192,91278,1,0,0:0:0:0:
320,192,91323,1,0,0:0:0:0:
64,192,91368,1,0,0:0:0:0:
448,192,91368,1,0,0:0:0:0:
192,192,91414,1,0,0:0:0:0:
320,192,91459,1,0,0:0:0:0:
448,192,91505,1,0,0:0:0:0:
192,192,91550,1,0,0:0:0:0:
64,192,91596,1,0,0:0:0:0:
320,192,91641,1,0,0:0:0:0:
448,192,91641,1,0,0:0:0:0:
192,192,91687,1,0,0:0:0:0:
64,192,91732,1,0,0:0:0:0:
320,192,91778,1,0,0:0:0:0:
448,192,91778,1,0,0:0:0:0:
192,192,91823,1,0,0:0:0:0:
64,192,91868,1,0,0:0:0:0:
320,192,91914,1,0,0:0:0:0:
448,192,91914,1,0,0:0:0:0:
192,192,91982,1,0,0:0:0:0:
320,192,92050,1,0,0:0:0:0:
64,192,92118,1,0,0:0:0:0:
192,192,92187,1,0,0:0:0:0:
448,192,92187,1,0,0:0:0:0:
320,192,92255,1,0,0:0:0:0:
64,192,92323,1,0,0:0:0:0:
448,192,92323,1,0,0:0:0:0:
192,192,92391,1,0,0:0:0:0:
448,192,92459,1,0,0:0:0:0:
320,192,92459,1,0,0:0:0:0:
64,192,92459,1,0,0:0:0:0:
192,192,92528,1,0,0:0:0:0:
448,192,92596,1,0,0:0:0:0:
64,192,92596,1,0,0:0:0:0:
320,192,92664,1,0,0:0:0:0:
192,192,92732,1,0,0:0:0:0:
64,192,92732,1,0,0:0:0:0:
448,192,92732,1,0,0:0:0:0:
320,192,92800,1,0,0:0:0:0:
192,192,92868,1,0,0:0:0:0:
448,192,92868,1,0,0:0:0:0:
64,192,92937,1,0,0:0:0:0:
192,192,93005,1,0,0:0:0:0:
320,192,93005,1,0,0:0:0:0:
448,192,93073,1,0,0:0:0:0:
64,192,93141,1,0,0:0:0:0:
192,192,93141,1,0,0:0:0:0:
320,192,93209,1,0,0:0:0:0:
448,192,93278,1,0,0:0:0:0:
192,192,93278,1,0,0:0:0:0:
64,192,93278,1,0,0:0:0:0:
320,192,93346,1,0,0:0:0:0:
448,192,93414,1,0,0:0:0:0:
64,192,93414,1,0,0:0:0:0:
192,192,93482,1,0,0:0:0:0:
448,192,93550,1,0,0:0:0:0:
320,192,93550,1,0,0:0:0:0:
64,192,93550,1,0,0:0:0:0:
192,192,93618,1,0,0:0:0:0:
320,192,93687,1,0,0:0:0:0:
64,192,93687,1,0,0:0:0:0:
448,192,93755,1,0,0:0:0:0:
320,192,93823,1,0,0:0:0:0:
192,192,93823,1,0,0:0:0:0:
64,192,93891,1,0,0:0:0:0:
448,192,93959,1,0,0:0:0:0:
320,192,93959,1,0,0:0:0:0:
192,192,94028,1,0,0:0:0:0:
64,192,94096,1,0,0:0:0:0:
448,192,94096,1,0,0:0:0:0:
320,192,94096,1,0,0:0:0:0:
192,192,94164,1,0,0:0:0:0:
64,192,94232,1,0,0:0:0:0:
448,192,94232,1,0,0:0:0:0:
320,192,94300,1,0,0:0:0:0:
192,192,94368,1,0,0:0:0:0:
64,192,94368,1,0,0:0:0:0:
448,192,94437,1,0,0:0:0:0:
320,192,94505,1,0,0:0:0:0:
192,192,94505,1,0,0:0:0:0:
64,192,94573,1,0,0:0:0:0:
448,192,94641,1,0,0:0:0:0:
320,192,94641,1,0,0:0:0:0:
192,192,94641,1,0,0:0:0:0:
64,192,94709,1,0,0:0:0:0:
448,192,94778,1,0,0:0:0:0:
192,192,94778,1,0,0:0:0:0:
320,192,94846,1,0,0:0:0:0:
448,192,94914,1,0,0:0:0:0:
192,192,94914,1,0,0:0:0:0:
64,192,94914,1,0,0:0:0:0:
320,192,94982,1,0,0:0:0:0:
448,192,95050,1,0,0:0:0:0:
64,192,95050,1,0,0:0:0:0:
192,192,95118,1,0,0:0:0:0:
448,192,95187,1,0,0:0:0:0:
320,192,95187,1,0,0:0:0:0:
64,192,95255,1,0,0:0:0:0:
192,192,95323,1,0,0:0:0:0:
320,192,95323,1,0,0:0:0:0:
448,192,95391,1,0,0:0:0:0:
320,192,95459,1,0,0:0:0:0:
192,192,95459,1,0,0:0:0:0:
64,192,95459,1,0,0:0:0:0:
448,192,95528,1,0,0:0:0:0:
320,192,95596,1,0,0:0:0:0:
64,192,95596,1,0,0:0:0:0:
192,192,95664,1,0,0:0:0:0:
448,192,95732,1,0,0:0:0:0:
320,192,95732,1,0,0:0:0:0:
64,192,95732,1,0,0:0:0:0:
192,192,95800,1,0,0:0:0:0:
320,192,95868,1,0,0:0:0:0:
448,192,95868,1,0,0:0:0:0:
64,192,95937,1,0,0:0:0:0:
192,192,96005,1,0,0:0:0:0:
448,192,96005,1,0,0:0:0:0:
320,192,96073,1,0,0:0:0:0:
192,192,96141,1,0,0:0:0:0:
64,192,96141,1,0,0:0:0:0:
448,192,96209,1,0,0:0:0:0:
320,192,96278,1,0,0:0:0:0:
64,192,96278,1,0,0:0:0:0:
192,192,96323,1,0,0:0:0:0:
448,192,96368,1,0,0:0:0:0:
320,192,96414,1,0,0:0:0:0:
64,192,96459,1,0,0:0:0:0:
192,192,96505,1,0,0:0:0:0:
448,192,96550,1,0,0:0:0:0:
320,192,96550,1,0,0:0:0:0:
64,192,96596,1,0,0:0:0:0:
192,192,96641,1,0,0:0:0:0:
448,192,96687,1,0,0:0:0:0:
320,192,96687,1,0,0:0:0:0:
64,192,96732,1,0,0:0:0:0:
192,192,96778,1,0,0:0:0:0:
448,192,96823,1,0,0:0:0:0:
320,192,96823,1,0,0:0:0:0:
64,192,96868,1,0,0:0:0:0:
192,192,96914,1,0,0:0:0:0:
320,192,96959,1,0,0:0:0:0:
448,192,97005,1,0,0:0:0:0:
192,192,97050,1,0,0:0:0:0:
320,192,97096,1,0,0:0:0:0:
64,192,97096,1,0,0:0:0:0:
448,192,97141,1,0,0:0:0:0:
192,192,97187,1,0,0:0:0:0:
64,192,97232,1,0,0:0:0:0:
320,192,97278,1,0,0:0:0:0:
192,192,97323,1,0,0:0:0:0:
448,192,97368,1,0,0:0:0:0:
64,192,97368,1,0,0:0:0:0:
320,192,97414,1,0,0:0:0:0:
192,192,97459,1,0,0:0:0:0:
448,192,97505,1,0,0:0:0:0:
320,192,97550,1,0,0:0:0:0:
64,192,97596,1,0,0:0:0:0:
192,192,97641,1,0,0:0:0:0:
448,192,97641,1,0,0:0:0:0:
320,192,97687,1,0,0:0:0:0:
64,192,97732,1,0,0:0:0:0:
192,192,97778,1,0,0:0:0:0:
448,192,97823,1,0,0:0:0:0:
320,192,97868,1,0,0:0:0:0:
192,192,97914,1,0,0:0:0:0:
64,192,97914,1,0,0:0:0:0:
448,192,97959,1,0,0:0:0:0:
320,192,98005,1,0,0:0:0:0:
64,192,98050,1,0,0:0:0:0:
192,192,98096,1,0,0:0:0:0:
320,192,98141,1,0,0:0:0:0:
448,192,98187,1,0,0:0:0:0:
64,192,98187,1,0,0:0:0:0:
192,192,98232,1,0,0:0:0:0:
320,192,98278,1,0,0:0:0:0:
448,192,98323,1,0,0:0:0:0:
64,192,98323,1,0,0:0:0:0:
192,192,98368,1,0,0:0:0:0:
320,192,98414,1,0,0:0:0:0:
448,192,98459,1,0,0:0:0:0:
64,192,98459,1,0,0:0:0:0:
192,192,98505,1,0,0:0:0:0:
320,192,98550,1,0,0:0:0:0:
448,192,98596,1,0,0:0:0:0:
192,192,98641,1,0,0:0:0:0:
64,192,98687,1,0,0:0:0:0:
320,192,98732,1,0,0:0:0:0:
448,192,98732,1,0,0:0:0:0:
64,192,98778,1,0,0:0:0:0:
192,192,98823,1,0,0:0:0:0:
320,192,98868,1,0,0:0:0:0:
64,192,98914,1,0,0:0:0:0:
192,192,98959,1,0,0:0:0:0:
448,192,99005,1,0,0:0:0:0:
320,192,99005,1,0,0:0:0:0:
64,192,99050,1,0,0:0:0:0:
192,192,99096,1,0,0:0:0:0:
448,192,99141,1,0,0:0:0:0:
320,192,99187,1,0,0:0:0:0:
192,192,99232,1,0,0:0:0:0:
448,192,99278,1,0,0:0:0:0:
64,192,99278,1,0,0:0:0:0:
320,192,99323,1,0,0:0:0:0:
192,192,99368,1,0,0:0:0:0:
448,192,99414,1,0,0:0:0:0:
64,192,99459,1,0,0:0:0:0:
192,192,99505,1,0,0:0:0:0:
448,192,99550,1,0,0:0:0:0:
320,192,99550,1,0,0:0:0:0:
64,192,99596,1,0,0:0:0:0:
192,192,99641,1,0,0:0:0:0:
448,192,99687,1,0,0:0:0:0:
320,192,99732,1,0,0:0:0:0:
192,192,99778,1,0,0:0:0:0:
448,192,99823,1,0,0:0:0:0:
64,192,99823,1,0,0:0:0:0:
320,192,99868,1,0,0:0:0:0:
192,192,99914,1,0,0:0:0:0:
448,192,99959,1,0,0:0:0:0:
64,192,99959,1,0,0:0:0:0:
320,192,100005,1,0,0:0:0:0:
192,192,100050,1,0,0:0:0:0:
64,192,100096,1,0,0:0:0:0:
448,192,100096,1,0,0:0:0:0:
320,192,100141,1,0,0:0:0:0:
192,192,100187,1,0,0:0:0:0:
64,192,100232,1,0,0:0:0:0:
448,192,100278,1,0,0:0:0:0:
320,192,100323,1,0,0:0:0:0:
64,192,100368,1,0,0:0:0:0:
192,192,100368,1,0,0:0:0:0:
448,192,100414,1,0,0:0:0:0:
320,192,100459,1,0,0:0:0:0:
192,192,100505,1,0,0:0:0:0:
64,192,100505,1,0,0:0:0:0:
448,192,100550,1,0,0:0:0:0:
320,192,100596,1,0,0:0:0:0:
192,192,100641,1,0,0:0:0:0:
64,192,100641,1,0,0:0:0:0:
320,192,100709,1,0,0:0:0:0:
64,192,100778,1,0,0:0:0:0:
192,192,100846,1,0,0:0:0:0:
448,192,100914,1,0,0:0:0:0:
320,192,100914,1,0,0:0:0:0:
64,192,100982,1,0,0:0:0:0:
192,192,101050,1,0,0:0:0:0:
448,192,101050,1,0,0:0:0:0:
320,192,101118,1,0,0:0:0:0:
192,192,101187,1,0,0:0:0:0:
64,192,101187,1,0,0:0:0:0:
448,192,101187,1,0,0:0:0:0:
320,192,101255,1,0,0:0:0:0:
448,192,101323,1,0,0:0:0:0:
64,192,101323,1,0,0:0:0:0:
192,192,101391,1,0,0:0:0:0:
448,192,101459,1,0,0:0:0:0:
320,192,101459,1,0,0:0:0:0:
64,192,101459,1,0,0:0:0:0:
192,192,101528,1,0,0:0:0:0:
320,192,101596,1,0,0:0:0:0:
448,192,101596,1,0,0:0:0:0:
64,192,101664,1,0,0:0:0:0:
192,192,101732,1,0,0:0:0:0:
320,192,101732,1,0,0:0:0:0:
448,192,101800,1,0,0:0:0:0:
320,192,101868,1,0,0:0:0:0:
64,192,101868,1,0,0:0:0:0:
192,192,101937,1,0,0:0:0:0:
64,192,102005,1,0,0:0:0:0:
448,192,102005,1,0,0:0:0:0:
320,192,102005,1,0,0:0:0:0:
192,192,102073,1,0,0:0:0:0:
64,192,102141,1,0,0:0:0:0:
448,192,102141,1,0,0:0:0:0:
320,192,102209,1,0,0:0:0:0:
192,192,102278,1,0,0:0:0:0:
64,192,102278,1,0,0:0:0:0:
448,192,102278,1,0,0:0:0:0:
320,192,102346,1,0,0:0:0:0:
448,192,102414,1,0,0:0:0:0:
192,192,102414,1,0,0:0:0:0:
64,192,102482,1,0,0:0:0:0:
320,192,102550,1,0,0:0:0:0:
192,192,102550,1,0,0:0:0:0:
448,192,102618,1,0,0:0:0:0:
192,192,102687,1,0,0:0:0:0:
64,192,102687,1,0,0:0:0:0:
320,192,102755,1,0,0:0:0:0:
448,192,102823,1,0,0:0:0:0:
192,192,102823,1,0,0:0:0:0:
64,192,102823,1,0,0:0:0:0:
320,192,102891,1,0,0:0:0:0:
448,192,102959,1,0,0:0:0:0:
64,192,102959,1,0,0:0:0:0:
192,192,103028,1,0,0:0:0:0:
448,192,103096,1,0,0:0:0:0:
320,192,103096,1,0,0:0:0:0:
64,192,103164,1,0,0:0:0:0:
192,192,103232,1,0,0:0:0:0:
448,192,103232,1,0,0:0:0:0:
320,192,103300,1,0,0:0:0:0:
192,192,103368,1,0,0:0:0:0:
64,192,103368,1,0,0:0:0:0:
448,192,103368,1,0,0:0:0:0:
320,192,103437,1,0,0:0:0:0:
448,192,103505,1,0,0:0:0:0:
64,192,103505,1,0,0:0:0:0:
192,192,103573,1,0,0:0:0:0:
448,192,103641,1,0,0:0:0:0:
320,192,103641,1,0,0:0:0:0:
64,192,103641,1,0,0:0:0:0:
192,192,103709,1,0,0:0:0:0:
320,192,103778,1,0,0:0:0:0:
448,192,103778,1,0,0:0:0:0:
64,192,103846,1,0,0:0:0:0:
448,192,103914,1,0,0:0:0:0:
192,192,103914,1,0,0:0:0:0:
320,192,103982,1,0,0:0:0:0:
192,192,104050,1,0,0:0:0:0:
64,192,104050,1,0,0:0:0:0:
448,192,104118,1,0,0:0:0:0:
320,192,104187,1,0,0:0:0:0:
192,192,104187,1,0,0:0:0:0:
64,192,104187,1,0,0:0:0:0:
448,192,104255,1,0,0:0:0:0:
320,192,104323,1,0,0:0:0:0:
64,192,104323,1,0,0:0:0:0:
192,192,104391,1,0,0:0:0:0:
448,192,104459,1,0,0:0:0:0:
320,192,104459,1,0,0:0:0:0:
64,192,104459,1,0,0:0:0:0:
192,192,104528,1,0,0:0:0:0:
448,192,104596,1,0,0:0:0:0:
320,192,104596,1,0,0:0:0:0:
64,192,104664,1,0,0:0:0:0:
192,192,104732,1,0,0:0:0:0:
448,192,104732,1,0,0:0:0:0:
320,192,104800,1,0,0:0:0:0:
192,192,104868,1,0,0:0:0:0:
64,192,104868,1,0,0:0:0:0:
320,192,104937,1,0,0:0:0:0:
448,192,105005,1,0,0:0:0:0:
192,192,105005,1,0,0:0:0:0:
64,192,105005,1,0,0:0:0:0:
64,192,105141,1,0,0:0:0:0:
64,192,105278,1,0,0:0:0:0:
64,192,105550,1,0,0:0:0:0:
64,192,105687,1,0,0:0:0:0:
64,192,105823,1,0,0:0:0:0:
64,192,106096,1,0,0:0:0:0:
64,192,106232,1,0,0:0:0:0:
64,192,106368,1,0,0:0:0:0:
64,192,106641,1,0,0:0:0:0:
64,192,106778,1,0,0:0:0:0:
64,192,106914,1,0,0:0:0:0:
448,192,106914,1,0,0:0:0:0:
320,192,106914,1,0,0:0:0:0:
448,192,107187,1,0,0:0:0:0:
320,192,107187,1,0,0:0:0:0:
64,192,107187,1,0,0:0:0:0:
64,192,107323,1,0,0:0:0:0:
64,192,107459,1,0,0:0:0:0:
64,192,107596,1,0,0:0:0:0:
64,192,107732,1,0,0:0:0:0:
64,192,107868,1,0,0:0:0:0:
64,192,108005,1,0,0:0:0:0:
64,192,108141,1,0,0:0:0:0:
64,192,108278,1,0,0:0:0:0:
64,192,108414,1,0,0:0:0:0:
64,192,108550,1,0,0:0:0:0:
64,192,108687,1,0,0:0:0:0:
64,192,108823,128,0,109028:0:0:0:0:
64,192,109096,128,0,109368:0:0:0:0:
448,192,109368,1,0,0:0:0:0:
320,192,109368,1,0,0:0:0:0:
192,192,109368,1,0,0:0:0:0:
64,192,109437,1,0,0:0:0:0:
448,192,109505,1,0,0:0:0:0:
320,192,109505,1,0,0:0:0:0:
192,192,109573,1,0,0:0:0:0:
448,192,109641,1,0,0:0:0:0:
320,192,109641,1,0,0:0:0:0:
64,192,109709,1,0,0:0:0:0:
192,192,109778,1,0,0:0:0:0:
448,192,109778,1,0,0:0:0:0:
320,192,109846,1,0,0:0:0:0:
192,192,109914,1,0,0:0:0:0:
64,192,109914,1,0,0:0:0:0:
448,192,109914,1,0,0:0:0:0:
320,192,109982,1,0,0:0:0:0:
64,192,110050,1,0,0:0:0:0:
192,192,110050,1,0,0:0:0:0:
448,192,110118,1,0,0:0:0:0:
320,192,110187,1,0,0:0:0:0:
192,192,110187,1,0,0:0:0:0:
64,192,110187,1,0,0:0:0:0:
448,192,110255,1,0,0:0:0:0:
192,192,110323,1,0,0:0:0:0:
64,192,110323,1,0,0:0:0:0:
320,192,110391,1,0,0:0:0:0:
448,192,110459,1,0,0:0:0:0:
64,192,110459,1,0,0:0:0:0:
192,192,110528,1,0,0:0:0:0:
448,192,110596,1,0,0:0:0:0:
320,192,110596,1,0,0:0:0:0:
192,192,110664,1,0,0:0:0:0:
64,192,110732,1,0,0:0:0:0:
448,192,110732,1,0,0:0:0:0:
320,192,110732,1,0,0:0:0:0:
192,192,110800,1,0,0:0:0:0:
64,192,110868,1,0,0:0:0:0:
448,192,110868,1,0,0:0:0:0:
320,192,110937,1,0,0:0:0:0:
192,192,111005,1,0,0:0:0:0:
64,192,111005,1,0,0:0:0:0:
448,192,111005,1,0,0:0:0:0:
320,192,111073,1,0,0:0:0:0:
192,192,111141,1,0,0:0:0:0:
64,192,111141,1,0,0:0:0:0:
448,192,111209,1,0,0:0:0:0:
320,192,111278,1,0,0:0:0:0:
192,192,111278,1,0,0:0:0:0:
64,192,111346,1,0,0:0:0:0:
448,192,111414,1,0,0:0:0:0:
320,192,111414,1,0,0:0:0:0:
192,192,111482,1,0,0:0:0:0:
64,192,111550,1,0,0:0:0:0:
448,192,111550,1,0,0:0:0:0:
320,192,111550,1,0,0:0:0:0:
192,192,111618,1,0,0:0:0:0:
320,192,111687,1,0,0:0:0:0:
448,192,111687,1,0,0:0:0:0:
64,192,111755,1,0,0:0:0:0:
192,192,111823,1,0,0:0:0:0:
448,192,111823,1,0,0:0:0:0:
320,192,111891,1,0,0:0:0:0:
192,192,111959,1,0,0:0:0:0:
64,192,111959,1,0,0:0:0:0:
448,192,112028,1,0,0:0:0:0:
320,192,112096,1,0,0:0:0:0:
192,192,112096,1,0,0:0:0:0:
64,192,112096,1,0,0:0:0:0:
448,192,112164,1,0,0:0:0:0:
192,192,112232,1,0,0:0:0:0:
64,192,112232,1,0,0:0:0:0:
320,192,112300,1,0,0:0:0:0:
448,192,112368,1,0,0:0:0:0:
192,192,112368,1,0,0:0:0:0:
64,192,112368,1,0,0:0:0:0:
320,192,112437,1,0,0:0:0:0:
448,192,112505,1,0,0:0:0:0:
64,192,112505,1,0,0:0:0:0:
192,192,112573,1,0,0:0:0:0:
448,192,112641,1,0,0:0:0:0:
320,192,112641,1,0,0:0:0:0:
64,192,112709,1,0,0:0:0:0:
192,192,112778,1,0,0:0:0:0:
320,192,112778,1,0,0:0:0:0:
448,192,112846,1,0,0:0:0:0:
192,192,112914,1,0,0:0:0:0:
64,192,112914,1,0,0:0:0:0:
320,192,112914,1,0,0:0:0:0:
448,192,112982,1,0,0:0:0:0:
192,192,113050,1,0,0:0:0:0:
64,192,113050,1,0,0:0:0:0:
448,192,113118,1,0,0:0:0:0:
320,192,113187,1,0,0:0:0:0:
192,192,113187,1,0,0:0:0:0:
64,192,113187,1,0,0:0:0:0:
448,192,113255,1,0,0:0:0:0:
320,192,113323,1,0,0:0:0:0:
192,192,113323,1,0,0:0:0:0:
64,192,113391,1,0,0:0:0:0:
448,192,113459,1,0,0:0:0:0:
320,192,113459,1,0,0:0:0:0:
192,192,113528,1,0,0:0:0:0:
64,192,113596,1,0,0:0:0:0:
320,192,113596,1,0,0:0:0:0:
448,192,113664,1,0,0:0:0:0:
192,192,113732,1,0,0:0:0:0:
64,192,113732,1,0,0:0:0:0:
320,192,113800,1,0,0:0:0:0:
448,192,113868,1,0,0:0:0:0:
64,192,113868,1,0,0:0:0:0:
320,192,113937,1,0,0:0:0:0:
192,192,113937,1,0,0:0:0:0:
448,192,114005,1,0,0:0:0:0:
64,192,114005,1,0,0:0:0:0:
192,192,114073,1,0,0:0:0:0:
448,192,114141,1,0,0:0:0:0:
320,192,114141,1,0,0:0:0:0:
192,192,114209,1,0,0:0:0:0:
64,192,114209,1,0,0:0:0:0:
448,192,114278,1,0,0:0:0:0:
320,192,114278,1,0,0:0:0:0:
192,192,114346,1,0,0:0:0:0:
64,192,114414,1,0,0:0:0:0:
320,192,114414,1,0,0:0:0:0:
448,192,114482,1,0,0:0:0:0:
192,192,114482,1,0,0:0:0:0:
320,192,114550,1,0,0:0:0:0:
64,192,114550,1,0,0:0:0:0:
448,192,114618,1,0,0:0:0:0:
192,192,114687,1,0,0:0:0:0:
64,192,114687,1,0,0:0:0:0:
448,192,114755,1,0,0:0:0:0:
320,192,114755,1,0,0:0:0:0:
192,192,114823,1,0,0:0:0:0:
64,192,114823,1,0,0:0:0:0:
320,192,114891,1,0,0:0:0:0:
64,192,114959,1,0,0:0:0:0:
448,192,114959,1,0,0:0:0:0:
192,192,115028,1,0,0:0:0:0:
320,192,115028,1,0,0:0:0:0:
448,192,115096,1,0,0:0:0:0:
64,192,115096,1,0,0:0:0:0:
192,192,115164,1,0,0:0:0:0:
448,192,115232,1,0,0:0:0:0:
320,192,115232,1,0,0:0:0:0:
192,192,115300,1,0,0:0:0:0:
64,192,115300,1,0,0:0:0:0:
448,192,115368,1,0,0:0:0:0:
320,192,115368,1,0,0:0:0:0:
64,192,115437,1,0,0:0:0:0:
192,192,115505,1,0,0:0:0:0:
448,192,115505,1,0,0:0:0:0:
320,192,115573,1,0,0:0:0:0:
64,192,115573,1,0,0:0:0:0:
192,192,115641,1,0,0:0:0:0:
448,192,115641,1,0,0:0:0:0:
320,192,115709,1,0,0:0:0:0:
192,192,115778,1,0,0:0:0:0:
64,192,115778,1,0,0:0:0:0:
448,192,115846,1,0,0:0:0:0:
320,192,115846,1,0,0:0:0:0:
192,192,115914,1,0,0:0:0:0:
64,192,115914,1,0,0:0:0:0:
448,192,115982,1,0,0:0:0:0:
320,192,116050,1,0,0:0:0:0:
192,192,116050,1,0,0:0:0:0:
64,192,116118,1,0,0:0:0:0:
448,192,116187,1,0,0:0:0:0:
320,192,116187,1,0,0:0:0:0:
192,192,116187,1,0,0:0:0:0:
64,192,116255,1,0,0:0:0:0:
448,192,116323,1,0,0:0:0:0:
192,192,116323,1,0,0:0:0:0:
320,192,116391,1,0,0:0:0:0:
192,192,116459,1,0,0:0:0:0:
448,192,116459,1,0,0:0:0:0:
64,192,116459,1,0,0:0:0:0:
320,192,116528,1,0,0:0:0:0:
64,192,116596,1,0,0:0:0:0:
448,192,116596,1,0,0:0:0:0:
192,192,116664,1,0,0:0:0:0:
448,192,116732,1,0,0:0:0:0:
320,192,116732,1,0,0:0:0:0:
64,192,116732,1,0,0:0:0:0:
192,192,116800,1,0,0:0:0:0:
320,192,116868,1,0,0:0:0:0:
448,192,116868,1,0,0:0:0:0:
64,192,116937,1,0,0:0:0:0:
192,192,117005,1,0,0:0:0:0:
320,192,117005,1,0,0:0:0:0:
448,192,117005,1,0,0:0:0:0:
64,192,117073,1,0,0:0:0:0:
192,192,117141,1,0,0:0:0:0:
448,192,117141,1,0,0:0:0:0:
320,192,117209,1,0,0:0:0:0:
192,192,117278,1,0,0:0:0:0:
64,192,117278,1,0,0:0:0:0:
448,192,117278,1,0,0:0:0:0:
320,192,117346,1,0,0:0:0:0:
192,192,117414,1,0,0:0:0:0:
64,192,117414,1,0,0:0:0:0:
448,192,117482,1,0,0:0:0:0:
320,192,117550,1,0,0:0:0:0:
192,192,117550,1,0,0:0:0:0:
64,192,117550,1,0,0:0:0:0:
448,192,117618,1,0,0:0:0:0:
320,192,117687,1,0,0:0:0:0:
64,192,117687,1,0,0:0:0:0:
192,192,117755,1,0,0:0:0:0:
448,192,117823,1,0,0:0:0:0:
320,192,117823,1,0,0:0:0:0:
64,192,117823,1,0,0:0:0:0:
192,192,117891,1,0,0:0:0:0:
448,192,117959,1,0,0:0:0:0:
320,192,117959,1,0,0:0:0:0:
64,192,118028,1,0,0:0:0:0:
192,192,118096,1,0,0:0:0:0:
320,192,118096,1,0,0:0:0:0:
448,192,118096,1,0,0:0:0:0:
64,192,118164,1,0,0:0:0:0:
448,192,118232,1,0,0:0:0:0:
320,192,118232,1,0,0:0:0:0:
64,192,118300,1,0,0:0:0:0:
192,192,118300,1,0,0:0:0:0:
448,192,118368,1,0,0:0:0:0:
320,192,118368,1,0,0:0:0:0:
64,192,118437,1,0,0:0:0:0:
192,192,118437,1,0,0:0:0:0:
448,192,118505,1,0,0:0:0:0:
320,192,118505,1,0,0:0:0:0:
64,192,118573,1,0,0:0:0:0:
448,192,118641,1,0,0:0:0:0:
320,192,118641,1,0,0:0:0:0:
192,192,118641,1,0,0:0:0:0:
64,192,118709,1,0,0:0:0:0:
448,192,118778,1,0,0:0:0:0:
192,192,118778,1,0,0:0:0:0:
64,192,118846,1,0,0:0:0:0:
320,192,118846,1,0,0:0:0:0:
192,192,118914,1,0,0:0:0:0:
448,192,118914,1,0,0:0:0:0:
64,192,118982,1,0,0:0:0:0:
320,192,118982,1,0,0:0:0:0:
448,192,119050,1,0,0:0:0:0:
192,192,119050,1,0,0:0:0:0:
320,192,119118,1,0,0:0:0:0:
448,192,119187,1,0,0:0:0:0:
192,192,119187,1,0,0:0:0:0:
64,192,119187,1,0,0:0:0:0:
320,192,119255,1,0,0:0:0:0:
192,192,119323,1,0,0:0:0:0:
64,192,119323,1,0,0:0:0:0:
448,192,119391,1,0,0:0:0:0:
320,192,119391,1,0,0:0:0:0:
192,192,119459,1,0,0:0:0:0:
64,192,119459,1,0,0:0:0:0:
448,192,119528,1,0,0:0:0:0:
320,192,119528,1,0,0:0:0:0:
192,192,119596,1,0,0:0:0:0:
64,192,119596,1,0,0:0:0:0:
448,192,119664,1,0,0:0:0:0:
320,192,119732,1,0,0:0:0:0:
192,192,119732,1,0,0:0:0:0:
64,192,119732,1,0,0:0:0:0:
448,192,119800,1,0,0:0:0:0:
64,192,119868,1,0,0:0:0:0:
320,192,119868,1,0,0:0:0:0:
192,192,119937,1,0,0:0:0:0:
448,192,119937,1,0,0:0:0:0:
320,192,120005,1,0,0:0:0:0:
64,192,120005,1,0,0:0:0:0:
448,192,120073,1,0,0:0:0:0:
192,192,120073,1,0,0:0:0:0:
320,192,120141,1,0,0:0:0:0:
64,192,120141,1,0,0:0:0:0:
192,192,120209,1,0,0:0:0:0:
448,192,120278,1,0,0:0:0:0:
64,192,120278,1,0,0:0:0:0:
320,192,120312,1,0,0:0:0:0:
192,192,120346,1,0,0:0:0:0:
64,192,120380,1,0,0:0:0:0:
448,192,120414,1,0,0:0:0:0:
320,192,120448,1,0,0:0:0:0:
192,192,120482,1,0,0:0:0:0:
64,192,120516,1,0,0:0:0:0:
448,192,120550,1,0,0:0:0:0:
320,192,120584,1,0,0:0:0:0:
192,192,120618,1,0,0:0:0:0:
64,192,120653,1,0,0:0:0:0:
448,192,120687,1,0,0:0:0:0:
320,192,120721,1,0,0:0:0:0:
192,192,120755,1,0,0:0:0:0:
64,192,120789,1,0,0:0:0:0:
320,192,120823,1,0,0:0:0:0:
448,192,120857,1,0,0:0:0:0:
64,192,120891,1,0,0:0:0:0:
192,192,120925,1,0,0:0:0:0:
320,192,120959,1,0,0:0:0:0:
448,192,120993,1,0,0:0:0:0:
64,192,121028,1,0,0:0:0:0:
192,192,121062,1,0,0:0:0:0:
320,192,121096,1,0,0:0:0:0:
448,192,121130,1,0,0:0:0:0:
64,192,121164,1,0,0:0:0:0:
192,192,121198,1,0,0:0:0:0:
320,192,121232,1,0,0:0:0:0:
448,192,121266,1,0,0:0:0:0:
64,192,121300,1,0,0:0:0:0:
192,192,121334,1,0,0:0:0:0:
448,192,121368,1,0,0:0:0:0:
320,192,121403,1,0,0:0:0:0:
192,192,121437,1,0,0:0:0:0:
64,192,121471,1,0,0:0:0:0:
448,192,121505,1,0,0:0:0:0:
320,192,121539,1,0,0:0:0:0:
192,192,121573,1,0,0:0:0:0:
64,192,121607,1,0,0:0:0:0:
448,192,121641,1,0,0:0:0:0:
320,192,121675,1,0,0:0:0:0:
192,192,121709,1,0,0:0:0:0:
64,192,121743,1,0,0:0:0:0:
448,192,121778,1,0,0:0:0:0:
320,192,121812,1,0,0:0:0:0:
192,192,121846,1,0,0:0:0:0:
64,192,121880,1,0,0:0:0:0:
320,192,121914,1,0,0:0:0:0:
448,192,121948,1,0,0:0:0:0:
64,192,121982,1,0,0:0:0:0:
192,192,122016,1,0,0:0:0:0:
320,192,122050,1,0,0:0:0:0:
448,192,122084,1,0,0:0:0:0:
64,192,122118,1,0,0:0:0:0:
192,192,122153,1,0,0:0:0:0:
320,192,122187,1,0,0:0:0:0:
448,192,122221,1,0,0:0:0:0:
64,192,122255,1,0,0:0:0:0:
192,192,122289,1,0,0:0:0:0:
320,192,122323,1,0,0:0:0:0:
448,192,122357,1,0,0:0:0:0:
64,192,122391,1,0,0:0:0:0:
192,192,122425,1,0,0:0:0:0:
448,192,122459,1,0,0:0:0:0:
320,192,122459,1,0,0:0:0:0:
320,192,122595,1,0,0:0:0:0:
192,192,122595,1,0,0:0:0:0:
64,192,122731,1,0,0:0:0:0:
448,192,122731,1,0,0:0:0:0:
448,192,122868,1,0,0:0:0:0:
192,192,122868,1,0,0:0:0:0:
320,192,123004,1,0,0:0:0:0:
64,192,123004,1,0,0:0:0:0:
448,192,123277,1,0,0:0:0:0:
192,192,123277,1,0,0:0:0:0:
64,192,123277,1,0,0:0:0:0:
320,192,123413,1,0,0:0:0:0:
192,192,123413,1,0,0:0:0:0:
448,192,123549,1,0,0:0:0:0:
64,192,123549,1,0,0:0:0:0:
320,192,123686,1,0,0:0:0:0:
64,192,123686,1,0,0:0:0:0:
448,192,123822,1,0,0:0:0:0:
192,192,123822,1,0,0:0:0:0:
448,192,124095,1,0,0:0:0:0:
192,192,124095,1,0,0:0:0:0:
448,192,124231,1,0,0:0:0:0:
64,192,124231,1,0,0:0:0:0:
320,192,124368,1,0,0:0:0:0:
64,192,124368,1,0,0:0:0:0:
448,192,124504,1,0,0:0:0:0:
192,192,124504,1,0,0:0:0:0:
448,192,124640,1,0,0:0:0:0:
64,192,124640,1,0,0:0:0:0:
448,192,124913,1,0,0:0:0:0:
320,192,124913,1,0,0:0:0:0:
64,192,124913,1,0,0:0:0:0:
320,192,125049,1,0,0:0:0:0:
192,192,125049,1,0,0:0:0:0:
448,192,125186,1,0,0:0:0:0:
64,192,125186,1,0,0:0:0:0:
192,192,125322,1,0,0:0:0:0:
448,192,125322,1,0,0:0:0:0:
320,192,125459,1,0,0:0:0:0:
64,192,125459,1,0,0:0:0:0:
448,192,125731,1,0,0:0:0:0:
192,192,125731,1,0,0:0:0:0:
64,192,125731,1,0,0:0:0:0:
320,192,125868,1,0,0:0:0:0:
64,192,125868,1,0,0:0:0:0:
448,192,126004,1,0,0:0:0:0:
192,192,126004,1,0,0:0:0:0:
448,192,126140,1,0,0:0:0:0:
64,192,126140,1,0,0:0:0:0:
320,192,126277,1,0,0:0:0:0:
64,192,126277,1,0,0:0:0:0:
448,192,126549,1,0,0:0:0:0:
320,192,126549,1,0,0:0:0:0:
64,192,126549,1,0,0:0:0:0:
192,192,126686,1,0,0:0:0:0:
448,192,126686,1,0,0:0:0:0:
320,192,126822,1,0,0:0:0:0:
64,192,126822,1,0,0:0:0:0:
448,192,126959,1,0,0:0:0:0:
64,192,126959,1,0,0:0:0:0:
320,192,127095,1,0,0:0:0:0:
192,192,127095,1,0,0:0:0:0:
448,192,127368,1,0,0:0:0:0:
320,192,127368,1,0,0:0:0:0:
64,192,127368,1,0,0:0:0:0:
448,192,127504,1,0,0:0:0:0:
192,192,127504,1,0,0:0:0:0:
320,192,127640,1,0,0:0:0:0:
64,192,127640,1,0,0:0:0:0:
448,192,127777,1,0,0:0:0:0:
64,192,127777,1,0,0:0:0:0:
448,192,127913,1,0,0:0:0:0:
192,192,127913,1,0,0:0:0:0:
448,192,128186,1,0,0:0:0:0:
320,192,128186,1,0,0:0:0:0:
64,192,128186,1,0,0:0:0:0:
320,192,128322,1,0,0:0:0:0:
192,192,128322,1,0,0:0:0:0:
448,192,128459,1,0,0:0:0:0:
64,192,128459,1,0,0:0:0:0:
320,192,128595,1,0,0:0:0:0:
64,192,128595,1,0,0:0:0:0:
448,192,128731,1,0,0:0:0:0:
192,192,128731,1,0,0:0:0:0:
448,192,129004,1,0,0:0:0:0:
320,192,129004,1,0,0:0:0:0:
192,192,129004,1,0,0:0:0:0:
64,192,129140,1,0,0:0:0:0:
448,192,129140,1,0,0:0:0:0:
320,192,129277,1,0,0:0:0:0:
64,192,129277,1,0,0:0:0:0:
448,192,129413,1,0,0:0:0:0:
192,192,129413,1,0,0:0:0:0:
320,192,129549,1,0,0:0:0:0:
64,192,129549,1,0,0:0:0:0:
448,192,129822,1,0,0:0:0:0:
320,192,129822,1,0,0:0:0:0:
192,192,129822,1,0,0:0:0:0:
448,192,129959,1,0,0:0:0:0:
192,192,129959,1,0,0:0:0:0:
320,192,130095,1,0,0:0:0:0:
64,192,130095,1,0,0:0:0:0:
448,192,130231,1,0,0:0:0:0:
64,192,130231,1,0,0:0:0:0:
448,192,130368,1,0,0:0:0:0:
192,192,130368,1,0,0:0:0:0:
64,192,130640,1,0,0:0:0:0:
192,192,130640,1,0,0:0:0:0:
448,192,130640,1,0,0:0:0:0:
192,192,130777,1,0,0:0:0:0:
320,192,130777,1,0,0:0:0:0:
64,192,130913,1,0,0:0:0:0:
448,192,130913,1,0,0:0:0:0:
320,192,131049,1,0,0:0:0:0:
64,192,131049,1,0,0:0:0:0:
192,192,131186,1,0,0:0:0:0:
448,192,131186,1,0,0:0:0:0:
64,192,131459,1,0,0:0:0:0:
320,192,131459,1,0,0:0:0:0:
448,192,131459,1,0,0:0:0:0:
192,192,131595,1,0,0:0:0:0:
448,192,131595,1,0,0:0:0:0:
64,192,131731,1,0,0:0:0:0:
320,192,131731,1,0,0:0:0:0:
64,192,131868,1,0,0:0:0:0:
448,192,131868,1,0,0:0:0:0:
192,192,132004,1,0,0:0:0:0:
448,192,132004,1,0,0:0:0:0:
64,192,132277,1,0,0:0:0:0:
192,192,132277,1,0,0:0:0:0:
448,192,132277,1,0,0:0:0:0:
320,192,132413,1,0,0:0:0:0:
64,192,132413,1,0,0:0:0:0:
192,192,132549,1,0,0:0:0:0:
448,192,132549,1,0,0:0:0:0:
64,192,132686,1,0,0:0:0:0:
448,192,132686,1,0,0:0:0:0:
192,192,132822,1,0,0:0:0:0:
320,192,132822,1,0,0:0:0:0:
64,192,133095,1,0,0:0:0:0:
192,192,133095,1,0,0:0:0:0:
448,192,133095,1,0,0:0:0:0:
64,192,133231,1,0,0:0:0:0:
320,192,133231,1,0,0:0:0:0:
192,192,133368,1,0,0:0:0:0:
448,192,133368,1,0,0:0:0:0:
64,192,133504,1,0,0:0:0:0:
448,192,133504,1,0,0:0:0:0:
64,192,133640,1,0,0:0:0:0:
320,192,133640,1,0,0:0:0:0:
64,192,133913,1,0,0:0:0:0:
192,192,133913,1,0,0:0:0:0:
448,192,133913,1,0,0:0:0:0:
192,192,134049,1,0,0:0:0:0:
320,192,134049,1,0,0:0:0:0:
64,192,134186,1,0,0:0:0:0:
448,192,134186,1,0,0:0:0:0:
192,192,134322,1,0,0:0:0:0:
448,192,134322,1,0,0:0:0:0:
64,192,134459,1,0,0:0:0:0:
320,192,134459,1,0,0:0:0:0:
448,192,134731,1,0,0:0:0:0:
64,192,134731,128,0,134868:0:0:0:0:
192,192,134731,1,0,0:0:0:0:
320,192,134868,1,0,0:0:0:0:
192,192,134868,128,0,135004:0:0:0:0:
448,192,135004,128,0,135140:0:0:0:0:
320,192,135004,1,0,0:0:0:0:
64,192,135140,1,0,0:0:0:0:
320,192,135140,128,0,135277:0:0:0:0:
64,192,135277,128,0,135413:0:0:0:0:
192,192,135277,1,0,0:0:0:0:
192,192,135413,128,0,135549:0:0:0:0:
320,192,135413,1,0,0:0:0:0:
320,192,135549,128,0,136640:0:0:0:0:
448,192,135549,1,0,0:0:0:0:
64,192,135549,1,0,0:0:0:0:
192,192,135822,1,0,0:0:0:0:
192,192,135959,1,0,0:0:0:0:
64,192,136095,1,0,0:0:0:0:
64,192,136368,1,0,0:0:0:0:
64,192,136504,1,0,0:0:0:0:
448,192,136640,1,0,0:0:0:0:
192,192,136640,128,0,136913:0:0:0:0:
320,192,136913,128,0,137186:0:0:0:0:
64,192,136913,1,0,0:0:0:0:
64,192,137049,1,0,0:0:0:0:
192,192,137186,1,0,0:0:0:0:
448,192,137186,128,0,137459:0:0:0:0:
320,192,137459,128,0,137527:0:0:0:0:
192,192,137459,1,0,0:0:0:0:
192,192,137595,1,0,0:0:0:0:
64,192,137731,128,0,137799:0:0:0:0:
448,192,137731,1,0,0:0:0:0:
192,192,138004,128,0,138549:0:0:0:0:
448,192,138004,1,0,0:0:0:0:
448,192,138140,1,0,0:0:0:0:
320,192,138277,1,0,0:0:0:0:
64,192,138549,128,0,138822:0:0:0:0:
448,192,138549,1,0,0:0:0:0:
448,192,138686,1,0,0:0:0:0:
320,192,138822,128,0,138890:0:0:0:0:
192,192,138822,1,0,0:0:0:0:
448,192,139095,128,0,139913:0:0:0:0:
192,192,139095,1,0,0:0:0:0:
192,192,139231,1,0,0:0:0:0:
64,192,139368,1,0,0:0:0:0:
64,192,139640,1,0,0:0:0:0:
64,192,139777,1,0,0:0:0:0:
320,192,139913,128,0,140049:0:0:0:0:
192,192,139913,1,0,0:0:0:0:
64,192,140049,128,0,140186:0:0:0:0:
448,192,140186,128,0,140322:0:0:0:0:
192,192,140186,1,0,0:0:0:0:
192,192,140322,128,0,140459:0:0:0:0:
320,192,140322,1,0,0:0:0:0:
64,192,140459,128,0,140527:0:0:0:0:
448,192,140459,1,0,0:0:0:0:
320,192,140731,128,0,141413:0:0:0:0:
192,192,140731,1,0,0:0:0:0:
192,192,140868,1,0,0:0:0:0:
64,192,141004,1,0,0:0:0:0:
192,192,141277,1,0,0:0:0:0:
192,192,141413,1,0,0:0:0:0:
448,192,141549,1,0,0:0:0:0:
64,192,141822,128,0,141959:0:0:0:0:
192,192,141822,1,0,0:0:0:0:
192,192,141959,128,0,142095:0:0:0:0:
320,192,141959,1,0,0:0:0:0:
320,192,142095,128,0,143186:0:0:0:0:
448,192,142095,1,0,0:0:0:0:
64,192,142095,1,0,0:0:0:0:
192,192,142368,1,0,0:0:0:0:
192,192,142504,1,0,0:0:0:0:
64,192,142640,1,0,0:0:0:0:
64,192,142913,1,0,0:0:0:0:
64,192,143049,1,0,0:0:0:0:
448,192,143186,1,0,0:0:0:0:
192,192,143186,128,0,143459:0:0:0:0:
320,192,143459,128,0,143731:0:0:0:0:
64,192,143459,1,0,0:0:0:0:
64,192,143595,1,0,0:0:0:0:
192,192,143731,1,0,0:0:0:0:
448,192,143731,128,0,144004:0:0:0:0:
320,192,144004,128,0,144072:0:0:0:0:
192,192,144004,1,0,0:0:0:0:
192,192,144140,1,0,0:0:0:0:
64,192,144277,128,0,144345:0:0:0:0:
448,192,144277,1,0,0:0:0:0:
192,192,144549,128,0,145095:0:0:0:0:
448,192,144549,1,0,0:0:0:0:
448,192,144686,1,0,0:0:0:0:
320,192,144822,1,0,0:0:0:0:
64,192,145095,128,0,145368:0:0:0:0:
448,192,145095,1,0,0:0:0:0:
448,192,145231,1,0,0:0:0:0:
320,192,145368,128,0,145436:0:0:0:0:
192,192,145368,1,0,0:0:0:0:
448,192,145640,128,0,146459:0:0:0:0:
192,192,145640,1,0,0:0:0:0:
192,192,145777,1,0,0:0:0:0:
64,192,145913,1,0,0:0:0:0:
64,192,146186,1,0,0:0:0:0:
64,192,146322,1,0,0:0:0:0:
320,192,146459,128,0,146595:0:0:0:0:
192,192,146459,1,0,0:0:0:0:
64,192,146595,128,0,146731:0:0:0:0:
448,192,146731,128,0,146868:0:0:0:0:
192,192,146731,1,0,0:0:0:0:
192,192,146868,128,0,147004:0:0:0:0:
320,192,146868,1,0,0:0:0:0:
320,192,147004,128,0,147140:0:0:0:0:
64,192,147004,1,0,0:0:0:0:
448,192,147140,128,0,147277:0:0:0:0:
320,192,147277,128,0,148095:0:0:0:0:
192,192,147277,1,0,0:0:0:0:
192,192,147413,1,0,0:0:0:0:
64,192,147549,1,0,0:0:0:0:
64,192,147822,128,0,147959:0:0:0:0:
192,192,147822,1,0,0:0:0:0:
192,192,147959,128,0,148095:0:0:0:0:
448,192,147959,1,0,0:0:0:0:
448,192,148095,128,0,148231:0:0:0:0:
64,192,148095,1,0,0:0:0:0:
64,192,148231,128,0,148368:0:0:0:0:
320,192,148231,1,0,0:0:0:0:
320,192,148368,128,0,148504:0:0:0:0:
192,192,148368,1,0,0:0:0:0:
192,192,148504,128,0,148640:0:0:0:0:
448,192,148504,1,0,0:0:0:0:
64,192,148640,128,0,149459:0:0:0:0:
448,192,148640,128,0,149731:0:0:0:0:
320,192,148640,1,0,0:0:0:0:
192,192,148913,1,0,0:0:0:0:
192,192,149186,1,0,0:0:0:0:
192,192,149459,1,0,0:0:0:0:
320,192,149731,128,0,150004:0:0:0:0:
192,192,149731,128,0,150004:0:0:0:0:
64,192,149731,1,0,0:0:0:0:
64,192,150004,128,0,150140:0:0:0:0:
448,192,150004,128,0,150140:0:0:0:0:
448,192,150277,128,0,150549:0:0:0:0:
320,192,150277,1,0,0:0:0:0:
192,192,150277,128,0,150549:0:0:0:0:
320,192,150549,128,0,150686:0:0:0:0:
64,192,150549,128,0,150686:0:0:0:0:
64,192,150822,1,0,0:0:0:0:
448,192,150822,128,0,150959:0:0:0:0:
320,192,150822,128,0,150959:0:0:0:0:
320,192,151095,128,0,151640:0:0:0:0:
192,192,151095,128,0,151368:0:0:0:0:
64,192,151095,1,0,0:0:0:0:
64,192,151368,1,0,0:0:0:0:
448,192,151640,128,0,151913:0:0:0:0:
64,192,151640,128,0,151913:0:0:0:0:
320,192,151913,128,0,152049:0:0:0:0:
192,192,151913,128,0,152049:0:0:0:0:
448,192,152186,128,0,153004:0:0:0:0:
320,192,152186,128,0,152731:0:0:0:0:
192,192,152186,1,0,0:0:0:0:
192,192,152459,1,0,0:0:0:0:
192,192,152731,1,0,0:0:0:0:
320,192,153004,128,0,153140:0:0:0:0:
64,192,153004,1,0,0:0:0:0:
64,192,153140,128,0,153277:0:0:0:0:
448,192,153140,1,0,0:0:0:0:
448,192,153277,128,0,153413:0:0:0:0:
192,192,153277,1,0,0:0:0:0:
192,192,153413,128,0,153549:0:0:0:0:
320,192,153413,1,0,0:0:0:0:
320,192,153549,128,0,153686:0:0:0:0:
64,192,153549,1,0,0:0:0:0:
448,192,153822,128,0,154504:0:0:0:0:
192,192,153822,128,0,154504:0:0:0:0:
320,192,153822,1,0,0:0:0:0:
320,192,154095,1,0,0:0:0:0:
64,192,154368,1,0,0:0:0:0:
64,192,154640,1,0,0:0:0:0:
320,192,154913,128,0,155049:0:0:0:0:
192,192,154913,1,0,0:0:0:0:
192,192,155049,128,0,155186:0:0:0:0:
448,192,155049,1,0,0:0:0:0:
64,192,155186,128,0,156004:0:0:0:0:
448,192,155186,128,0,156277:0:0:0:0:
320,192,155186,1,0,0:0:0:0:
192,192,155459,1,0,0:0:0:0:
192,192,155731,1,0,0:0:0:0:
192,192,156004,1,0,0:0:0:0:
320,192,156277,128,0,156549:0:0:0:0:
192,192,156277,128,0,156549:0:0:0:0:
64,192,156277,1,0,0:0:0:0:
64,192,156549,128,0,156686:0:0:0:0:
448,192,156549,128,0,156686:0:0:0:0:
448,192,156822,128,0,157095:0:0:0:0:
320,192,156822,1,0,0:0:0:0:
192,192,156822,128,0,157095:0:0:0:0:
320,192,157095,128,0,157231:0:0:0:0:
64,192,157095,128,0,157231:0:0:0:0:
64,192,157368,1,0,0:0:0:0:
448,192,157368,128,0,157504:0:0:0:0:
320,192,157368,128,0,157504:0:0:0:0:
320,192,157640,128,0,158186:0:0:0:0:
192,192,157640,128,0,157913:0:0:0:0:
64,192,157640,1,0,0:0:0:0:
64,192,157913,1,0,0:0:0:0:
448,192,158186,128,0,158459:0:0:0:0:
64,192,158186,128,0,158459:0:0:0:0:
320,192,158459,128,0,158595:0:0:0:0:
192,192,158459,128,0,158595:0:0:0:0:
448,192,158731,128,0,159549:0:0:0:0:
320,192,158731,128,0,159277:0:0:0:0:
192,192,158731,1,0,0:0:0:0:
192,192,159004,1,0,0:0:0:0:
192,192,159277,1,0,0:0:0:0:
320,192,159549,128,0,159686:0:0:0:0:
64,192,159549,1,0,0:0:0:0:
64,192,159686,128,0,159822:0:0:0:0:
448,192,159686,1,0,0:0:0:0:
448,192,159822,128,0,159959:0:0:0:0:
192,192,159822,1,0,0:0:0:0:
192,192,159959,128,0,160095:0:0:0:0:
320,192,159959,1,0,0:0:0:0:
320,192,160095,128,0,160231:0:0:0:0:
64,192,160095,1,0,0:0:0:0:
64,192,160231,128,0,160368:0:0:0:0:
448,192,160231,1,0,0:0:0:0:
448,192,160368,128,0,160913:0:0:0:0:
192,192,160368,128,0,160913:0:0:0:0:
320,192,160368,1,0,0:0:0:0:
320,192,160640,1,0,0:0:0:0:
64,192,160913,1,0,0:0:0:0:
64,192,161186,1,0,0:0:0:0:
320,192,161459,1,0,0:0:0:0:
64,192,161459,128,0,161731:0:0:0:0:
320,192,161731,128,0,162822:0:0:0:0:
192,192,161731,1,0,0:0:0:0:
448,192,161731,1,0,0:0:0:0:
192,192,162004,1,0,0:0:0:0:
192,192,162277,1,0,0:0:0:0:
192,192,162549,1,0,0:0:0:0:
192,192,162822,128,0,163095:0:0:0:0:
64,192,162822,1,0,0:0:0:0:
448,192,163095,128,0,163368:0:0:0:0:
320,192,163095,1,0,0:0:0:0:
320,192,163368,128,0,163640:0:0:0:0:
192,192,163368,1,0,0:0:0:0:
192,192,163640,128,0,163709:0:0:0:0:
64,192,163640,1,0,0:0:0:0:
320,192,163709,128,0,163777:0:0:0:0:
192,192,163777,128,0,163913:0:0:0:0:
64,192,163913,128,0,164186:0:0:0:0:
448,192,163913,1,0,0:0:0:0:
320,192,164186,128,0,164459:0:0:0:0:
192,192,164186,1,0,0:0:0:0:
192,192,164459,128,0,164731:0:0:0:0:
448,192,164459,1,0,0:0:0:0:
448,192,164731,128,0,165004:0:0:0:0:
64,192,164731,1,0,0:0:0:0:
64,192,165004,128,0,165140:0:0:0:0:
320,192,165004,1,0,0:0:0:0:
192,192,165140,128,0,165277:0:0:0:0:
64,192,165277,128,0,166299:0:0:0:0:
448,192,165277,1,0,0:0:0:0:
448,192,165549,1,0,0:0:0:0:
448,192,165822,1,0,0:0:0:0:
448,192,166095,1,0,0:0:0:0:
64,192,166368,128,0,166572:0:0:0:0:
320,192,166368,1,0,0:0:0:0:
64,192,166640,128,0,166777:0:0:0:0:
448,192,166640,1,0,0:0:0:0:
192,192,166777,128,0,168004:0:0:0:0:
448,192,166913,1,0,0:0:0:0:
448,192,167186,1,0,0:0:0:0:
448,192,167459,1,0,0:0:0:0:
448,192,167731,1,0,0:0:0:0:
448,192,168004,1,0,0:0:0:0:
64,192,168004,128,0,168140:0:0:0:0:
64,192,168277,128,0,168413:0:0:0:0:
320,192,168277,1,0,0:0:0:0:
192,192,168413,128,0,169368:0:0:0:0:
320,192,168549,1,0,0:0:0:0:
320,192,168822,1,0,0:0:0:0:
320,192,169095,1,0,0:0:0:0:
64,192,169368,128,0,169640:0:0:0:0:
320,192,169368,1,0,0:0:0:0:
320,192,169640,128,0,169913:0:0:0:0:
448,192,169640,1,0,0:0:0:0:
448,192,169913,128,0,170186:0:0:0:0:
192,192,169913,1,0,0:0:0:0:
192,192,170186,128,0,170254:0:0:0:0:
64,192,170186,1,0,0:0:0:0:
320,192,170254,128,0,170322:0:0:0:0:
192,192,170322,128,0,170459:0:0:0:0:
64,192,170459,128,0,170731:0:0:0:0:
448,192,170459,1,0,0:0:0:0:
192,192,170731,128,0,171004:0:0:0:0:
320,192,170731,1,0,0:0:0:0:
320,192,171004,128,0,171277:0:0:0:0:
448,192,171004,1,0,0:0:0:0:
448,192,171277,128,0,171549:0:0:0:0:
192,192,171277,1,0,0:0:0:0:
192,192,171549,128,0,171618:0:0:0:0:
320,192,171618,128,0,171686:0:0:0:0:
64,192,171686,128,0,171822:0:0:0:0:
192,192,171822,128,0,172913:0:0:0:0:
448,192,171822,1,0,0:0:0:0:
448,192,172095,1,0,0:0:0:0:
448,192,172368,1,0,0:0:0:0:
448,192,172640,1,0,0:0:0:0:
448,192,172913,1,0,0:0:0:0:
448,192,173186,1,0,0:0:0:0:
64,192,173186,128,0,173731:0:0:0:0:
192,192,173459,128,0,174004:0:0:0:0:
448,192,173459,1,0,0:0:0:0:
320,192,173731,128,0,174004:0:0:0:0:
448,192,173731,1,0,0:0:0:0:
448,192,174004,128,0,174549:0:0:0:0:
64,192,174004,1,0,0:0:0:0:
320,192,174277,128,0,174822:0:0:0:0:
64,192,174277,1,0,0:0:0:0:
192,192,174549,128,0,174822:0:0:0:0:
64,192,174549,1,0,0:0:0:0:
448,192,174822,1,0,0:0:0:0:
64,192,174822,1,0,0:0:0:0:
448,192,175024,1,0,0:0:0:0:
448,192,175227,1,0,0:0:0:0:
64,192,175227,1,0,0:0:0:0:
320,192,175227,1,0,0:0:0:0:
320,192,175632,1,0,0:0:0:0:
192,192,175632,1,0,0:0:0:0:
448,192,176033,1,0,0:0:0:0:
64,192,176033,1,0,0:0:0:0:
448,192,176234,1,0,0:0:0:0:
448,192,176435,1,0,0:0:0:0:
320,192,176435,1,0,0:0:0:0:
64,192,176435,1,0,0:0:0:0:
320,192,176833,1,0,0:0:0:0:
192,192,176833,1,0,0:0:0:0:
448,192,177231,1,0,0:0:0:0:
320,192,177231,1,0,0:0:0:0:
64,192,177231,1,0,0:0:0:0:
320,192,177625,1,0,0:0:0:0:
192,192,177625,1,0,0:0:0:0:
448,192,178020,1,0,0:0:0:0:
64,192,178020,1,0,0:0:0:0:
448,192,178219,1,0,0:0:0:0:
448,192,178418,1,0,0:0:0:0:
320,192,178418,1,0,0:0:0:0:
64,192,178418,1,0,0:0:0:0:
320,192,178816,1,0,0:0:0:0:
192,192,178816,1,0,0:0:0:0:
448,192,179217,1,0,0:0:0:0:
64,192,179217,1,0,0:0:0:0:
448,192,179418,1,0,0:0:0:0:
448,192,179619,1,0,0:0:0:0:
320,192,179619,1,0,0:0:0:0:
64,192,179619,1,0,0:0:0:0:
320,192,180024,1,0,0:0:0:0:
192,192,180024,1,0,0:0:0:0:
448,192,180429,1,0,0:0:0:0:
320,192,180429,1,0,0:0:0:0:
64,192,180429,1,0,0:0:0:0:
320,192,180838,1,0,0:0:0:0:
192,192,180838,1,0,0:0:0:0:
448,192,181247,1,0,0:0:0:0:
320,192,181247,1,0,0:0:0:0:
64,192,181247,1,0,0:0:0:0:
64,192,181343,1,0,0:0:0:0:
192,192,181440,1,0,0:0:0:0:
448,192,181440,1,0,0:0:0:0:
64,192,181634,1,0,0:0:0:0:
448,192,181634,1,0,0:0:0:0:
320,192,181634,1,0,0:0:0:0:
64,192,181730,1,0,0:0:0:0:
192,192,181827,1,0,0:0:0:0:
448,192,181827,1,0,0:0:0:0:
64,192,182021,1,0,0:0:0:0:
448,192,182021,1,0,0:0:0:0:
320,192,182021,1,0,0:0:0:0:
64,192,182121,1,0,0:0:0:0:
192,192,182221,1,0,0:0:0:0:
448,192,182221,1,0,0:0:0:0:
64,192,182421,1,0,0:0:0:0:
448,192,182421,1,0,0:0:0:0:
320,192,182421,1,0,0:0:0:0:
64,192,182521,1,0,0:0:0:0:
192,192,182621,1,0,0:0:0:0:
448,192,182621,1,0,0:0:0:0:
448,192,182821,1,0,0:0:0:0:
320,192,182821,1,0,0:0:0:0:
192,192,182821,1,0,0:0:0:0:
448,192,182921,1,0,0:0:0:0:
64,192,183021,1,0,0:0:0:0:
320,192,183021,1,0,0:0:0:0:
64,192,183121,1,0,0:0:0:0:
448,192,183221,1,0,0:0:0:0:
192,192,183221,1,0,0:0:0:0:
320,192,183221,1,0,0:0:0:0:
448,192,183321,1,0,0:0:0:0:
64,192,183421,1,0,0:0:0:0:
320,192,183421,1,0,0:0:0:0:
64,192,183521,1,0,0:0:0:0:
192,192,183621,1,0,0:0:0:0:
320,192,183621,1,0,0:0:0:0:
448,192,183621,1,0,0:0:0:0:
448,192,183721,1,0,0:0:0:0:
320,192,183821,1,0,0:0:0:0:
64,192,183821,1,0,0:0:0:0:
64,192,183921,1,0,0:0:0:0:
320,192,184021,1,0,0:0:0:0:
192,192,184021,1,0,0:0:0:0:
448,192,184021,1,0,0:0:0:0:
448,192,184121,1,0,0:0:0:0:
64,192,184221,1,0,0:0:0:0:
320,192,184221,1,0,0:0:0:0:
64,192,184321,1,0,0:0:0:0:
448,192,184421,1,0,0:0:0:0:
320,192,184421,1,0,0:0:0:0:
192,192,184471,1,0,0:0:0:0:
64,192,184521,1,0,0:0:0:0:
320,192,184571,1,0,0:0:0:0:
192,192,184621,1,0,0:0:0:0:
64,192,184621,1,0,0:0:0:0:
320,192,184671,1,0,0:0:0:0:
448,192,184721,1,0,0:0:0:0:
192,192,184771,1,0,0:0:0:0:
320,192,184821,1,0,0:0:0:0:
448,192,184821,1,0,0:0:0:0:
192,192,184871,1,0,0:0:0:0:
64,192,184921,1,0,0:0:0:0:
320,192,184971,1,0,0:0:0:0:
192,192,185021,1,0,0:0:0:0:
64,192,185021,1,0,0:0:0:0:
320,192,185071,1,0,0:0:0:0:
448,192,185121,1,0,0:0:0:0:
192,192,185171,1,0,0:0:0:0:
320,192,185221,1,0,0:0:0:0:
448,192,185221,1,0,0:0:0:0:
192,192,185271,1,0,0:0:0:0:
64,192,185321,1,0,0:0:0:0:
448,192,185321,1,0,0:0:0:0:
320,192,185371,1,0,0:0:0:0:
192,192,185421,1,0,0:0:0:0:
64,192,185421,1,0,0:0:0:0:
320,192,185471,1,0,0:0:0:0:
448,192,185521,1,0,0:0:0:0:
64,192,185521,1,0,0:0:0:0:
192,192,185571,1,0,0:0:0:0:
448,192,185621,1,0,0:0:0:0:
320,192,185621,1,0,0:0:0:0:
192,192,185671,1,0,0:0:0:0:
64,192,185721,1,0,0:0:0:0:
448,192,185721,1,0,0:0:0:0:
320,192,185771,1,0,0:0:0:0:
192,192,185821,1,0,0:0:0:0:
64,192,185821,1,0,0:0:0:0:
320,192,185871,1,0,0:0:0:0:
448,192,185921,1,0,0:0:0:0:
64,192,185921,1,0,0:0:0:0:
192,192,185971,1,0,0:0:0:0:
448,192,186021,1,0,0:0:0:0:
320,192,186021,1,0,0:0:0:0:
320,192,186221,1,0,0:0:0:0:
192,192,186421,128,0,186621:0:0:0:0:
448,192,186621,1,0,0:0:0:0:
448,192,186721,1,0,0:0:0:0:
64,192,186821,128,0,187021:0:0:0:0:
192,192,187021,1,0,0:0:0:0:
64,192,187121,128,0,187171:0:0:0:0:
192,192,187171,128,0,187221:0:0:0:0:
320,192,187221,128,0,187271:0:0:0:0:
448,192,187271,128,0,187321:0:0:0:0:
192,192,187321,128,0,187371:0:0:0:0:
320,192,187371,128,0,187421:0:0:0:0:
64,192,187421,128,0,187471:0:0:0:0:
192,192,187471,128,0,187521:0:0:0:0:
448,192,187521,128,0,187571:0:0:0:0:
320,192,187571,128,0,187621:0:0:0:0:
192,192,187621,1,0,0:0:0:0:
64,192,187621,1,0,0:0:0:0:
448,192,187621,1,0,0:0:0:0:
448,192,187921,1,0,0:0:0:0:
320,192,187921,1,0,0:0:0:0:
64,192,187921,1,0,0:0:0:0:
448,192,188021,1,0,0:0:0:0:
192,192,188021,1,0,0:0:0:0:
64,192,188021,1,0,0:0:0:0:
320,192,188121,1,0,0:0:0:0:
192,192,188121,1,0,0:0:0:0:
448,192,188221,1,0,0:0:0:0:
320,192,188221,1,0,0:0:0:0:
64,192,188221,1,0,0:0:0:0:
448,192,188521,1,0,0:0:0:0:
192,192,188521,1,0,0:0:0:0:
448,192,188621,1,0,0:0:0:0:
64,192,188621,1,0,0:0:0:0:
320,192,188721,1,0,0:0:0:0:
192,192,188721,1,0,0:0:0:0:
64,192,188721,1,0,0:0:0:0:
448,192,188821,1,0,0:0:0:0:
192,192,188821,1,0,0:0:0:0:
320,192,188821,1,0,0:0:0:0:
320,192,189021,1,0,0:0:0:0:
192,192,189021,1,0,0:0:0:0:
64,192,189021,1,0,0:0:0:0:
192,192,189221,1,0,0:0:0:0:
64,192,189221,1,0,0:0:0:0:
320,192,189221,1,0,0:0:0:0:
192,192,189321,1,0,0:0:0:0:
448,192,189321,1,0,0:0:0:0:
64,192,189421,1,0,0:0:0:0:
320,192,189421,1,0,0:0:0:0:
64,192,189521,1,0,0:0:0:0:
192,192,189521,1,0,0:0:0:0:
448,192,189521,1,0,0:0:0:0:
448,192,189621,1,0,0:0:0:0:
320,192,189621,1,0,0:0:0:0:
192,192,189621,1,0,0:0:0:0:
64,192,189721,1,0,0:0:0:0:
320,192,189721,1,0,0:0:0:0:
64,192,189821,1,0,0:0:0:0:
192,192,189821,1,0,0:0:0:0:
448,192,189821,1,0,0:0:0:0:
448,192,190121,1,0,0:0:0:0:
64,192,190121,1,0,0:0:0:0:
320,192,190221,1,0,0:0:0:0:
192,192,190221,1,0,0:0:0:0:
448,192,190321,1,0,0:0:0:0:
192,192,190321,1,0,0:0:0:0:
64,192,190321,1,0,0:0:0:0:
448,192,190421,1,0,0:0:0:0:
320,192,190421,1,0,0:0:0:0:
64,192,190421,1,0,0:0:0:0:
448,192,190621,1,0,0:0:0:0:
64,192,190621,1,0,0:0:0:0:
192,192,190621,1,0,0:0:0:0:
448,192,190821,1,0,0:0:0:0:
320,192,190821,1,0,0:0:0:0:
64,192,190821,1,0,0:0:0:0:
448,192,191121,1,0,0:0:0:0:
192,192,191121,1,0,0:0:0:0:
320,192,191121,1,0,0:0:0:0:
448,192,191221,1,0,0:0:0:0:
192,192,191221,1,0,0:0:0:0:
64,192,191221,1,0,0:0:0:0:
320,192,191321,1,0,0:0:0:0:
64,192,191321,1,0,0:0:0:0:
448,192,191421,1,0,0:0:0:0:
320,192,191421,1,0,0:0:0:0:
192,192,191421,1,0,0:0:0:0:
448,192,191721,1,0,0:0:0:0:
192,192,191721,1,0,0:0:0:0:
320,192,191821,1,0,0:0:0:0:
64,192,191821,1,0,0:0:0:0:
192,192,191921,1,0,0:0:0:0:
64,192,191921,1,0,0:0:0:0:
448,192,191921,1,0,0:0:0:0:
448,192,192021,1,0,0:0:0:0:
320,192,192021,1,0,0:0:0:0:
192,192,192021,1,0,0:0:0:0:
448,192,192221,1,0,0:0:0:0:
192,192,192221,1,0,0:0:0:0:
64,192,192221,1,0,0:0:0:0:
320,192,192321,1,0,0:0:0:0:
192,192,192321,1,0,0:0:0:0:
448,192,192421,1,0,0:0:0:0:
320,192,192421,1,0,0:0:0:0:
64,192,192421,1,0,0:0:0:0:
192,192,192521,1,0,0:0:0:0:
448,192,192521,1,0,0:0:0:0:
320,192,192621,1,0,0:0:0:0:
64,192,192621,1,0,0:0:0:0:
448,192,192721,1,0,0:0:0:0:
192,192,192721,1,0,0:0:0:0:
64,192,192721,1,0,0:0:0:0:
448,192,192821,1,0,0:0:0:0:
320,192,192821,1,0,0:0:0:0:
192,192,192821,1,0,0:0:0:0:
64,192,192921,1,0,0:0:0:0:
320,192,192921,1,0,0:0:0:0:
192,192,193021,1,0,0:0:0:0:
64,192,193021,1,0,0:0:0:0:
448,192,193021,1,0,0:0:0:0:
320,192,193121,1,0,0:0:0:0:
448,192,193121,1,0,0:0:0:0:
320,192,193221,1,0,0:0:0:0:
64,192,193221,1,0,0:0:0:0:
192,192,193221,1,0,0:0:0:0:
448,192,193321,1,0,0:0:0:0:
64,192,193321,1,0,0:0:0:0:
192,192,193421,1,0,0:0:0:0:
320,192,193421,1,0,0:0:0:0:
64,192,193521,1,0,0:0:0:0:
192,192,193521,1,0,0:0:0:0:
448,192,193521,1,0,0:0:0:0:
64,192,193621,1,0,0:0:0:0:
320,192,193621,1,0,0:0:0:0:
448,192,193621,1,0,0:0:0:0:
320,192,193721,1,0,0:0:0:0:
192,192,193721,1,0,0:0:0:0:
448,192,193821,1,0,0:0:0:0:
192,192,193821,1,0,0:0:0:0:
64,192,193821,1,0,0:0:0:0:
448,192,193921,1,0,0:0:0:0:
320,192,193921,1,0,0:0:0:0:
320,192,194021,1,0,0:0:0:0:
64,192,194021,1,0,0:0:0:0:
192,192,194021,1,0,0:0:0:0:
448,192,194321,1,0,0:0:0:0:
64,192,194321,1,0,0:0:0:0:
320,192,194321,1,0,0:0:0:0:
448,192,194421,1,0,0:0:0:0:
192,192,194421,1,0,0:0:0:0:
64,192,194421,1,0,0:0:0:0:
320,192,194521,1,0,0:0:0:0:
192,192,194521,1,0,0:0:0:0:
448,192,194621,1,0,0:0:0:0:
64,192,194621,1,0,0:0:0:0:
320,192,194621,1,0,0:0:0:0:
320,192,194921,1,0,0:0:0:0:
64,192,194921,1,0,0:0:0:0:
448,192,195021,1,0,0:0:0:0:
64,192,195021,1,0,0:0:0:0:
448,192,195121,1,0,0:0:0:0:
320,192,195121,1,0,0:0:0:0:
192,192,195121,1,0,0:0:0:0:
320,192,195221,1,0,0:0:0:0:
192,192,195221,1,0,0:0:0:0:
64,192,195221,1,0,0:0:0:0:
448,192,195421,1,0,0:0:0:0:
320,192,195421,1,0,0:0:0:0:
64,192,195421,1,0,0:0:0:0:
448,192,195621,1,0,0:0:0:0:
192,192,195621,1,0,0:0:0:0:
64,192,195621,1,0,0:0:0:0:
320,192,195721,1,0,0:0:0:0:
64,192,195721,1,0,0:0:0:0:
448,192,195821,1,0,0:0:0:0:
192,192,195821,1,0,0:0:0:0:
320,192,195921,1,0,0:0:0:0:
64,192,195921,1,0,0:0:0:0:
448,192,195921,1,0,0:0:0:0:
192,192,196021,1,0,0:0:0:0:
64,192,196021,1,0,0:0:0:0:
320,192,196021,1,0,0:0:0:0:
448,192,196121,1,0,0:0:0:0:
192,192,196121,1,0,0:0:0:0:
448,192,196221,1,0,0:0:0:0:
64,192,196221,1,0,0:0:0:0:
320,192,196221,1,0,0:0:0:0:
448,192,196521,1,0,0:0:0:0:
192,192,196521,1,0,0:0:0:0:
320,192,196621,1,0,0:0:0:0:
64,192,196621,1,0,0:0:0:0:
448,192,196721,1,0,0:0:0:0:
192,192,196721,1,0,0:0:0:0:
64,192,196721,1,0,0:0:0:0:
448,192,196821,1,0,0:0:0:0:
320,192,196821,1,0,0:0:0:0:
192,192,196821,1,0,0:0:0:0:
448,192,197021,1,0,0:0:0:0:
192,192,197021,1,0,0:0:0:0:
64,192,197021,1,0,0:0:0:0:
320,192,197221,1,0,0:0:0:0:
64,192,197221,1,0,0:0:0:0:
448,192,197221,1,0,0:0:0:0:
448,192,197521,1,0,0:0:0:0:
192,192,197521,1,0,0:0:0:0:
64,192,197521,1,0,0:0:0:0:
448,192,197621,1,0,0:0:0:0:
320,192,197621,1,0,0:0:0:0:
192,192,197621,1,0,0:0:0:0:
320,192,197721,1,0,0:0:0:0:
64,192,197721,1,0,0:0:0:0:
448,192,197821,1,0,0:0:0:0:
192,192,197821,1,0,0:0:0:0:
64,192,197821,1,0,0:0:0:0:
448,192,198121,1,0,0:0:0:0:
64,192,198121,1,0,0:0:0:0:
448,192,198221,1,0,0:0:0:0:
192,192,198221,1,0,0:0:0:0:
320,192,198321,1,0,0:0:0:0:
64,192,198321,1,0,0:0:0:0:
192,192,198321,1,0,0:0:0:0:
448,192,198421,1,0,0:0:0:0:
320,192,198421,1,0,0:0:0:0:
64,192,198421,1,0,0:0:0:0:
448,192,198621,1,0,0:0:0:0:
320,192,198621,1,0,0:0:0:0:
192,192,198621,1,0,0:0:0:0:
320,192,198721,1,0,0:0:0:0:
64,192,198721,1,0,0:0:0:0:
448,192,198821,1,0,0:0:0:0:
64,192,198821,1,0,0:0:0:0:
192,192,198821,1,0,0:0:0:0:
320,192,198921,1,0,0:0:0:0:
192,192,198921,1,0,0:0:0:0:
448,192,199021,1,0,0:0:0:0:
64,192,199021,1,0,0:0:0:0:
320,192,199121,1,0,0:0:0:0:
192,192,199121,1,0,0:0:0:0:
64,192,199121,1,0,0:0:0:0:
448,192,199221,1,0,0:0:0:0:
320,192,199221,1,0,0:0:0:0:
192,192,199321,1,0,0:0:0:0:
64,192,199321,1,0,0:0:0:0:
320,192,199421,1,0,0:0:0:0:
448,192,199421,1,0,0:0:0:0:
64,192,199421,1,0,0:0:0:0:
448,192,199521,1,0,0:0:0:0:
192,192,199521,1,0,0:0:0:0:
320,192,199621,1,0,0:0:0:0:
64,192,199621,1,0,0:0:0:0:
192,192,199621,1,0,0:0:0:0:
448,192,199721,1,0,0:0:0:0:
320,192,199721,1,0,0:0:0:0:
64,192,199721,1,0,0:0:0:0:
192,192,199821,1,0,0:0:0:0:
448,192,199821,1,0,0:0:0:0:
320,192,199921,1,0,0:0:0:0:
64,192,199921,1,0,0:0:0:0:
448,192,200021,1,0,0:0:0:0:
192,192,200021,1,0,0:0:0:0:
64,192,200021,1,0,0:0:0:0:
448,192,200121,1,0,0:0:0:0:
320,192,200121,1,0,0:0:0:0:
192,192,200221,1,0,0:0:0:0:
64,192,200221,1,0,0:0:0:0:
64,192,200321,1,0,0:0:0:0:
320,192,200321,1,0,0:0:0:0:
320,192,200421,1,0,0:0:0:0:
192,192,200421,1,0,0:0:0:0:
448,192,200421,128,0,200621:0:0:0:0:
448,192,200721,1,0,0:0:0:0:
320,192,200721,1,0,0:0:0:0:
448,192,200821,1,0,0:0:0:0:
192,192,200821,1,0,0:0:0:0:
320,192,200921,1,0,0:0:0:0:
64,192,200921,1,0,0:0:0:0:
192,192,201021,1,0,0:0:0:0:
64,192,201021,1,0,0:0:0:0:
448,192,201121,1,0,0:0:0:0:
320,192,201121,1,0,0:0:0:0:
448,192,201221,1,0,0:0:0:0:
192,192,201221,1,0,0:0:0:0:
64,192,201221,1,0,0:0:0:0:
320,192,201321,1,0,0:0:0:0:
64,192,201321,1,0,0:0:0:0:
448,192,201421,1,0,0:0:0:0:
192,192,201421,1,0,0:0:0:0:
320,192,201521,1,0,0:0:0:0:
448,192,201521,1,0,0:0:0:0:
192,192,201621,1,0,0:0:0:0:
64,192,201621,1,0,0:0:0:0:
320,192,201621,1,0,0:0:0:0:
448,192,201671,1,0,0:0:0:0:
192,192,201721,1,0,0:0:0:0:
320,192,201771,1,0,0:0:0:0:
64,192,201821,1,0,0:0:0:0:
192,192,201871,1,0,0:0:0:0:
448,192,201921,1,0,0:0:0:0:
64,192,201971,1,0,0:0:0:0:
320,192,202021,1,0,0:0:0:0:
192,192,202071,1,0,0:0:0:0:
448,192,202121,1,0,0:0:0:0:
320,192,202171,1,0,0:0:0:0:
64,192,202221,1,0,0:0:0:0:
448,192,202271,1,0,0:0:0:0:
192,192,202321,1,0,0:0:0:0:
320,192,202371,1,0,0:0:0:0:
448,192,202421,1,0,0:0:0:0:
192,192,202421,1,0,0:0:0:0:
64,192,202421,1,0,0:0:0:0:
320,192,202471,1,0,0:0:0:0:
448,192,202521,1,0,0:0:0:0:
192,192,202571,1,0,0:0:0:0:
320,192,202621,1,0,0:0:0:0:
64,192,202671,1,0,0:0:0:0:
448,192,202721,1,0,0:0:0:0:
192,192,202771,1,0,0:0:0:0:
64,192,202821,1,0,0:0:0:0:
448,192,202821,1,0,0:0:0:0:
320,192,202821,1,0,0:0:0:0:
192,192,202871,1,0,0:0:0:0:
64,192,202921,1,0,0:0:0:0:
448,192,202971,1,0,0:0:0:0:
192,192,203021,1,0,0:0:0:0:
320,192,203071,1,0,0:0:0:0:
64,192,203121,1,0,0:0:0:0:
448,192,203171,1,0,0:0:0:0:
192,192,203221,1,0,0:0:0:0:
320,192,203271,1,0,0:0:0:0:
448,192,203321,1,0,0:0:0:0:
64,192,203371,1,0,0:0:0:0:
320,192,203421,1,0,0:0:0:0:
192,192,203471,1,0,0:0:0:0:
448,192,203521,1,0,0:0:0:0:
320,192,203571,1,0,0:0:0:0:
192,192,203621,1,0,0:0:0:0:
64,192,203621,1,0,0:0:0:0:
448,192,203621,1,0,0:0:0:0:
320,192,203671,1,0,0:0:0:0:
64,192,203721,1,0,0:0:0:0:
192,192,203771,1,0,0:0:0:0:
448,192,203821,1,0,0:0:0:0:
64,192,203871,1,0,0:0:0:0:
320,192,203921,1,0,0:0:0:0:
192,192,203971,1,0,0:0:0:0:
448,192,204021,1,0,0:0:0:0:
320,192,204071,1,0,0:0:0:0:
64,192,204121,1,0,0:0:0:0:
448,192,204171,1,0,0:0:0:0:
192,192,204221,1,0,0:0:0:0:
320,192,204271,1,0,0:0:0:0:
448,192,204321,1,0,0:0:0:0:
192,192,204371,1,0,0:0:0:0:
64,192,204421,1,0,0:0:0:0:
320,192,204421,1,0,0:0:0:0:
448,192,204421,1,0,0:0:0:0:
192,192,204471,1,0,0:0:0:0:
64,192,204521,1,0,0:0:0:0:
320,192,204571,1,0,0:0:0:0:
192,192,204621,1,0,0:0:0:0:
448,192,204671,1,0,0:0:0:0:
64,192,204721,1,0,0:0:0:0:
320,192,204771,1,0,0:0:0:0:
448,192,204821,1,0,0:0:0:0:
64,192,204821,1,0,0:0:0:0:
192,192,204821,1,0,0:0:0:0:
320,192,204871,1,0,0:0:0:0:
448,192,204921,1,0,0:0:0:0:
192,192,204971,1,0,0:0:0:0:
320,192,205021,1,0,0:0:0:0:
64,192,205071,1,0,0:0:0:0:
192,192,205121,1,0,0:0:0:0:
448,192,205171,1,0,0:0:0:0:
64,192,205221,1,0,0:0:0:0:
320,192,205271,1,0,0:0:0:0:
192,192,205321,1,0,0:0:0:0:
448,192,205371,1,0,0:0:0:0:
320,192,205421,1,0,0:0:0:0:
64,192,205471,1,0,0:0:0:0:
192,192,205521,1,0,0:0:0:0:
320,192,205571,1,0,0:0:0:0:
192,192,205621,1,0,0:0:0:0:
64,192,205621,1,0,0:0:0:0:
448,192,205621,1,0,0:0:0:0:
320,192,205671,1,0,0:0:0:0:
448,192,205721,1,0,0:0:0:0:
192,192,205771,1,0,0:0:0:0:
320,192,205821,1,0,0:0:0:0:
64,192,205871,1,0,0:0:0:0:
192,192,205921,1,0,0:0:0:0:
448,192,205971,1,0,0:0:0:0:
320,192,206021,1,0,0:0:0:0:
192,192,206021,1,0,0:0:0:0:
64,192,206021,1,0,0:0:0:0:
448,192,206071,1,0,0:0:0:0:
320,192,206121,1,0,0:0:0:0:
64,192,206171,1,0,0:0:0:0:
192,192,206221,1,0,0:0:0:0:
448,192,206271,1,0,0:0:0:0:
64,192,206321,1,0,0:0:0:0:
320,192,206371,1,0,0:0:0:0:
448,192,206421,1,0,0:0:0:0:
192,192,206471,1,0,0:0:0:0:
64,192,206521,1,0,0:0:0:0:
320,192,206571,1,0,0:0:0:0:
448,192,206621,1,0,0:0:0:0:
64,192,206671,1,0,0:0:0:0:
320,192,206721,1,0,0:0:0:0:
192,192,206771,1,0,0:0:0:0:
448,192,206821,1,0,0:0:0:0:
64,192,206821,1,0,0:0:0:0:
448,192,207021,1,0,0:0:0:0:
320,192,207021,1,0,0:0:0:0:
320,192,207121,1,0,0:0:0:0:
64,192,207121,1,0,0:0:0:0:
448,192,207221,1,0,0:0:0:0:
192,192,207221,1,0,0:0:0:0:
64,192,207221,1,0,0:0:0:0:
448,192,207321,1,0,0:0:0:0:
320,192,207321,1,0,0:0:0:0:
192,192,207421,1,0,0:0:0:0:
64,192,207421,1,0,0:0:0:0:
320,192,207421,1,0,0:0:0:0:
64,192,207521,1,0,0:0:0:0:
448,192,207521,1,0,0:0:0:0:
320,192,207621,1,0,0:0:0:0:
192,192,207621,1,0,0:0:0:0:
448,192,207621,1,0,0:0:0:0:
192,192,207721,1,0,0:0:0:0:
64,192,207721,1,0,0:0:0:0:
448,192,207821,1,0,0:0:0:0:
320,192,207821,1,0,0:0:0:0:
64,192,207921,1,0,0:0:0:0:
448,192,207921,1,0,0:0:0:0:
192,192,207921,1,0,0:0:0:0:
320,192,208021,1,0,0:0:0:0:
192,192,208021,1,0,0:0:0:0:
64,192,208121,1,0,0:0:0:0:
448,192,208121,1,0,0:0:0:0:
320,192,208221,1,0,0:0:0:0:
192,192,208221,1,0,0:0:0:0:
448,192,208221,1,0,0:0:0:0:
192,192,208321,1,0,0:0:0:0:
64,192,208321,1,0,0:0:0:0:
448,192,208421,1,0,0:0:0:0:
320,192,208421,1,0,0:0:0:0:
64,192,208421,1,0,0:0:0:0:
448,192,208521,1,0,0:0:0:0:
192,192,208521,1,0,0:0:0:0:
320,192,208621,1,0,0:0:0:0:
64,192,208621,1,0,0:0:0:0:
448,192,208721,1,0,0:0:0:0:
192,192,208721,1,0,0:0:0:0:
448,192,208821,1,0,0:0:0:0:
320,192,208821,1,0,0:0:0:0:
64,192,208821,1,0,0:0:0:0:
192,192,208921,1,0,0:0:0:0:
64,192,208921,1,0,0:0:0:0:
448,192,209021,1,0,0:0:0:0:
320,192,209021,1,0,0:0:0:0:
192,192,209021,1,0,0:0:0:0:
448,192,209121,1,0,0:0:0:0:
64,192,209121,1,0,0:0:0:0:
320,192,209221,1,0,0:0:0:0:
192,192,209221,1,0,0:0:0:0:
64,192,209221,1,0,0:0:0:0:
448,192,209321,1,0,0:0:0:0:
192,192,209321,1,0,0:0:0:0:
320,192,209421,1,0,0:0:0:0:
64,192,209421,1,0,0:0:0:0:
448,192,209521,1,0,0:0:0:0:
192,192,209521,1,0,0:0:0:0:
64,192,209521,1,0,0:0:0:0:
448,192,209621,1,0,0:0:0:0:
320,192,209621,1,0,0:0:0:0:
192,192,209721,1,0,0:0:0:0:
64,192,209721,1,0,0:0:0:0:
320,192,209821,1,0,0:0:0:0:
192,192,209821,1,0,0:0:0:0:
448,192,209821,1,0,0:0:0:0:
64,192,209921,1,0,0:0:0:0:
448,192,209921,1,0,0:0:0:0:
192,192,210021,1,0,0:0:0:0:
320,192,210021,1,0,0:0:0:0:
448,192,210071,1,0,0:0:0:0:
64,192,210121,1,0,0:0:0:0:
192,192,210171,1,0,0:0:0:0:
320,192,210221,1,0,0:0:0:0:
448,192,210221,1,0,0:0:0:0:
64,192,210271,1,0,0:0:0:0:
192,192,210321,1,0,0:0:0:0:
448,192,210371,1,0,0:0:0:0:
320,192,210421,1,0,0:0:0:0:
64,192,210421,1,0,0:0:0:0:
192,192,210471,1,0,0:0:0:0:
448,192,210521,1,0,0:0:0:0:
320,192,210571,1,0,0:0:0:0:
64,192,210621,1,0,0:0:0:0:
192,192,210621,1,0,0:0:0:0:
448,192,210671,1,0,0:0:0:0:
320,192,210721,1,0,0:0:0:0:
64,192,210771,1,0,0:0:0:0:
192,192,210821,1,0,0:0:0:0:
448,192,210821,1,0,0:0:0:0:
320,192,210871,1,0,0:0:0:0:
64,192,210921,1,0,0:0:0:0:
192,192,210971,1,0,0:0:0:0:
320,192,211021,1,0,0:0:0:0:
448,192,211021,1,0,0:0:0:0:
64,192,211071,1,0,0:0:0:0:
192,192,211121,1,0,0:0:0:0:
448,192,211171,1,0,0:0:0:0:
320,192,211221,1,0,0:0:0:0:
64,192,211221,1,0,0:0:0:0:
192,192,211271,1,0,0:0:0:0:
448,192,211321,1,0,0:0:0:0:
320,192,211371,1,0,0:0:0:0:
64,192,211421,1,0,0:0:0:0:
192,192,211421,1,0,0:0:0:0:
448,192,211471,1,0,0:0:0:0:
320,192,211521,1,0,0:0:0:0:
192,192,211521,1,0,0:0:0:0:
64,192,211571,1,0,0:0:0:0:
448,192,211621,1,0,0:0:0:0:
320,192,211621,1,0,0:0:0:0:
192,192,211671,1,0,0:0:0:0:
64,192,211671,1,0,0:0:0:0:
448,192,211721,1,0,0:0:0:0:
320,192,211721,1,0,0:0:0:0:
192,192,211771,1,0,0:0:0:0:
64,192,211771,1,0,0:0:0:0:
320,192,211821,1,0,0:0:0:0:
448,192,211821,1,0,0:0:0:0:
192,192,211871,1,0,0:0:0:0:
64,192,211871,1,0,0:0:0:0:
320,192,211921,1,0,0:0:0:0:
448,192,211921,1,0,0:0:0:0:
192,192,211971,1,0,0:0:0:0:
64,192,211971,1,0,0:0:0:0:
448,192,212021,1,0,0:0:0:0:
320,192,212021,1,0,0:0:0:0:
64,192,212071,1,0,0:0:0:0:
192,192,212071,1,0,0:0:0:0:
448,192,212121,1,0,0:0:0:0:
320,192,212121,1,0,0:0:0:0:
64,192,212171,1,0,0:0:0:0:
192,192,212171,1,0,0:0:0:0:
320,192,212221,1,0,0:0:0:0:
448,192,212221,1,0,0:0:0:0:
192,192,212271,1,0,0:0:0:0:
64,192,212271,1,0,0:0:0:0:
320,192,212321,1,0,0:0:0:0:
448,192,212321,1,0,0:0:0:0:
192,192,212371,1,0,0:0:0:0:
64,192,212371,1,0,0:0:0:0:
448,192,212421,1,0,0:0:0:0:
320,192,212421,1,0,0:0:0:0:
64,192,212471,1,0,0:0:0:0:
192,192,212471,1,0,0:0:0:0:
448,192,212521,1,0,0:0:0:0:
320,192,212521,1,0,0:0:0:0:
64,192,212571,1,0,0:0:0:0:
192,192,212571,1,0,0:0:0:0:
320,192,212621,1,0,0:0:0:0:
448,192,212621,1,0,0:0:0:0:
192,192,212671,1,0,0:0:0:0:
64,192,212671,1,0,0:0:0:0:
320,192,212721,1,0,0:0:0:0:
448,192,212721,1,0,0:0:0:0:
192,192,212771,1,0,0:0:0:0:
64,192,212771,1,0,0:0:0:0:
448,192,212821,1,0,0:0:0:0:
320,192,212821,1,0,0:0:0:0:
64,192,212871,1,0,0:0:0:0:
192,192,212871,1,0,0:0:0:0:
448,192,212921,1,0,0:0:0:0:
320,192,212921,1,0,0:0:0:0:
64,192,212971,1,0,0:0:0:0:
192,192,212971,1,0,0:0:0:0:
320,192,213021,1,0,0:0:0:0:
448,192,213021,1,0,0:0:0:0:
192,192,213071,1,0,0:0:0:0:
64,192,213071,1,0,0:0:0:0:
320,192,213121,1,0,0:0:0:0:
448,192,213121,1,0,0:0:0:0:
192,192,213171,1,0,0:0:0:0:
64,192,213171,1,0,0:0:0:0:
448,192,213221,1,0,0:0:0:0:
320,192,213221,1,0,0:0:0:0:
320,192,213421,1,0,0:0:0:0:
192,192,213421,1,0,0:0:0:0:
320,192,213521,1,0,0:0:0:0:
448,192,213621,1,0,0:0:0:0:
64,192,213621,1,0,0:0:0:0:
64,192,213721,1,0,0:0:0:0:
448,192,213821,1,0,0:0:0:0:
192,192,213821,1,0,0:0:0:0:
448,192,214021,1,0,0:0:0:0:
64,192,214021,1,0,0:0:0:0:
448,192,214221,1,0,0:0:0:0:
192,192,214221,1,0,0:0:0:0:
64,192,214321,1,0,0:0:0:0:
320,192,214321,1,0,0:0:0:0:
192,192,214421,1,0,0:0:0:0:
64,192,214421,1,0,0:0:0:0:
448,192,214421,1,0,0:0:0:0:
448,192,214621,1,0,0:0:0:0:
320,192,214621,1,0,0:0:0:0:
192,192,214621,1,0,0:0:0:0:
64,192,214621,1,0,0:0:0:0:
448,192,214721,1,0,0:0:0:0:
320,192,214721,1,0,0:0:0:0:
448,192,214821,1,0,0:0:0:0:
320,192,214821,1,0,0:0:0:0:
192,192,214821,1,0,0:0:0:0:
64,192,214821,1,0,0:0:0:0:
320,192,215021,1,0,0:0:0:0:
64,192,215021,1,0,0:0:0:0:
192,192,215121,1,0,0:0:0:0:
448,192,215121,1,0,0:0:0:0:
448,192,215221,1,0,0:0:0:0:
320,192,215221,1,0,0:0:0:0:
64,192,215221,1,0,0:0:0:0:
192,192,215321,1,0,0:0:0:0:
64,192,215321,1,0,0:0:0:0:
448,192,215421,1,0,0:0:0:0:
320,192,215421,1,0,0:0:0:0:
192,192,215421,1,0,0:0:0:0:
448,192,215521,1,0,0:0:0:0:
64,192,215521,1,0,0:0:0:0:
320,192,215621,1,0,0:0:0:0:
192,192,215621,1,0,0:0:0:0:
64,192,215621,1,0,0:0:0:0:
448,192,215821,1,0,0:0:0:0:
192,192,215821,1,0,0:0:0:0:
448,192,215921,1,0,0:0:0:0:
64,192,215921,1,0,0:0:0:0:
320,192,216021,1,0,0:0:0:0:
64,192,216021,1,0,0:0:0:0:
320,192,216121,1,0,0:0:0:0:
192,192,216121,1,0,0:0:0:0:
448,192,216221,1,0,0:0:0:0:
192,192,216221,1,0,0:0:0:0:
448,192,216321,1,0,0:0:0:0:
320,192,216321,1,0,0:0:0:0:
320,192,216421,1,0,0:0:0:0:
192,192,216421,1,0,0:0:0:0:
64,192,216421,1,0,0:0:0:0:
448,192,216621,1,0,0:0:0:0:
64,192,216621,1,0,0:0:0:0:
320,192,216721,1,0,0:0:0:0:
64,192,216721,1,0,0:0:0:0:
192,192,216721,1,0,0:0:0:0:
448,192,216821,1,0,0:0:0:0:
320,192,216821,1,0,0:0:0:0:
192,192,216821,1,0,0:0:0:0:
448,192,217021,1,0,0:0:0:0:
192,192,217021,1,0,0:0:0:0:
64,192,217021,1,0,0:0:0:0:
448,192,217221,1,0,0:0:0:0:
320,192,217221,1,0,0:0:0:0:
448,192,217321,1,0,0:0:0:0:
192,192,217321,1,0,0:0:0:0:
64,192,217321,1,0,0:0:0:0:
320,192,217421,1,0,0:0:0:0:
192,192,217421,1,0,0:0:0:0:
64,192,217421,1,0,0:0:0:0:
448,192,217621,1,0,0:0:0:0:
320,192,217621,1,0,0:0:0:0:
64,192,217621,1,0,0:0:0:0:
448,192,217721,1,0,0:0:0:0:
192,192,217721,1,0,0:0:0:0:
320,192,217821,1,0,0:0:0:0:
64,192,217821,1,0,0:0:0:0:
192,192,217921,1,0,0:0:0:0:
64,192,217921,1,0,0:0:0:0:
448,192,218021,1,0,0:0:0:0:
320,192,218021,1,0,0:0:0:0:
448,192,218121,1,0,0:0:0:0:
192,192,218121,1,0,0:0:0:0:
320,192,218221,1,0,0:0:0:0:
64,192,218221,1,0,0:0:0:0:
448,192,218321,1,0,0:0:0:0:
64,192,218321,1,0,0:0:0:0:
448,192,218421,1,0,0:0:0:0:
320,192,218421,1,0,0:0:0:0:
192,192,218421,1,0,0:0:0:0:
192,192,218521,1,0,0:0:0:0:
320,192,218621,1,0,0:0:0:0:
192,192,218721,1,0,0:0:0:0:
448,192,218821,1,0,0:0:0:0:
192,192,218821,1,0,0:0:0:0:
320,192,218821,1,0,0:0:0:0:
448,192,218921,1,0,0:0:0:0:
64,192,218921,1,0,0:0:0:0:
320,192,219021,1,0,0:0:0:0:
64,192,219021,1,0,0:0:0:0:
448,192,219121,1,0,0:0:0:0:
192,192,219121,1,0,0:0:0:0:
448,192,219221,1,0,0:0:0:0:
320,192,219221,1,0,0:0:0:0:
320,192,219321,1,0,0:0:0:0:
64,192,219321,1,0,0:0:0:0:
192,192,219421,1,0,0:0:0:0:
64,192,219421,1,0,0:0:0:0:
448,192,219521,1,0,0:0:0:0:
320,192,219521,1,0,0:0:0:0:
448,192,219621,1,0,0:0:0:0:
64,192,219621,1,0,0:0:0:0:
192,192,219721,1,0,0:0:0:0:
448,192,219821,1,0,0:0:0:0:
320,192,219821,1,0,0:0:0:0:
448,192,219921,1,0,0:0:0:0:
192,192,219921,1,0,0:0:0:0:
64,192,220021,1,0,0:0:0:0:
320,192,220021,1,0,0:0:0:0:
64,192,220121,1,0,0:0:0:0:
448,192,220221,1,0,0:0:0:0:
192,192,220221,1,0,0:0:0:0:
448,192,220321,1,0,0:0:0:0:
320,192,220421,1,0,0:0:0:0:
192,192,220421,1,0,0:0:0:0:
64,192,220421,1,0,0:0:0:0:
448,192,220521,1,0,0:0:0:0:
64,192,220521,1,0,0:0:0:0:
448,192,220621,1,0,0:0:0:0:
192,192,220621,1,0,0:0:0:0:
320,192,220721,1,0,0:0:0:0:
64,192,220721,1,0,0:0:0:0:
192,192,220821,1,0,0:0:0:0:
320,192,220821,1,0,0:0:0:0:
448,192,220821,1,0,0:0:0:0:
64,192,220921,1,0,0:0:0:0:
192,192,220921,1,0,0:0:0:0:
448,192,221021,1,0,0:0:0:0:
320,192,221021,1,0,0:0:0:0:
448,192,221121,1,0,0:0:0:0:
64,192,221121,1,0,0:0:0:0:
64,192,221221,1,0,0:0:0:0:
192,192,221221,1,0,0:0:0:0:
320,192,221221,1,0,0:0:0:0:
320,192,221321,1,0,0:0:0:0:
448,192,221421,1,0,0:0:0:0:
192,192,221421,1,0,0:0:0:0:
320,192,221521,1,0,0:0:0:0:
64,192,221521,1,0,0:0:0:0:
448,192,221621,1,0,0:0:0:0:
192,192,221621,1,0,0:0:0:0:
64,192,221621,1,0,0:0:0:0:
192,192,221721,1,0,0:0:0:0:
320,192,221821,1,0,0:0:0:0:
448,192,221821,1,0,0:0:0:0:
320,192,221921,1,0,0:0:0:0:
448,192,222021,1,0,0:0:0:0:
192,192,222021,1,0,0:0:0:0:
64,192,222021,1,0,0:0:0:0:
320,192,222121,1,0,0:0:0:0:
192,192,222221,1,0,0:0:0:0:
64,192,222221,1,0,0:0:0:0:
320,192,222321,1,0,0:0:0:0:
64,192,222321,1,0,0:0:0:0:
448,192,222421,1,0,0:0:0:0:
192,192,222421,1,0,0:0:0:0:
320,192,222521,1,0,0:0:0:0:
192,192,222521,1,0,0:0:0:0:
448,192,222621,1,0,0:0:0:0:
64,192,222621,1,0,0:0:0:0:
320,192,222721,1,0,0:0:0:0:
192,192,222721,1,0,0:0:0:0:
64,192,222821,1,0,0:0:0:0:
448,192,222821,1,0,0:0:0:0:
320,192,222821,1,0,0:0:0:0:
192,192,222921,1,0,0:0:0:0:
448,192,223021,1,0,0:0:0:0:
64,192,223021,1,0,0:0:0:0:
320,192,223121,1,0,0:0:0:0:
192,192,223121,1,0,0:0:0:0:
448,192,223221,1,0,0:0:0:0:
192,192,223221,1,0,0:0:0:0:
448,192,223321,1,0,0:0:0:0:
320,192,223421,1,0,0:0:0:0:
64,192,223421,1,0,0:0:0:0:
64,192,223521,1,0,0:0:0:0:
448,192,223621,1,0,0:0:0:0:
320,192,223621,1,0,0:0:0:0:
192,192,223621,1,0,0:0:0:0:
448,192,223721,1,0,0:0:0:0:
64,192,223721,1,0,0:0:0:0:
320,192,223821,1,0,0:0:0:0:
192,192,223821,1,0,0:0:0:0:
64,192,223921,1,0,0:0:0:0:
192,192,223921,1,0,0:0:0:0:
448,192,224021,1,0,0:0:0:0:
320,192,224021,1,0,0:0:0:0:
64,192,224021,1,0,0:0:0:0:
448,192,224121,1,0,0:0:0:0:
320,192,224121,1,0,0:0:0:0:
192,192,224221,1,0,0:0:0:0:
64,192,224221,1,0,0:0:0:0:
448,192,224321,1,0,0:0:0:0:
192,192,224321,1,0,0:0:0:0:
448,192,224421,1,0,0:0:0:0:
320,192,224421,1,0,0:0:0:0:
64,192,224421,1,0,0:0:0:0:
320,192,224621,1,0,0:0:0:0:
64,192,224621,1,0,0:0:0:0:
448,192,224721,1,0,0:0:0:0:
192,192,224721,1,0,0:0:0:0:
448,192,224821,1,0,0:0:0:0:
320,192,224821,1,0,0:0:0:0:
64,192,224821,1,0,0:0:0:0:
448,192,225121,1,0,0:0:0:0:
64,192,225121,1,0,0:0:0:0:
192,192,225221,1,0,0:0:0:0:
64,192,225221,1,0,0:0:0:0:
320,192,225221,1,0,0:0:0:0:
448,192,225321,1,0,0:0:0:0:
192,192,225321,1,0,0:0:0:0:
448,192,225421,1,0,0:0:0:0:
320,192,225421,1,0,0:0:0:0:
192,192,225521,1,0,0:0:0:0:
64,192,225521,1,0,0:0:0:0:
448,192,225621,1,0,0:0:0:0:
320,192,225621,1,0,0:0:0:0:
64,192,225621,1,0,0:0:0:0:
448,192,225721,1,0,0:0:0:0:
192,192,225721,1,0,0:0:0:0:
320,192,225821,1,0,0:0:0:0:
64,192,225821,1,0,0:0:0:0:
192,192,225921,1,0,0:0:0:0:
64,192,225921,1,0,0:0:0:0:
448,192,226021,1,0,0:0:0:0:
320,192,226021,1,0,0:0:0:0:
192,192,226021,1,0,0:0:0:0:
448,192,226221,1,0,0:0:0:0:
320,192,226221,1,0,0:0:0:0:
448,192,226321,1,0,0:0:0:0:
192,192,226321,1,0,0:0:0:0:
64,192,226321,1,0,0:0:0:0:
320,192,226421,1,0,0:0:0:0:
192,192,226421,1,0,0:0:0:0:
64,192,226421,1,0,0:0:0:0:
448,192,226621,1,0,0:0:0:0:
320,192,226621,1,0,0:0:0:0:
64,192,226621,1,0,0:0:0:0:
448,192,226821,1,0,0:0:0:0:
192,192,226821,1,0,0:0:0:0:
64,192,226821,1,0,0:0:0:0:
448,192,227021,1,0,0:0:0:0:
64,192,227021,1,0,0:0:0:0:
448,192,227121,1,0,0:0:0:0:
320,192,227121,1,0,0:0:0:0:
192,192,227121,1,0,0:0:0:0:
320,192,227221,1,0,0:0:0:0:
192,192,227221,1,0,0:0:0:0:
64,192,227221,1,0,0:0:0:0:
448,192,227321,1,0,0:0:0:0:
64,192,227321,1,0,0:0:0:0:
448,192,227421,1,0,0:0:0:0:
320,192,227421,1,0,0:0:0:0:
192,192,227421,1,0,0:0:0:0:
64,192,227521,1,0,0:0:0:0:
320,192,227521,1,0,0:0:0:0:
448,192,227621,1,0,0:0:0:0:
64,192,227621,1,0,0:0:0:0:
192,192,227621,1,0,0:0:0:0:
320,192,227821,1,0,0:0:0:0:
64,192,227821,1,0,0:0:0:0:
448,192,227921,1,0,0:0:0:0:
320,192,227921,1,0,0:0:0:0:
192,192,227921,1,0,0:0:0:0:
192,192,228021,1,0,0:0:0:0:
64,192,228021,1,0,0:0:0:0:
448,192,228021,1,0,0:0:0:0:
320,192,228121,1,0,0:0:0:0:
64,192,228121,1,0,0:0:0:0:
448,192,228221,1,0,0:0:0:0:
320,192,228221,1,0,0:0:0:0:
192,192,228221,1,0,0:0:0:0:
448,192,228421,1,0,0:0:0:0:
320,192,228421,1,0,0:0:0:0:
192,192,228421,1,0,0:0:0:0:
64,192,228421,1,0,0:0:0:0:
320,192,228621,1,0,0:0:0:0:
64,192,228621,1,0,0:0:0:0:
448,192,228721,1,0,0:0:0:0:
64,192,228721,1,0,0:0:0:0:
192,192,228721,1,0,0:0:0:0:
448,192,228821,1,0,0:0:0:0:
320,192,228821,1,0,0:0:0:0:
192,192,228821,1,0,0:0:0:0:
64,192,228921,1,0,0:0:0:0:
320,192,228921,1,0,0:0:0:0:
64,192,229021,1,0,0:0:0:0:
192,192,229021,1,0,0:0:0:0:
448,192,229021,1,0,0:0:0:0:
320,192,229121,1,0,0:0:0:0:
448,192,229121,1,0,0:0:0:0:
192,192,229221,1,0,0:0:0:0:
64,192,229221,1,0,0:0:0:0:
320,192,229221,1,0,0:0:0:0:
448,192,229421,1,0,0:0:0:0:
192,192,229421,1,0,0:0:0:0:
320,192,229521,1,0,0:0:0:0:
192,192,229521,1,0,0:0:0:0:
64,192,229521,1,0,0:0:0:0:
448,192,229621,1,0,0:0:0:0:
320,192,229621,1,0,0:0:0:0:
64,192,229621,1,0,0:0:0:0:
448,192,229821,1,0,0:0:0:0:
192,192,229821,1,0,0:0:0:0:
64,192,229821,1,0,0:0:0:0:
448,192,230021,1,0,0:0:0:0:
320,192,230021,1,0,0:0:0:0:
192,192,230021,1,0,0:0:0:0:
448,192,230221,1,0,0:0:0:0:
192,192,230221,1,0,0:0:0:0:
320,192,230321,1,0,0:0:0:0:
192,192,230321,1,0,0:0:0:0:
64,192,230321,1,0,0:0:0:0:
448,192,230421,1,0,0:0:0:0:
320,192,230421,1,0,0:0:0:0:
64,192,230421,1,0,0:0:0:0:
192,192,230521,1,0,0:0:0:0:
448,192,230521,1,0,0:0:0:0:
320,192,230621,1,0,0:0:0:0:
192,192,230621,1,0,0:0:0:0:
64,192,230621,1,0,0:0:0:0:
448,192,230721,1,0,0:0:0:0:
64,192,230721,1,0,0:0:0:0:
192,192,230821,1,0,0:0:0:0:
320,192,230821,1,0,0:0:0:0:
448,192,230821,1,0,0:0:0:0:
320,192,230921,1,0,0:0:0:0:
64,192,230921,1,0,0:0:0:0:
448,192,231021,1,0,0:0:0:0:
192,192,231021,1,0,0:0:0:0:
320,192,231121,1,0,0:0:0:0:
192,192,231121,1,0,0:0:0:0:
64,192,231121,1,0,0:0:0:0:
448,192,231221,1,0,0:0:0:0:
320,192,231221,1,0,0:0:0:0:
64,192,231221,1,0,0:0:0:0:
448,192,231321,1,0,0:0:0:0:
192,192,231321,1,0,0:0:0:0:
320,192,231421,1,0,0:0:0:0:
192,192,231421,1,0,0:0:0:0:
64,192,231421,1,0,0:0:0:0:
448,192,231521,1,0,0:0:0:0:
320,192,231521,1,0,0:0:0:0:
448,192,231621,1,0,0:0:0:0:
192,192,231621,1,0,0:0:0:0:
64,192,231621,1,0,0:0:0:0:
64,192,231721,1,0,0:0:0:0:
192,192,231721,1,0,0:0:0:0:
448,192,231821,1,0,0:0:0:0:
320,192,231821,1,0,0:0:0:0:
448,192,231921,1,0,0:0:0:0:
192,192,231921,1,0,0:0:0:0:
64,192,231921,1,0,0:0:0:0:
320,192,232021,1,0,0:0:0:0:
192,192,232021,1,0,0:0:0:0:
64,192,232021,1,0,0:0:0:0:
448,192,232121,1,0,0:0:0:0:
320,192,232121,1,0,0:0:0:0:
64,192,232221,1,0,0:0:0:0:
448,192,232221,1,0,0:0:0:0:
192,192,232221,1,0,0:0:0:0:
64,192,232321,1,0,0:0:0:0:
192,192,232321,1,0,0:0:0:0:
448,192,232421,1,0,0:0:0:0:
320,192,232421,1,0,0:0:0:0:
192,192,232421,1,0,0:0:0:0:
448,192,232621,1,0,0:0:0:0:
192,192,232621,1,0,0:0:0:0:
320,192,232721,1,0,0:0:0:0:
448,192,232721,1,0,0:0:0:0:
64,192,232721,1,0,0:0:0:0:
192,192,232821,1,0,0:0:0:0:
64,192,232821,1,0,0:0:0:0:
320,192,232821,1,0,0:0:0:0:
448,192,233021,1,0,0:0:0:0:
192,192,233021,1,0,0:0:0:0:
320,192,233021,1,0,0:0:0:0:
448,192,233221,1,0,0:0:0:0:
320,192,233221,1,0,0:0:0:0:
64,192,233221,1,0,0:0:0:0:
448,192,233421,1,0,0:0:0:0:
192,192,233421,1,0,0:0:0:0:
320,192,233521,1,0,0:0:0:0:
192,192,233521,1,0,0:0:0:0:
64,192,233521,1,0,0:0:0:0:
448,192,233621,1,0,0:0:0:0:
320,192,233621,1,0,0:0:0:0:
64,192,233621,1,0,0:0:0:0:
448,192,233721,1,0,0:0:0:0:
192,192,233721,1,0,0:0:0:0:
320,192,233821,1,0,0:0:0:0:
192,192,233821,1,0,0:0:0:0:
64,192,233821,1,0,0:0:0:0:
64,192,233921,1,0,0:0:0:0:
448,192,233921,1,0,0:0:0:0:
448,192,234021,1,0,0:0:0:0:
320,192,234021,1,0,0:0:0:0:
192,192,234021,1,0,0:0:0:0:
448,192,234221,1,0,0:0:0:0:
192,192,234221,1,0,0:0:0:0:
448,192,234321,1,0,0:0:0:0:
320,192,234321,1,0,0:0:0:0:
64,192,234321,1,0,0:0:0:0:
320,192,234421,1,0,0:0:0:0:
192,192,234421,1,0,0:0:0:0:
64,192,234421,1,0,0:0:0:0:
448,192,234621,1,0,0:0:0:0:
320,192,234621,1,0,0:0:0:0:
192,192,234621,1,0,0:0:0:0:
448,192,234821,1,0,0:0:0:0:
320,192,234821,1,0,0:0:0:0:
64,192,234821,1,0,0:0:0:0:
192,192,235021,1,0,0:0:0:0:
320,192,235021,1,0,0:0:0:0:
64,192,235121,1,0,0:0:0:0:
192,192,235121,1,0,0:0:0:0:
448,192,235121,1,0,0:0:0:0:
448,192,235221,1,0,0:0:0:0:
320,192,235221,1,0,0:0:0:0:
64,192,235221,1,0,0:0:0:0:
192,192,235321,1,0,0:0:0:0:
320,192,235321,1,0,0:0:0:0:
64,192,235421,1,0,0:0:0:0:
192,192,235421,1,0,0:0:0:0:
448,192,235421,1,0,0:0:0:0:
64,192,235521,1,0,0:0:0:0:
320,192,235521,1,0,0:0:0:0:
448,192,235621,1,0,0:0:0:0:
192,192,235621,1,0,0:0:0:0:
320,192,235621,1,0,0:0:0:0:
64,192,235721,1,0,0:0:0:0:
448,192,235821,1,0,0:0:0:0:
192,192,235821,1,0,0:0:0:0:
320,192,235921,1,0,0:0:0:0:
448,192,235921,1,0,0:0:0:0:
64,192,235921,1,0,0:0:0:0:
192,192,236021,1,0,0:0:0:0:
64,192,236021,1,0,0:0:0:0:
320,192,236021,1,0,0:0:0:0:
448,192,236121,1,0,0:0:0:0:
448,192,236221,1,0,0:0:0:0:
192,192,236221,1,0,0:0:0:0:
64,192,236221,1,0,0:0:0:0:
192,192,236321,1,0,0:0:0:0:
448,192,236421,1,0,0:0:0:0:
320,192,236421,1,0,0:0:0:0:
64,192,236421,1,0,0:0:0:0:
320,192,236521,1,0,0:0:0:0:
448,192,236621,1,0,0:0:0:0:
192,192,236621,1,0,0:0:0:0:
320,192,236721,1,0,0:0:0:0:
192,192,236721,1,0,0:0:0:0:
64,192,236721,1,0,0:0:0:0:
448,192,236821,1,0,0:0:0:0:
320,192,236821,1,0,0:0:0:0:
64,192,236821,1,0,0:0:0:0:
448,192,236921,1,0,0:0:0:0:
192,192,236921,1,0,0:0:0:0:
320,192,237021,1,0,0:0:0:0:
192,192,237021,1,0,0:0:0:0:
64,192,237021,1,0,0:0:0:0:
64,192,237121,1,0,0:0:0:0:
448,192,237121,1,0,0:0:0:0:
448,192,237221,1,0,0:0:0:0:
320,192,237221,1,0,0:0:0:0:
192,192,237221,1,0,0:0:0:0:
64,192,237271,1,0,0:0:0:0:
320,192,237321,1,0,0:0:0:0:
192,192,237371,1,0,0:0:0:0:
448,192,237421,1,0,0:0:0:0:
320,192,237471,1,0,0:0:0:0:
64,192,237521,1,0,0:0:0:0:
192,192,237571,1,0,0:0:0:0:
448,192,237621,1,0,0:0:0:0:
320,192,237621,1,0,0:0:0:0:
64,192,237671,1,0,0:0:0:0:
192,192,237721,1,0,0:0:0:0:
448,192,237771,1,0,0:0:0:0:
64,192,237821,1,0,0:0:0:0:
192,192,237871,1,0,0:0:0:0:
448,192,237921,1,0,0:0:0:0:
320,192,237971,1,0,0:0:0:0:
192,192,238021,1,0,0:0:0:0:
64,192,238021,1,0,0:0:0:0:
448,192,238071,1,0,0:0:0:0:
320,192,238121,1,0,0:0:0:0:
64,192,238171,1,0,0:0:0:0:
448,192,238221,1,0,0:0:0:0:
320,192,238271,1,0,0:0:0:0:
64,192,238321,1,0,0:0:0:0:
192,192,238371,1,0,0:0:0:0:
448,192,238421,1,0,0:0:0:0:
320,192,238421,1,0,0:0:0:0:
64,192,238471,1,0,0:0:0:0:
448,192,238521,1,0,0:0:0:0:
192,192,238571,1,0,0:0:0:0:
448,192,238621,1,0,0:0:0:0:
64,192,238671,1,0,0:0:0:0:
320,192,238721,1,0,0:0:0:0:
64,192,238771,1,0,0:0:0:0:
448,192,238821,1,0,0:0:0:0:
320,192,238821,1,0,0:0:0:0:
192,192,238821,1,0,0:0:0:0:
