osu file format v14

[General]
AudioFilename: audio.mp3
AudioLeadIn: 0
PreviewTime: 86939
Countdown: 1
SampleSet: Normal
StackLeniency: 0.3
Mode: 0
LetterboxInBreaks: 0
WidescreenStoryboard: 0

[Editor]
Bookmarks: 280,17734,22512,24285,35189,62194,67921,69012,70103,76648,77194,77739,78285,78825,96280,105012,109370,122461,134466,136512,138830,139103,139785,140466,140739,141421,143057,144557,144966,147694,148648,174825,181255,184429,186029,187629,192429,193229,194029,198829,199629,200429,200629,202029,205229,206829,213224,238824,242829,243629,244629,251624
DistanceSpacing: 0.7
BeatDivisor: 4
GridSize: 4
TimelineZoom: 2.4

[Metadata]
Title:Shun no Seafood o Ikashita Curry Fuumi Paella ~808 Chef no Twerk to Trap Jitate~
TitleUnicode:旬のシーフードを活かしたカレー風味パエリア ~808シェフのTwerkとTrap仕立て~
Artist:Camellia
ArtistUnicode:かめりあ
Creator:huu
Version:Octopus Collab
Source:
Tags:nyarkoo agepoyo 3 あげぽよ3 jcore j-core hardcore electronic instrumental Curry Flavored Paella made with Seasonal Seafood ~808 Chef's Twerk and Trap Tailoring ~ ~808 Masaya Oya 大箭将也 Bang Reverse Revenge of Riot BLUE TURTLE fluX Xroise menaXe inXonnu SKETCH UP! Rec. Recordings GECD-019 M3 Spring 2016 M3春2016 M3-37 Shitate~ octopus
BeatmapID:1487487
BeatmapSetID:703025

[Difficulty]
HPDrainRate:3
CircleSize:4.2
OverallDifficulty:8
ApproachRate:9.2
SliderMultiplier:2
SliderTickRate:1

[Events]
//Background and Video events
0,0,"BG.jpg",0,0
//Break Periods
2,122666,134169
2,186228,187059
//Storyboard Layer 0 (Background)
//Storyboard Layer 1 (Fail)
//Storyboard Layer 2 (Pass)
//Storyboard Layer 3 (Foreground)
//Storyboard Layer 4 (Overlay)
//Storyboard Sound Samples

[TimingPoints]
285,272.727272727273,4,1,1,35,1,0
285,-133.333333333333,4,1,1,35,0,0
35194,-133.333333333333,4,1,1,55,0,0
39557,-100,4,1,1,60,0,0
42830,-133.333333333333,4,1,1,35,0,0
43921,-79.9999999999999,4,1,1,70,0,1
61375,-133.333333333333,4,1,1,55,0,0
61921,-100,4,1,1,55,0,0
62194,-80,4,1,1,70,0,1
76648,-133.333333333333,4,1,1,70,0,1
78830,-133.333333333333,4,1,1,55,0,0
83194,-100,4,1,1,60,0,0
86466,-133.333333333333,4,1,1,50,0,0
88375,-80,4,1,1,70,0,1
109375,-66.6666666666667,4,1,1,70,0,1
121375,-100,4,1,1,70,0,1
121921,-200,4,1,1,70,0,1
122466,-200,4,1,1,70,0,0
134739,-133.333333333333,4,1,1,40,0,0
148648,-100,4,1,1,40,0,0
174830,405.405405405405,4,1,1,40,1,0
175640,401.786611130828,4,1,1,40,1,0
176443,398.229207457506,4,1,1,40,1,0
177239,394.736842105263,4,1,1,40,1,0
178028,398.229207457506,4,1,1,40,1,0
178824,401.786611130828,4,1,1,40,1,0
179627,405.405405405405,4,1,1,40,1,0
180437,409.089979340956,4,1,1,40,1,0
181255,193.548387096774,4,1,1,50,1,0
182029,200,4,1,1,55,1,0
182829,-100,4,1,1,60,0,0
184029,-100,4,1,1,75,0,0
184429,-133.333333333333,4,1,1,85,0,0
187629,-66.6666666666667,4,1,1,85,0,0
206829,-200,4,1,1,40,0,0
207629,-133.333333333333,4,1,1,45,0,0
208029,-100,4,1,1,50,0,0
208429,-80,4,1,1,55,0,0
208829,-66.6666666666667,4,1,1,60,0,0
209229,-57.1428571428571,4,1,1,65,0,0
209629,-50,4,1,1,70,0,0
210029,-66.6666666666667,4,1,1,50,0,0
213229,-133.333333333333,4,1,1,35,0,0
215629,-100,4,1,1,60,0,0
216429,-80,4,1,1,85,0,1
219629,-133.333333333333,4,1,1,85,0,1
222029,-80,4,1,1,85,0,1
222829,-133.333333333333,4,1,1,85,0,1
225629,-133.333333333333,4,1,1,85,0,0
226029,-80,4,1,1,85,0,1
238829,-133.333333333333,4,1,1,60,0,0
241629,-125,4,1,1,60,0,0
244829,-200,4,1,1,60,0,0
245229,-66.6666666666667,4,1,1,60,0,0
245629,-133.333333333333,4,1,1,60,0,0
248429,-125,4,1,1,60,0,0
251229,-200,4,1,1,60,0,0
251629,-133.333333333333,4,1,1,40,0,0
261229,218.181818181818,4,1,1,35,1,0
261229,-133.333333333333,4,1,1,35,0,0
262101,230.769230769231,4,1,1,30,1,0
262101,-133.333333333333,4,1,1,30,0,0
263061,285.714285714286,4,1,1,25,1,0
263061,-133.333333333333,4,1,1,25,0,0
264203,375,4,1,1,20,1,0
264203,-133.333333333333,4,1,1,20,0,0
264953,413.793103448276,4,1,1,15,1,0
264953,-133.333333333333,4,1,1,15,0,0
265366,461.538461538462,4,1,1,10,1,0
265366,-200,4,1,1,10,0,0
275519,-200,4,1,1,5,0,0

[Colours]
Combo1 : 0,255,128
Combo2 : 227,223,191

[HitObjects]
96,256,285,6,0,P|144:244|236:292,1,150.000005722046,10|10,0:0|0:0,0:0:0:0:
292,360,694,1,2,0:0:0:0:
356,288,830,2,0,L|352:208,1,75.0000028610231,10|0,0:0|0:0,0:0:0:0:
268,100,1103,1,10,0:0:0:0:
268,204,1239,1,2,0:0:0:0:
331,47,1375,6,0,P|302:25|266:18,1,75.0000028610231,10|0,0:0|0:0,0:0:0:0:
200,125,1648,2,0,P|236:120|267:99,1,75.0000028610231,10|0,0:0|0:0,0:0:0:0:
104,56,1921,2,0,L|116:208,1,150.000005722046,8|10,0:0|0:0,0:0:0:0:
108,216,2466,6,0,P|152:208|224:280,1,150.000005722046,10|10,0:0|0:0,0:0:0:0:
144,284,2875,1,2,0:0:0:0:
16,252,3012,2,0,L|20:172,1,75.0000028610231,8|0,0:0|0:0,0:0:0:0:
76,76,3285,1,10,0:0:0:0:
108,216,3421,1,2,0:0:0:0:
223,274,3557,6,0,P|255:266|367:322,2,150.000005722046,8|8|8,0:0|0:0|0:0,0:0:0:0:
208,288,4375,2,0,L|213:174,1,112.500004291535,10|0,0:0|0:0,0:0:0:0:
216,148,4648,6,0,P|256:136|304:144,2,75.0000028610231,10|0|10,0:0|0:0|0:0,0:0:0:0:
208,288,5057,1,2,0:0:0:0:
372,172,5194,2,0,L|364:96,1,75.0000028610231,10|0,0:0|0:0,0:0:0:0:
132,120,5466,2,0,L|139:194,1,75.0000028610231,10|0,0:0|0:0,0:0:0:0:
216,96,5739,5,10,0:0:0:0:
148,32,5875,1,0,0:0:0:0:
56,76,6012,2,0,L|72:228,1,150.000005722046,10|10,0:0|0:0,0:0:0:0:
71,225,6557,1,8,0:0:0:0:
80,240,6830,5,10,0:0:0:0:
184,192,6966,1,0,0:0:0:0:
180,304,7103,1,10,0:0:0:0:
120,144,7239,6,0,P|164:116|208:120,1,75.0000028610231,2|8,0:0|0:0,0:0:0:0:
249,221,7512,1,2,0:0:0:0:
32,212,7648,2,0,L|44:60,1,150.000005722046,10|8,0:0|0:0,0:0:0:0:
124,24,8057,6,0,L|200:28,2,75.0000028610231,2|10|2,0:0|0:0|0:0,0:0:0:0:
256,108,8466,1,10,0:0:0:0:
256,108,8739,1,10,0:0:0:0:
256,108,9012,6,0,L|268:260,2,150.000005722046,10|8|8,0:0|0:0|0:0,0:0:0:0:
84,56,9830,1,10,0:0:0:0:
92,144,9966,1,2,0:0:0:0:
180,88,10103,6,0,L|332:80,2,150.000005722046,8|8|8,0:0|0:0|0:0,0:0:0:0:
92,144,10921,1,10,0:0:0:0:
92,144,11194,6,0,P|72:188|100:288,1,150.000005722046,10|8,0:0|0:0,0:0:0:0:
246,242,11603,2,0,P|216:220|180:212,1,75.0000028610231,2|10,0:0|0:0,0:0:0:0:
280,328,12012,1,10,0:0:0:0:
336,252,12148,1,2,0:0:0:0:
236,136,12285,5,8,0:0:0:0:
180,212,12421,1,0,0:0:0:0:
328,188,12557,2,0,L|308:40,1,150.000005722046,10|10,0:0|0:0,0:0:0:0:
236,136,13103,1,10,0:0:0:0:
264,256,13375,6,0,P|304:276|400:248,1,150.000005722046,10|10,0:0|0:0,0:0:0:0:
328,188,13785,1,2,0:0:0:0:
168,220,13921,2,0,L|176:328,1,75.0000028610231,10|0,0:0|0:0,0:0:0:0:
328,188,14194,2,0,L|322:113,1,75.0000028610231,10|2,0:0|0:0,0:0:0:0:
256,52,14466,5,10,0:0:0:0:
156,80,14603,1,2,0:0:0:0:
322,113,14739,2,0,L|472:96,2,150.000005722046,10|10|10,0:0|0:0|0:0,0:0:0:0:
322,113,15557,6,0,P|272:120|222:141,2,75.0000028610231,10|0|10,0:0|0:0|0:0,0:0:0:0:
464,176,15966,2,0,L|467:101,1,75.0000028610231,2|8,0:0|0:0,0:0:0:0:
380,208,16239,2,0,L|376:282,1,75.0000028610231,2|10,0:0|0:0,0:0:0:0:
256,192,16512,12,6,17739,0:0:0:0:
144,72,18012,5,6,0:0:0:0:
144,72,18285,1,10,0:0:0:0:
144,72,18557,2,2,B|168:116|168:116|148:152|148:212|120:240|120:240|144:280,1,225.000008583069
56,176,19103,5,2,0:0:0:0:
56,176,19239,1,2,0:0:0:0:
56,176,19375,2,2,B|100:152|100:152|136:172|196:172|224:200|224:200|264:176,1,225.000008583069,10|2,0:0|0:0,0:0:0:0:
456,176,19921,5,6,0:0:0:0:
456,176,20194,1,2,0:0:0:0:
456,176,20466,2,2,B|412:152|412:152|376:172|312:160|312:160,1,150.000005722046,10|2,0:0|0:0,0:0:0:0:
116,136,21012,5,6,0:0:0:0:
116,169,21148,1,2,0:0:0:0:
116,203,21285,1,2,0:0:0:0:
116,237,21421,1,2,0:0:0:0:
116,272,21557,2,2,B|113:271|177:283|213:263|213:263|257:287,1,150.000005722046,2|10,0:0|0:0,0:0:0:0:
268,128,22103,6,2,B|240:96|240:96|208:128|136:128|112:160|112:160|80:128,1,225.000008583069,6|2,0:0|0:0,0:0:0:0:
216,232,22648,1,10,0:0:0:0:
216,232,22921,1,2,0:0:0:0:
408,276,23466,5,2,0:0:0:0:
408,276,23739,2,2,B|376:300|376:300|340:280|284:280|248:248|248:248|180:280,1,225.000008583069,10|2,0:0|0:0,0:0:0:0:
206,267,24285,2,2,B|234:299|234:299|266:267|338:267|362:235|362:235|394:267,1,225.000008583069,6|2,0:0|0:0,0:0:0:0:
180,192,24830,1,10,0:0:0:0:
180,192,25103,1,2,0:0:0:0:
332,164,25375,5,2,0:0:0:0:
332,180,25512,1,2,0:0:0:0:
332,196,25648,1,2,0:0:0:0:
332,212,25785,1,2,0:0:0:0:
332,228,25921,2,10,B|300:268|352:336|328:376,2,150.000005722046,10|10|6,0:0|0:0|0:0,0:0:0:0:
332,228,26739,5,6,0:0:0:0:
144,240,27012,1,10,0:0:0:0:
232,184,27284,2,2,B|182:189|182:189|164:226|115:261|108:300|108:300|61:303,1,225.000008583069
288,320,27830,5,2,0:0:0:0:
332,348,27966,1,2,0:0:0:0:
383,346,28102,2,2,B|378:296|378:296|341:278|306:229|267:222|267:222|264:176,1,225.000008583069,10|2,0:0|0:0,0:0:0:0:
208,72,28648,5,6,0:0:0:0:
68,160,28921,1,2,0:0:0:0:
154,18,29193,2,2,B|199:41|199:41|203:82|250:127|250:127,1,150.000005722046,10|2,0:0|0:0,0:0:0:0:
312,132,29739,5,2,0:0:0:0:
276,156,29875,1,2,0:0:0:0:
240,180,30012,1,2,0:0:0:0:
204,200,30148,1,2,0:0:0:0:
172,228,30285,2,2,B|217:250|217:250|221:291|268:337|265:335,1,150.000005722046,10|2,0:0|0:0,0:0:0:0:
301,145,30830,6,2,B|343:150|343:150|335:194|377:253|364:291|364:291|409:299,1,225.000008583069,6|2,0:0|0:0,0:0:0:0:
432,208,31375,1,10,0:0:0:0:
432,208,31648,1,2,0:0:0:0:
152,196,32193,5,2,0:0:0:0:
100,115,32466,2,2,B|98:155|98:155|135:173|167:219|214:230|214:230|227:304,1,225.000008583069,10|2,0:0|0:0,0:0:0:0:
223,275,33012,2,2,B|180:271|180:271|188:226|147:167|159:129|159:129|115:121,1,225.000008583069,6|2,0:0|0:0,0:0:0:0:
244,184,33557,1,10,0:0:0:0:
244,184,33830,1,2,0:0:0:0:
380,80,34102,5,2,0:0:0:0:
348,80,34239,1,2,0:0:0:0:
316,80,34375,1,2,0:0:0:0:
288,80,34512,1,2,0:0:0:0:
260,80,34648,2,2,B|260:120|260:120|231:140|196:104|196:104|152:104,1,150.000005722046,10|10,0:0|0:0,0:0:0:0:
128,212,35194,5,10,0:0:0:0:
184,284,35330,1,10,0:0:0:0:
184,284,35398,1,0,0:0:0:0:
184,284,35466,6,0,L|196:320,3,37.5000014305115,10|0|0|0,0:0|0:0|0:0|0:0,0:0:0:0:
256,368,35739,2,0,L|268:332,3,37.5000014305115,10|0|0|0,0:0|0:0|0:0|0:0,0:0:0:0:
311,275,36012,5,10,0:0:0:0:
136,376,36148,1,10,0:0:0:0:
136,376,36216,1,0,0:0:0:0:
136,376,36285,6,0,L|60:372,1,75.0000028610231,10|0,0:0|0:0,0:0:0:0:
109,280,36557,2,0,L|183:283,1,75.0000028610231,10|0,0:0|0:0,0:0:0:0:
338,371,36830,6,0,L|262:367,1,75.0000028610231,10|0,0:0|0:0,0:0:0:0:
311,275,37102,2,0,L|385:278,1,75.0000028610231,10|0,0:0|0:0,0:0:0:0:
464,376,37375,5,10,0:0:0:0:
385,278,37512,1,10,0:0:0:0:
392,248,37580,1,0,0:0:0:0:
396,220,37648,6,0,L|404:164,3,37.5000014305115,10|0|0|0,0:0|0:0|0:0|0:0,0:0:0:0:
314,237,37921,2,0,L|310:274,3,37.5000014305115,10|0|0|0,0:0|0:0|0:0|0:0,0:0:0:0:
252,176,38194,1,10,0:0:0:0:
252,176,38330,1,10,0:0:0:0:
196,280,38466,6,0,L|204:356,1,75.0000028610231,10|0,0:0|0:0,0:0:0:0:
416,324,38739,2,0,L|423:249,1,75.0000028610231,10|0,0:0|0:0,0:0:0:0:
284,132,39012,6,0,L|292:208,1,75.0000028610231,10|0,0:0|0:0,0:0:0:0:
504,176,39285,2,0,L|511:101,1,75.0000028610231,10|0,0:0|0:0,0:0:0:0:
440,32,39557,6,0,P|412:24|392:24,3,50,14|0|10|0,0:0|0:0|0:0|0:0,0:0:0:0:
312,40,39830,1,10,0:0:0:0:
284,68,39898,1,0,0:0:0:0:
276,108,39966,1,0,0:0:0:0:
284,148,40035,1,0,0:0:0:0:
316,176,40103,5,10,0:0:0:0:
292,172,40171,1,0,0:0:0:0:
268,176,40239,1,10,0:0:0:0:
244,188,40307,1,0,0:0:0:0:
228,208,40375,6,0,P|212:232|208:252,3,50,10|0|0|0,0:0|0:0|0:0|0:0,0:0:0:0:
272,304,40648,6,0,L|324:300,1,50,10|0,0:0|0:0,0:0:0:0:
445,251,40785,2,0,L|395:247,1,50,10|0,0:0|0:0,0:0:0:0:
316,176,40921,2,0,L|324:232,1,50,10|0,0:0|0:0,0:0:0:0:
388,372,41057,2,0,L|396:320,1,50
424,172,41194,5,10,0:0:0:0:
416,128,41262,1,0,0:0:0:0:
408,84,41330,1,10,0:0:0:0:
400,40,41398,1,0,0:0:0:0:
392,0,41466,5,10,0:0:0:0:
376,28,41535,1,0,0:0:0:0:
352,48,41603,1,0,0:0:0:0:
324,60,41671,1,0,0:0:0:0:
296,60,41739,6,2,P|272:60|256:64,5,25,10|2|2|2|2|2,0:0|0:0|0:0|0:0|0:0|0:0,0:0:0:0:
228,120,42012,2,2,P|211:136|202:151,5,25,10|2|2|2|2|2,0:0|0:0|0:0|0:0|0:0|0:0,0:0:0:0:
228,212,42285,6,2,L|232:244,5,25,10|2|2|2|2|2,0:0|0:0|0:0|0:0|0:0|0:0,0:0:0:0:
300,196,42557,2,2,L|303:171,5,25,10|2|2|2|2|2,0:0|0:0|0:0|0:0|0:0|0:0,0:0:0:0:
376,137,42830,6,0,L|384:212,1,75.0000028610231,0|2,0:0|0:0,0:0:0:0:
284,288,43103,1,2,0:0:0:0:
300,196,43239,1,2,0:0:0:0:
324,348,43375,2,0,P|288:360|244:348,3,75.0000028610231,2|2|2|2,0:0|0:0|0:0|0:0,0:0:0:0:
164,296,43921,6,0,B|144:128|144:128|168:208,1,250,6|0,0:0|0:0,0:0:0:0:
248,260,44330,1,2,0:0:0:0:
80,232,44466,2,0,L|64:108,1,125,10|2,0:0|0:0,0:0:0:0:
144,36,44739,1,2,0:0:0:0:
144,36,45148,5,2,0:0:0:0:
164,136,45285,1,2,0:0:0:0:
64,108,45421,1,2,0:0:0:0:
236,72,45557,2,0,P|300:76|348:112,1,125,10|0,0:0|0:0,0:0:0:0:
456,192,45830,2,2,P|392:196|344:232,1,125
316,360,46103,5,2,0:0:0:0:
432,296,46239,1,2,0:0:0:0:
136,252,46375,1,2,0:0:0:0:
208,344,46512,1,2,0:0:0:0:
256,208,46648,5,10,0:0:0:0:
256,208,46716,2,0,L|256:144,1,62.5,2|2,0:0|0:0,0:0:0:0:
112,68,46921,1,2,0:0:0:0:
112,68,47330,5,2,0:0:0:0:
256,145,47466,1,2,0:0:0:0:
88,80,47603,1,2,0:0:0:0:
296,76,47739,6,0,P|332:120|276:220,1,187.5,10|0,0:0|0:0,0:0:0:0:
240,208,48012,2,0,B|234:275|256:340|256:340|248:308|256:280,1,187.5,2|0,0:0|0:0,0:0:0:0:
312,200,48285,6,0,P|404:230|316:309,1,250,2|0,0:0|0:0,0:0:0:0:
272,260,48694,1,2,0:0:0:0:
328,120,48830,2,0,P|384:124|444:160,1,125,10|2,0:0|0:0,0:0:0:0:
200,200,49103,6,0,B|188:56|184:12|184:12|208:80,1,250,2|0,0:0|0:0,0:0:0:0:
268,136,49512,1,2,0:0:0:0:
208,276,49648,1,2,0:0:0:0:
120,152,49785,1,2,0:0:0:0:
336,237,49921,6,0,L|360:52,1,187.5,10|0,0:0|0:0,0:0:0:0:
352,24,50194,2,0,B|292:12|292:12|228:28,1,125,2|2,0:0|0:0,0:0:0:0:
128,104,50466,5,2,0:0:0:0:
144,204,50603,1,2,0:0:0:0:
212,60,50739,1,2,0:0:0:0:
144,204,50875,1,2,0:0:0:0:
296,96,51012,5,10,0:0:0:0:
144,204,51148,1,2,0:0:0:0:
376,164,51285,1,2,0:0:0:0:
144,204,51421,1,2,0:0:0:0:
436,240,51557,5,2,0:0:0:0:
388,80,51694,1,2,0:0:0:0:
296,180,51830,1,2,0:0:0:0:
264,20,51966,1,2,0:0:0:0:
220,136,52103,6,0,L|228:260,1,125,10|2,0:0|0:0,0:0:0:0:
376,292,52375,2,0,L|368:168,1,125,10|2,0:0|0:0,0:0:0:0:
144,124,52648,6,0,B|156:320|156:320|160:264,1,250,2|0,0:0|0:0,0:0:0:0:
232,192,53057,2,0,L|224:68,2,125,2|10|2,0:0|0:0|0:0,0:0:0:0:
296,256,53466,6,0,P|344:232|488:336,1,250,2|0,0:0|0:0,0:0:0:0:
372,340,53875,1,2,0:0:0:0:
232,308,54012,1,2,0:0:0:0:
264,176,54148,1,2,0:0:0:0:
96,192,54285,6,0,B|32:188|32:188|8:132,1,125,10|0,0:0|0:0,0:0:0:0:
248,100,54557,2,0,B|312:104|312:104|336:160,1,125,2|0,0:0|0:0,0:0:0:0:
336,296,54830,5,2,0:0:0:0:
264,176,54966,1,2,0:0:0:0:
235,327,55103,1,2,0:0:0:0:
335,159,55239,1,2,0:0:0:0:
164,288,55375,5,10,0:0:0:0:
164,288,55444,2,0,P|192:316|232:328,1,62.5,2|2,0:0|0:0,0:0:0:0:
264,176,55648,2,0,P|208:144|44:200,1,250,2|0,0:0|0:0,0:0:0:0:
100,360,56057,6,0,P|132:332|160:252,2,125,2|2|0,0:0|0:0|0:0,0:0:0:0:
44,199,56466,2,0,P|148:138|264:176,1,250,10|2,0:0|0:0,0:0:0:0:
268,196,57012,6,0,P|300:224|288:124,1,250,2|0,0:0|0:0,0:0:0:0:
160,272,57421,1,2,0:0:0:0:
400,272,57557,2,0,P|432:232|444:152,1,125,10|2,0:0|0:0,0:0:0:0:
305,116,57830,1,2,0:0:0:0:
288,128,58239,5,2,0:0:0:0:
248,272,58375,1,2,0:0:0:0:
400,272,58512,1,2,0:0:0:0:
232,200,58648,6,0,P|196:220|228:344,1,187.5,10|0,0:0|0:0,0:0:0:0:
347,326,58921,2,0,P|307:279|247:271,1,125,2|2,0:0|0:0,0:0:0:0:
264,352,59194,5,2,0:0:0:0:
432,344,59330,1,2,0:0:0:0:
247,271,59466,5,2,0:0:0:0:
415,279,59602,1,2,0:0:0:0:
244,140,59739,5,10,0:0:0:0:
422,233,59875,1,2,0:0:0:0:
272,8,60012,5,2,0:0:0:0:
418,199,60148,1,2,0:0:0:0:
152,212,60285,5,2,0:0:0:0:
276,128,60421,1,2,0:0:0:0:
288,276,60557,1,2,0:0:0:0:
236,212,60694,1,2,0:0:0:0:
328,204,60830,5,10,0:0:0:0:
208,288,60966,1,2,0:0:0:0:
192,144,61103,1,2,0:0:0:0:
368,272,61239,1,2,0:0:0:0:
152,212,61375,6,0,L|76:216,1,75.0000028610231,2|2,0:0|0:0,0:0:0:0:
120,320,61648,2,0,P|180:304|248:328,1,112.500004291535,2|0,0:0|0:0,0:0:0:0:
244,328,61921,6,0,P|288:328|252:256,1,150,10|0,0:0|0:0,0:0:0:0:
148,168,62194,5,2,0:0:0:0:
148,168,62330,1,2,0:0:0:0:
276,128,62466,2,2,B|336:164|336:164|356:128|404:128,1,125
416,240,62739,2,2,B|384:272|384:272|364:240|316:240,1,125
252,288,63012,2,2,B|214:288|181:320|181:320|163:282|122:282,1,125,10|2,0:0|0:0,0:0:0:0:
108,204,63285,1,2,0:0:0:0:
252,288,63557,5,2,0:0:0:0:
292,256,63694,1,2,0:0:0:0:
332,228,63830,2,2,B|332:192|360:168|360:168|332:116,1,125
280,56,64103,2,2,B|272:88|249:106|249:106|280:164,1,125,10|2,0:0|0:0,0:0:0:0:
238,298,64375,5,2,0:0:0:0:
296,316,64512,1,2,0:0:0:0:
356,300,64648,2,2,B|296:320|296:320|220:292,1,125,2|2,0:0|0:0,0:0:0:0:
240,280,64921,2,2,B|297:301|297:301|357:281,1,125,2|2,0:0|0:0,0:0:0:0:
356,84,65194,6,2,B|296:64|296:64|220:92,1,125,10|2,0:0|0:0,0:0:0:0:
168,176,65466,1,2,0:0:0:0:
332,220,65739,5,6,0:0:0:0:
332,220,65876,1,2,0:0:0:0:
332,220,66012,2,2,B|332:184|360:160|360:160|328:112,1,125
272,52,66285,2,2,B|272:84|241:102|241:102|276:156,1,125,10|2,0:0|0:0,0:0:0:0:
238,298,66557,5,2,0:0:0:0:
296,320,66694,1,2,0:0:0:0:
356,300,66830,2,2,B|296:320|296:320|220:292,1,125,2|2,0:0|0:0,0:0:0:0:
240,280,67103,2,2,B|297:301|297:301|357:281,1,125,2|2,0:0|0:0,0:0:0:0:
356,84,67376,6,2,B|296:64|296:64|220:92,1,125,10|2,0:0|0:0,0:0:0:0:
240,104,67649,2,2,B|297:82|297:82|357:102,1,125,2|2,0:0|0:0,0:0:0:0:
141,247,67921,5,2,0:0:0:0:
196,336,68057,1,2,0:0:0:0:
141,247,68194,1,2,0:0:0:0:
268,240,68330,1,2,0:0:0:0:
141,247,68466,1,10,0:0:0:0:
240,128,68603,1,2,0:0:0:0:
141,247,68739,1,2,0:0:0:0:
100,116,68875,1,2,0:0:0:0:
141,247,69012,5,2,0:0:0:0:
16,236,69148,1,2,0:0:0:0:
141,247,69285,1,2,0:0:0:0:
52,352,69421,1,2,0:0:0:0:
141,247,69557,1,10,0:0:0:0:
196,336,69694,1,2,0:0:0:0:
141,247,69830,1,10,0:0:0:0:
268,240,69966,1,2,0:0:0:0:
259,177,70103,6,2,B|219:143|219:143|167:171|155:243|155:243|67:271|23:259|23:259|23:323,1,375,6|2,0:0|0:0,0:0:0:0:
180,320,70648,6,2,P|224:320|224:244,1,125,10|2,0:0|0:0,0:0:0:0:
152,240,70920,1,2,0:0:0:0:
220,148,71056,1,2,0:0:0:0:
272,56,71194,2,2,B|336:56|336:56|380:100,1,125,2|2,0:0|0:0,0:0:0:0:
336,240,71466,2,2,B|364:212|388:240|432:240|432:240|448:208,1,125,2|2,0:0|0:0,0:0:0:0:
319,146,71738,2,2,B|285:146|247:124|247:124|213:168,1,125,10|2,0:0|0:0,0:0:0:0:
188,284,72012,1,2,0:0:0:0:
105,210,72285,5,2,0:0:0:0:
216,208,72420,1,2,0:0:0:0:
216,208,72557,2,2,B|156:180|156:180|104:212,1,125,2|2,0:0|0:0,0:0:0:0:
56,260,72829,2,2,B|106:291|106:291|164:260,1,125,10|2,0:0|0:0,0:0:0:0:
294,301,73103,5,2,0:0:0:0:
316,244,73238,1,2,0:0:0:0:
296,184,73375,2,2,B|316:244|316:244|288:320,1,125,2|2,0:0|0:0,0:0:0:0:
312,304,73648,2,2,B|290:247|290:247|310:187,1,125,2|2,0:0|0:0,0:0:0:0:
72,180,73920,6,2,B|92:240|92:240|68:312,1,125,10|2,0:0|0:0,0:0:0:0:
72,298,74194,1,2,0:0:0:0:
207,178,74466,5,6,0:0:0:0:
152,152,74603,1,2,0:0:0:0:
97,181,74739,2,2,B|148:151|148:151|208:179,1,125,2|2,0:0|0:0,0:0:0:0:
156,231,75012,2,2,B|98:262|98:262|48:231,1,125,10|2,0:0|0:0,0:0:0:0:
295,183,75285,5,2,0:0:0:0:
312,244,75421,1,2,0:0:0:0:
294,301,75557,2,2,B|316:244|316:244|296:184,1,125,2|2,0:0|0:0,0:0:0:0:
276,182,75829,2,2,B|297:243|297:243|276:300,1,125,2|2,0:0|0:0,0:0:0:0:
80,184,76102,6,2,B|60:244|60:244|88:320,1,125,10|2,0:0|0:0,0:0:0:0:
100,300,76375,2,2,B|78:243|78:243|98:183,1,125,2|2,0:0|0:0,0:0:0:0:
48,336,76648,6,2,B|112:312|112:312|156:336|220:312|240:336|268:336|268:336,1,225.000008583069,10|2,0:0|0:0,0:0:0:0:
344,312,77194,6,2,B|276:284|276:284|224:316|224:316|116:316,1,225.000008583069,10|2,0:0|0:0,0:0:0:0:
208,244,77739,6,2,B|212:216|212:216|256:244|300:220|300:220|364:220|392:248|392:248|408:216,1,225.000008583069,10|2,0:0|0:0,0:0:0:0:
260,164,78285,6,2,L|260:145,13,18.7500007152558,10|2|2|2|2|2|2|2|2|2|2|2|2|2,0:0|0:0|0:0|0:0|0:0|0:0|0:0|0:0|0:0|0:0|0:0|0:0|0:0|0:0,0:0:0:0:
256,192,78830,5,10,0:0:0:0:
156,268,78966,1,8,0:0:0:0:
156,268,79035,1,0,0:0:0:0:
156,268,79103,6,0,L|104:264,3,37.5000014305115,10|0|0|0,0:0|0:0|0:0|0:0,0:0:0:0:
64,208,79375,2,0,L|26:210,3,37.5000014305115,10|0|0|0,0:0|0:0|0:0|0:0,0:0:0:0:
36,292,79648,1,10,0:0:0:0:
36,292,79785,1,10,0:0:0:0:
140,188,79921,6,0,L|132:112,1,75.0000028610231,10|0,0:0|0:0,0:0:0:0:
256,244,80194,2,0,L|263:169,1,75.0000028610231,10|0,0:0|0:0,0:0:0:0:
380,168,80466,6,0,L|372:92,1,75.0000028610231,10|0,0:0|0:0,0:0:0:0:
496,224,80739,2,0,L|503:149,1,75.0000028610231,10|0,0:0|0:0,0:0:0:0:
388,268,81012,5,10,0:0:0:0:
388,176,81148,1,10,0:0:0:0:
388,176,81216,1,0,0:0:0:0:
388,176,81285,6,0,L|392:136,3,37.5000014305115,10|0|0|0,0:0|0:0|0:0|0:0,0:0:0:0:
304,196,81557,2,0,L|300:233,3,37.5000014305115,10|0|0|0,0:0|0:0|0:0|0:0,0:0:0:0:
252,128,81830,1,10,0:0:0:0:
252,128,81966,1,10,0:0:0:0:
216,268,82103,6,0,L|224:344,1,75.0000028610231,10|0,0:0|0:0,0:0:0:0:
376,296,82375,2,0,L|384:220,1,75.0000028610231,10|0,0:0|0:0,0:0:0:0:
252,128,82648,6,0,L|260:204,1,75.0000028610231,10|0,0:0|0:0,0:0:0:0:
412,156,82920,2,0,L|420:80,1,75.0000028610231,10|0,0:0|0:0,0:0:0:0:
320,20,83194,6,0,L|272:24,1,37.5000014305115,10|0,0:0|0:0,0:0:0:0:
216,60,83330,2,0,L|168:64,1,37.5000014305115,10|0,0:0|0:0,0:0:0:0:
108,108,83466,1,10,0:0:0:0:
84,148,83535,1,0,0:0:0:0:
76,192,83603,1,0,0:0:0:0:
88,236,83671,1,0,0:0:0:0:
124,264,83739,5,10,0:0:0:0:
144,260,83807,1,0,0:0:0:0:
164,264,83875,1,10,0:0:0:0:
184,276,83944,1,0,0:0:0:0:
196,296,84012,2,0,P|212:320|236:336,3,50,10|0|0|0,0:0|0:0|0:0|0:0,0:0:0:0:
304,324,84285,6,0,P|320:300|344:284,3,50,10|0|10|0,0:0|0:0|0:0|0:0,0:0:0:0:
392,252,84557,1,10,0:0:0:0:
408,232,84625,1,0,0:0:0:0:
412,204,84694,1,0,0:0:0:0:
404,180,84762,1,0,0:0:0:0:
376,152,84830,5,10,0:0:0:0:
351,123,84898,1,0,0:0:0:0:
351,85,84966,1,10,0:0:0:0:
376,57,85035,1,0,0:0:0:0:
412,50,85103,1,10,0:0:0:0:
445,69,85171,1,0,0:0:0:0:
458,104,85239,1,0,0:0:0:0:
445,139,85307,1,0,0:0:0:0:
412,158,85375,6,2,L|388:160,6,25,10|2|2|2|2|2|2,0:0|0:0|0:0|0:0|0:0|0:0|0:0,0:0:0:0:
464,208,85648,2,2,L|466:232,6,25,10|2|2|2|2|2|2,0:0|0:0|0:0|0:0|0:0|0:0|0:0,0:0:0:0:
424,296,85921,2,2,L|400:298,6,25,10|2|2|2|2|2|2,0:0|0:0|0:0|0:0|0:0|0:0|0:0,0:0:0:0:
336,244,86194,2,2,L|334:220,6,25,10|2|2|2|2|2|2,0:0|0:0|0:0|0:0|0:0|0:0|0:0,0:0:0:0:
324,320,86466,5,6,0:0:0:0:
248,268,86603,2,0,P|208:272|160:256,2,75.0000028610231,2|2|2,0:0|0:0|0:0,0:0:0:0:
332,220,87012,2,0,P|372:216|420:232,2,75.0000028610231,2|2|2,0:0|0:0|0:0,0:0:0:0:
248,268,87421,1,2,0:0:0:0:
472,292,87557,5,10,0:0:0:0:
239,155,87830,2,0,L|247:267,1,112.500004291535,2|0,0:0|0:0,0:0:0:0:
200,324,88103,2,0,P|252:308|312:316,1,112.500004291535,10|0,0:0|0:0,0:0:0:0:
376,352,88375,6,0,P|428:356|372:296,1,187.5,6|0,0:0|0:0,0:0:0:0:
308,314,88648,2,0,B|300:250|300:250|312:190|312:190|304:126,1,187.5,2|0,0:0|0:0,0:0:0:0:
300,104,88921,5,2,0:0:0:0:
236,184,89057,1,2,0:0:0:0:
368,56,89194,2,0,P|312:24|220:88,1,187.5,10|0,0:0|0:0,0:0:0:0:
236,184,89466,2,0,B|212:164|176:164|176:164|148:176|112:164,1,125,2|2,0:0|0:0,0:0:0:0:
4,152,89739,6,0,B|24:296|24:296|24:248,1,187.5,6|0,0:0|0:0,0:0:0:0:
116,165,90012,1,2,0:0:0:0:
20,56,90148,1,2,0:0:0:0:
88,236,90285,6,0,P|132:240|188:188,1,125,10|0,0:0|0:0,0:0:0:0:
344,284,90557,2,0,P|283:285|244:331,1,125,2|2,0:0|0:0,0:0:0:0:
116,165,90847,6,2,L|108:140,8,15.625
187,188,91103,2,0,L|195:124,1,62.5,2|0,0:0|0:0,0:0:0:0:
251,268,91239,2,0,L|243:330,1,62.5,2|0,0:0|0:0,0:0:0:0:
148,360,91375,6,0,P|116:359|88:347,1,62.5,10|0,0:0|0:0,0:0:0:0:
276,188,91512,2,0,P|307:187|335:175,1,62.5,2|0,0:0|0:0,0:0:0:0:
174,247,91648,6,0,P|174:215|186:187,1,62.5,10|0,0:0|0:0,0:0:0:0:
336,296,91785,2,0,P|336:327|348:355,1,62.5,2|0,0:0|0:0,0:0:0:0:
491,188,91921,6,0,P|459:152|327:188,1,187.5,2|0,0:0|0:0,0:0:0:0:
336,296,92194,2,0,B|360:288|392:288|392:288|412:212,1,125,2|2,0:0|0:0,0:0:0:0:
186,187,92466,6,0,B|142:231|142:231|142:295|142:295|98:339,1,187.5,10|0,0:0|0:0,0:0:0:0:
176,376,92739,2,0,B|220:332|220:332|220:268|220:268|264:224,1,187.5,2|0,0:0|0:0,0:0:0:0:
324,168,93012,6,0,P|348:132|268:144,1,187.5,2|0,0:0|0:0,0:0:0:0:
416,156,93285,2,0,P|416:108|376:44,1,125,2|2,0:0|0:0,0:0:0:0:
324,168,93557,6,0,P|376:236|472:228,1,187.5,10|0,0:0|0:0,0:0:0:0:
488,208,93830,2,0,L|492:340,1,125,2|2,0:0|0:0,0:0:0:0:
380,368,94103,5,2,0:0:0:0:
324,168,94239,1,2,0:0:0:0:
296,308,94375,5,2,0:0:0:0:
368,47,94511,1,2,0:0:0:0:
208,160,94648,6,2,L|212:192,6,31.25,10|2|2|2|2|2|2,0:0|0:0|0:0|0:0|0:0|0:0|0:0,0:0:0:0:
316,230,94921,2,0,L|324:166,1,62.5,2|0,0:0|0:0,0:0:0:0:
200,288,95057,2,0,L|207:350,1,62.5,2|0,0:0|0:0,0:0:0:0:
348,312,95194,6,0,B|316:304|316:304|288:312,1,62.5,2|0,0:0|0:0,0:0:0:0:
136,232,95330,2,0,B|108:240|108:240|76:232,1,62.5,2|0,0:0|0:0,0:0:0:0:
16,144,95466,6,0,L|40:340,1,187.5,2|0,0:0|0:0,0:0:0:0:
152,364,95739,2,0,L|129:177,1,187.5,10|0,0:0|0:0,0:0:0:0:
176,80,96012,2,0,P|220:64|328:156,1,187.5,2|0,0:0|0:0,0:0:0:0:
40,92,96285,5,6,0:0:0:0:
273,229,96557,2,0,L|265:117,1,112.500004291535,2|0,0:0|0:0,0:0:0:0:
312,60,96830,2,0,P|260:76|200:68,1,112.500004291535,10|0,0:0|0:0,0:0:0:0:
136,32,97103,6,0,P|84:28|140:88,1,187.5,2|0,0:0|0:0,0:0:0:0:
204,70,97376,2,0,B|212:134|212:134|200:194|200:194|208:258,1,187.5,2|0,0:0|0:0,0:0:0:0:
212,280,97649,5,2,0:0:0:0:
276,200,97785,1,2,0:0:0:0:
144,328,97922,2,0,P|200:360|292:296,1,187.5,10|0,0:0|0:0,0:0:0:0:
276,200,98194,2,0,B|300:220|336:220|336:220|364:208|400:220,1,125,2|2,0:0|0:0,0:0:0:0:
508,232,98467,6,0,B|488:88|488:88|488:136,1,187.5,2|0,0:0|0:0,0:0:0:0:
396,219,98740,1,2,0:0:0:0:
492,328,98876,1,2,0:0:0:0:
424,148,99013,6,0,P|380:144|324:196,1,125,10|0,0:0|0:0,0:0:0:0:
168,100,99285,2,0,P|229:99|268:53,1,125,2|2,0:0|0:0,0:0:0:0:
396,219,99575,6,2,L|404:244,8,15.625
325,196,99831,2,0,L|317:260,1,62.5,2|0,0:0|0:0,0:0:0:0:
261,116,99967,2,0,L|269:54,1,62.5,2|0,0:0|0:0,0:0:0:0:
364,24,100103,6,0,P|396:25|424:37,1,62.5,10|0,0:0|0:0,0:0:0:0:
236,196,100240,2,0,P|205:197|177:209,1,62.5,2|0,0:0|0:0,0:0:0:0:
338,137,100376,6,0,P|338:169|326:197,1,62.5,10|0,0:0|0:0,0:0:0:0:
176,88,100513,2,0,P|176:57|164:29,1,62.5,2|0,0:0|0:0,0:0:0:0:
21,196,100649,6,0,P|53:232|185:196,1,187.5,2|0,0:0|0:0,0:0:0:0:
176,88,100922,2,0,B|152:96|120:96|120:96|100:172,1,125,2|2,0:0|0:0,0:0:0:0:
326,197,101194,6,0,B|370:153|370:153|370:89|370:89|414:45,1,187.5,10|0,0:0|0:0,0:0:0:0:
336,8,101467,2,0,B|292:52|292:52|292:116|292:116|248:160,1,187.5,2|0,0:0|0:0,0:0:0:0:
188,216,101740,6,0,P|164:252|244:240,1,187.5,2|0,0:0|0:0,0:0:0:0:
96,228,102013,2,0,P|96:276|136:340,1,125,2|2,0:0|0:0,0:0:0:0:
188,216,102285,6,0,P|136:148|40:156,1,187.5,10|0,0:0|0:0,0:0:0:0:
24,176,102558,2,0,L|20:44,1,125,2|2,0:0|0:0,0:0:0:0:
132,16,102831,5,2,0:0:0:0:
188,216,102967,1,2,0:0:0:0:
216,76,103103,5,2,0:0:0:0:
144,337,103239,1,2,0:0:0:0:
304,224,103376,6,2,L|300:192,6,31.25,10|2|2|2|2|2|2,0:0|0:0|0:0|0:0|0:0|0:0|0:0,0:0:0:0:
196,154,103649,2,0,L|188:218,1,62.5,2|0,0:0|0:0,0:0:0:0:
312,96,103785,2,0,L|305:34,1,62.5,2|0,0:0|0:0,0:0:0:0:
164,72,103922,6,0,B|196:80|196:80|224:72,1,62.5,2|0,0:0|0:0,0:0:0:0:
376,152,104058,2,0,B|404:144|404:144|436:152,1,62.5,2|0,0:0|0:0,0:0:0:0:
496,240,104194,6,0,L|472:44,1,187.5,2|0,0:0|0:0,0:0:0:0:
360,20,104467,2,0,L|383:207,1,187.5,10|0,0:0|0:0,0:0:0:0:
336,304,104740,2,0,P|292:320|184:228,1,187.5,2|0,0:0|0:0,0:0:0:0:
260,124,105012,5,4,0:0:0:0:
300,124,105148,1,0,0:0:0:0:
336,124,105285,2,0,B|388:180|388:180|416:128|416:128|472:128,1,187.5,8|0,0:0|0:0,0:0:0:0:
256,148,105557,5,4,0:0:0:0:
256,184,105693,1,0,0:0:0:0:
256,216,105830,2,0,B|200:268|200:268|252:296|252:296|252:352,1,187.5,8|0,0:0|0:0,0:0:0:0:
232,124,106103,5,4,0:0:0:0:
204,124,106239,1,0,0:0:0:0:
176,124,106376,2,0,B|124:180|124:180|96:128|96:128|40:128,1,187.5,8|0,0:0|0:0,0:0:0:0:
256,208,106648,5,4,0:0:0:0:
256,184,106784,1,0,0:0:0:0:
256,160,106921,2,0,B|200:108|200:108|252:80|252:80|252:24,1,187.5,8|0,0:0|0:0,0:0:0:0:
344,220,107194,5,12,0:0:0:0:
344,220,107330,1,0,0:0:0:0:
240,268,107466,1,12,0:0:0:0:
240,268,107603,1,0,0:0:0:0:
256,160,107739,5,12,0:0:0:0:
256,160,107875,1,0,0:0:0:0:
344,108,108012,1,12,0:0:0:0:
344,108,108148,1,0,0:0:0:0:
252,48,108285,5,12,0:0:0:0:
252,48,108421,1,0,0:0:0:0:
256,160,108557,1,12,0:0:0:0:
256,160,108694,1,0,0:0:0:0:
348,288,108830,6,2,L|396:288,5,41.6666666666667
224,248,109103,2,2,L|176:248,4,41.6666666666667
100,152,109375,6,0,P|176:96|280:192,1,225.000008583069,6|0,0:0|0:0,0:0:0:0:
272,268,109648,2,0,P|208:260|188:184,1,150.000005722046,2|2,0:0|0:0,0:0:0:0:
384,184,109921,6,0,B|388:372|388:372|368:340,1,225.000008583069,10|0,0:0|0:0,0:0:0:0:
272,268,110194,2,0,B|268:80|268:80|288:112,1,225.000008583069,2|0,0:0|0:0,0:0:0:0:
384,184,110466,6,2,L|456:180,5,37.5000014305115
384,272,110739,2,0,L|460:268,1,75.0000028610231,2|0,0:0|0:0,0:0:0:0:
432,96,110875,2,0,L|357:99,1,75.0000028610231,2|0,0:0|0:0,0:0:0:0:
188,188,111012,6,0,B|136:212|76:192|76:192|120:228|188:204,1,225.000008583069,10|0,0:0|0:0,0:0:0:0:
164,120,111285,2,0,P|112:128|80:112,1,75.0000028610231,2|0,0:0|0:0,0:0:0:0:
272,192,111421,2,0,P|307:182|343:192,1,75.0000028610231,2|0,0:0|0:0,0:0:0:0:
308,256,111557,5,2,0:0:0:0:
240,128,111694,1,2,0:0:0:0:
176,307,111830,5,2,0:0:0:0:
299,76,111967,1,2,0:0:0:0:
60,160,112103,6,2,L|64:200,5,37.5000014305115,10|2|2|2|2|2,0:0|0:0|0:0|0:0|0:0|0:0,0:0:0:0:
141,202,112375,2,0,L|136:128,1,75.0000028610231,2|0,0:0|0:0,0:0:0:0:
48,12,112512,2,0,L|53:86,1,75.0000028610231,2|0,0:0|0:0,0:0:0:0:
128,48,112648,6,0,P|168:52|196:72,1,75.0000028610231,2|0,0:0|0:0,0:0:0:0:
328,132,112785,2,0,P|368:128|396:108,1,75.0000028610231,2|0,0:0|0:0,0:0:0:0:
436,0,112921,6,0,L|448:232,1,225.000008583069,2|0,0:0|0:0,0:0:0:0:
424,320,113194,2,0,B|348:308|348:308|288:264|288:264|216:252,1,225.000008583069,10|0,0:0|0:0,0:0:0:0:
116,240,113466,2,0,P|72:236|144:172,1,225.000008583069,2|0,0:0|0:0,0:0:0:0:
188,224,113739,5,2,0:0:0:0:
288,128,113875,1,2,0:0:0:0:
284,96,113944,1,2,0:0:0:0:
280,64,114012,1,2,0:0:0:0:
439,160,114148,1,2,0:0:0:0:
443,192,114216,1,2,0:0:0:0:
447,224,114285,1,10,0:0:0:0:
332,332,114421,5,2,0:0:0:0:
292,312,114489,1,2,0:0:0:0:
248,312,114557,1,2,0:0:0:0:
104,204,114694,1,2,0:0:0:0:
144,224,114762,1,2,0:0:0:0:
188,224,114830,6,0,P|240:208|152:164,1,225.000008583069,2|0,0:0|0:0,0:0:0:0:
180,296,115103,2,0,P|220:296|264:280,1,75.0000028610231,2|0,0:0|0:0,0:0:0:0:
220,56,115239,2,0,P|180:56|136:72,1,75.0000028610231,2|0,0:0|0:0,0:0:0:0:
24,104,115375,6,0,B|16:180|16:180|48:248|48:248|40:320,1,225.000008583069,10|0,0:0|0:0,0:0:0:0:
116,332,115648,1,2,0:0:0:0:
104,188,115785,1,2,0:0:0:0:
39,320,115921,6,0,B|116:332|116:332|148:296|196:296|224:320|240:348,1,225.000008583069,2|0,0:0|0:0,0:0:0:0:
172,380,116194,1,2,0:0:0:0:
104,188,116330,1,2,0:0:0:0:
348,192,116466,6,0,P|380:256|308:388,1,225.000008583069,10|0,0:0|0:0,0:0:0:0:
239,347,116739,2,0,P|206:243|270:155,1,225.000008583069,2|0,0:0|0:0,0:0:0:0:
340,112,117012,6,2,L|364:116,11,18.7500007152558
270,155,117285,2,0,L|274:195,1,37.5000014305115,2|2,0:0|0:0,0:0:0:0:
320,346,117421,2,0,L|316:386,1,37.5000014305115,2|2,0:0|0:0,0:0:0:0:
168,296,117557,6,0,L|208:292,1,37.5000014305115,10|0,0:0|0:0,0:0:0:0:
428,252,117694,2,0,L|388:248,1,37.5000014305115,2|0,0:0|0:0,0:0:0:0:
456,328,117830,6,0,P|488:312|496:304,1,37.5000014305115,2|0,0:0|0:0,0:0:0:0:
368,176,117966,2,0,P|336:192|328:200,1,37.5000014305115,2|0,0:0|0:0,0:0:0:0:
205,292,118103,6,0,P|168:296|128:292,3,75.0000028610231
56,240,118375,1,2,0:0:0:0:
40,196,118444,1,0,0:0:0:0:
52,152,118512,1,2,0:0:0:0:
92,128,118580,1,0,0:0:0:0:
136,124,118648,6,0,L|212:128,3,75.0000028610231,10|0|0|0,0:0|0:0|0:0|0:0,0:0:0:0:
276,192,118921,2,0,L|350:188,3,75.0000028610231,2|0|0|0,0:0|0:0|0:0|0:0,0:0:0:0:
424,132,119194,5,2,0:0:0:0:
428,176,119262,1,0,0:0:0:0:
432,220,119330,1,0,0:0:0:0:
436,264,119398,1,0,0:0:0:0:
440,308,119466,5,2,0:0:0:0:
420,296,119535,1,0,0:0:0:0:
396,292,119603,1,2,0:0:0:0:
376,296,119671,1,0,0:0:0:0:
356,308,119739,5,10,0:0:0:0:
388,276,119807,1,0,0:0:0:0:
432,272,119875,1,0,0:0:0:0:
472,296,119944,1,0,0:0:0:0:
488,336,120012,5,2,0:0:0:0:
432,316,120080,1,0,0:0:0:0:
388,276,120148,1,2,0:0:0:0:
376,216,120216,1,0,0:0:0:0:
396,160,120285,6,2,L|408:144,26,18.7500007152558,10|2|2|2|2|2|2|2|2|2|2|2|2|2|2|2|2|2|2|2|2|2|2|2|2|2|2,0:0|0:0|0:0|0:0|0:0|0:0|0:0|0:0|0:0|0:0|0:0|0:0|0:0|0:0|0:0|0:0|0:0|0:0|0:0|0:0|0:0|0:0|0:0|0:0|0:0|0:0|0:0,0:0:0:0:
300,196,120830,2,2,L|288:180,26,18.7500007152558,10|2|2|2|2|2|2|2|2|2|2|2|2|2|2|2|2|2|2|2|2|2|2|2|2|2|2,0:0|0:0|0:0|0:0|0:0|0:0|0:0|0:0|0:0|0:0|0:0|0:0|0:0|0:0|0:0|0:0|0:0|0:0|0:0|0:0|0:0|0:0|0:0|0:0|0:0|0:0|0:0,0:0:0:0:
200,168,121375,6,2,L|204:156,26,12.5,10|2|2|2|2|2|2|2|2|2|2|2|2|2|2|2|2|2|2|2|2|2|2|2|2|2|2,0:0|0:0|0:0|0:0|0:0|0:0|0:0|0:0|0:0|0:0|0:0|0:0|0:0|0:0|0:0|0:0|0:0|0:0|0:0|0:0|0:0|0:0|0:0|0:0|0:0|0:0|0:0,0:0:0:0:
124,180,121921,2,2,L|128:188,26,6.25
56,164,122466,5,6,0:0:0:0:
348,180,134739,5,10,0:0:0:0:
348,228,134875,1,2,0:0:0:0:
292,176,135012,1,10,0:0:0:0:
292,128,135148,1,2,0:0:0:0:
236,180,135285,1,10,0:0:0:0:
236,228,135421,1,2,0:0:0:0:
164,40,135557,6,0,B|164:144|164:144|208:144|208:144|208:40|208:40|296:40|296:40|296:108|264:144|264:144|300:176|300:236,1,525.000020027161,14|0,0:0|0:0,0:0:0:0:
408,144,136648,1,10,0:0:0:0:
408,144,136921,1,10,0:0:0:0:
280,240,137194,1,10,0:0:0:0:
280,240,137466,1,10,0:0:0:0:
140,240,137739,1,10,0:0:0:0:
140,240,138012,1,10,0:0:0:0:
352,248,138557,5,10,0:0:0:0:
168,88,138830,2,0,L|252:88,1,75.0000028610231,10|0,0:0|0:0,0:0:0:0:
308,140,139103,2,0,B|244:164|184:164|136:144|136:144|136:188|136:188|196:188|224:224|176:272|260:308,1,375.000014305115,10|0,0:0|0:0,0:0:0:0:
360,232,139921,5,10,0:0:0:0:
360,276,140057,1,2,0:0:0:0:
308,320,140194,1,10,0:0:0:0:
308,276,140330,1,2,0:0:0:0:
256,172,140466,2,0,L|194:223,1,75.0000028610231,10|2,0:0|0:0,0:0:0:0:
172,64,140739,2,0,B|196:128|196:188|176:236|176:236|220:236|220:236|220:176|256:148|304:196|340:112,1,375.000014305115,10|0,0:0|0:0,0:0:0:0:
316,320,141830,6,0,L|232:320,1,75.0000028610231,10|2,0:0|0:0,0:0:0:0:
188,268,142103,2,0,B|252:244|312:244|360:264|360:264|360:220|360:220|232:220|232:144|256:112|228:76|196:40|196:40|172:72|144:72,1,525.000020027161,10|0,0:0|0:0,0:0:0:0:
136,180,143194,1,10,0:0:0:0:
136,180,143466,1,10,0:0:0:0:
312,304,143739,1,10,0:0:0:0:
312,304,144012,1,10,0:0:0:0:
100,264,144285,1,10,0:0:0:0:
100,264,144557,2,0,B|124:220|124:220|92:188|92:116|60:84|60:84|84:44,1,225.000008583069,10|0,0:0|0:0,0:0:0:0:
416,140,145103,6,0,L|416:220,1,75.0000028610231,10|0,0:0|0:0,0:0:0:0:
336,320,145375,2,0,L|336:240,1,75.0000028610231,10|0,0:0|0:0,0:0:0:0:
336,168,145648,2,0,B|336:240|336:320|336:320|280:320|280:320|280:240|224:264|192:228|192:228|168:264,1,375.000014305115,10|0,0:0|0:0,0:0:0:0:
80,256,146466,1,10,0:0:0:0:
44,256,146603,1,2,0:0:0:0:
84,200,146739,5,10,0:0:0:0:
124,200,146875,1,2,0:0:0:0:
84,144,147012,1,10,0:0:0:0:
40,144,147148,1,2,0:0:0:0:
120,116,147285,2,0,B|136:156|120:180|120:180|144:264|144:264|64:264,1,225.000008583069,10|0,0:0|0:0,0:0:0:0:
100,312,147830,5,10,0:0:0:0:
197,328,147966,1,2,0:0:0:0:
260,252,148103,1,10,0:0:0:0:
352,184,148239,1,2,0:0:0:0:
152,252,148375,1,10,0:0:0:0:
100,312,148512,1,2,0:0:0:0:
100,312,148648,6,0,B|116:272|140:244|184:232|228:240|272:256|272:256|320:280|360:280|400:228|396:196|368:160|328:148|284:160|264:192|264:236|272:256|272:256|296:296|296:336|268:364|208:372|196:324,1,700,14|0,0:0|0:0,0:0:0:0:
100,196,149739,2,0,B|148:164|212:168|212:168|168:168|132:144,1,200,10|10,0:0|0:0,0:0:0:0:
100,312,150285,5,10,0:0:0:0:
197,328,150557,1,10,0:0:0:0:
280,264,150830,1,10,0:0:0:0:
2,226,151103,2,0,B|96:287|192:207|192:207|280:128|368:200,1,400,10|10,0:0|0:0,0:0:0:0:
342,289,151921,6,0,P|338:245|366:198,1,100,10|0,0:0|0:0,0:0:0:0:
428,304,152194,2,0,B|416:356|380:372|340:384|296:376|264:328|264:328|256:284|256:284|272:244|260:208|260:208|212:236|160:208|144:168|140:148|200:104|224:148,1,550,10|0,0:0|0:0,0:0:0:0:
260,208,153012,5,10,0:0:0:0:
180,284,153148,1,2,0:0:0:0:
84,232,153285,1,10,0:0:0:0:
20,324,153421,1,2,0:0:0:0:
84,232,153557,6,0,L|64:132,1,100,10|0,0:0|0:0,0:0:0:0:
108,64,153830,2,0,B|152:40|208:68|224:104|224:148|224:148|240:104|288:60|372:72|416:100|420:152|392:192|356:204|312:172,1,500,10|0,0:0|0:0,0:0:0:0:
264,24,154921,2,0,P|308:16|368:24,1,100,10|2,0:0|0:0,0:0:0:0:
428,112,155194,6,0,B|456:156|464:196|460:240|448:268|424:304|372:324|372:324|360:288|368:252|368:252|392:228|396:200|388:172|376:128|320:108|320:108|272:100|246:128|246:128|319:154|322:204,1,700,10|0,0:0|0:0,0:0:0:0:
240,208,156285,2,0,P|196:192|168:148,1,100,10|0,0:0|0:0,0:0:0:0:
116,52,156557,2,0,P|90:93|44:111,1,100,10|0,0:0|0:0,0:0:0:0:
40,32,156830,5,10,0:0:0:0:
248,128,157103,1,10,0:0:0:0:
52,224,157375,1,10,0:0:0:0:
196,52,157648,2,0,P|240:36|200:208,1,400,10|10,0:0|0:0,0:0:0:0:
107,175,158466,6,0,P|156:184|199:207,1,100,10|0,0:0|0:0,0:0:0:0:
332,320,158739,2,0,B|372:356|436:352|468:320|476:284|468:256|408:240|356:240|328:284|324:300|324:300|312:348|276:364|244:372|204:360|176:332|172:296,1,500,10|0,0:0|0:0,0:0:0:0:
248,284,159557,5,10,0:0:0:0:
320,200,159694,1,2,0:0:0:0:
428,188,159830,1,10,0:0:0:0:
512,244,159966,1,2,0:0:0:0:
320,200,160103,6,0,L|340:100,1,100,10|2,0:0|0:0,0:0:0:0:
496,248,160375,2,0,B|452:292|472:352|472:352|460:324|424:296|376:300|352:320|336:340|336:340|328:264|244:264,1,400,10|10,0:0|0:0,0:0:0:0:
256,344,161057,5,2,0:0:0:0:
400,384,161194,1,10,0:0:0:0:
196,204,161466,2,0,P|172:240|176:296,1,100,10|0,0:0|0:0,0:0:0:0:
304,200,161739,6,0,B|292:140|240:100|160:96|104:152|104:152|104:88|176:72|208:72|240:72|264:84|288:104|304:124|320:144|344:184|344:196|344:196|332:124|384:80,1,700,14|0,0:0|0:0,0:0:0:0:
440,164,162830,6,0,P|444:220|424:260,1,100,10|0,0:0|0:0,0:0:0:0:
288,272,163103,2,0,P|305:225|344:194,1,100,10|0,0:0|0:0,0:0:0:0:
348,344,163375,2,0,P|302:363|253:358,1,100,10|0,0:0|0:0,0:0:0:0:
209,219,163648,6,0,P|257:235|289:274,1,100,10|0,0:0|0:0,0:0:0:0:
132,280,163921,2,0,P|109:234|114:185,1,100,10|0,0:0|0:0,0:0:0:0:
184,96,164194,6,0,P|224:72|368:120,2,200,10|10|10,0:0|0:0|0:0,0:0:0:0:
420,184,165012,5,10,0:0:0:0:
444,80,165148,1,2,0:0:0:0:
264,184,165285,6,0,B|264:244|280:284|304:304|340:316|396:320|424:304|432:264|416:224|380:204|320:216|292:260|292:260|276:292|236:328|216:332|188:332|160:332|132:316|108:284|116:228|136:204|176:188,1,700,10|0,0:0|0:0,0:0:0:0:
196,256,166375,2,0,P|144:272|80:252,1,100,10|0,0:0|0:0,0:0:0:0:
108,156,166648,6,0,B|88:107|89:74|101:54|101:54|123:29|136:-6|114:-30|85:-31|60:-13|59:15|94:60|94:60|118:75|137:87|181:81|201:81|218:64|229:41|235:15|235:15|295:6|328:43|328:43|311:166|176:187,1,800,10|10,0:0|0:0,0:0:0:0:
44,220,168012,2,0,P|84:244|136:244,1,100,10|0,0:0|0:0,0:0:0:0:
260,212,168285,6,0,B|296:172|348:164|396:184|412:216|404:260|380:288|324:292|268:284|260:212|260:212|256:176|260:132|260:132|272:124|308:108|320:76|312:48|264:20|232:40|220:68|220:108|260:132|260:132|304:104|376:120,1,750,10|0,0:0|0:0,0:0:0:0:
424,144,169375,6,0,P|452:180|464:232,1,100,10|0,0:0|0:0,0:0:0:0:
420,340,169648,2,0,P|392:304|380:252,1,100,10|0,0:0|0:0,0:0:0:0:
256,144,169921,2,0,P|228:180|216:232,1,100,10|0,0:0|0:0,0:0:0:0:
260,340,170194,2,0,P|288:304|300:252,1,100,10|0,0:0|0:0,0:0:0:0:
296,76,170466,6,0,P|236:68|200:88,1,100,10|0,0:0|0:0,0:0:0:0:
296,156,170739,2,0,P|356:164|392:144,1,100,10|0,0:0|0:0,0:0:0:0:
300,251,171012,2,0,P|251:240|206:260,1,100,10|0,0:0|0:0,0:0:0:0:
260,340,171285,2,0,P|320:348|356:328,1,100,10|0,0:0|0:0,0:0:0:0:
392,252,171557,5,10,0:0:0:0:
256,164,171694,1,2,0:0:0:0:
256,164,171762,1,2,0:0:0:0:
256,164,171830,2,0,B|204:152|136:168|88:204|88:204|60:180|52:136|68:116|136:76|88:24|53:11|53:11|12:32|4:92|68:116|68:116|104:80|144:68|200:60|244:60|284:60|320:80,1,800,10|8,0:0|0:0,0:0:0:0:
248,252,173194,5,10,0:0:0:0:
256,164,173330,1,2,0:0:0:0:
348,248,173466,2,0,L|340:352,1,100,10|0,0:0|0:0,0:0:0:0:
144,352,173739,2,0,L|151:252,1,100,10|0,0:0|0:0,0:0:0:0:
263,64,174012,6,0,L|255:168,1,100,10|0,0:0|0:0,0:0:0:0:
76,176,174285,2,0,L|83:76,1,100,10|0,0:0|0:0,0:0:0:0:
200,24,174557,2,0,P|236:-4|328:24,1,150,10|0,0:0|0:0,0:0:0:0:
312,168,174830,5,6,0:0:0:0:
312,168,175032,1,2,0:0:0:0:
312,168,175235,2,2,B|276:200|244:196|244:196|248:224,1,100,10|2,0:0|0:0,0:0:0:0:
312,244,175640,2,2,B|348:212|380:216|380:216|376:192,1,100,10|2,0:0|0:0,0:0:0:0:
160,100,176041,5,2,0:0:0:0:
316,104,176242,1,2,0:0:0:0:
160,100,176443,2,2,B|136:152|136:152|160:168|160:168|160:200,1,100,10|2,0:0|0:0,0:0:0:0:
316,104,176841,2,2,B|340:156|340:156|316:172|316:172|316:204,1,100,10|2,0:0|0:0,0:0:0:0:
156,320,177239,2,2,B|156:306|156:306|132:290|132:290|156:238,1,100,10|2,0:0|0:0,0:0:0:0:
320,320,177633,2,2,B|320:306|320:306|344:290|344:290|320:238,1,100,10|2,0:0|0:0,0:0:0:0:
192,116,178028,5,6,0:0:0:0:
313,229,178227,1,2,0:0:0:0:
192,116,178426,2,2,B|228:116|228:116|224:148|264:184,1,100,10|2,0:0|0:0,0:0:0:0:
313,229,178824,2,2,B|277:229|277:229|281:197|241:161,1,100,10|2,0:0|0:0,0:0:0:0:
152,316,179225,5,2,0:0:0:0:
380,316,179426,1,2,0:0:0:0:
152,316,179627,2,2,B|124:276|80:288|80:288|64:256,1,100,10|2,0:0|0:0,0:0:0:0:
380,316,180032,2,2,B|408:276|452:288|452:288|468:256,1,100,10|2,0:0|0:0,0:0:0:0:
152,316,180437,2,2,B|124:276|80:288|80:288|64:256,1,100,10|2,0:0|0:0,0:0:0:0:
380,316,180846,2,2,B|408:276|452:288|452:288|468:256,1,100,10|2,0:0|0:0,0:0:0:0:
144,120,181255,5,2,0:0:0:0:
144,120,181351,1,2,0:0:0:0:
144,120,181448,2,2,L|144:224,1,100,10|2,0:0|0:0,0:0:0:0:
324,284,181642,5,2,0:0:0:0:
324,284,181738,1,2,0:0:0:0:
324,284,181835,2,2,L|324:180,1,100,10|2,0:0|0:0,0:0:0:0:
360,88,182029,5,2,0:0:0:0:
360,88,182129,1,2,0:0:0:0:
360,88,182229,2,2,L|256:88,1,100,10|2,0:0|0:0,0:0:0:0:
156,232,182429,5,2,0:0:0:0:
156,232,182529,1,2,0:0:0:0:
156,232,182629,2,2,L|256:232,1,100,10|2,0:0|0:0,0:0:0:0:
404,112,182829,5,2,0:0:0:0:
404,112,182929,1,2,0:0:0:0:
404,112,183029,2,2,L|332:184,1,100,10|2,0:0|0:0,0:0:0:0:
152,320,183229,5,2,0:0:0:0:
152,320,183329,1,2,0:0:0:0:
152,320,183429,2,2,L|224:248,1,100,10|2,0:0|0:0,0:0:0:0:
356,192,183629,5,2,0:0:0:0:
356,192,183729,1,2,0:0:0:0:
356,192,183829,2,2,L|248:192,1,100,10|2,0:0|0:0,0:0:0:0:
156,192,184029,5,2,0:0:0:0:
156,192,184129,1,2,0:0:0:0:
156,192,184229,2,2,L|256:192,1,100,10|2,0:0|0:0,0:0:0:0:
260,216,184429,6,2,L|260:264,32,37.5000014305115,10|2|2|2|10|2|2|2|10|2|2|2|10|2|2|2|10|2|2|2|10|2|2|2|10|2|2|2|10|2|2|2|2,0:0|0:0|0:0|0:0|0:0|0:0|0:0|0:0|0:0|0:0|0:0|0:0|0:0|0:0|0:0|0:0|0:0|0:0|0:0|0:0|0:0|0:0|0:0|0:0|0:0|0:0|0:0|0:0|0:0|0:0|0:0|0:0|0:0,0:0:0:0:
426,116,187629,6,2,B|340:116|340:116|296:160|296:160|256:116|256:116|164:116,1,300.000011444092,6|2,0:0|0:0,0:0:0:0:
426,132,187929,1,10,0:0:0:0:
426,132,188029,2,2,B|340:132|340:132|292:180,1,150.000005722046
164,132,188229,2,2,B|256:132|256:132|296:176|296:176|340:132|340:132|432:132,1,300.000011444092,10|2,0:0|0:0,0:0:0:0:
372,227,188529,5,2,0:0:0:0:
372,227,188629,2,2,B|316:227|316:227|272:263|272:263|240:227,1,150.000005722046,2|10,0:0|0:0,0:0:0:0:
268,352,188829,2,2,L|112:352,1,150.000005722046
32,312,189029,2,2,L|188:312,1,150.000005722046,10|2,0:0|0:0,0:0:0:0:
376,132,189229,5,2,0:0:0:0:
332,144,189329,1,2,0:0:0:0:
296,156,189429,2,2,L|260:168,4,37.5000014305115,2|2|2|2|10,0:0|0:0|0:0|0:0|0:0,0:0:0:0:
152,200,189629,2,2,L|152:356,1,150.000005722046
128,284,189829,2,2,L|128:134,1,150.000005722046,10|2,0:0|0:0,0:0:0:0:
344,216,190029,6,2,B|355:233|355:233|339:261|339:301|315:317|315:317|335:345,1,150.000005722046
184,344,190229,1,2,0:0:0:0:
184,344,190329,1,10,0:0:0:0:
184,344,190429,2,2,B|164:316|164:316|188:300|188:260|204:232|204:232|193:215,1,150.000005722046
335,345,190629,2,2,L|159:345,1,150.000005722046,10|2,0:0|0:0,0:0:0:0:
164,224,190829,6,2,B|268:224|268:224|292:204|292:204|312:224,1,150.000005722046
335,152,191029,1,2,0:0:0:0:
335,152,191129,1,10,0:0:0:0:
335,152,191229,2,2,B|287:108|287:108|203:108,1,150.000005722046
70,152,191429,2,2,B|118:108|118:108|202:108,1,150.000005722046,10|2,0:0|0:0,0:0:0:0:
152,288,191629,5,2,0:0:0:0:
158,293,191729,1,2,0:0:0:0:
158,293,191829,2,2,B|208:356|208:356|252:288,1,150.000005722046,2|10,0:0|0:0,0:0:0:0:
333,293,192029,2,2,B|283:356|283:356|239:288,1,150.000005722046
120,152,192229,2,2,L|264:224,1,150.000005722046,10|2,0:0|0:0,0:0:0:0:
256,112,192429,5,2,0:0:0:0:
256,132,192529,1,2,0:0:0:0:
256,148,192629,1,2,0:0:0:0:
312,204,192729,2,0,L|468:204,1,150.000005722046,8|0,0:0|0:0,0:0:0:0:
424,120,192929,1,2,0:0:0:0:
320,120,193029,2,0,L|168:120,1,150.000005722046,8|0,0:0|0:0,0:0:0:0:
108,232,193229,5,2,0:0:0:0:
168,232,193329,1,2,0:0:0:0:
228,234,193429,2,0,L|228:384,1,150.000005722046,0|8,0:0|0:0,0:0:0:0:
324,228,193629,5,2,0:0:0:0:
324,187,193729,1,2,0:0:0:0:
400,275,193829,2,0,L|400:125,1,150.000005722046,8|0,0:0|0:0,0:0:0:0:
180,22,194029,6,2,B|180:108|180:108|136:152|136:152|180:192|180:192|180:284,1,300.000011444092
288,304,194329,1,10,0:0:0:0:
180,22,194429,2,2,B|180:108|180:108|228:156,1,150.000005722046
180,284,194629,2,2,B|180:192|180:192|224:152|224:152|180:108|180:108|180:16,1,300.000011444092,10|2,0:0|0:0,0:0:0:0:
308,160,194929,5,2,0:0:0:0:
308,160,195029,1,2,0:0:0:0:
308,160,195129,1,10,0:0:0:0:
392,48,195229,2,2,B|392:148|392:148|444:196,1,150.000005722046
392,315,195429,2,2,B|392:215|392:215|444:167,1,150.000005722046,10|2,0:0|0:0,0:0:0:0:
288,152,195629,5,2,0:0:0:0:
256,160,195729,1,2,0:0:0:0:
228,168,195829,2,2,L|192:180,4,37.5000014305115,2|2|2|2|10,0:0|0:0|0:0|0:0|0:0,0:0:0:0:
120,248,196029,2,2,B|216:248|216:248|276:296,1,150.000005722046
396,248,196229,2,2,B|300:248|300:248|240:296,1,150.000005722046,10|2,0:0|0:0,0:0:0:0:
132,288,196429,6,2,B|112:260|112:260|136:244|136:204|152:176|152:176|136:152,1,150.000005722046
140,158,196629,1,2,0:0:0:0:
140,158,196729,1,10,0:0:0:0:
384,332,196829,2,2,L|234:332,1,150.000005722046
158,332,197029,2,2,L|308:332,1,150.000005722046,10|2,0:0|0:0,0:0:0:0:
352,244,197229,5,2,0:0:0:0:
352,244,197329,1,2,0:0:0:0:
124,208,197429,2,2,B|228:208|228:208|252:188|252:188|272:208,1,150.000005722046,2|10,0:0|0:0,0:0:0:0:
128,104,197629,1,2,0:0:0:0:
128,136,197729,1,2,0:0:0:0:
336,152,197829,2,2,B|288:108|288:108|204:108,1,150.000005722046,10|2,0:0|0:0,0:0:0:0:
128,168,198029,5,2,0:0:0:0:
128,200,198129,1,2,0:0:0:0:
128,228,198229,1,2,0:0:0:0:
128,256,198329,1,10,0:0:0:0:
202,200,198429,2,2,B|236:273|236:273|166:276,1,150.000005722046
132,200,198629,2,2,B|98:273|98:273|168:276,1,150.000005722046,10|2,0:0|0:0,0:0:0:0:
256,256,198829,5,6,0:0:0:0:
256,221,198929,1,2,0:0:0:0:
256,180,199029,1,6,0:0:0:0:
200,204,199129,2,0,L|44:204,1,150.000005722046,0|4,0:0|0:0,0:0:0:0:
100,120,199329,1,2,0:0:0:0:
200,120,199429,2,0,L|352:120,1,150.000005722046,4|0,0:0|0:0,0:0:0:0:
404,232,199629,5,6,0:0:0:0:
344,232,199729,1,2,0:0:0:0:
284,234,199829,2,0,L|284:384,1,150.000005722046,4|0,0:0|0:0,0:0:0:0:
172,211,200029,5,6,0:0:0:0:
172,170,200129,1,2,0:0:0:0:
100,254,200229,2,0,L|100:104,1,150.000005722046,4|0,0:0|0:0,0:0:0:0:
100,104,200429,6,2,B|140:64|140:64|172:104|220:104|256:136|256:136|296:108|368:108,1,300.000011444092,6|2,0:0|0:0,0:0:0:0:
240,200,200729,1,2,0:0:0:0:
272,244,200829,1,2,0:0:0:0:
296,196,200929,1,2,0:0:0:0:
240,200,201029,1,2,0:0:0:0:
272,244,201129,1,2,0:0:0:0:
296,196,201229,1,10,0:0:0:0:
240,200,201329,5,2,0:0:0:0:
228,248,201429,1,2,0:0:0:0:
200,200,201529,1,2,0:0:0:0:
240,200,201629,1,2,0:0:0:0:
316,332,202029,6,2,L|376:180,1,150.000005722046
264,200,202229,2,2,L|228:280,2,75.0000028610231
300,104,202429,1,6,0:0:0:0:
140,232,202529,5,2,0:0:0:0:
140,184,202629,1,2,0:0:0:0:
176,208,202729,1,2,0:0:0:0:
176,164,202829,1,10,0:0:0:0:
140,184,202929,1,2,0:0:0:0:
136,148,203029,2,2,B|104:80|104:80|132:8,1,150.000005722046
180,80,203229,1,2,0:0:0:0:
168,352,203629,6,2,B|198:306|198:306|157:276|196:236|152:196|184:144|184:144|146:80,1,300.000011444092,6|2,0:0|0:0,0:0:0:0:
232,72,203929,1,2,0:0:0:0:
280,72,204029,1,2,0:0:0:0:
320,72,204129,1,2,0:0:0:0:
352,128,204229,1,2,0:0:0:0:
304,128,204329,1,2,0:0:0:0:
260,128,204429,1,10,0:0:0:0:
236,188,204529,5,2,0:0:0:0:
264,220,204629,1,2,0:0:0:0:
288,248,204729,1,2,0:0:0:0:
240,252,204829,1,2,0:0:0:0:
216,220,204929,1,2,0:0:0:0:
188,192,205029,1,2,0:0:0:0:
176,236,205129,1,2,0:0:0:0:
256,240,205229,5,2,0:0:0:0:
256,204,205329,1,2,0:0:0:0:
256,168,205429,1,2,0:0:0:0:
200,180,205529,2,0,L|44:180,1,150.000005722046,0|4,0:0|0:0,0:0:0:0:
112,264,205729,1,2,0:0:0:0:
208,264,205829,2,0,L|360:264,1,150.000005722046
404,152,206029,5,10,0:0:0:0:
344,152,206129,1,2,0:0:0:0:
284,150,206229,2,0,L|284:0,1,150.000005722046,0|0,0:0|0:0,0:0:0:0:
172,160,206429,5,2,0:0:0:0:
172,201,206529,1,2,0:0:0:0:
100,229,206629,2,0,L|100:73,1,150.000005722046,0|0,0:0|0:0,0:0:0:0:
232,228,206829,6,2,B|188:236|188:272|188:272|156:288,1,100
92,256,207129,1,0,0:0:0:0:
100,188,207229,2,0,L|100:120,1,50,2|0,0:0|0:0,0:0:0:0:
152,60,207429,2,0,L|152:120,1,50,2|0,0:0|0:0,0:0:0:0:
204,188,207629,2,0,L|204:88,1,75.0000028610231,2|0,0:0|0:0,0:0:0:0:
256,60,207829,2,0,L|256:136,1,75.0000028610231,2|0,0:0|0:0,0:0:0:0:
304,188,208029,2,0,L|304:84,1,100,2|0,0:0|0:0,0:0:0:0:
356,60,208229,2,0,L|356:160,1,100,2|0,0:0|0:0,0:0:0:0:
404,188,208429,2,0,L|404:60,1,125,2|0,0:0|0:0,0:0:0:0:
456,60,208629,2,0,L|456:188,1,125,2|0,0:0|0:0,0:0:0:0:
412,196,208829,6,0,L|412:352,1,150.000005722046,2|0,0:0|0:0,0:0:0:0:
360,324,209029,2,0,L|360:168,1,150.000005722046,2|0,0:0|0:0,0:0:0:0:
308,196,209229,2,0,L|308:372,1,175.00000166893,2|0,0:0|0:0,0:0:0:0:
256,324,209429,2,0,L|256:140,1,175.00000166893,2|0,0:0|0:0,0:0:0:0:
208,144,209629,2,0,L|208:348,1,200,2|0,0:0|0:0,0:0:0:0:
156,324,209829,2,0,L|156:124,1,200,2|0,0:0|0:0,0:0:0:0:
252,161,210029,6,0,L|252:241,15,75.0000028610231,12|0|0|0|4|0|0|0|4|0|0|0|4|0|0|0,2:1|2:1|2:1|2:1|2:1|2:1|2:1|2:1|2:1|2:1|2:1|2:1|2:1|2:1|2:1|2:1,2:1:0:0:
344,300,210829,6,0,L|344:222,15,75.0000028610231,12|0|0|0|4|0|0|0|4|0|0|0|4|0|0|0,2:1|2:1|2:1|2:1|2:1|2:1|2:1|2:1|2:1|2:1|2:1|2:1|2:1|2:1|2:1|2:1,2:1:0:0:
160,216,211629,6,0,L|160:272,23,50.0000019073487,12|0|0|0|0|0|4|0|0|0|0|0|4|0|0|0|0|0|4|0|0|0|0|0,2:1|2:1|2:1|2:1|2:1|2:1|2:1|2:1|2:1|2:1|2:1|2:1|2:1|2:1|2:1|2:1|2:1|2:1|2:1|2:1|2:1|2:1|2:1|2:1,2:1:0:0:
224,192,212429,6,0,L|224:139,23,50.0000019073487,12|0|0|0|0|0|4|0|0|0|0|0|4|0|0|0|0|0|4|0|0|0|0|4,2:1|2:1|2:1|2:1|2:1|2:1|2:1|2:1|2:1|2:1|2:1|2:1|2:1|2:1|2:1|2:1|2:1|2:1|2:1|2:1|2:1|2:1|2:1|2:1,2:1:0:0:
164,264,213229,6,0,P|212:272|288:248,1,112.500004291535,6|0,0:0|0:0,0:0:0:0:
296,232,213429,6,0,L|300:152,1,75.0000028610231,2|2,0:0|0:0,0:0:0:0:
80,236,213629,2,0,L|83:310,1,75.0000028610231,2|2,0:0|0:0,0:0:0:0:
180,164,213829,2,0,L|183:89,1,75.0000028610231,2|2,0:0|0:0,0:0:0:0:
8,32,214029,6,0,L|16:184,1,150.000005722046,2|2,0:0|0:0,0:0:0:0:
80,236,214329,1,2,0:0:0:0:
108,156,214429,2,0,P|144:150|179:163,1,75.0000028610231,2|0,0:0|0:0,0:0:0:0:
80,236,214629,5,10,0:0:0:0:
80,236,214829,1,10,0:0:0:0:
40,56,215029,5,2,0:0:0:0:
72,48,215129,1,2,0:0:0:0:
104,44,215229,2,0,L|180:52,1,75.0000028610231,2|0,0:0|0:0,0:0:0:0:
264,112,215429,2,0,L|338:104,1,75.0000028610231,2|0,0:0|0:0,0:0:0:0:
432,40,215629,6,0,P|456:80|400:208,1,200,2|0,0:0|0:0,0:0:0:0:
340,220,215929,1,2,0:0:0:0:
284,204,216029,1,2,0:0:0:0:
260,148,216129,5,2,0:0:0:0:
264,196,216229,1,2,0:0:0:0:
244,232,216329,1,2,0:0:0:0:
220,248,216429,6,0,P|180:256|96:232,1,125,6|0,0:0|0:0,0:0:0:0:
64,168,216629,1,2,0:0:0:0:
56,92,216729,1,2,0:0:0:0:
232,123,216829,6,0,L|220:247,1,125,10|0,0:0|0:0,0:0:0:0:
88,359,217029,2,0,L|100:235,1,125,2|0,0:0|0:0,0:0:0:0:
232,123,217229,6,0,B|280:91|348:107|348:107|380:127|380:127|428:112|468:148,1,250,2|2,0:0|0:0,0:0:0:0:
408,200,217529,1,2,0:0:0:0:
328,196,217629,6,0,P|380:128|488:224,1,250,14|0,0:0|0:0,0:0:0:0:
408,200,217929,1,2,0:0:0:0:
408,248,218029,5,2,0:0:0:0:
476,284,218129,1,2,0:0:0:0:
490,206,218229,1,2,0:0:0:0:
457,138,218329,1,2,0:0:0:0:
382,128,218429,6,0,B|359:132|359:132|330:124|330:124|308:133|308:133|280:125|280:125|256:125|237:139|237:139|208:133|176:133|176:133|196:136|212:150,1,250,10|8,0:0|0:0,0:0:0:0:
160,204,218729,1,2,0:0:0:0:
104,200,218829,6,0,P|76:140|88:84,1,125,10|2,0:0|0:0,0:0:0:0:
244,216,219029,2,0,P|221:278|173:309,1,125,2|0,0:0|0:0,0:0:0:0:
176,136,219229,6,0,P|256:112|348:228,1,250,2|2,0:0|0:0,0:0:0:0:
324,300,219529,5,0,0:0:0:0:
296,320,219629,2,0,P|248:308|184:332,1,75.0000028610231
124,332,219829,1,2,0:0:0:0:
124,288,219929,1,2,0:0:0:0:
227,236,220029,6,0,L|223:312,1,75.0000028610231,2|0,0:0|0:0,0:0:0:0:
84,172,220229,2,0,L|87:97,1,75.0000028610231,2|0,0:0|0:0,0:0:0:0:
152,32,220429,6,0,P|196:16|336:72,1,150.000005722046,10|2,0:0|0:0,0:0:0:0:
316,104,220729,1,2,0:0:0:0:
295,34,220829,6,0,P|344:36|388:120,1,150.000005722046,2|0,0:0|0:0,0:0:0:0:
376,192,221129,1,2,0:0:0:0:
388,116,221229,6,0,P|432:136|448:160,1,75.0000028610231,2|0,0:0|0:0,0:0:0:0:
444,228,221429,2,0,P|420:256|385:268,1,75.0000028610231,2|0,0:0|0:0,0:0:0:0:
316,244,221629,6,0,P|296:204|300:168,1,75.0000028610231,2|0,0:0|0:0,0:0:0:0:
406,47,221829,2,0,P|406:84|387:116,1,75.0000028610231,2|0,0:0|0:0,0:0:0:0:
297,174,222029,6,0,P|233:146|104:268,1,250,10|0,0:0|0:0,0:0:0:0:
112,320,222329,1,2,0:0:0:0:
104,244,222429,1,2,0:0:0:0:
48,196,222529,5,2,0:0:0:0:
76,264,222629,1,2,0:0:0:0:
148,280,222729,1,2,0:0:0:0:
212,240,222829,6,0,L|160:100,1,150.000005722046,2|2,0:0|0:0,0:0:0:0:
88,64,223129,1,2,0:0:0:0:
159,99,223229,2,0,L|236:104,1,75.0000028610231,2|0,0:0|0:0,0:0:0:0:
296,152,223429,2,0,L|373:157,1,75.0000028610231,2|0,0:0|0:0,0:0:0:0:
472,112,223629,6,0,P|484:172|444:248,1,150.000005722046,10|0,0:0|0:0,0:0:0:0:
364,256,223929,1,0,0:0:0:0:
444,247,224029,6,0,P|432:307|472:383,1,150.000005722046,2|0,0:0|0:0,0:0:0:0:
512,304,224329,1,2,0:0:0:0:
444,247,224429,6,0,L|292:264,1,150.000005722046,10|0,0:0|0:0,0:0:0:0:
145,247,224829,2,0,L|297:264,1,150.000005722046,10|0,0:0|0:0,0:0:0:0:
308,114,225229,6,0,L|294:264,1,150.000005722046,10|0,0:0|0:0,0:0:0:0:
444,247,225629,2,0,L|430:97,1,150.000005722046,10|0,0:0|0:0,0:0:0:0:
134,122,226029,6,0,L|145:248,1,125,6|0,0:0|0:0,0:0:0:0:
204,296,226229,1,2,0:0:0:0:
212,224,226329,6,0,L|200:96,1,125,10|10,0:0|0:0,0:0:0:0:
64,108,226529,2,0,L|75:232,1,125,0|10,0:0|0:0,0:0:0:0:
124,296,226729,1,2,0:0:0:0:
204,296,226829,6,0,B|272:296|272:296|308:232|368:216|428:244,1,250,2|2,0:0|0:0,0:0:0:0:
367,320,227129,1,10,0:0:0:0:
232,224,227229,6,0,P|264:192|340:160,1,125,10|0,0:0|0:0,0:0:0:0:
472,384,227429,2,0,P|413:362|367:320,1,125,10|2,0:0|0:0,0:0:0:0:
336,160,227629,6,0,B|311:74|311:74|327:234,1,250,2|2,0:0|0:0,0:0:0:0:
336,308,227929,2,0,L|340:184,1,125,10|8,0:0|0:0,0:0:0:0:
168,236,228129,2,0,L|176:360,1,125,0|10,0:0|0:0,0:0:0:0:
248,360,228329,5,2,0:0:0:0:
252,328,228429,2,2,L|256:300,14,15.625
256,296,228629,6,0,L|252:232,1,62.5,2|0,0:0|0:0,0:0:0:0:
172,300,228729,2,0,L|176:364,1,62.5,10|0,0:0|0:0,0:0:0:0:
252,368,228829,5,10,0:0:0:0:
324,344,228929,1,2,0:0:0:0:
400,344,229029,1,10,0:0:0:0:
468,372,229129,1,2,0:0:0:0:
472,296,229229,6,0,B|440:292|420:272|420:272|308:292|272:168,1,250,2|2,0:0|0:0,0:0:0:0:
395,154,229529,2,0,P|323:178|275:178,1,125,10|8,0:0|0:0,0:0:0:0:
64,104,229729,2,0,P|126:106|184:127,1,125,0|10,0:0|0:0,0:0:0:0:
96,224,229929,1,2,0:0:0:0:
64,104,230029,6,0,P|124:64|296:96,1,250,2|2,0:0|0:0,0:0:0:0:
272,176,230329,1,10,0:0:0:0:
290,91,230429,6,0,P|342:123|360:184,1,125,8|0,0:0|0:0,0:0:0:0:
201,266,230629,2,0,P|219:207|271:175,1,125,10|0,0:0|0:0,0:0:0:0:
360,181,230829,5,2,0:0:0:0:
271,175,230929,1,2,0:0:0:0:
200,124,231029,1,2,0:0:0:0:
280,160,231129,1,10,0:0:0:0:
316,240,231229,6,2,L|320:284,7,41.6666666666667,10|2|2|2|2|2|10|2,0:0|0:0|0:0|0:0|0:0|0:0|0:0|0:0,0:0:0:0:
236,268,231529,1,2,0:0:0:0:
316,240,231629,6,0,L|440:248,1,125,2|2,0:0|0:0,0:0:0:0:
376,360,231829,2,0,P|360:304|388:240,1,125,2|8,0:0|0:0,0:0:0:0:
504,184,232029,6,0,P|532:244|512:304,1,125,10|0,0:0|0:0,0:0:0:0:
408,148,232229,2,0,P|392:88|420:34,1,125,10|0,0:0|0:0,0:0:0:0:
512,184,232429,6,0,P|456:236|304:188,1,250,0|2,0:0|0:0,0:0:0:0:
288,112,232729,1,10,0:0:0:0:
305,189,232829,6,0,P|284:236|180:272,1,125,10|0,0:0|0:0,0:0:0:0:
300,16,233029,2,0,P|354:44|383:99,1,125,10|2,0:0|0:0,0:0:0:0:
288,112,233229,6,0,P|200:120|140:256,1,250,2|2,0:0|0:0,0:0:0:0:
168,328,233529,1,10,0:0:0:0:
221,272,233629,6,0,P|261:264|424:372,1,250,8|10,0:0|0:0,0:0:0:0:
288,376,233929,1,2,0:0:0:0:
221,272,234029,6,0,L|233:136,1,125,2|0,0:0|0:0,0:0:0:0:
360,48,234229,1,2,0:0:0:0:
368,132,234329,1,10,0:0:0:0:
292,92,234429,6,0,P|232:68|172:92,1,125,10|0,0:0|0:0,0:0:0:0:
316,192,234629,2,0,P|374:211|430:187,1,125,10|2,0:0|0:0,0:0:0:0:
372,120,234829,6,2,L|376:92,14,15.625
316,192,235029,2,0,L|324:256,1,62.5,2|0,0:0|0:0,0:0:0:0:
438,249,235129,2,0,L|430:186,1,62.5,10|0,0:0|0:0,0:0:0:0:
296,100,235229,6,0,L|232:108,1,62.5,10|0,0:0|0:0,0:0:0:0:
253,199,235329,2,0,L|315:191,1,62.5,2|0,0:0|0:0,0:0:0:0:
372,120,235429,6,0,L|364:56,1,62.5,10|0,0:0|0:0,0:0:0:0:
172,152,235529,2,0,L|180:216,1,62.5,2|0,0:0|0:0,0:0:0:0:
232,272,235629,5,0,0:0:0:0:
320,264,235729,1,0,0:0:0:0:
296,348,235829,6,0,L|172:360,1,125,2|10,0:0|0:0,0:0:0:0:
320,264,236029,2,0,L|444:276,1,125,10|0,0:0|0:0,0:0:0:0:
253,199,236229,2,0,L|129:211,1,125,10|2,0:0|0:0,0:0:0:0:
16,196,236429,6,0,B|-4:112|32:16|32:16|40:128,1,250,2|2,0:0|0:0,0:0:0:0:
84,144,236729,1,10,0:0:0:0:
184,204,236829,6,0,B|164:253|168:328|168:328|160:253|128:209,1,250,10|10,0:0|0:0,0:0:0:0:
208,132,237129,1,2,0:0:0:0:
256,240,237229,6,2,P|250:263|248:287,12,31.25,14|2|2|2|2|2|2|2|2|2|2|2|2,0:0|0:0|0:0|0:0|0:0|0:0|0:0|0:0|0:0|0:0|0:0|0:0|0:0,0:0:0:0:
320,312,237629,2,2,P|325:335|327:359,12,31.25,14|2|2|2|2|2|2|2|2|2|2|2|2,0:0|0:0|0:0|0:0|0:0|0:0|0:0|0:0|0:0|0:0|0:0|0:0|0:0,0:0:0:0:
385,258,238029,6,2,P|387:243|392:228,12,31.25,14|2|2|2|2|2|2|2|2|2|2|2|2,0:0|0:0|0:0|0:0|0:0|0:0|0:0|0:0|0:0|0:0|0:0|0:0|0:0,0:0:0:0:
456,300,238429,2,2,P|461:323|463:347,12,31.25,14|2|2|2|2|2|2|2|2|2|2|2|2,0:0|0:0|0:0|0:0|0:0|0:0|0:0|0:0|0:0|0:0|0:0|0:0|0:0,0:0:0:0:
452,216,238829,5,4,0:0:0:0:
356,304,239029,1,0,0:0:0:0:
264,216,239229,1,0,0:0:0:0:
172,304,239429,1,0,0:0:0:0:
156,116,239629,2,0,B|196:116|220:76|220:76|296:76,1,150.000005722046,8|0,0:0|0:0,0:0:0:0:
284,144,240029,2,0,B|248:144|220:184|220:184|146:184,1,150.000005722046
124,304,240429,5,0,0:0:0:0:
312,292,240629,1,0,0:0:0:0:
124,304,240829,1,0,0:0:0:0:
312,292,241029,1,0,0:0:0:0:
124,304,241229,2,0,B|124:228|124:228|168:212|184:172,1,150.000005722046,8|0,0:0|0:0,0:0:0:0:
392,80,241629,5,2,0:0:0:0:
452,152,242029,2,2,B|400:172|356:152|356:152|364:208|356:248|356:248|288:180|288:180|252:200|220:248|220:248|176:232|160:196|160:196|208:116|208:116|168:96|124:116,1,640,6|10,0:0|0:0,0:0:0:0:
124,288,243229,5,6,0:0:0:0:
140,96,243629,2,2,B|208:104|284:96|284:96|284:144|284:144|208:132|140:144|140:144|140:260|140:260|168:296|136:332|136:332|200:320|252:332|252:332,1,640,6|10,0:0|0:0,0:0:0:0:
60,292,244829,6,2,L|60:140,1,150,6|2,0:0|0:0,0:0:0:0:
128,40,245229,2,2,B|127:66|127:66|176:92|176:92|128:120|128:120|128:288,1,300.000011444092,6|2,0:0|0:0,0:0:0:0:
360,92,245629,5,0,0:0:0:0:
268,180,245829,1,0,0:0:0:0:
176,92,246029,1,8,0:0:0:0:
168,276,246229,2,0,B|208:276|232:316|232:316|308:316,1,150.000005722046
294,248,246629,2,0,B|260:248|230:208|230:208|156:208,1,150.000005722046
112,116,247029,5,0,0:0:0:0:
252,236,247229,2,0,B|232:196|252:160|252:160|188:112,1,150.000005722046
112,116,247629,1,8,0:0:0:0:
164,184,247829,2,0,B|188:224|164:260|164:260|228:308,1,150.000005722046,0|2,0:0|0:0,0:0:0:0:
296,272,248229,5,2,0:0:0:0:
404,184,248429,2,2,B|328:176|264:184|264:184|232:216|232:264|240:308|240:308|264:324|296:336|296:336|328:324|352:308|352:308|356:268|352:228|352:228|320:212|292:204|292:204|260:216|240:232|240:232|180:276|180:276,1,640,6|10,0:0|0:0,0:0:0:0:
152,80,249629,5,6,0:0:0:0:
152,80,250029,2,2,B|192:92|228:80|228:80|268:112|268:112|232:144|232:144|192:128|152:144|152:144|160:188|152:228|152:228|188:220|232:228|232:228|200:268|156:296|156:296|200:288|232:296|232:296|268:332|268:332,1,640,6|10,0:0|0:0,0:0:0:0:
152,80,251229,6,2,L|304:80,1,150,6|2,0:0|0:0,0:0:0:0:
152,192,251629,5,6,0:0:0:0:
256,192,251829,1,0,0:0:0:0:
256,296,252029,1,0,0:0:0:0:
152,342,252229,2,0,L|152:186,1,150.000005722046,2|10,0:0|0:0,0:0:0:0:
328,244,252629,5,0,0:0:0:0:
184,244,252829,1,0,0:0:0:0:
256,168,253029,1,2,0:0:0:0:
256,300,253229,6,0,L|256:380,1,75.0000028610231,2|0,0:0|0:0,0:0:0:0:
184,288,253429,2,0,L|184:213,1,75.0000028610231,2|0,0:0|0:0,0:0:0:0:
328,212,253629,2,0,L|328:287,1,75.0000028610231,2|0,0:0|0:0,0:0:0:0:
256,192,253829,6,0,L|256:112,2,75.0000028610231,2|2|10,0:0|0:0|0:0,0:0:0:0:
328,244,254229,1,0,0:0:0:0:
324,60,254429,1,0,0:0:0:0:
168,156,254629,1,2,0:0:0:0:
360,156,254829,6,0,P|424:156|512:244,1,150.000005722046,2|0,0:0|0:0,0:0:0:0:
396,268,255229,1,2,0:0:0:0:
360,156,255429,1,2,0:0:0:0:
484,348,255629,6,0,L|332:364,1,150.000005722046,8|2,0:0|0:0,0:0:0:0:
132,348,256029,1,2,0:0:0:0:
236,336,256229,1,2,0:0:0:0:
334,363,256429,5,2,0:0:0:0:
176,280,256629,1,2,0:0:0:0:
256,364,256829,2,0,L|256:208,1,150.000005722046,0|2,0:0|0:0,0:0:0:0:
256,108,257229,6,0,L|256:28,2,75.0000028610231,10|2|2,0:0|0:0|0:0,0:0:0:0:
256,214,257629,1,2,0:0:0:0:
256,214,257829,1,2,0:0:0:0:
256,214,258029,5,2,0:0:0:0:
152,220,258229,1,0,0:0:0:0:
256,116,258429,1,0,0:0:0:0:
152,70,258629,2,0,L|152:226,1,150.000005722046,2|10,0:0|0:0,0:0:0:0:
328,168,259029,5,0,0:0:0:0:
184,168,259229,1,0,0:0:0:0:
256,244,259429,1,2,0:0:0:0:
256,112,259629,6,0,L|256:32,1,75.0000028610231,2|0,0:0|0:0,0:0:0:0:
184,124,259829,2,0,L|184:199,1,75.0000028610231,2|0,0:0|0:0,0:0:0:0:
328,200,260029,2,0,L|328:125,1,75.0000028610231,2|0,0:0|0:0,0:0:0:0:
256,220,260229,6,0,L|256:300,2,75.0000028610231,2|2|10,0:0|0:0|0:0,0:0:0:0:
328,168,260629,1,0,0:0:0:0:
324,352,260829,1,0,0:0:0:0:
168,256,261029,1,2,0:0:0:0:
360,256,261229,6,0,P|424:256|512:148,1,150.000005722046,2|2,0:0|0:0,0:0:0:0:
500,156,261556,1,2,0:0:0:0:
492,104,261665,2,0,P|436:92|388:100,1,75.0000028610231,2|0,0:0|0:0,0:0:0:0:
368,76,261883,2,0,P|330:76|294:87,1,75.0000028610231,2|2,0:0|0:0,0:0:0:0:
256,116,262101,5,2,0:0:0:0:
252,168,262216,1,2,0:0:0:0:
248,220,262331,2,0,L|240:372,2,150.000005722046,2|2|2,0:0|0:0|0:0,0:0:0:0:
256,116,263061,6,0,P|300:104|416:148,1,150.000005722046,2|2,0:0|0:0,0:0:0:0:
428,176,263489,1,2,0:0:0:0:
480,168,263632,2,0,L|476:92,1,75.0000028610231,2|0,0:0|0:0,0:0:0:0:
320,212,263918,2,0,L|323:286,1,75.0000028610231,2|0,0:0|0:0,0:0:0:0:
328,328,264203,5,2,0:0:0:0:
280,304,264390,1,2,0:0:0:0:
228,308,264578,1,2,0:0:0:0:
180,332,264765,1,2,0:0:0:0:
156,376,264953,6,0,P|88:352|8:364,1,150.000005722046,2|2,0:0|0:0,0:0:0:0:
12,362,265827,6,0,B|12:284|32:244|72:224|120:224|120:224|152:224|208:212|232:184|240:132|224:88|164:68|112:88|88:160|120:224|120:224|136:264|168:288|208:288|208:288|268:264|304:220|336:148|296:52|216:20|216:20|240:4|312:8|352:28|352:28|380:68|416:120|412:208|384:288|360:328|312:364|228:398|168:368|168:368|260:382|336:324|368:264|384:212|388:160|384:115|360:60,1,2100,6|2,0:0|0:0,0:0:0:0:
