osu file format v14

[General]
AudioFilename: audio.mp3
AudioLeadIn: 0
PreviewTime: 195478
Countdown: 0
SampleSet: Soft
StackLeniency: 0.2
Mode: 0
LetterboxInBreaks: 0
WidescreenStoryboard: 0

[Editor]
Bookmarks: 869,15869,30869,45869,60869,75869,90869,105869,120869,135869,150869,165869,180869,195869,210869,225869,240869
DistanceSpacing: 1
BeatDivisor: 6
GridSize: 32
TimelineZoom: 3.379999

[Metadata]
Title:Seashore on the moon
TitleUnicode:Seashore on the moon
Artist:Camellia feat. Nanahira
ArtistUnicode:かめりあ feat. ななひら
Creator:Mir
Version:Moonlight
Source:東方永夜抄 ~ Imperishable Night.
Tags:house bass touhou 2hu project lcfc lowcombofc LMT kaguya houraisan 輝夜 竹取飛翔 Flight of the Bamboo Cutter Lunatic Princess ZUN Alstroemeria Records Pop Culture 6
BeatmapID:1505568
BeatmapSetID:712171

[Difficulty]
HPDrainRate:5
CircleSize:4.2
OverallDifficulty:8.5
ApproachRate:9
SliderMultiplier:2
SliderTickRate:1

[Events]
//Background and Video events
0,0,"seashore.jpg",0,0
//Break Periods
2,38490,44956
2,123881,134956
//Storyboard Layer 0 (Background)
//Storyboard Layer 1 (Fail)
//Storyboard Layer 2 (Pass)
//Storyboard Layer 3 (Foreground)
//Storyboard Sound Samples

[TimingPoints]
869,468.75,4,2,1,50,1,0
28056,-200,4,2,1,50,0,0
28994,-133.333333333333,4,2,2,50,0,0
30165,-50,4,2,1,50,0,0
45869,-133.333333333333,4,2,1,50,0,0
46806,-133.333333333333,4,2,1,5,0,0
46884,-133.333333333333,4,2,1,50,0,0
47040,-133.333333333333,4,2,1,5,0,0
47118,-133.333333333333,4,2,1,50,0,0
48212,-133.333333333333,4,2,1,5,0,0
48290,-133.333333333333,4,2,1,50,0,0
48447,-133.333333333333,4,2,1,5,0,0
48525,-133.333333333333,4,2,1,50,0,0
48681,-133.333333333333,4,2,1,5,0,0
48759,-133.333333333333,4,2,1,50,0,0
48994,-133.333333333333,4,2,1,5,0,0
49072,-133.333333333333,4,2,1,50,0,0
49540,-133.333333333333,4,2,1,5,0,0
49618,-133.333333333333,4,2,1,50,0,0
50556,-133.333333333333,4,2,1,5,0,0
50634,-133.333333333333,4,2,1,50,0,0
50790,-133.333333333333,4,2,1,5,0,0
50868,-133.333333333333,4,2,1,50,0,0
51962,-133.333333333333,4,2,1,5,0,0
52040,-133.333333333333,4,2,1,50,0,0
52197,-133.333333333333,4,2,1,5,0,0
52275,-133.333333333333,4,2,1,50,0,0
54306,-133.333333333333,4,2,1,5,0,0
54384,-133.333333333333,4,2,1,50,0,0
54540,-133.333333333333,4,2,1,5,0,0
54618,-133.333333333333,4,2,1,50,0,0
55400,-133.333333333333,4,2,1,5,0,0
55478,-133.333333333333,4,2,1,50,0,0
55712,-133.333333333333,4,2,1,5,0,0
55790,-133.333333333333,4,2,1,50,0,0
55947,-133.333333333333,4,2,1,5,0,0
56025,-133.333333333333,4,2,1,50,0,0
56181,-133.333333333333,4,2,1,5,0,0
56259,-133.333333333333,4,2,1,50,0,0
56494,-133.333333333333,4,2,1,5,0,0
56572,-133.333333333333,4,2,1,50,0,0
57040,-133.333333333333,4,2,1,5,0,0
57118,-133.333333333333,4,2,1,50,0,0
58056,-133.333333333333,4,2,1,5,0,0
58134,-133.333333333333,4,2,1,50,0,0
58290,-133.333333333333,4,2,1,5,0,0
58368,-133.333333333333,4,2,1,50,0,0
59462,-133.333333333333,4,2,1,5,0,0
59540,-133.333333333333,4,2,1,50,0,0
59697,-133.333333333333,4,2,1,5,0,0
59775,-133.333333333333,4,2,1,50,0,0
60322,-133.333333333333,4,2,1,5,0,0
60400,-133.333333333333,4,2,1,50,0,0
60869,-111.111111111111,4,2,1,50,0,0
63134,-111.111111111111,4,2,1,5,0,0
63212,-111.111111111111,4,2,1,50,0,0
63369,-111.111111111111,4,2,1,5,0,0
63447,-111.111111111111,4,2,1,50,0,0
63603,-111.111111111111,4,2,1,5,0,0
63681,-111.111111111111,4,2,1,50,0,0
66806,-111.111111111111,4,2,1,5,0,0
66884,-111.111111111111,4,2,1,50,0,0
67119,-111.111111111111,4,2,1,5,0,0
67197,-111.111111111111,4,2,1,50,0,0
67822,-111.111111111111,4,2,1,5,0,0
67900,-111.111111111111,4,2,1,50,0,0
70634,-111.111111111111,4,2,1,5,0,0
70712,-111.111111111111,4,2,1,50,0,0
70869,-111.111111111111,4,2,1,5,0,0
70947,-111.111111111111,4,2,1,50,0,0
71103,-111.111111111111,4,2,1,5,0,0
71181,-111.111111111111,4,2,1,50,0,0
74306,-111.111111111111,4,2,1,5,0,0
74384,-111.111111111111,4,2,1,50,0,0
74619,-111.111111111111,4,2,1,5,0,0
74697,-111.111111111111,4,2,1,50,0,0
75322,-111.111111111111,4,2,1,5,0,0
75400,-111.111111111111,4,2,1,50,0,0
75712,-111.111111111111,4,2,1,5,0,0
75790,-111.111111111111,4,2,1,50,0,0
88056,-200,4,2,1,50,0,0
89228,-200,4,2,2,50,0,0
90165,-50,4,2,1,50,0,0
90634,-100,4,2,1,50,0,0
90790,-100,4,2,1,5,0,0
90869,-50,4,2,1,90,0,0
92197,-50,4,2,1,5,0,0
92275,-50,4,2,1,90,0,0
92665,-50,4,2,1,5,0,0
92743,-50,4,2,1,90,0,0
93056,-50,4,2,1,5,0,0
93134,-33.3333333333333,4,2,1,90,0,0
93447,-33.3333333333333,4,2,1,5,0,0
93525,-33.3333333333333,4,2,1,90,0,0
93915,-50,4,2,1,90,0,0
94072,-50,4,2,1,5,0,0
94150,-50,4,2,1,90,0,0
95947,-50,4,2,1,5,0,0
96025,-50,4,2,1,90,0,0
96415,-50,4,2,1,5,0,0
96493,-50,4,2,1,90,0,0
96806,-50,4,2,1,5,0,0
96884,-33.3333333333333,4,2,1,90,0,0
97197,-33.3333333333333,4,2,1,5,0,0
97275,-33.3333333333333,4,2,1,90,0,0
97665,-100,4,2,1,90,0,0
97900,-50,4,2,1,90,0,0
98290,-50,4,2,1,5,0,0
98368,-50,4,2,1,90,0,0
99697,-50,4,2,1,5,0,0
99775,-50,4,2,1,90,0,0
100165,-50,4,2,1,5,0,0
100243,-50,4,2,1,90,0,0
100556,-50,4,2,1,5,0,0
100634,-33.3333333333333,4,2,1,90,0,0
100947,-33.3333333333333,4,2,1,5,0,0
101025,-33.3333333333333,4,2,1,90,0,0
101415,-50,4,2,1,90,0,0
101572,-50,4,2,1,5,0,0
101650,-50,4,2,1,90,0,0
103915,-50,4,2,1,5,0,0
103993,-50,4,2,1,90,0,0
104697,-50,4,2,1,5,0,0
104775,-50,4,2,1,90,0,0
104931,-50,4,2,1,5,0,0
105009,-50,4,2,1,90,0,0
105322,-100,4,2,1,90,0,0
105478,-100,4,2,1,5,0,0
105556,-100,4,2,1,90,0,0
105790,-100,4,2,1,5,0,0
105869,-50,4,2,1,90,0,0
108134,-33.3333333333333,4,2,1,90,0,0
108447,-33.3333333333333,4,2,1,5,0,0
108525,-33.3333333333333,4,2,1,90,0,0
108915,-50,4,2,1,90,0,0
111884,-33.3333333333333,4,2,1,90,0,0
112197,-33.3333333333333,4,2,1,5,0,0
112275,-33.3333333333333,4,2,1,90,0,0
112665,-50,4,2,1,90,0,0
113369,-50,4,2,1,90,0,1
114462,-33.3333333333333,4,2,1,90,0,0
114540,-33.3333333333333,4,2,1,5,0,0
114618,-33.3333333333333,4,2,1,90,0,0
115009,-50,4,2,1,90,0,0
115634,-33.3333333333333,4,2,1,90,0,0
115947,-33.3333333333333,4,2,1,5,0,0
116025,-33.3333333333333,4,2,1,90,0,0
116415,-50,4,2,1,90,0,0
119384,-33.3333333333333,4,2,1,90,0,0
119462,-33.3333333333333,4,2,1,5,0,0
119540,-33.3333333333333,4,2,1,90,0,0
119697,-33.3333333333333,4,2,1,5,0,0
119775,-33.3333333333333,4,2,1,90,0,0
119931,-33.3333333333333,4,2,1,5,0,0
120009,-33.3333333333333,4,2,1,90,0,0
123681,-33.3333333333333,4,2,1,5,0,0
135556,-133.333333333333,4,2,1,50,0,0
136806,-133.333333333333,4,2,1,5,0,0
136884,-133.333333333333,4,2,1,50,0,0
137040,-133.333333333333,4,2,1,5,0,0
137118,-133.333333333333,4,2,1,50,0,0
138212,-133.333333333333,4,2,1,5,0,0
138290,-133.333333333333,4,2,1,50,0,0
138447,-133.333333333333,4,2,1,5,0,0
138525,-133.333333333333,4,2,1,50,0,0
138681,-133.333333333333,4,2,1,5,0,0
138759,-133.333333333333,4,2,1,50,0,0
138994,-133.333333333333,4,2,1,5,0,0
139072,-133.333333333333,4,2,1,50,0,0
140556,-133.333333333333,4,2,1,5,0,0
140634,-133.333333333333,4,2,1,50,0,0
140790,-133.333333333333,4,2,1,5,0,0
140868,-133.333333333333,4,2,1,50,0,0
141962,-133.333333333333,4,2,1,5,0,0
142040,-133.333333333333,4,2,1,50,0,0
142197,-133.333333333333,4,2,1,5,0,0
142275,-133.333333333333,4,2,1,50,0,0
144306,-133.333333333333,4,2,1,5,0,0
144384,-133.333333333333,4,2,1,50,0,0
144540,-133.333333333333,4,2,1,5,0,0
144618,-133.333333333333,4,2,1,50,0,0
145712,-133.333333333333,4,2,1,5,0,0
145790,-133.333333333333,4,2,1,50,0,0
145947,-133.333333333333,4,2,1,5,0,0
146025,-133.333333333333,4,2,1,50,0,0
146181,-133.333333333333,4,2,1,5,0,0
146259,-133.333333333333,4,2,1,50,0,0
146494,-133.333333333333,4,2,1,5,0,0
146572,-133.333333333333,4,2,1,50,0,0
148056,-133.333333333333,4,2,1,5,0,0
148134,-133.333333333333,4,2,1,50,0,0
148290,-133.333333333333,4,2,1,5,0,0
148368,-133.333333333333,4,2,1,50,0,0
149462,-133.333333333333,4,2,1,5,0,0
149540,-133.333333333333,4,2,1,50,0,0
149697,-133.333333333333,4,2,1,5,0,0
149775,-133.333333333333,4,2,1,50,0,0
149931,-133.333333333333,4,2,1,5,0,0
150009,-133.333333333333,4,2,1,50,0,0
150869,-111.111111111111,4,2,1,50,0,0
153134,-111.111111111111,4,2,1,5,0,0
153212,-111.111111111111,4,2,1,50,0,0
157822,-111.111111111111,4,2,1,5,0,0
157900,-111.111111111111,4,2,1,50,0,0
160634,-111.111111111111,4,2,1,5,0,0
160712,-111.111111111111,4,2,1,50,0,0
160869,-111.111111111111,4,2,1,5,0,0
160947,-111.111111111111,4,2,1,50,0,0
161103,-111.111111111111,4,2,1,5,0,0
161181,-111.111111111111,4,2,1,50,0,0
178056,-200,4,2,1,50,0,0
179228,-200,4,2,2,50,0,0
180165,-50,4,2,1,90,0,0
180634,-100,4,2,1,90,0,0
180869,-50,4,2,1,90,0,0
182197,-50,4,2,1,5,0,0
182275,-50,4,2,1,90,0,0
182665,-50,4,2,1,5,0,0
182743,-50,4,2,1,90,0,0
183056,-50,4,2,1,5,0,0
183134,-33.3333333333333,4,2,1,90,0,0
183447,-33.3333333333333,4,2,1,5,0,0
183525,-33.3333333333333,4,2,1,90,0,0
183915,-50,4,2,1,90,0,0
184072,-50,4,2,1,5,0,0
184150,-50,4,2,1,90,0,0
185947,-50,4,2,1,5,0,0
186025,-50,4,2,1,90,0,0
186415,-50,4,2,1,5,0,0
186493,-50,4,2,1,90,0,0
186806,-50,4,2,1,5,0,0
186884,-33.3333333333333,4,2,1,90,0,0
187197,-33.3333333333333,4,2,1,5,0,0
187275,-33.3333333333333,4,2,1,90,0,0
187665,-100,4,2,1,90,0,0
187900,-50,4,2,1,90,0,0
188290,-50,4,2,1,5,0,0
188369,-50,4,2,1,90,0,0
189697,-50,4,2,1,5,0,0
189775,-50,4,2,1,90,0,0
190165,-50,4,2,1,5,0,0
190243,-50,4,2,1,90,0,0
190556,-50,4,2,1,5,0,0
190634,-33.3333333333333,4,2,1,90,0,0
190947,-33.3333333333333,4,2,1,5,0,0
191025,-33.3333333333333,4,2,1,90,0,0
191415,-50,4,2,1,90,0,0
191572,-50,4,2,1,5,0,0
191650,-50,4,2,1,90,0,0
193915,-50,4,2,1,5,0,0
193993,-50,4,2,1,90,0,0
194462,-50,4,2,1,5,0,0
194540,-50,4,2,1,90,0,0
194697,-50,4,2,1,5,0,0
194775,-50,4,2,1,90,0,0
194931,-50,4,2,1,5,0,0
195009,-50,4,2,1,90,0,0
195322,-100,4,2,1,90,0,0
195478,-100,4,2,1,5,0,0
195556,-100,4,2,1,90,0,0
195869,-50,4,2,1,90,0,0
198134,-33.3333333333333,4,2,1,90,0,0
198447,-33.3333333333333,4,2,1,5,0,0
198525,-33.3333333333333,4,2,1,90,0,0
198915,-50,4,2,1,90,0,0
201884,-33.3333333333333,4,2,1,90,0,0
202197,-33.3333333333333,4,2,1,5,0,0
202275,-33.3333333333333,4,2,1,90,0,0
202665,-50,4,2,1,90,0,0
203369,-50,4,2,1,90,0,1
204462,-33.3333333333333,4,2,1,90,0,0
204540,-33.3333333333333,4,2,1,5,0,0
204618,-33.3333333333333,4,2,1,90,0,0
205009,-50,4,2,1,90,0,0
205634,-33.3333333333333,4,2,1,90,0,0
205947,-33.3333333333333,4,2,1,5,0,0
206025,-33.3333333333333,4,2,1,90,0,0
206415,-50,4,2,1,90,0,0
207119,-50,4,2,1,90,0,1
208525,-40,4,2,1,90,0,1
209384,-33.3333333333333,4,2,1,90,0,1
209462,-33.3333333333333,4,2,1,5,0,1
209540,-33.3333333333333,4,2,1,90,0,1
209697,-33.3333333333333,4,2,1,5,0,1
209775,-33.3333333333333,4,2,1,90,0,1
209931,-33.3333333333333,4,2,1,5,0,1
210009,-33.3333333333333,4,2,1,90,0,1
210400,-33.3333333333333,4,2,1,90,0,0
214619,-100,4,2,1,50,0,0
225869,-100,4,2,2,50,0,0
238056,-200,4,2,2,50,0,0
240400,-50,4,2,1,90,0,0

[Colours]
Combo1 : 226,186,239
Combo2 : 191,252,255
Combo3 : 119,181,255
Combo4 : 250,156,170

[HitObjects]
121,128,14619,5,8,0:3:0:0:
138,146,14697,2,0,L|221:149,1,66.6666666666667,4|0,0:3|0:2,0:2:0:0:
360,86,14931,2,0,L|260:92,1,100,8|8,0:3|0:3,0:2:0:0:
280,183,15322,2,0,P|286:134|261:92,1,100,4|0,0:3|0:2,0:2:0:0:
250,80,15634,1,8,0:3:0:0:
204,148,15790,1,0,0:2:0:0:
192,169,15869,6,0,L|194:304,1,100,0|0,3:2|0:2,0:2:0:0:
100,329,16337,1,8,3:2:0:0:
213,361,16494,1,0,0:2:0:0:
213,361,16572,2,0,P|292:337|303:337,1,66.6666666666667,2|0,0:2|0:2,0:2:0:0:
298,335,16806,6,0,L|305:217,1,100,0|0,3:2|0:2,0:2:0:0:
192,169,17275,1,8,3:2:0:0:
328,154,17431,1,0,0:2:0:0:
328,154,17509,2,0,B|356:160|356:160|418:151,1,66.6666666666667,2|0,0:2|0:2,0:2:0:0:
438,150,17744,6,0,L|427:38,1,100,0|0,3:2|0:2,0:2:0:0:
300,8,18212,1,8,3:2:0:0:
191,88,18369,1,0,0:2:0:0:
191,88,18447,2,0,P|185:132|207:175,1,66.6666666666667,2|0,0:2|0:2,0:2:0:0:
196,167,18681,6,0,L|64:167,1,100,0|0,3:2|0:2,0:2:0:0:
17,91,19150,1,8,3:2:0:0:
28,282,19306,1,0,0:2:0:0:
28,282,19384,2,0,B|36:294|36:294|35:371,1,66.6666666666667,2|0,0:2|0:2,0:2:0:0:
49,350,19619,6,0,L|149:350,1,100,0|0,3:2|0:2,0:2:0:0:
134,251,20087,1,8,3:2:0:0:
262,276,20244,1,0,0:2:0:0:
262,276,20322,2,0,B|254:244|254:244|270:185,1,66.6666666666667,2|0,0:2|0:2,0:2:0:0:
268,195,20556,6,0,L|397:193,1,100,0|0,3:2|0:2,0:2:0:0:
460,191,21025,1,8,3:2:0:0:
229,122,21181,1,0,0:2:0:0:
229,122,21259,2,0,P|192:156|184:192,1,66.6666666666667,2|0,0:2|0:2,0:2:0:0:
185,193,21494,6,0,L|85:194,1,100,0|0,3:2|0:2,0:2:0:0:
26,135,21962,1,8,3:2:0:0:
229,122,22119,1,0,0:2:0:0:
229,122,22197,2,0,L|314:121,1,66.6666666666667,2|0,0:2|0:2,0:2:0:0:
342,122,22431,6,0,P|355:169|329:226,1,100,0|0,3:2|0:2,0:2:0:0:
304,283,22822,1,0,0:2:0:0:
315,295,22900,2,0,L|321:343,2,33.3333333333333,8|0|0,3:2|0:2|0:2,0:2:0:0:
234,241,23134,1,2,0:2:0:0:
231,265,23212,1,0,0:2:0:0:
228,289,23290,1,0,0:2:0:0:
225,313,23369,5,0,3:2:0:0:
240,145,23603,1,0,0:2:0:0:
143,216,23759,1,0,0:2:0:0:
147,231,23837,1,8,3:2:0:0:
238,242,23994,1,0,0:2:0:0:
238,242,24072,6,0,B|251:209|251:209|240:145,1,100,2|0,0:2|3:2,0:2:0:0:
135,16,24540,1,0,0:2:0:0:
92,153,24697,1,0,0:2:0:0:
90,170,24775,1,8,3:2:0:0:
53,257,24931,1,0,0:2:0:0:
53,257,25009,6,0,P|109:261|163:223,1,100,2|0,0:2|3:2,0:2:0:0:
8,112,25478,1,0,0:2:0:0:
135,16,25634,1,0,0:2:0:0:
148,24,25712,1,8,3:2:0:0:
242,111,25869,1,0,0:2:0:0:
242,111,25947,6,0,B|286:106|286:106|299:113|299:113|372:107,1,100,2|0,0:2|3:2,0:2:0:0:
240,30,26415,1,0,0:2:0:0:
271,198,26572,1,0,0:2:0:0:
273,214,26650,1,8,3:2:0:0:
386,286,26806,1,0,0:2:0:0:
386,286,26884,2,0,P|353:273|298:284,1,66.6666666666667,2|0,0:2|0:2,0:2:0:0:
202,265,27119,6,0,L|195:296,7,25,0|0|0|0|0|0|0|0,3:2|0:2|0:2|0:2|0:2|0:2|0:2|0:2,0:2:0:0:
159,198,27587,2,0,L|153:173,7,25,0|0|0|0|0|0|0|0,3:2|0:2|0:2|0:2|0:2|0:2|0:2|0:2,0:2:0:0:
114,268,28056,2,0,L|109:287,7,12.5,0|0|0|0|0|0|0|0,3:2|0:2|0:2|0:2|0:2|0:2|0:2|0:2,0:2:0:0:
66,201,28525,2,0,L|63:188,7,12.5,0|0|0|0|0|0|0|0,3:2|0:2|0:2|0:2|0:2|0:2|0:2|0:2,0:2:0:0:
114,268,28994,5,0,3:2:0:0:
144,115,29150,2,0,P|97:111|65:115,1,75.0000028610231,0|0,3:2|3:2,0:2:0:0:
52,118,29462,1,0,0:0:0:0:
24,23,29697,1,0,3:2:0:0:
225,37,29931,2,0,L|218:100,1,50.0000019073487,8|8,0:2|0:2,0:2:0:0:
223,98,30165,1,0,3:2:0:0:
482,201,30400,6,0,P|392:228|164:142,1,333.333333333333,8|0,0:2|0:2,0:2:0:0:
144,115,30869,5,4,0:2:0:0:
256,192,30947,12,0,38290,0:2:0:0:
196,170,45556,5,0,0:2:0:0:
193,157,45634,1,0,0:2:0:0:
135,267,45869,6,0,L|223:258,1,75.0000028610231,2|0,0:2|0:2,0:2:0:0:
354,205,46337,2,0,L|266:196,1,75.0000028610231,0|0,0:2|0:2,0:2:0:0:
205,111,46728,2,0,L|195:71,1,25.0000009536744,0|0,0:2|0:2,0:2:0:0:
317,60,46962,2,0,L|327:20,1,25.0000009536744,0|0,0:2|0:2,0:2:0:0:
317,60,47431,5,2,0:2:0:0:
319,72,47509,1,2,0:2:0:0:
480,93,47744,6,0,P|436:88|389:99,1,75.0000028610231,2|0,0:2|0:2,0:2:0:0:
347,155,48134,2,0,L|356:192,1,25.0000009536744,0|0,0:2|0:2,0:2:0:0:
450,212,48369,2,0,L|441:249,1,25.0000009536744,0|0,0:2|0:2,0:2:0:0:
361,312,48603,2,0,L|356:288,1,25.0000009536744,0|0,0:2|0:2,0:2:0:0:
466,334,48837,1,2,0:2:0:0:
464,346,48915,2,0,L|455:383,1,25.0000009536744,2|0,0:2|0:2,0:2:0:0:
356,288,49150,2,0,P|303:282|266:293,1,75.0000028610231,2|0,0:2|0:2,0:2:0:0:
213,345,49619,6,0,L|135:340,1,75.0000028610231,2|0,0:2|0:2,0:2:0:0:
19,270,50087,2,0,L|97:265,1,75.0000028610231,0|0,0:2|0:2,0:2:0:0:
161,209,50478,2,0,L|163:175,1,25.0000009536744,0|0,0:2|0:2,0:2:0:0:
94,97,50712,2,0,L|95:121,1,25.0000009536744,0|0,0:2|0:2,0:2:0:0:
94,97,51181,5,2,0:2:0:0:
99,85,51259,1,2,0:2:0:0:
162,184,51494,6,0,P|217:185|253:175,1,75.0000028610231,2|0,0:2|0:2,0:2:0:0:
302,109,51884,2,0,L|307:61,1,25.0000009536744,0|0,0:2|0:2,0:2:0:0:
397,57,52119,2,0,L|392:9,1,25.0000009536744,0|0,0:2|0:2,0:2:0:0:
464,122,52353,2,0,P|476:164|466:229,1,100.000003814697,0|0,0:2|0:2,0:2:0:0:
425,298,52822,1,0,0:2:0:0:
425,298,52900,6,0,L|431:335,2,25.0000009536744,2|0|0,0:2|0:2|0:2,0:2:0:0:
358,225,53134,2,0,L|362:200,2,25.0000009536744,2|0|0,0:2|0:2|0:2,0:2:0:0:
293,292,53369,6,0,P|237:295|202:283,1,75.0000028610231,2|0,0:2|0:2,0:2:0:0:
166,214,53837,2,0,P|129:220|92:215,1,75.0000028610231,0|0,0:2|0:2,0:2:0:0:
19,150,54228,2,0,L|13:116,1,25.0000009536744,0|0,0:2|0:2,0:2:0:0:
93,82,54462,2,0,L|99:48,1,25.0000009536744,0|0,0:2|0:2,0:2:0:0:
93,82,54931,5,2,0:2:0:0:
97,93,55009,1,2,0:2:0:0:
197,147,55244,6,0,L|268:142,1,50.0000019073487,2|2,0:2|0:2,0:2:0:0:
264,140,55478,1,0,0:0:0:0:
344,87,55634,2,0,L|351:51,1,25.0000009536744,0|0,0:2|0:2,0:2:0:0:
412,181,55869,2,0,L|405:145,1,25.0000009536744,0|0,0:2|0:2,0:2:0:0:
336,267,56103,2,0,L|340:242,1,25.0000009536744,0|0,0:2|0:2,0:2:0:0:
436,356,56337,1,2,0:2:0:0:
432,343,56415,2,0,L|427:318,1,25.0000009536744,2|0,0:2|0:2,0:2:0:0:
331,358,56650,2,0,B|291:361|291:361|241:347,1,75.0000028610231,2|0,0:2|0:2,0:2:0:0:
173,317,57119,6,0,P|155:282|166:229,1,75.0000028610231,2|0,0:2|0:2,0:2:0:0:
233,195,57587,2,0,P|251:160|240:107,1,75.0000028610231,0|0,0:2|0:2,0:2:0:0:
213,56,57978,2,0,L|169:52,1,25.0000009536744,0|0,0:2|0:2,0:2:0:0:
122,10,58212,2,0,L|97:12,1,25.0000009536744,0|0,0:2|0:2,0:2:0:0:
122,10,58681,5,2,0:2:0:0:
118,21,58759,1,2,0:2:0:0:
46,155,58994,6,0,B|38:114|38:114|47:83,1,75.0000028610231,2|0,0:2|0:2,0:2:0:0:
104,222,59384,2,0,L|95:254,1,25.0000009536744,0|0,0:2|0:2,0:2:0:0:
194,180,59619,2,0,L|203:212,1,25.0000009536744,0|0,0:2|0:2,0:2:0:0:
298,216,59853,1,0,0:2:0:0:
298,216,60165,2,0,L|287:285,1,50.0000019073487,0|0,0:2|0:2,0:2:0:0:
288,277,60400,5,0,0:2:0:0:
273,367,60556,1,0,0:2:0:0:
406,247,60869,5,0,0:2:0:0:
310,74,61103,1,2,0:2:0:0:
298,216,61337,1,2,0:2:0:0:
310,74,61572,1,2,0:2:0:0:
298,216,61806,2,0,L|182:214,1,89.9999972534181,2|0,0:2|0:2,0:2:0:0:
129,270,62197,1,0,0:0:0:0:
137,282,62275,2,0,P|153:328|134:387,1,89.9999972534181,2|2,0:2|0:2,0:2:0:0:
0,262,62665,1,0,0:2:0:0:
9,249,62744,1,0,0:2:0:0:
53,163,62978,6,0,L|113:163,1,59.9999981689454,0|0,0:2|0:2,0:2:0:0:
156,98,63212,2,0,L|215:98,1,59.9999981689454,0|0,0:2|0:2,0:2:0:0:
269,167,63447,2,0,L|328:167,1,59.9999981689454,0|0,0:2|0:2,0:2:0:0:
468,162,63681,1,0,0:2:0:0:
435,243,63837,1,0,0:2:0:0:
435,243,64072,2,0,B|455:298|455:298|441:374,1,119.999996337891,0|0,0:2|0:2,0:2:0:0:
315,371,64540,1,0,0:2:0:0:
301,363,64619,5,0,0:2:0:0:
190,344,64853,1,2,0:2:0:0:
274,265,65087,1,2,0:2:0:0:
84,306,65322,1,2,0:2:0:0:
190,344,65556,2,0,L|302:352,1,89.9999972534181,2|0,0:2|0:2,0:2:0:0:
354,305,65947,1,0,0:0:0:0:
364,316,66025,2,0,L|477:309,1,89.9999972534181,2|2,0:2|0:2,0:2:0:0:
386,214,66415,1,0,0:2:0:0:
374,203,66494,6,0,P|347:133|366:92,1,119.999996337891,0|0,0:2|0:2,0:2:0:0:
321,133,66884,2,0,P|351:64|380:48,1,89.9999972534181,0|0,0:2|0:2,0:2:0:0:
298,67,67197,2,0,P|368:40|400:49,1,89.9999972534181,0|0,0:2|0:2,0:2:0:0:
267,59,67587,2,0,P|215:59|181:34,1,89.9999972534181,0|0,0:2|0:2,0:2:0:0:
185,23,67900,2,0,P|147:45|102:43,1,89.9999972534181,0|0,0:2|0:2,0:2:0:0:
32,218,68290,1,0,0:2:0:0:
39,231,68369,5,0,0:2:0:0:
250,241,68603,1,2,0:2:0:0:
136,341,68837,1,2,0:2:0:0:
250,241,69072,1,2,0:2:0:0:
136,341,69306,2,0,L|240:347,1,89.9999972534181,2|0,0:2|0:2,0:2:0:0:
305,312,69697,1,0,0:0:0:0:
316,302,69775,2,0,P|377:302|414:333,1,89.9999972534181,2|2,0:2|0:2,0:2:0:0:
490,366,70165,1,0,0:2:0:0:
493,351,70244,5,0,0:2:0:0:
346,210,70478,2,0,L|406:205,1,59.9999981689454,0|0,0:2|0:2,0:2:0:0:
501,129,70712,2,0,L|441:124,1,59.9999981689454,0|0,0:2|0:2,0:2:0:0:
340,49,70947,2,0,L|400:44,1,59.9999981689454,0|0,0:2|0:2,0:2:0:0:
206,101,71181,1,0,0:2:0:0:
282,144,71337,1,0,0:2:0:0:
282,144,71572,2,0,B|301:187|301:187|299:282,1,119.999996337891,0|0,0:2|0:2,0:2:0:0:
161,223,72040,1,0,0:2:0:0:
175,229,72119,5,0,0:2:0:0:
99,318,72353,1,2,0:2:0:0:
66,166,72587,1,2,0:2:0:0:
175,229,72822,1,2,0:2:0:0:
66,166,73056,2,0,P|59:126|90:63,1,89.9999972534181,2|0,0:2|0:2,0:2:0:0:
142,25,73447,1,0,0:0:0:0:
154,33,73525,2,0,L|265:33,1,89.9999972534181,2|2,0:2|0:2,0:2:0:0:
359,25,73915,1,0,0:2:0:0:
350,37,73994,6,0,P|339:74|384:155,1,119.999996337891,0|0,0:2|0:2,0:2:0:0:
375,131,74384,2,0,P|386:168|356:234,1,89.9999972534181,0|0,0:2|0:2,0:2:0:0:
357,213,74697,2,0,P|346:250|376:316,1,89.9999972534181,0|0,0:2|0:2,0:2:0:0:
279,310,75087,2,0,P|322:300|365:313,1,89.9999972534181,0|0,0:2|0:2,0:2:0:0:
255,297,75400,2,0,P|213:256|211:198,1,119.999996337891,0|0,0:2|0:2,0:2:0:0:
291,218,75790,1,0,0:2:0:0:
291,202,75869,5,0,3:2:0:0:
262,126,76103,1,0,3:2:0:0:
310,67,76259,1,0,0:0:0:0:
302,56,76337,1,0,3:2:0:0:
383,45,76572,1,0,3:2:0:0:
302,56,76806,5,0,3:2:0:0:
383,45,77040,1,0,3:2:0:0:
431,107,77197,1,0,0:0:0:0:
442,100,77275,1,0,3:2:0:0:
435,181,77509,1,0,3:2:0:0:
170,113,77744,5,0,3:2:0:0:
138,197,77978,1,0,3:2:0:0:
191,260,78134,1,0,0:0:0:0:
182,274,78212,1,0,3:2:0:0:
271,286,78447,1,0,3:2:0:0:
182,274,78681,5,0,3:2:0:0:
271,286,78915,1,0,3:2:0:0:
320,219,79072,1,0,0:0:0:0:
336,226,79150,1,0,3:2:0:0:
328,137,79384,1,0,3:2:0:0:
14,170,79619,5,0,3:2:0:0:
121,157,79853,1,0,3:2:0:0:
231,161,80009,1,0,0:0:0:0:
228,145,80087,1,0,3:2:0:0:
335,132,80322,1,0,3:2:0:0:
121,157,80556,5,0,3:2:0:0:
228,145,80790,1,0,3:2:0:0:
339,148,80947,1,0,0:0:0:0:
335,132,81024,1,0,3:2:0:0:
442,118,81259,1,0,3:2:0:0:
494,339,81494,5,0,3:2:0:0:
377,325,81728,1,0,3:2:0:0:
261,295,81884,1,0,0:0:0:0:
259,312,81962,1,0,3:2:0:0:
142,297,82197,1,0,3:2:0:0:
377,325,82431,5,0,3:2:0:0:
259,312,82665,1,0,3:2:0:0:
146,281,82822,1,0,0:0:0:0:
142,297,82899,1,0,3:2:0:0:
24,283,83134,1,0,3:2:0:0:
134,176,83369,6,0,L|119:92,1,59.9999981689454,8|0,3:2|3:2,3:2:0:0:
136,124,83603,2,0,L|121:40,1,59.9999981689454,0|0,3:2|3:2,3:2:0:0:
228,158,83837,6,0,L|213:74,1,59.9999981689454,8|0,3:2|3:2,3:2:0:0:
230,106,84071,2,0,L|215:22,1,59.9999981689454,0|0,3:2|3:2,3:2:0:0:
333,43,84306,6,0,L|318:127,1,59.9999981689454,8|0,3:2|3:2,3:2:0:0:
335,95,84540,2,0,L|320:179,1,59.9999981689454,0|0,3:2|3:2,3:2:0:0:
427,61,84774,6,0,L|412:145,1,59.9999981689454,8|0,3:2|3:2,3:2:0:0:
429,113,85008,2,0,L|414:197,1,59.9999981689454,0|0,3:2|3:2,3:2:0:0:
389,257,85244,5,8,3:2:0:0:
318,236,85400,1,0,3:2:0:0:
318,236,85478,2,0,P|288:241|262:255,1,59.9999981689454,0|0,3:2|3:2,3:2:0:0:
389,257,85712,5,8,3:2:0:0:
266,338,85869,1,0,3:2:0:0:
266,338,85946,2,0,P|236:332|210:318,1,59.9999981689454,0|0,3:2|3:2,3:2:0:0:
389,257,86181,5,8,3:2:0:0:
290,221,86337,1,0,3:2:0:0:
290,221,86415,2,0,P|260:226|234:240,1,59.9999981689454,0|0,3:2|3:2,3:2:0:0:
389,257,86650,5,8,3:2:0:0:
248,353,86806,1,0,3:2:0:0:
248,353,86884,2,0,P|218:347|192:333,1,59.9999981689454,0|0,3:2|3:2,3:2:0:0:
53,237,87119,6,0,L|49:198,7,22.4999993133545,0|0|0|0|0|0|0|0,3:2|3:2|3:2|3:2|3:2|3:2|3:2|3:2,3:2:0:0:
124,198,87587,2,0,L|128:159,7,22.4999993133545,0|0|0|0|0|0|0|0,3:2|3:2|3:2|3:2|3:2|3:2|3:2|3:2,3:2:0:0:
41,122,88056,2,0,L|38:100,7,12.5,0|0|0|0|0|0|0|0,3:2|3:2|3:2|3:2|3:2|3:2|3:2|3:2,3:2:0:0:
98,66,88525,2,0,L|100:44,7,12.5,0|0|0|0|0|0|0|0,3:2|3:2|3:2|3:2|3:2|3:2|3:2|3:2,3:2:0:0:
27,14,88994,5,4,0:2:0:0:
171,123,89228,1,8,0:2:0:0:
250,10,89384,1,0,0:2:0:0:
256,4,89462,1,8,0:2:0:0:
171,123,89697,1,8,0:2:0:0:
320,65,89853,1,0,0:2:0:0:
326,59,89931,1,8,0:2:0:0:
277,204,90087,1,0,0:2:0:0:
279,237,90165,6,0,P|399:248|445:197,1,133.333333333333,0|0,3:2|0:2,0:2:0:0:
414,213,90400,1,0,3:2:0:0:
182,253,90556,1,0,0:2:0:0:
186,285,90634,2,0,L|190:367,1,66.6666666666667,0|0,0:2|0:2,0:2:0:0:
385,351,90869,6,0,B|304:358|304:358|267:342|267:342|189:352,1,200,4|0,3:2|0:2,0:2:0:0:
322,271,91337,2,0,B|402:264|481:258|481:258|415:297,1,200,8|0,3:2|0:2,0:2:0:0:
243,202,91728,1,0,0:0:0:0:
251,170,91806,1,0,3:0:0:0:
335,93,91962,2,0,P|287:26|181:77,1,200,0|0,0:2|0:2,0:2:0:0:
176,91,92275,5,8,3:2:0:0:
98,201,92431,1,0,0:2:0:0:
119,175,92509,2,0,B|168:164|168:164|270:171,1,133.333333333333,0|0,0:2|0:2,0:2:0:0:
432,223,92744,6,0,P|362:196|444:76,1,266.666666666667,0|0,3:2|0:2,0:2:0:0:
493,179,93134,2,0,P|507:226|471:288,1,100.000003814697,2|8,0:2|3:2,0:2:0:0:
437,74,93369,2,0,P|479:97|498:165,1,100.000003814697,2|0,0:2|0:2,0:2:0:0:
341,31,93603,2,0,P|387:15|449:52,1,100.000003814697,2|0,0:2|3:2,0:2:0:0:
209,144,93837,1,0,0:2:0:0:
223,113,93915,2,0,L|367:123,1,133.333333333333,0|0,0:2|0:2,0:2:0:0:
235,34,94150,2,0,B|69:22|69:22|125:61,1,200,8|0,3:2|0:2,0:2:0:0:
96,41,94619,6,0,B|160:142|37:134|114:280,1,200,0|0,3:2|0:2,0:2:0:0:
195,284,95087,2,0,P|107:259|57:350,1,200,8|0,3:2|0:2,0:2:0:0:
289,354,95478,1,0,0:0:0:0:
298,322,95556,1,0,3:0:0:0:
195,122,95712,2,0,P|244:201|334:177,1,200,0|0,0:2|0:2,0:2:0:0:
327,142,96025,5,8,3:2:0:0:
71,35,96181,1,0,0:2:0:0:
104,34,96259,2,0,L|254:29,1,133.333333333333,0|0,0:2|0:2,0:2:0:0:
327,142,96494,6,0,B|421:210|511:143|511:143|450:162|400:112,1,266.666666666667,0|0,3:2|0:2,0:2:0:0:
385,76,96884,2,0,P|430:56|498:78,1,100.000003814697,2|8,0:2|3:2,0:2:0:0:
271,43,97119,2,0,P|319:34|364:54,1,100.000003814697,2|0,0:2|0:2,0:2:0:0:
143,41,97353,2,0,P|188:20|236:29,1,100.000003814697,2|0,0:2|3:2,0:2:0:0:
240,178,97587,1,0,0:2:0:0:
248,188,97665,6,0,L|245:225,2,33.3333333333333,0|0|0,0:2|0:2|0:2,0:2:0:0:
149,107,97900,2,0,L|142:40,1,66.6666666666667,8|0,3:2|0:2,0:2:0:0:
136,202,98056,1,0,0:2:0:0:
111,224,98134,2,0,P|41:223|-3:165,1,133.333333333333,0|0,0:2|0:2,0:2:0:0:
149,107,98369,6,0,B|176:82|211:85|211:85|392:98,1,200,8|0,3:2|0:2,0:2:0:0:
512,134,98759,1,0,0:2:0:0:
512,166,98837,2,0,B|489:191|450:188|450:188|317:178,1,200,8|0,3:2|0:2,0:2:0:0:
414,30,99228,1,0,0:0:0:0:
421,62,99306,1,8,3:2:0:0:
317,178,99462,2,0,B|257:233|294:322|294:322|304:272|349:234,1,200,0|0,0:2|0:2,0:2:0:0:
341,275,99775,5,8,3:2:0:0:
81,97,99931,1,0,0:2:0:0:
102,122,100009,2,0,P|173:134|250:106,1,133.333333333333,0|0,0:2|0:2,0:2:0:0:
136,32,100244,6,0,P|51:17|31:168,1,266.666666666667,8|0,3:2|0:2,0:2:0:0:
127,222,100634,2,0,P|85:205|13:213,1,100.000003814697,2|8,0:2|3:2,0:2:0:0:
208,235,100869,2,0,P|166:252|121:309,1,100.000003814697,2|0,0:2|0:2,0:2:0:0:
277,193,101103,2,0,P|260:235|268:307,1,100.000003814697,2|8,0:2|3:2,0:2:0:0:
490,288,101337,1,0,0:2:0:0:
477,257,101415,2,0,B|425:252|425:252|405:261|405:261|288:250,1,133.333333333333,0|0,0:2|0:2,0:2:0:0:
277,193,101650,2,0,P|296:116|193:66,1,200,8|0,3:2|0:2,0:2:0:0:
204,62,102119,6,0,B|289:17|311:113|401:25,1,200,8|0,3:2|0:2,0:2:0:0:
277,193,102509,1,0,0:2:0:0:
245,182,102587,2,0,P|161:113|239:62,1,200,8|0,3:2|0:2,0:2:0:0:
359,195,102978,1,0,0:0:0:0:
350,227,103056,1,8,3:2:0:0:
340,345,103212,2,0,P|333:312|466:300,1,200,0|0,0:2|0:2,0:2:0:0:
467,307,103525,5,8,3:2:0:0:
256,298,103681,1,0,0:2:0:0:
224,287,103759,2,0,B|185:279|185:279|76:297,1,133.333333333333,0|0,0:2|0:2,0:2:0:0:
37,364,103994,6,0,B|-13:340|-30:291|-14:241|-14:241|-3:286|37:305,1,200,8|0,3:2|0:2,0:2:0:0:
92,294,104384,2,0,B|98:254|98:254|84:203,1,66.6666666666667,2|8,0:2|3:2,0:2:0:0:
42,95,104619,2,0,B|35:120|35:120|41:160,1,66.6666666666667,2|0,0:2|0:2,0:2:0:0:
126,82,104853,2,0,B|132:42|132:42|125:16,1,66.6666666666667,2|0,0:2|0:2,0:2:0:0:
126,82,105165,5,8,0:3:0:0:
288,113,105322,2,0,P|233:109|200:123,1,66.6666666666667,4|0,0:3|0:2,0:2:0:0:
207,191,105556,1,0,0:2:0:0:
218,178,105634,2,0,L|224:89,1,66.6666666666667,4|0,0:3|0:2,0:2:0:0:
199,292,105869,6,0,B|229:265|288:274|288:274|328:311|409:281,1,200,4|0,3:2|0:2,0:2:0:0:
474,102,106259,1,0,0:2:0:0:
393,77,106337,2,0,B|386:132|386:132|411:220,1,133.333333333333,8|0,3:2|0:2,0:2:0:0:
474,266,106572,1,0,0:2:0:0:
306,190,106728,2,0,P|276:187|183:198,1,66.6666666666667,0|0,0:2|3:2,0:2:0:0:
8,174,106962,2,0,P|79:110|167:158,1,200,0|0,0:2|0:2,0:2:0:0:
150,181,107275,5,8,3:2:0:0:
60,368,107431,1,0,0:2:0:0:
14,300,107509,2,0,P|90:292|139:338,1,133.333333333333,0|0,0:2|0:2,0:2:0:0:
213,329,107744,6,0,B|254:312|318:317|291:356|343:374|439:323,1,200,0|0,3:2|0:2,0:2:0:0:
304,65,108134,2,0,B|300:115|300:115|353:200,1,100.000003814697,2|8,0:2|3:2,0:2:0:0:
489,122,108369,2,0,B|446:93|446:93|397:95,1,100.000003814697,2|0,0:2|0:2,0:2:0:0:
353,268,108603,2,0,B|393:240|393:240|411:192,1,100.000003814697,2|0,0:2|3:2,0:2:0:0:
130,120,108837,1,0,0:2:0:0:
193,166,108915,2,0,L|358:155,1,133.333333333333,0|0,0:2|0:2,0:2:0:0:
221,263,109150,2,0,B|161:312|77:267|77:267|142:248,1,200,8|0,3:2|0:0,0:2:0:0:
121,254,109619,6,0,P|69:198|-27:261,1,200,0|0,3:2|0:2,0:2:0:0:
221,263,110009,1,0,0:2:0:0:
289,209,110087,2,0,L|302:44,1,133.333333333333,8|0,3:2|0:2,0:2:0:0:
240,19,110322,1,0,0:2:0:0:
380,175,110478,2,0,B|414:179|414:179|487:167,1,66.6666666666667,0|0,0:2|3:2,0:2:0:0:
203,141,110712,2,0,B|143:137|143:137|105:149|105:149|47:143|47:143|106:113,1,200,0|0,0:2|0:0,0:2:0:0:
87,90,111025,5,8,3:2:0:0:
100,281,111181,1,0,0:2:0:0:
166,339,111259,2,0,P|189:271|157:215,1,133.333333333333,0|0,0:2|0:2,0:2:0:0:
203,141,111494,6,0,B|273:138|273:138|313:159|313:159|444:153,1,200,0|0,3:2|0:2,0:2:0:0:
319,260,111884,2,0,L|280:352,1,100.000003814697,2|8,0:2|3:2,0:2:0:0:
397,154,112119,2,0,L|436:247,1,100.000003814697,2|0,0:2|0:2,0:2:0:0:
348,12,112353,2,0,L|309:104,1,100.000003814697,2|0,0:2|3:2,0:2:0:0:
309,104,112665,6,0,P|207:104|179:85,1,133.333333333333,0|0,0:2|0:2,0:2:0:0:
125,35,112900,2,0,P|60:24|0:49,1,133.333333333333,8|0,3:2|0:2,0:2:0:0:
3,133,113134,2,0,L|19:265,1,133.333333333333,0|0,0:2|0:2,0:2:0:0:
93,308,113369,6,0,B|184:260|284:301|284:311|284:322|384:372|516:293,2,400,0|8|0,3:2|3:2|3:2,0:2:0:0:
89,291,114462,6,0,P|136:274|185:271,1,100.000003814697,2|0,0:2|0:2,0:2:0:0:
185,271,114775,1,8,3:2:0:0:
229,172,114931,1,0,0:2:0:0:
298,221,115009,2,0,P|311:149|260:100,1,133.333333333333,0|0,0:2|0:2,0:2:0:0:
78,108,115244,6,0,B|147:102|147:102|190:116|190:116|282:105,1,200,0|0,3:2|0:2,0:2:0:0:
372,19,115634,2,0,B|346:62|346:62|407:153,1,100.000003814697,2|8,0:2|3:2,0:2:0:0:
457,223,115869,2,0,B|484:181|484:181|458:138,1,100.000003814697,2|0,0:2|0:2,0:2:0:0:
377,270,116103,2,0,B|351:313|351:313|378:354,1,100.000003814697,2|0,0:2|3:2,0:2:0:0:
381,186,116337,1,0,0:2:0:0:
303,227,116415,2,0,B|246:221|246:221|231:211|231:211|165:206,1,133.333333333333,0|0,0:2|0:2,0:2:0:0:
162,130,116650,2,0,P|98:175|150:282,1,200,8|0,3:2|0:2,0:2:0:0:
133,275,117119,6,0,P|66:309|8:203,1,200,0|0,3:2|0:2,0:2:0:0:
225,41,117509,1,0,0:2:0:0:
285,100,117587,2,0,B|309:142|309:142|300:254,1,133.333333333333,8|0,3:2|0:2,0:2:0:0:
299,309,117822,1,0,0:2:0:0:
225,41,117978,2,0,P|253:22|296:18,1,66.6666666666667,0|0,0:2|3:2,0:2:0:0:
202,123,118212,2,0,B|52:108|52:108|131:142,1,200,0|0,0:2|0:2,0:2:0:0:
110,158,118525,5,8,3:2:0:0:
167,344,118681,1,0,0:2:0:0:
122,279,118759,2,0,P|39:276|11:338,1,133.333333333333,0|0,0:2|0:2,0:2:0:0:
167,344,118994,6,0,L|389:332,1,200,0|0,3:2|0:2,0:2:0:0:
347,154,119384,2,0,P|336:206|371:258,1,100.000003814697,2|0,0:2|0:2,0:2:0:0:
512,230,119619,2,0,P|472:194|409:198,1,100.000003814697,2|0,0:2|0:2,0:2:0:0:
366,333,119853,2,0,P|413:319|441:278,1,100.000003814697,2|0,0:2|0:2,0:2:0:0:
147,154,120165,6,0,L|406:154,1,200.000007629395,0|0,3:2|1:2,0:2:0:0:
427,191,120400,1,0,3:2:0:0:
70,280,120634,6,0,B|105:194|-6:189|89:70,1,200.000007629395,0|0,3:2|0:2,0:2:0:0:
257,66,120869,5,6,3:2:0:0:
256,192,120947,12,0,123681,0:2:0:0:
172,158,135556,5,2,0:2:0:0:
169,145,135634,1,2,0:2:0:0:
44,207,135869,6,0,L|121:212,1,75.0000028610231,2|0,0:2|0:2,0:2:0:0:
251,280,136337,2,0,L|176:284,1,75.0000028610231,0|0,0:2|0:2,0:2:0:0:
293,200,136728,2,0,L|299:160,1,25.0000009536744,0|0,0:2|0:2,0:2:0:0:
249,98,136962,2,0,L|243:58,1,25.0000009536744,0|0,0:2|0:2,0:2:0:0:
249,98,137431,5,2,0:2:0:0:
241,108,137509,1,2,0:2:0:0:
73,104,137744,6,0,P|126:99|156:108,1,75.0000028610231,2|0,0:2|0:2,0:2:0:0:
138,187,138134,2,0,L|126:227,1,25.0000009536744,0|0,0:2|0:2,0:2:0:0:
197,272,138369,2,0,L|209:312,1,25.0000009536744,0|0,0:2|0:2,0:2:0:0:
110,318,138603,2,0,L|102:341,1,25.0000009536744,0|0,0:2|0:2,0:2:0:0:
299,340,138837,1,2,0:2:0:0:
295,328,138915,2,0,L|287:304,1,25.0000009536744,2|0,0:2|0:2,0:2:0:0:
314,217,139150,2,0,L|409:212,1,75.0000028610231,2|0,0:2|0:2,0:2:0:0:
393,50,139619,6,0,P|378:102|387:133,1,75.0000028610231,2|0,0:2|0:2,0:2:0:0:
460,169,140087,2,0,P|475:221|466:252,1,75.0000028610231,0|0,0:2|0:2,0:2:0:0:
445,320,140478,2,0,L|402:312,1,25.0000009536744,0|0,0:2|0:2,0:2:0:0:
342,351,140712,2,0,L|317:355,1,25.0000009536744,0|0,0:2|0:2,0:2:0:0:
342,351,141181,5,2,0:2:0:0:
342,338,141259,1,2,0:2:0:0:
244,298,141494,6,0,B|235:269|235:269|244:216,1,75.0000028610231,2|0,0:2|0:2,0:2:0:0:
262,137,141884,2,0,L|267:90,1,25.0000009536744,0|0,0:2|0:2,0:2:0:0:
195,63,142119,2,0,L|190:16,1,25.0000009536744,0|0,0:2|0:2,0:2:0:0:
143,147,142353,2,0,P|94:157|45:134,1,100.000003814697,0|0,0:2|0:2,0:2:0:0:
49,240,142822,1,0,0:2:0:0:
49,240,142900,6,0,L|45:282,2,25.0000009536744,2|0|0,0:2|0:2|0:2,0:2:0:0:
134,242,143134,2,0,L|138:284,2,25.0000009536744,2|0|0,0:2|0:2|0:2,0:2:0:0:
216,197,143369,6,0,P|265:187|308:202,1,75.0000028610231,2|0,0:2|0:2,0:2:0:0:
361,246,143837,2,0,P|410:256|453:241,1,75.0000028610231,0|0,0:2|0:2,0:2:0:0:
482,177,144228,2,0,L|486:147,1,25.0000009536744,0|0,0:2|0:2,0:2:0:0:
435,86,144462,2,0,L|431:56,1,25.0000009536744,0|0,0:2|0:2,0:2:0:0:
435,86,144931,5,2,0:2:0:0:
424,93,145009,1,2,0:2:0:0:
340,46,145244,6,0,L|250:42,1,75.0000028610231,2|0,0:2|0:2,0:2:0:0:
174,37,145634,2,0,L|182:84,1,25.0000009536744,0|0,0:2|0:2,0:2:0:0:
98,75,145869,2,0,L|90:122,1,25.0000009536744,0|0,0:2|0:2,0:2:0:0:
24,128,146103,2,0,L|32:175,1,25.0000009536744,0|0,0:2|0:2,0:2:0:0:
115,220,146337,1,2,0:2:0:0:
112,207,146415,2,0,L|107:182,1,25.0000009536744,2|0,0:2|0:2,0:2:0:0:
188,148,146650,2,0,L|262:151,1,75.0000028610231,2|0,0:2|0:2,0:2:0:0:
412,63,147119,6,0,B|425:91|425:91|417:146,1,75.0000028610231,0|0,0:2|0:2,0:2:0:0:
350,195,147587,2,0,B|337:223|337:223|343:266,1,75.0000028610231,0|0,0:2|0:2,0:2:0:0:
407,353,147978,2,0,L|371:352,1,25.0000009536744,0|0,0:2|0:2,0:2:0:0:
298,351,148212,2,0,L|262:350,1,25.0000009536744,0|0,0:2|0:2,0:2:0:0:
298,351,148681,5,2,0:2:0:0:
302,339,148759,1,2,0:2:0:0:
122,282,148994,6,0,P|191:288|211:281,1,75.0000028610231,2|0,0:2|0:2,0:2:0:0:
218,209,149384,2,0,L|212:167,1,25.0000009536744,0|0,0:2|0:2,0:2:0:0:
154,116,149619,2,0,L|160:74,1,25.0000009536744,0|0,0:2|0:2,0:2:0:0:
232,46,149853,2,0,L|228:21,1,25.0000009536744,0|0,0:2|0:2,0:2:0:0:
232,46,150400,5,0,0:2:0:0:
157,91,150556,1,0,0:2:0:0:
402,52,150869,5,0,3:2:0:0:
375,234,151103,1,0,0:2:0:0:
299,83,151337,1,0,3:2:0:0:
375,234,151572,1,0,0:2:0:0:
299,83,151806,2,0,P|269:78|201:94,1,89.9999972534181,0|0,3:2|0:2,0:2:0:0:
126,139,152197,1,0,0:2:0:0:
116,150,152275,1,0,3:2:0:0:
19,48,152509,6,0,L|35:165,1,89.9999972534181,0|0,0:2|3:2,0:2:0:0:
22,249,152978,2,0,L|84:241,1,59.9999981689454,0|0,0:2|0:2,0:2:0:0:
170,220,153212,2,0,L|229:227,1,59.9999981689454,0|0,3:2|0:2,0:2:0:0:
306,261,153447,2,0,L|365:253,1,59.9999981689454,0|0,0:2|0:2,0:2:0:0:
441,208,153681,5,0,3:2:0:0:
325,164,153837,1,0,0:2:0:0:
381,109,154072,1,0,0:2:0:0:
381,109,154150,2,0,P|393:39|379:11,1,89.9999972534181,0|0,3:2|0:2,0:2:0:0:
269,61,154540,1,0,0:2:0:0:
272,75,154619,5,0,3:2:0:0:
71,56,154853,1,0,0:2:0:0:
141,166,155087,1,0,3:2:0:0:
71,56,155322,1,0,0:2:0:0:
18,180,155556,1,0,0:0:0:0:
18,180,155712,2,0,B|11:202|11:202|18:282,1,89.9999972534181,0|0,0:2|0:2,0:2:0:0:
20,283,156025,5,0,3:2:0:0:
356,345,156415,1,0,0:2:0:0:
367,335,156494,6,0,P|387:239|354:178,1,149.999995422363,0|0,3:2|0:2,0:2:0:0:
355,185,156962,1,0,3:2:0:0:
279,133,157197,2,0,P|213:131|175:115,1,89.9999972534181,0|0,0:2|3:2,0:2:0:0:
171,41,157587,2,0,P|126:39|82:51,1,89.9999972534181,0|0,0:2|0:2,0:2:0:0:
70,59,157900,5,0,3:2:0:0:
70,59,158290,1,0,0:2:0:0:
69,74,158369,5,0,3:2:0:0:
199,245,158603,1,0,0:2:0:0:
18,216,158837,1,0,3:2:0:0:
199,245,159072,1,0,0:2:0:0:
18,216,159306,2,0,P|11:274|30:324,1,89.9999972534181,0|0,3:2|0:2,0:2:0:0:
103,356,159697,1,0,0:2:0:0:
117,355,159775,2,0,L|226:351,1,89.9999972534181,0|0,3:2|0:2,0:2:0:0:
288,293,160165,1,0,0:2:0:0:
296,305,160244,5,0,3:2:0:0:
324,212,160478,2,0,P|280:205|243:215,1,59.9999981689454,0|0,0:2|0:2,0:2:0:0:
208,155,160712,2,0,P|178:152|149:159,1,59.9999981689454,0|0,3:2|0:2,0:2:0:0:
82,117,160947,2,0,P|52:114|23:121,1,59.9999981689454,0|0,0:2|0:2,0:2:0:0:
1,203,161181,5,0,3:2:0:0:
102,310,161337,1,0,0:2:0:0:
137,244,161572,1,0,0:2:0:0:
137,244,161650,2,0,B|154:214|154:214|148:145,1,89.9999972534181,0|0,3:2|0:2,0:2:0:0:
88,48,162040,1,0,0:2:0:0:
98,59,162119,5,0,3:2:0:0:
310,66,162353,1,0,0:2:0:0:
300,276,162587,1,0,3:2:0:0:
310,66,162822,1,0,0:2:0:0:
300,276,163056,2,0,P|350:281|413:206,1,149.999995422363,0|0,3:2|0:2,0:2:0:0:
416,197,163525,1,0,3:2:0:0:
227,218,163759,1,0,0:2:0:0:
202,321,163915,1,0,0:2:0:0:
189,329,163994,6,0,P|139:334|76:259,1,149.999995422363,0|0,3:2|0:2,0:2:0:0:
74,250,164462,1,0,3:2:0:0:
291,273,164697,1,0,0:2:0:0:
183,106,164931,1,0,3:2:0:0:
183,106,165087,2,0,P|176:70|202:6,2,89.9999972534181,0|0|0,0:2|0:2|0:2,0:2:0:0:
241,159,165790,1,0,0:2:0:0:
238,173,165869,5,0,3:2:0:0:
159,192,166103,1,0,3:2:0:0:
110,138,166259,1,0,0:0:0:0:
94,144,166337,1,0,3:2:0:0:
93,62,166572,1,0,3:2:0:0:
19,309,166806,5,0,3:2:0:0:
18,227,167040,1,0,3:2:0:0:
87,192,167197,1,0,0:0:0:0:
80,175,167275,1,0,3:2:0:0:
159,192,167509,1,0,3:2:0:0:
18,227,167744,5,0,3:2:0:0:
44,311,167978,1,0,3:2:0:0:
128,328,168134,1,0,0:0:0:0:
126,345,168212,1,0,3:2:0:0:
204,300,168447,1,0,3:2:0:0:
236,104,168681,5,0,3:2:0:0:
157,148,168915,1,0,3:2:0:0:
162,229,169072,1,0,0:0:0:0:
144,235,169150,1,0,3:2:0:0:
204,300,169384,1,0,3:2:0:0:
14,19,169619,5,0,3:2:0:0:
122,19,169853,1,0,3:2:0:0:
337,38,170009,1,0,0:0:0:0:
338,20,170087,1,0,3:2:0:0:
232,21,170322,1,0,3:2:0:0:
122,19,170556,5,0,3:2:0:0:
232,21,170790,1,0,3:2:0:0:
445,38,170947,1,0,0:0:0:0:
446,20,171024,1,0,3:2:0:0:
338,20,171259,1,0,3:2:0:0:
480,161,171494,5,0,3:2:0:0:
361,161,171728,1,0,3:2:0:0:
126,183,171884,1,0,0:0:0:0:
127,165,171962,1,0,3:2:0:0:
242,161,172197,1,0,3:2:0:0:
361,161,172431,5,0,3:2:0:0:
242,161,172665,1,0,3:2:0:0:
8,186,172822,1,0,0:0:0:0:
8,165,172899,1,0,3:2:0:0:
127,165,173134,1,0,3:2:0:0:
86,288,173369,6,0,P|131:287|158:299,1,59.9999981689454,8|0,3:2|3:2,3:2:0:0:
157,283,173603,2,0,P|186:279|215:286,1,59.9999981689454,0|0,3:2|3:2,3:2:0:0:
294,261,173837,6,0,P|264:253|235:257,1,59.9999981689454,8|0,3:2|3:2,3:2:0:0:
223,266,174071,2,0,P|193:258|164:262,1,59.9999981689454,0|0,3:2|3:2,3:2:0:0:
94,241,174306,6,0,P|139:240|166:252,1,59.9999981689454,8|0,3:2|3:2,3:2:0:0:
165,236,174540,2,0,P|194:232|223:239,1,59.9999981689454,0|0,3:2|3:2,3:2:0:0:
302,214,174774,6,0,P|272:206|243:210,1,59.9999981689454,8|0,3:2|3:2,3:2:0:0:
231,219,175008,2,0,P|201:211|172:215,1,59.9999981689454,0|0,3:2|3:2,3:2:0:0:
134,34,175244,5,8,3:2:0:0:
71,138,175400,1,0,3:2:0:0:
71,138,175478,2,0,L|55:80,1,59.9999981689454,0|0,3:2|3:2,3:2:0:0:
134,34,175712,5,8,3:2:0:0:
169,173,175869,1,0,3:2:0:0:
169,173,175946,2,0,L|184:115,1,59.9999981689454,0|0,3:2|3:2,3:2:0:0:
134,34,176181,5,8,3:2:0:0:
57,157,176337,1,0,3:2:0:0:
57,157,176415,2,0,L|41:100,1,59.9999981689454,0|0,3:2|3:2,3:2:0:0:
134,34,176650,5,8,3:2:0:0:
180,191,176806,1,0,3:2:0:0:
180,191,176883,2,0,L|196:134,1,59.9999981689454,0|0,3:2|3:2,3:2:0:0:
390,177,177119,6,0,L|385:154,7,22.4999993133545,8|0|0|0|0|0|0|0,3:2|3:2|3:2|3:2|3:2|3:2|3:2|3:2,3:2:0:0:
308,150,177587,2,0,L|312:127,7,22.4999993133545,8|0|0|0|0|0|0|0,3:2|3:2|3:2|3:2|3:2|3:2|3:2|3:2,3:2:0:0:
371,45,178056,2,0,L|369:32,7,12.5,8|0|0|0|0|0|0|0,3:2|3:2|3:2|3:2|3:2|3:2|3:2|3:2,3:2:0:0:
288,23,178524,2,0,L|290:10,7,12.5,8|0|0|0|0|0|0|0,3:2|3:2|3:2|3:2|3:2|3:2|3:2|3:2,3:2:0:0:
313,128,178994,5,4,0:2:0:0:
149,342,179228,1,0,3:2:0:0:
192,214,179384,1,8,0:2:0:0:
188,230,179462,1,8,0:2:0:0:
117,134,179619,1,0,3:2:0:0:
121,149,179697,1,8,0:2:0:0:
204,74,179853,1,8,0:2:0:0:
200,90,179931,1,8,0:2:0:0:
80,259,180087,1,0,3:2:0:0:
100,285,180165,6,0,P|177:318|266:309,1,133.333333333333,0|0,3:2|0:2,0:2:0:0:
257,307,180400,1,0,3:2:0:0:
348,162,180556,1,0,0:2:0:0:
326,185,180634,2,0,P|315:247|324:273,1,66.6666666666667,0|0,0:2|0:2,0:2:0:0:
512,252,180869,6,0,B|452:243|452:243|386:262|386:262|295:246,1,200,12|0,3:2|0:2,0:2:0:0:
220,68,181337,2,0,P|379:72|400:137,1,200,8|0,3:2|0:2,0:2:0:0:
158,126,181728,1,0,0:0:0:0:
135,101,181806,1,8,3:2:0:0:
254,190,181962,2,0,B|247:345|247:345|216:268,1,200,0|0,0:2|0:2,0:2:0:0:
214,273,182275,5,8,3:2:0:0:
56,256,182431,1,0,0:2:0:0:
80,278,182509,2,0,L|219:272,1,133.333333333333,0|0,0:2|0:2,0:2:0:0:
318,263,182744,6,0,P|399:256|311:332,1,266.666666666667,8|0,3:2|0:2,0:2:0:0:
287,173,183134,2,0,B|318:212|318:212|318:288,1,100.000003814697,2|8,0:2|3:2,0:2:0:0:
212,102,183369,2,0,B|261:107|261:107|315:161,1,100.000003814697,2|0,0:2|0:2,0:2:0:0:
122,107,183603,2,0,B|161:75|161:75|237:75,1,100.000003814697,2|8,0:2|3:2,0:2:0:0:
213,272,183837,1,0,0:2:0:0:
196,243,183915,2,0,B|156:237|156:237|116:249|116:249|49:242,1,133.333333333333,0|0,0:2|0:2,0:2:0:0:
9,167,184150,2,0,B|38:19|38:19|53:95,1,200,8|0,3:2|0:2,0:2:0:0:
47,67,184619,6,0,B|155:41|136:133|281:59,1,200,8|0,3:2|0:2,0:2:0:0:
399,22,185087,2,0,B|361:83|361:83|370:249,1,200,8|0,3:2|0:2,0:2:0:0:
448,341,185478,1,0,0:0:0:0:
452,308,185556,1,8,3:2:0:0:
170,313,185712,2,0,P|259:349|362:281,1,200,0|0,0:2|0:2,0:2:0:0:
320,284,186025,5,8,3:2:0:0:
172,230,186181,1,0,0:2:0:0:
139,238,186259,2,0,P|89:295|109:373,1,133.333333333333,0|0,0:2|0:2,0:2:0:0:
253,237,186494,6,0,B|291:176|291:176|284:48,1,200,8|0,3:2|0:2,0:2:0:0:
91,134,186884,2,0,B|73:87|73:87|90:25,1,100.000003814697,2|8,0:2|3:2,0:2:0:0:
139,238,187119,2,0,B|157:191|157:191|143:143,1,100.000003814697,2|0,0:2|0:2,0:2:0:0:
93,348,187353,2,0,B|75:301|75:301|88:253,1,100.000003814697,2|8,0:2|3:2,0:2:0:0:
240,295,187587,1,0,0:0:0:0:
248,309,187665,6,0,L|238:363,2,33.3333333333333,0|0|0,0:2|0:2|0:2,0:2:0:0:
296,233,187900,2,0,L|284:167,1,66.6666666666667,8|0,3:2|0:2,0:2:0:0:
374,286,188056,1,0,0:2:0:0:
405,300,188134,2,0,P|487:286|519:231,1,133.333333333333,0|0,0:2|0:2,0:2:0:0:
480,171,188369,6,0,B|458:25|458:25|507:95,1,200,8|0,3:2|0:2,0:2:0:0:
346,124,188837,2,0,L|115:133,1,200,8|0,3:2|0:2,0:2:0:0:
19,56,189228,1,0,0:0:0:0:
52,56,189306,1,8,3:2:0:0:
128,281,189462,2,0,P|83:224|207:144,1,200,0|0,0:2|0:2,0:2:0:0:
179,130,189775,5,8,3:2:0:0:
188,344,189931,1,0,0:2:0:0:
205,315,190009,2,0,P|301:282|354:301,1,133.333333333333,0|0,0:2|0:2,0:2:0:0:
442,225,190244,6,0,L|425:-19,1,200,8|0,3:2|0:2,0:2:0:0:
223,45,190634,2,0,P|348:43|363:57,1,100.000003814697,2|8,0:2|3:2,0:2:0:0:
146,67,190869,2,0,P|235:153|236:174,1,100.000003814697,2|0,0:2|0:2,0:2:0:0:
78,0,191103,2,0,P|80:124|66:140,1,100.000003814697,2|8,0:2|3:2,0:2:0:0:
32,241,191337,1,0,0:2:0:0:
27,208,191415,2,0,P|114:195|166:230,1,133.333333333333,0|0,0:2|0:2,0:2:0:0:
213,291,191650,2,0,B|288:285|288:285|329:305|329:305|446:294,1,200,8|0,3:2|0:2,0:2:0:0:
407,297,192119,6,0,B|456:210|339:198|416:95,1,200,8|0,3:2|0:2,0:2:0:0:
232,133,192587,2,0,P|325:162|419:77,1,200,8|0,3:2|0:2,0:2:0:0:
170,69,192978,1,0,0:0:0:0:
155,98,193056,1,8,3:2:0:0:
258,264,193212,2,0,P|176:211|84:240,1,200,0|0,0:2|0:2,0:2:0:0:
91,273,193525,5,8,3:2:0:0:
300,346,193681,1,0,0:2:0:0:
327,326,193759,2,0,P|350:246|314:194,1,133.333333333333,0|0,0:2|0:2,0:2:0:0:
330,69,193994,6,0,B|483:69|483:69|399:102,1,200,8|0,3:2|0:2,0:2:0:0:
238,108,194384,2,0,L|259:1,1,66.6666666666667,2|0,0:2|0:2,0:2:0:0:
170,215,194619,2,0,L|149:108,1,66.6666666666667,2|0,0:2|0:2,0:2:0:0:
205,366,194853,2,0,L|226:259,1,66.6666666666667,2|0,0:2|0:2,0:2:0:0:
205,366,195165,5,8,0:3:0:0:
43,288,195322,2,0,B|78:293|78:293|130:275,1,66.6666666666667,4|0,0:3|0:2,0:2:0:0:
119,340,195556,1,0,0:2:0:0:
106,349,195634,2,0,L|107:282,1,66.6666666666667,4|0,0:3|0:2,0:2:0:0:
15,197,195869,6,0,B|62:203|106:169|106:169|154:209|247:189,1,200,4|0,3:2|0:2,0:2:0:0:
373,151,196259,1,0,0:2:0:0:
308,81,196337,2,0,P|280:159|326:234,1,133.333333333333,8|0,3:2|0:2,0:2:0:0:
345,271,196572,1,0,0:2:0:0:
439,158,196728,2,0,L|318:145,1,66.6666666666667,0|0,0:2|3:2,0:2:0:0:
152,23,196962,2,0,P|232:3|308:105,1,200,0|0,0:2|0:2,0:2:0:0:
276,95,197275,5,8,3:2:0:0:
83,190,197431,1,0,0:2:0:0:
163,205,197509,2,0,B|214:201|214:201|237:209|237:209|312:201,1,133.333333333333,0|0,0:2|0:2,0:2:0:0:
205,296,197744,6,0,L|5:313,1,200,0|0,3:2|0:2,0:2:0:0:
34,123,198134,2,0,P|4:166|24:248,1,100.000003814697,2|8,0:2|3:2,0:2:0:0:
103,58,198369,2,0,P|51:67|7:139,1,100.000003814697,2|0,0:2|0:2,0:2:0:0:
205,64,198603,2,0,P|162:33|79:54,1,100.000003814697,2|0,0:2|3:2,0:2:0:0:
275,185,198837,1,0,0:2:0:0:
327,122,198915,2,0,P|348:46|311:-13,1,133.333333333333,0|0,0:2|0:2,0:2:0:0:
135,123,199150,2,0,B|196:148|196:148|352:118,1,200,8|0,3:2|0:2,0:2:0:0:
327,122,199619,6,0,B|345:103|350:71|350:71|380:115|382:166|335:215,1,200,0|0,3:2|0:2,0:2:0:0:
363,343,200009,1,0,0:2:0:0:
309,279,200087,2,0,L|161:283,1,133.333333333333,8|0,3:2|0:2,0:2:0:0:
125,344,200322,1,0,0:2:0:0:
112,150,200478,2,0,B|135:178|135:178|147:242,1,66.6666666666667,0|0,0:2|3:2,0:2:0:0:
0,284,200712,2,0,B|-7:187|-7:187|46:78,1,200,0|0,0:2|0:2,0:2:0:0:
56,66,201025,5,8,3:2:0:0:
238,43,201181,1,0,0:2:0:0:
287,109,201259,2,0,P|210:120|166:84,1,133.333333333333,0|0,0:2|0:2,0:2:0:0:
371,21,201494,6,0,B|405:72|405:72|391:247,1,200,0|0,3:2|0:2,0:2:0:0:
395,347,201884,2,0,P|442:331|460:252,1,100.000003814697,2|8,0:2|3:2,0:2:0:0:
308,358,202119,2,0,P|352:379|421:336,1,100.000003814697,2|0,0:2|0:2,0:2:0:0:
220,306,202353,2,0,P|236:353|315:371,1,100.000003814697,2|0,0:2|3:2,0:2:0:0:
278,376,202665,6,0,P|309:307|268:233,1,133.333333333333,0|0,0:2|0:2,0:2:0:0:
309,151,202900,2,0,P|278:82|319:8,1,133.333333333333,8|0,3:2|0:2,0:2:0:0:
443,30,203134,2,0,P|459:92|429:150,1,133.333333333333,0|0,0:2|0:2,0:2:0:0:
436,241,203369,6,0,B|331:329|247:245|246:238|245:231|177:170|59:224,2,400,0|8|0,3:2|3:2|3:2,0:2:0:0:
439,259,204462,6,0,P|397:286|349:296,1,100.000003814697,2|0,0:2|0:2,0:2:0:0:
349,295,204775,1,8,3:2:0:0:
129,182,204931,1,0,0:2:0:0:
209,179,205009,2,0,L|372:173,1,133.333333333333,0|0,0:2|0:2,0:2:0:0:
61,326,205244,6,0,P|41:262|150:185,1,200,0|0,3:2|0:2,0:2:0:0:
350,288,205634,2,0,B|326:325|326:325|334:405,1,100.000003814697,2|8,0:2|3:2,0:2:0:0:
364,186,205869,2,0,B|388:223|388:223|380:303,1,100.000003814697,2|0,0:2|0:2,0:2:0:0:
350,73,206103,2,0,B|326:110|326:110|334:190,1,100.000003814697,2|0,0:2|3:2,0:2:0:0:
215,365,206337,1,0,0:2:0:0:
250,291,206415,2,0,L|388:279,1,133.333333333333,0|0,0:2|0:2,0:2:0:0:
468,189,206650,2,0,B|494:123|494:123|455:-2,1,200,8|0,3:2|0:2,0:2:0:0:
383,279,207119,6,0,B|260:208|185:276|185:282|186:289|96:344|-46:270,2,400,0|8|0,3:2|3:2|3:2,0:2:0:0:
407,361,208212,2,0,P|468:288|419:202,1,200,0|0,0:2|0:2,0:2:0:0:
371,31,208525,6,0,B|391:-7|501:6|470:95|454:171|358:169|291:123|291:117|291:110|235:75|177:95,1,416.666666666667,8|0,3:2|0:2,0:2:0:0:
34,59,208994,2,0,P|81:191|182:93,1,333.333333333333,0|0,3:2|0:2,0:2:0:0:
180,12,209384,2,0,P|133:27|108:69,1,100.000003814697,2|0,0:2|0:2,0:2:0:0:
17,247,209619,2,0,P|41:200|22:145,1,100.000003814697,2|0,0:2|0:2,0:2:0:0:
215,304,209853,2,0,P|178:337|129:338,1,100.000003814697,2|0,0:2|0:2,0:2:0:0:
349,264,210165,6,0,L|150:261,1,200.000007629395,0|0,3:2|1:2,0:2:0:0:
19,258,210400,1,8,0:2:0:0:
274,96,210634,6,0,P|244:34|259:101,1,200.000007629395,0|0,3:2|0:2,0:2:0:0:
255,238,210869,5,4,3:2:0:0:
256,192,210947,12,0,214619,3:2:0:0:
159,146,214853,5,0,0:2:0:0:
36,160,215087,1,8,3:2:0:0:
109,265,215244,1,0,0:0:0:0:
109,265,215322,2,0,B|128:276|128:276|194:273,1,66.6666666666667,0|0,0:2|0:2,0:2:0:0:
206,272,215556,6,0,L|309:268,1,100,0|0,3:2|0:2,0:2:0:0:
321,183,216025,1,8,3:2:0:0:
385,315,216181,1,0,0:0:0:0:
385,315,216259,2,0,P|401:265|389:227,1,66.6666666666667,0|0,0:2|0:2,0:2:0:0:
390,230,216494,6,0,L|508:226,1,100,0|0,3:2|0:2,0:2:0:0:
486,113,216962,1,8,3:2:0:0:
326,72,217119,1,0,0:0:0:0:
326,72,217197,2,0,P|307:107|316:155,1,66.6666666666667,0|0,0:2|0:2,0:2:0:0:
297,153,217431,6,0,L|197:156,1,100,0|0,3:2|0:2,0:2:0:0:
146,88,217900,2,0,L|140:42,2,33.3333333333333,0|0|0,3:2|0:2|0:2,0:2:0:0:
109,162,218134,1,0,0:2:0:0:
105,185,218212,1,0,0:2:0:0:
102,208,218290,1,0,0:2:0:0:
99,231,218369,6,0,B|93:280|93:280|108:336,1,100,0|0,3:2|0:2,0:2:0:0:
10,345,218837,1,8,3:2:0:0:
230,372,218994,1,0,0:0:0:0:
230,372,219072,2,0,L|297:369,1,66.6666666666667,0|0,0:2|0:2,0:2:0:0:
318,366,219306,6,0,B|334:313|334:313|321:247,1,100,0|0,3:2|0:2,0:2:0:0:
230,202,219775,1,8,3:2:0:0:
341,165,219931,1,0,0:0:0:0:
341,165,220009,2,0,L|411:161,1,66.6666666666667,0|0,0:2|0:2,0:2:0:0:
432,159,220244,6,0,B|448:106|448:106|435:40,1,100,0|0,3:2|0:2,0:2:0:0:
341,165,220712,1,8,3:2:0:0:
314,14,220869,1,0,0:0:0:0:
314,14,220947,2,0,L|248:15,1,66.6666666666667,0|0,0:2|0:2,0:2:0:0:
233,33,221181,6,0,P|162:54|134:38,1,100,0|0,3:2|0:2,0:2:0:0:
207,134,221650,1,8,3:2:0:0:
53,37,221806,1,0,0:0:0:0:
53,37,221884,2,0,P|52:52|89:112,1,66.6666666666667,0|0,0:2|0:2,0:2:0:0:
90,115,222119,6,0,B|111:156|111:156|95:225,1,100,0|0,3:2|0:2,0:2:0:0:
216,237,222587,1,8,3:2:0:0:
75,308,222744,1,0,0:0:0:0:
75,308,222822,2,0,P|105:308|153:347,1,66.6666666666667,0|0,0:2|0:2,0:2:0:0:
148,339,223056,6,0,L|253:335,1,100,0|0,3:2|0:2,0:2:0:0:
348,380,223525,1,8,3:2:0:0:
304,242,223681,1,0,0:0:0:0:
304,242,223759,2,0,B|293:218|293:218|297:151,1,66.6666666666667,0|0,0:2|0:2,0:2:0:0:
297,152,223994,5,0,3:2:0:0:
297,152,224619,1,4,0:3:0:0:
290,129,224697,2,0,P|231:111|209:114,1,66.6666666666667,4|0,0:3|0:2,0:2:0:0:
157,154,224931,2,0,L|149:61,1,66.6666666666667,8|0,0:3|0:2,0:2:0:0:
165,68,225165,1,8,0:3:0:0:
71,35,225322,2,0,L|80:141,1,100,4|0,0:3|0:2,0:2:0:0:
65,153,225634,1,8,0:3:0:0:
83,258,225790,1,0,0:2:0:0:
105,251,225869,5,0,3:2:0:0:
206,291,226103,1,0,0:2:0:0:
301,242,226337,2,0,L|514:230,1,200,8|0,3:2|3:2,0:2:0:0:
283,126,226962,2,0,P|275:172|292:231,1,100,0|0,0:2|0:2,0:2:0:0:
301,242,227275,1,8,3:2:0:0:
301,242,227744,6,0,P|314:184|260:32,1,200,0|8,3:2|3:2,0:2:0:0:
100,114,228681,1,0,3:2:0:0:
56,187,228837,2,0,P|131:190|168:162,1,100,0|0,0:2|0:2,0:2:0:0:
166,161,229150,1,8,3:2:0:0:
14,112,229384,1,0,0:2:0:0:
4,280,229619,6,0,L|217:290,1,200,0|8,3:2|3:2,0:2:0:0:
412,291,230556,1,0,3:2:0:0:
371,210,230712,2,0,B|317:200|317:200|241:212,1,100,0|0,0:2|0:2,0:2:0:0:
249,210,231025,1,8,3:2:0:0:
54,58,231494,6,0,P|145:43|232:124,1,200,0|8,3:2|3:2,0:2:0:0:
80,316,232431,2,0,L|32:311,2,33.3333333333333,0|0|0,3:2|0:2|0:2,0:2:0:0:
146,264,232665,2,0,L|194:259,2,33.3333333333333,0|0|0,0:2|0:2|0:2,0:2:0:0:
72,222,232900,2,0,L|24:217,2,33.3333333333333,8|0|0,3:2|0:2|0:2,0:2:0:0:
145,169,233134,1,0,0:2:0:0:
128,150,233212,1,0,0:2:0:0:
105,142,233290,1,0,0:2:0:0:
79,141,233369,6,8,L|87:56,1,66.6666666666667,8|8,3:2|0:2,0:2:0:0:
99,93,233603,2,8,L|107:8,1,66.6666666666667,8|8,0:2|0:2,0:2:0:0:
171,126,233837,6,8,L|179:41,1,66.6666666666667,8|8,3:2|0:2,0:2:0:0:
191,78,234071,2,8,L|199:-7,1,66.6666666666667,8|8,0:2|0:2,0:2:0:0:
268,129,234306,6,8,L|276:44,1,66.6666666666667,8|8,3:2|0:2,0:2:0:0:
288,81,234540,2,8,L|296:-4,1,66.6666666666667,8|8,0:2|0:2,0:2:0:0:
360,114,234774,6,8,L|368:29,1,66.6666666666667,8|8,3:2|0:2,0:2:0:0:
380,66,235008,2,8,L|388:-19,1,66.6666666666667,8|8,0:2|0:2,0:2:0:0:
425,161,235244,5,8,3:2:0:0:
347,193,235400,1,8,0:2:0:0:
347,193,235478,2,8,P|315:183|292:160,1,66.6666666666667,8|8,0:2|0:2,0:2:0:0:
215,112,235712,5,8,3:2:0:0:
137,79,235869,1,8,0:2:0:0:
137,79,235946,2,8,P|105:88|82:111,1,66.6666666666667,8|8,0:2|0:2,0:2:0:0:
81,204,236181,5,8,3:2:0:0:
159,237,236337,1,8,0:2:0:0:
159,237,236415,2,8,P|190:227|213:204,1,66.6666666666667,8|8,0:2|0:2,0:2:0:0:
292,160,236650,5,8,3:2:0:0:
370,127,236806,1,8,0:2:0:0:
370,127,236884,2,8,P|401:136|424:159,1,66.6666666666667,8|8,0:2|0:2,0:2:0:0:
425,265,237119,6,8,L|423:302,7,25,8|8|8|8|8|8|8|8,3:2|0:2|0:2|0:2|0:2|0:2|0:2|0:2,0:2:0:0:
355,226,237587,2,8,L|357:202,7,25,8|8|8|8|8|8|8|8,3:2|0:2|0:2|0:2|0:2|0:2|0:2|0:2,0:2:0:0:
270,272,238056,2,8,L|270:289,7,12.5,8|8|8|8|8|8|8|8,3:2|0:2|0:2|0:2|0:2|0:2|0:2|0:2,0:2:0:0:
213,215,238525,2,8,L|213:202,7,12.5,8|8|8|8|8|8|8|8,3:2|0:2|0:2|0:2|0:2|0:2|0:2|0:2,0:2:0:0:
151,279,238994,5,0,3:2:0:0:
33,165,239150,2,0,P|70:149|87:149,1,50,0|0,3:2|3:2,0:2:0:0:
90,149,239462,1,8,0:2:0:0:
58,69,239697,1,0,3:2:0:0:
194,94,239931,2,8,L|149:92,1,33.3333333333333,8|8,0:2|0:2,0:2:0:0:
155,82,240165,1,0,3:2:0:0:
332,0,240400,6,0,P|278:115|312:318,1,333.333333333333,0|0,3:2|0:2,0:2:0:0:
337,351,240869,5,4,3:2:0:0:
