osu file format v14

[General]
AudioFilename: audio.mp3
AudioLeadIn: 0
PreviewTime: 25551
Countdown: 0
SampleSet: Soft
StackLeniency: 0.7
Mode: 0
LetterboxInBreaks: 0
WidescreenStoryboard: 0

[Editor]
Bookmarks: 95,12895,19295,22495,25695,38495,56095,70495,76884,83295,96495,110495,124895,138095,150495,163295,182495,195295,201684,208095,211295,224095,235295,243295,249684,259695,269295,273695,275295
DistanceSpacing: 1.1
BeatDivisor: 6
GridSize: 8
TimelineZoom: 2.4

[Metadata]
Title:STOMP KRUSHERS (WITH THE RAW)
TitleUnicode:STOMP KRUSHERS (WITH THE RAW)
Artist:Camellia
ArtistUnicode:Camellia
Creator:Mr Moseby
Version:The Hardest
Source:
Tags:
BeatmapID:1981908
BeatmapSetID:949094

[Difficulty]
HPDrainRate:4.5
CircleSize:4.2
OverallDifficulty:9
ApproachRate:9.8
SliderMultiplier:2
SliderTickRate:1

[Events]
//Background and Video events
0,0,"857918.jpg",0,0
//Break Periods
2,25895,38016
2,150695,162816
//Storyboard Layer 0 (Background)
//Storyboard Layer 1 (Fail)
//Storyboard Layer 2 (Pass)
//Storyboard Layer 3 (Foreground)
//Storyboard Sound Samples

[TimingPoints]
95,400,4,2,0,70,1,0
95,-66.6666666666667,4,2,0,70,0,0
495,-100,4,2,0,70,0,0
2628,-80,4,2,0,70,0,0
3028,-66.6666666666667,4,2,0,70,0,0
6895,-100,4,2,0,70,0,0
8895,-80,4,2,0,70,0,0
9295,-66.6666666666667,4,2,0,70,0,0
12895,-50,4,2,0,70,0,0
13295,-80,4,2,0,70,0,0
14361,-50,4,2,0,70,0,0
14495,-80,4,2,0,70,0,0
81695,-100,4,2,0,70,0,0
81961,-83.3333333333333,4,2,0,70,0,0
82228,-71.4285714285714,4,2,0,70,0,0
82495,-58.8235294117647,4,2,0,70,0,0
82761,-50,4,2,0,70,0,0
83028,-41.6666666666667,4,2,0,70,0,0
84895,-33.3333333333333,4,2,0,70,0,0
85695,-100,4,2,0,70,0,0
86095,-250,4,2,0,70,0,0
86495,-40,4,2,0,70,0,0
86895,-33.3333333333333,4,2,0,70,0,0
87295,-83.3333333333333,4,2,0,70,0,0
87428,-66.6666666666667,4,2,0,70,0,0
87561,-55.5555555555556,4,2,0,70,0,0
88495,-66.6666666666667,4,2,0,70,0,0
88895,-83.3333333333333,4,2,0,70,0,0
89295,-125,4,2,0,70,0,0
89695,-200,4,2,0,70,0,0
89961,-50,4,2,0,70,0,0
90095,-40,4,2,0,70,0,0
90495,-83.3333333333333,4,2,0,70,0,0
90628,-66.6666666666667,4,2,0,70,0,0
90761,-55.5555555555556,4,2,0,70,0,0
91695,-66.6666666666667,4,2,0,70,0,0
92095,-83.3333333333333,4,2,0,70,0,0
93295,-40,4,2,0,70,0,0
93695,-83.3333333333333,4,2,0,70,0,0
93828,-66.6666666666667,4,2,0,70,0,0
93961,-55.5555555555556,4,2,0,70,0,0
94895,-66.6666666666667,4,2,0,70,0,0
95295,-83.3333333333333,4,2,0,70,0,0
95695,-125,4,2,0,70,0,0
96095,-200,4,2,0,70,0,0
96495,-50,4,2,0,70,0,0
96895,-200,4,2,0,70,0,0
97295,-50,4,2,0,70,0,0
97695,-200,4,2,0,70,0,0
98095,-50,4,2,0,70,0,0
98495,-200,4,2,0,70,0,0
99295,-66.6666666666667,4,2,0,70,0,0
99695,-40,4,2,0,70,0,0
100095,-83.3333333333333,4,2,0,70,0,0
100228,-66.6666666666667,4,2,0,70,0,0
100361,-55.5555555555556,4,2,0,70,0,0
101295,-66.6666666666667,4,2,0,70,0,0
101695,-83.3333333333333,4,2,0,70,0,0
102095,-125,4,2,0,70,0,0
102495,-200,4,2,0,70,0,0
102761,-50,4,2,0,70,0,0
102895,-40,4,2,0,70,0,0
103295,-83.3333333333333,4,2,0,70,0,0
103428,-66.6666666666667,4,2,0,70,0,0
103561,-55.5555555555556,4,2,0,70,0,0
104495,-66.6666666666667,4,2,0,70,0,0
104895,-83.3333333333333,4,2,0,70,0,0
106095,-40,4,2,0,70,0,0
106495,-83.3333333333333,4,2,0,70,0,0
106628,-66.6666666666667,4,2,0,70,0,0
106761,-55.5555555555556,4,2,0,70,0,0
107695,-66.6666666666667,4,2,0,70,0,0
108095,-83.3333333333333,4,2,0,70,0,0
108495,-125,4,2,0,70,0,0
108895,-200,4,2,0,70,0,0
109295,-50,4,2,0,70,0,0
109695,-200,4,2,0,70,0,0
110095,-50,4,2,0,70,0,0
110495,-66.6666666666667,4,2,0,70,0,0
110895,-50,4,2,0,70,0,0
111295,-200,4,2,0,70,0,0
112095,-66.6666666666667,4,2,0,70,0,0
117295,-133.333333333333,4,2,0,70,0,0
117828,-80,4,2,0,70,0,0
118228,-57.1428571428571,4,2,0,70,0,0
118495,-83.3333333333333,4,2,0,70,0,0
123295,-200,4,2,0,70,0,0
124495,-83.3333333333333,4,2,0,70,0,0
124895,-40,4,2,0,70,0,0
125295,-50,4,2,0,70,0,0
127695,-83.3333333333333,4,2,0,70,0,0
127828,-66.6666666666667,4,2,0,70,0,0
127961,-55.5555555555556,4,2,0,70,0,0
128095,-40,4,2,0,70,0,0
128495,-50,4,2,0,70,0,0
131295,-40,4,2,0,70,0,0
131695,-50,4,2,0,70,0,0
134095,-83.3333333333333,4,2,0,70,0,0
134228,-66.6666666666667,4,2,0,70,0,0
134361,-55.5555555555556,4,2,0,70,0,0
134495,-40,4,2,0,70,0,0
134895,-50,4,2,0,70,0,0
135295,-200,4,2,0,70,0,0
135695,-50,4,2,0,70,0,0
136095,-200,4,2,0,70,0,0
136361,-50,4,2,0,70,0,0
136495,-25,4,2,0,70,0,0
136628,-200,4,2,0,70,0,0
137295,-500,4,2,0,70,0,0
137695,-50,4,2,0,70,0,0
137828,-200,4,2,0,70,0,0
138095,-40,4,2,0,70,0,0
140495,-83.3333333333333,4,2,0,70,0,0
140628,-66.6666666666667,4,2,0,70,0,0
140761,-55.5555555555556,4,2,0,70,0,0
140895,-40,4,2,0,70,0,0
141295,-50,4,2,0,70,0,0
143295,-66.6666666666667,4,2,0,70,0,0
143695,-50,4,2,0,70,0,0
144095,-40,4,2,0,70,0,0
144495,-50,4,2,0,70,0,0
147295,-66.6666666666667,4,2,0,70,0,0
147695,-50,4,2,0,70,0,0
148895,-66.6666666666667,4,2,0,70,0,0
163295,-80,4,2,0,70,0,0
182495,-66.6666666666667,4,2,0,70,0,0
193695,-133.333333333333,4,2,0,70,0,0
206495,-100,4,2,0,70,0,0
206761,-83.3333333333333,4,2,0,70,0,0
207028,-71.4285714285714,4,2,0,70,0,0
207295,-58.8235294117647,4,2,0,70,0,0
207561,-50,4,2,0,70,0,0
207828,-41.6666666666667,4,2,0,70,0,0
209695,-33.3333333333333,4,2,0,70,0,0
211295,-50,4,2,0,70,0,0
213295,-66.6666666666667,4,2,0,70,0,0
213695,-100,4,2,0,70,0,0
214095,-57.1428571428571,4,2,0,70,0,0
216095,-50,4,2,0,70,0,0
216495,-66.6666666666667,4,2,0,70,0,0
216895,-100,4,2,0,70,0,0
217028,-40,4,2,0,70,0,0
217695,-71.4285714285714,4,2,0,70,0,0
219295,-50,4,2,0,70,0,0
219695,-66.6666666666667,4,2,0,70,0,0
220095,-100,4,2,0,70,0,0
220495,-57.1428571428571,4,2,0,70,0,0
225695,-50,4,2,0,70,0,0
226095,-66.6666666666667,4,2,0,70,0,0
226495,-100,4,2,0,70,0,0
226895,-57.1428571428571,4,2,0,70,0,0
228895,-50,4,2,0,70,0,0
229295,-66.6666666666667,4,2,0,70,0,0
229695,-100,4,2,0,70,0,0
229828,-40,4,2,0,70,0,0
230495,-57.1428571428571,4,2,0,70,0,0
232095,-50,4,2,0,70,0,0
232495,-66.6666666666667,4,2,0,70,0,0
232895,-100,4,2,0,70,0,0
233295,-57.1428571428571,4,2,0,70,0,0
235295,-100,4,2,0,70,0,0
242095,-66.6666666666667,4,2,0,70,0,0
242495,-50,4,2,0,70,0,0
242895,-40,4,2,0,70,0,0
243295,-57.1428571428571,4,2,0,70,0,0
248095,-200,4,2,0,70,0,0
249695,-33.3333333333333,4,2,0,70,0,0
249961,-50,4,2,0,70,0,0
251161,-25,4,2,0,70,0,0
251295,-33.3333333333333,4,2,0,70,0,0
251561,-50,4,2,0,70,0,0
254361,-25,4,2,0,70,0,0
254495,-50,4,2,0,70,0,0
256095,-33.3333333333333,4,2,0,70,0,0
256361,-50,4,2,0,70,0,0
257561,-25,4,2,0,70,0,0
257695,-33.3333333333333,4,2,0,70,0,0
257961,-50,4,2,0,70,0,0
259295,-33.3333333333333,4,2,0,70,0,0
259561,-50,4,2,0,70,0,0
259695,-33.3333333333333,4,2,0,70,0,0
260761,-50,4,2,0,70,0,0
262095,-200,4,2,0,70,0,0
262361,-66.6666666666667,4,2,0,70,0,0
262495,-50,4,2,0,70,0,0
263961,-25,4,2,0,70,0,0
264095,-33.3333333333333,4,2,0,70,0,0
264361,-50,4,2,0,70,0,0
265695,-33.3333333333333,4,2,0,70,0,0
265961,-50,4,2,0,70,0,0
267161,-25,4,2,0,70,0,0
267295,-50,4,2,0,70,0,0
268095,-33.3333333333333,4,2,0,70,0,0
268361,-50,4,2,0,70,0,0
268895,-200,4,2,0,70,0,0
269161,-50,4,2,0,70,0,0
270361,-25,4,2,0,70,0,0
270495,-33.3333333333333,4,2,0,70,0,0
270761,-50,4,2,0,70,0,0
273695,-66.6666666666667,4,2,0,70,0,0

[Colours]
Combo1 : 100,50,0
Combo2 : 141,63,63

[HitObjects]
101,111,95,6,0,B|149:94|149:94|146:103|146:103|185:88|238:98|280:143,1,200.000007629395
151,240,495,2,0,P|183:167|226:202,1,133.333333333333
248,252,895,5,0,0:0:0:0:
66,283,1028,1,0,0:0:0:0:
46,179,1161,1,0,0:0:0:0:
26,75,1295,2,0,B|70:75|70:75|64:77|64:77|104:81|104:81|97:83|97:83|182:87,1,133.333333333333
206,58,1695,5,0,0:0:0:0:
316,344,2095,5,0,0:0:0:0:
236,314,2228,2,0,L|243:269,1,33.3333333333333
216,304,2361,2,0,L|223:259,1,33.3333333333333
329,339,2495,5,0,0:0:0:0:
197,279,2628,2,0,L|232:234,1,41.6666666666667
181,254,2761,2,0,L|216:209,1,41.6666666666667
342,334,2895,5,0,0:0:0:0:
175,216,3028,2,0,L|238:191,1,50.0000019073487
172,182,3161,2,0,L|235:157,1,50.0000019073487
355,329,3295,5,0,0:0:0:0:
206,58,3695,1,0,0:0:0:0:
436,237,3961,2,0,L|431:292,1,50.0000019073487
286,296,4095,6,0,B|364:231|364:231|352:343,1,200.000007629395
183,347,4495,2,0,B|177:285|177:285|200:215|200:215|191:132,1,200.000007629395
175,27,4895,5,0,0:0:0:0:
53,343,5295,1,0,0:0:0:0:
175,27,5561,5,0,0:0:0:0:
209,162,5695,1,0,0:0:0:0:
455,223,5961,5,0,0:0:0:0:
421,88,6095,1,0,0:0:0:0:
355,287,6228,5,0,0:0:0:0:
321,152,6362,1,0,0:0:0:0:
255,351,6495,6,0,B|219:338|219:338|212:348|212:348|149:330|149:330|58:338,1,200.000007629395
149,159,6895,2,0,P|202:216|192:274,1,133.333333333333
52,261,7295,5,0,0:0:0:0:
141,52,7428,1,0,0:0:0:0:
229,115,7561,1,0,0:0:0:0:
255,219,7695,2,0,B|278:243|278:243|304:255|304:255|332:260|332:260|355:258|355:258|401:239,1,133.333333333333
439,170,8095,5,0,0:0:0:0:
69,207,8495,5,0,0:0:0:0:
222,146,8628,2,0,B|219:123|196:101,1,33.3333333333333
247,136,8761,2,0,B|244:113|221:91,1,33.3333333333333
161,212,8895,5,0,0:0:0:0:
317,221,9028,2,0,B|329:242|317:262,1,41.6666666666667
355,251,9161,2,0,B|360:273|344:289,1,41.6666666666667
224,282,9295,5,0,0:0:0:0:
453,189,9428,2,0,P|445:166|424:154,1,50.0000019073487
442,117,9561,2,0,P|419:108|395:116,1,50.0000019073487
344,289,9695,5,0,0:0:0:0:
386,18,10095,1,0,0:0:0:0:
223,306,10361,2,0,L|280:298,1,50.0000019073487
301,212,10495,6,0,B|168:232|168:232|71:192,1,200.000007629395
381,210,10895,2,0,B|356:319|356:319|326:264,1,150.000005722046
384,192,11161,2,0,P|409:187|441:195,1,50.0000019073487
485,301,11295,5,0,0:0:0:0:
275,78,11961,1,0,0:0:0:0:
300,62,12028,1,0,0:0:0:0:
329,57,12095,6,0,P|389:59|468:116,1,150.000005722046
290,205,12361,2,0,P|304:151|397:143,1,150.000005722046
438,218,12628,2,0,P|388:264|387:221,1,150.000005722046
450,82,12895,6,0,B|413:52|374:44|374:44|381:51|381:51|340:45|304:52|304:52|317:55|317:55|276:53|198:117,1,266.666666666667
351,239,13295,2,0,B|382:180|352:125|352:125|331:150|340:182,1,166.666666666667
366,326,13695,5,0,0:0:0:0:
470,257,13828,1,0,0:0:0:0:
236,289,13961,1,0,0:0:0:0:
366,326,14095,2,0,B|375:258|375:258|348:200,1,125
270,109,14361,2,0,P|267:138|286:178,1,66.6666666666667
470,257,14495,5,0,0:0:0:0:
418,39,14761,2,0,L|409:88,1,41.6666666666667
470,257,14895,5,0,0:0:0:0:
470,257,15295,5,0,0:0:0:0:
418,39,15561,2,0,L|409:88,1,41.6666666666667
470,257,15695,5,0,0:0:0:0:
351,296,15828,1,0,0:0:0:0:
236,246,15961,1,0,0:0:0:0:
117,288,16095,5,0,0:0:0:0:
149,37,16361,2,0,L|158:86,1,41.6666666666667
117,288,16495,5,0,0:0:0:0:
398,245,16761,6,0,L|447:236,1,41.6666666666667
301,232,16895,6,0,B|316:312|316:312|354:338|354:338|344:291,1,166.666666666667
338,146,17295,2,0,B|256:129|256:129|213:146,1,125
166,234,17561,2,0,L|225:215,1,41.6666666666667
269,55,17695,5,0,0:0:0:0:
244,52,18095,1,0,0:0:0:0:
219,49,18495,1,0,0:0:0:0:
81,111,18761,5,0,0:0:0:0:
106,114,18828,1,0,0:0:0:0:
131,117,18895,1,0,0:0:0:0:
226,197,19028,1,0,0:0:0:0:
339,146,19161,1,0,0:0:0:0:
431,231,19295,6,0,L|416:328,1,83.3333333333333
226,197,19561,2,0,L|241:294,1,83.3333333333333
21,163,19828,2,0,L|6:260,1,83.3333333333333
289,103,20095,2,0,L|304:200,1,83.3333333333333
117,22,20361,2,0,L|102:119,1,83.3333333333333
376,87,20628,1,0,0:0:0:0:
193,98,20761,1,0,0:0:0:0:
454,126,20895,6,0,B|458:172|458:172|447:224,1,83.3333333333333
225,237,21161,2,0,B|221:283|221:283|232:335,1,83.3333333333333
353,80,21428,2,0,B|357:126|357:126|346:178,1,83.3333333333333
108,130,21695,2,0,B|104:176|104:176|115:228,1,83.3333333333333
436,5,21961,1,0,0:0:0:0:
454,126,22095,1,0,0:0:0:0:
282,50,22228,1,0,0:0:0:0:
261,53,22295,1,0,0:0:0:0:
241,58,22361,2,0,L|225:127,1,41.6666666666667
220,195,22495,5,0,0:0:0:0:
318,182,22628,1,0,0:0:0:0:
198,181,22761,1,0,0:0:0:0:
320,223,22895,5,0,0:0:0:0:
195,133,23028,1,0,0:0:0:0:
269,293,23161,1,0,0:0:0:0:
254,93,23295,5,0,0:0:0:0:
175,298,23428,1,0,0:0:0:0:
350,116,23561,1,0,0:0:0:0:
87,186,23695,5,0,0:0:0:0:
77,208,23761,1,0,0:0:0:0:
84,231,23828,1,0,0:0:0:0:
75,254,23895,1,0,0:0:0:0:
80,278,23961,1,0,0:0:0:0:
72,301,24028,1,0,0:0:0:0:
75,325,24095,6,0,B|111:329|111:329|132:352|132:352|257:363,1,166.666666666667
346,249,24495,2,0,L|251:240,1,83.3333333333333
386,375,24761,2,0,L|427:378,2,41.6666666666667
191,258,25028,2,0,B|141:194|137:96|185:47|243:51|281:94|280:144|227:182,1,333.333333333333
90,231,25695,5,0,0:0:0:0:
330,252,38495,6,0,B|322:170|322:170|407:162|407:162|417:253,1,250
287,89,39295,2,0,B|356:40|356:40|443:84,1,166.666666666667
391,330,39961,5,0,0:0:0:0:
306,248,40095,2,0,P|377:212|465:237,1,166.666666666667
115,349,40761,6,0,P|111:316|118:293,1,41.6666666666667
180,241,40895,2,0,B|133:199|106:218|102:218|98:218|58:241|18:188,2,166.666666666667
383,153,41695,6,0,B|386:106|386:106|420:79|420:79|422:-10|422:-10|359:41,1,250
389,336,42495,2,0,P|462:283|466:203,1,166.666666666667
175,112,43161,5,0,0:0:0:0:
105,176,43295,2,0,B|192:200|192:200|267:151,1,166.666666666667
27,6,43961,6,0,L|22:63,1,41.6666666666667
105,176,44095,2,0,B|114:60|114:60|81:105,2,166.666666666667
89,354,44895,6,0,B|169:319|169:319|253:328|253:328|316:382,1,250
169,52,45695,2,0,B|211:88|211:88|271:94|271:94|328:69,1,166.666666666667
46,28,46361,5,0,0:0:0:0:
122,127,46495,2,0,L|94:296,1,166.666666666667
371,212,47161,6,0,P|342:207|320:213,1,41.6666666666667
350,293,47295,2,0,P|413:294|453:205,2,166.666666666667
464,49,48095,6,0,B|431:89|431:89|226:98,1,250
512,223,48895,2,0,B|434:164|434:164|348:167,1,166.666666666667
43,176,49561,5,0,0:0:0:0:
148,130,49695,2,0,P|168:185|138:296,1,166.666666666667
217,43,50361,6,0,P|242:36|274:37,1,41.6666666666667
343,88,50495,2,0,B|333:153|333:153|359:192|359:192|347:264,2,166.666666666667
256,192,51295,12,0,55695,0:0:0:0:
410,218,55828,5,0,0:0:0:0:
416,207,55895,1,0,0:0:0:0:
420,186,55961,1,0,0:0:0:0:
417,156,56028,1,0,0:0:0:0:
398,123,56095,6,0,L|217:137,1,166.666666666667
126,237,56495,1,0,0:0:0:0:
166,62,56628,1,0,0:0:0:0:
250,56,56761,1,0,0:0:0:0:
21,76,56895,5,0,0:0:0:0:
126,237,57028,1,0,0:0:0:0:
210,231,57161,1,0,0:0:0:0:
45,384,57295,6,0,B|71:331|56:291|50:290|44:290|7:230|52:173,1,208.333333333333
126,114,57695,5,0,0:0:0:0:
415,299,57961,2,0,B|351:294|351:294|319:257|319:257|244:248,1,166.666666666667
146,237,58361,1,0,0:0:0:0:
276,330,58495,5,0,0:0:0:0:
393,222,58628,1,0,0:0:0:0:
310,181,58761,1,0,0:0:0:0:
359,371,58895,5,0,0:0:0:0:
393,222,59028,1,0,0:0:0:0:
278,102,59161,1,0,0:0:0:0:
199,247,59295,6,0,B|248:264|248:264|299:259,2,83.3333333333333
96,157,59695,2,0,B|47:174|47:174|15:170,2,83.3333333333333
223,62,60095,5,0,0:0:0:0:
201,49,60228,1,0,0:0:0:0:
176,48,60361,1,0,0:0:0:0:
232,162,60495,5,0,0:0:0:0:
328,137,60628,1,0,0:0:0:0:
420,174,60761,1,0,0:0:0:0:
462,265,60895,5,0,0:0:0:0:
123,259,61161,2,0,L|161:78,1,166.666666666667
226,23,61561,1,0,0:0:0:0:
85,28,61695,5,0,0:0:0:0:
229,128,61828,1,0,0:0:0:0:
330,103,61961,1,0,0:0:0:0:
226,23,62095,5,0,0:0:0:0:
284,207,62228,1,0,0:0:0:0:
460,127,62361,1,0,0:0:0:0:
229,128,62495,6,0,B|202:140|202:140|205:218,2,83.3333333333333
330,103,62895,2,0,B|357:91|357:91|354:13,2,83.3333333333333
252,30,63295,5,0,0:0:0:0:
288,287,63428,1,0,0:0:0:0:
386,268,63561,1,0,0:0:0:0:
286,310,63695,1,0,0:0:0:0:
189,286,63828,1,0,0:0:0:0:
94,316,63961,1,0,0:0:0:0:
431,204,64361,6,0,B|426:185|405:176|387:190|387:190|355:197|308:182|276:152,1,166.666666666667
235,24,64761,1,0,0:0:0:0:
362,116,64895,5,0,0:0:0:0:
214,110,65028,1,0,0:0:0:0:
341,30,65161,1,0,0:0:0:0:
395,187,65295,5,0,0:0:0:0:
248,269,65428,1,0,0:0:0:0:
129,145,65561,1,0,0:0:0:0:
329,266,65695,6,0,L|311:367,2,83.3333333333333
134,310,66095,2,0,L|119:227,2,83.3333333333333
264,166,66495,5,0,0:0:0:0:
196,80,66628,1,0,0:0:0:0:
103,86,66761,1,0,0:0:0:0:
230,247,66895,5,0,0:0:0:0:
386,165,67028,1,0,0:0:0:0:
321,12,67161,1,0,0:0:0:0:
328,254,67295,5,0,0:0:0:0:
476,39,67561,2,0,B|452:82|452:82|320:92,1,166.666666666667
234,40,67961,1,0,0:0:0:0:
312,171,68095,5,0,0:0:0:0:
190,124,68228,1,0,0:0:0:0:
100,153,68361,1,0,0:0:0:0:
231,199,68495,5,0,0:0:0:0:
151,50,68628,1,0,0:0:0:0:
21,217,68761,1,0,0:0:0:0:
275,126,68895,6,0,P|326:121|364:133,2,83.3333333333333
387,266,69295,2,0,P|336:271|298:259,2,83.3333333333333
231,199,69695,5,0,0:0:0:0:
487,194,69828,1,0,0:0:0:0:
439,334,69961,1,0,0:0:0:0:
387,266,70095,1,0,0:0:0:0:
346,303,70228,1,0,0:0:0:0:
311,282,70361,1,0,0:0:0:0:
106,332,70495,5,0,0:0:0:0:
131,261,70895,1,0,0:0:0:0:
100,192,71295,1,0,0:0:0:0:
127,122,71695,1,0,0:0:0:0:
104,50,71961,1,0,0:0:0:0:
191,320,72095,5,0,0:0:0:0:
216,249,72495,1,0,0:0:0:0:
185,180,72895,1,0,0:0:0:0:
212,110,73161,1,0,0:0:0:0:
200,78,73227,1,0,0:0:0:0:
190,45,73294,1,0,0:0:0:0:
103,187,73427,1,0,0:0:0:0:
290,68,73561,1,0,0:0:0:0:
274,313,73695,5,0,0:0:0:0:
299,242,74095,1,0,0:0:0:0:
268,173,74495,1,0,0:0:0:0:
295,103,74895,1,0,0:0:0:0:
272,31,75161,1,0,0:0:0:0:
359,301,75295,5,0,0:0:0:0:
384,230,75695,1,0,0:0:0:0:
353,161,76095,1,0,0:0:0:0:
380,91,76361,1,0,0:0:0:0:
368,59,76427,1,0,0:0:0:0:
358,26,76494,1,0,0:0:0:0:
264,219,76628,1,0,0:0:0:0:
353,161,76761,1,0,0:0:0:0:
115,229,76895,5,0,0:0:0:0:
81,286,77028,1,0,0:0:0:0:
108,346,77161,1,0,0:0:0:0:
235,247,77295,5,0,0:0:0:0:
235,173,77428,1,0,0:0:0:0:
176,131,77561,1,0,0:0:0:0:
164,287,77695,5,0,0:0:0:0:
234,327,77828,1,0,0:0:0:0:
305,293,77961,1,0,0:0:0:0:
156,147,78095,5,0,0:0:0:0:
75,147,78228,1,0,0:0:0:0:
30,212,78361,1,0,0:0:0:0:
231,307,78495,5,0,0:0:0:0:
203,219,78628,1,0,0:0:0:0:
238,134,78761,1,0,0:0:0:0:
125,74,78895,5,0,0:0:0:0:
221,43,79028,1,0,0:0:0:0:
315,81,79161,1,0,0:0:0:0:
394,0,79295,5,0,0:0:0:0:
428,105,79428,1,0,0:0:0:0:
386,208,79561,1,0,0:0:0:0:
315,81,79695,5,0,0:0:0:0:
281,186,79828,1,0,0:0:0:0:
323,289,79961,1,0,0:0:0:0:
484,55,80095,5,0,0:0:0:0:
444,43,80228,1,0,0:0:0:0:
403,50,80361,1,0,0:0:0:0:
323,289,80495,5,0,0:0:0:0:
283,301,80628,1,0,0:0:0:0:
242,294,80761,1,0,0:0:0:0:
358,128,80895,5,0,0:0:0:0:
338,122,81028,1,0,0:0:0:0:
317,125,81161,1,0,0:0:0:0:
390,205,81295,5,0,0:0:0:0:
370,211,81428,1,0,0:0:0:0:
349,207,81561,1,0,0:0:0:0:
185,41,81695,6,0,L|222:34,1,33.3333333333333
330,63,81828,2,0,L|297:43,1,33.3333333333333
167,70,81961,6,0,P|189:63|216:59,1,39.9999987792969
336,96,82094,2,0,P|317:81|293:68,1,39.9999987792969
151,109,82228,6,0,P|176:97|204:94,1,46.6666652425131
338,138,82361,2,0,P|318:118|293:105,1,46.6666652425131
132,162,82495,6,0,P|151:137|200:129,1,56.6666677474976
338,194,82628,2,0,P|328:164|285:139,1,56.6666677474976
106,237,82761,6,0,P|113:209|155:182,1,66.6666666666667
337,274,82894,2,0,P|339:245|309:205,1,66.6666666666667
70,325,83028,6,0,P|63:282|130:266,1,79.9999975585938
340,369,83161,2,0,P|361:330|303:293,1,79.9999975585938
249,100,83295,5,0,0:0:0:0:
460,152,83695,1,0,0:0:0:0:
453,199,84095,1,0,0:0:0:0:
446,246,84495,1,0,0:0:0:0:
85,227,84895,6,0,P|299:124|309:185,1,400.00001525879
85,227,85295,6,0,B|151:30|151:30|312:149,1,400.00001525879
85,227,85695,6,0,B|134:217|134:217|193:232|193:232|268:217,1,166.666666666667
362,200,86095,6,0,P|348:228|332:208,1,66.6666666666667
456,130,86495,6,0,B|442:218|442:218|458:310|458:310|381:296|381:296|279:328,1,333.333333333333
148,355,86895,6,0,B|82:339|82:339|142:305|159:225|123:173|67:172|17:202|17:260|73:293|120:277|120:277|167:251|179:169,1,500.000019073487
148,98,87295,6,0,P|132:123|129:149,1,39.9999987792969
238,80,87428,2,0,P|232:119|250:156,1,50.0000019073487
343,49,87561,2,0,P|370:72|404:78,1,59.9999981689454
309,175,87695,1,0,0:0:0:0:
324,297,87828,1,0,0:0:0:0:
412,359,87961,1,0,0:0:0:0:
220,204,88095,6,0,L|209:141,1,59.9999981689454
393,191,88228,2,0,L|404:128,1,59.9999981689454
195,230,88361,2,0,L|163:174,1,59.9999981689454
456,261,88495,6,0,L|465:207,1,50.0000019073487
307,249,88628,2,0,L|297:195,1,50.0000019073487
477,283,88761,2,0,L|504:235,1,50.0000019073487
287,124,88895,6,0,L|336:129,1,39.9999987792969
432,196,89028,2,0,L|393:191,1,39.9999987792969
268,107,89161,2,0,L|317:112,1,39.9999987792969
419,27,89295,6,0,P|422:46|420:58,1,26.6666666666667
383,113,89428,2,0,P|380:94|382:82,1,26.6666666666667
432,33,89561,2,0,P|435:52|433:64,1,26.6666666666667
298,199,89695,6,0,P|321:212|322:184,1,50
388,242,89961,6,0,P|350:278|317:278,1,66.6666666666667
163,235,90095,6,0,B|134:198|67:188|23:226|12:281|42:327|100:339|155:321|155:321|213:297|307:344,1,416.666666666667
383,287,90495,6,0,P|347:297|323:295,1,39.9999987792969
249,207,90628,2,0,P|273:218|311:208,1,50.0000019073487
459,154,90761,2,0,P|434:170|385:151,1,59.9999981689454
232,43,90895,1,0,0:0:0:0:
396,83,91028,1,0,0:0:0:0:
295,120,91161,1,0,0:0:0:0:
459,154,91295,6,0,L|471:86,1,59.9999981689454
287,194,91428,2,0,L|297:253,1,59.9999981689454
394,101,91561,2,0,L|406:33,1,59.9999981689454
202,178,91695,6,0,L|212:237,1,50.0000019073487
249,89,91828,2,0,L|238:29,1,50.0000019073487
116,167,91961,2,0,L|126:226,1,50.0000019073487
290,292,92095,6,0,L|298:242,1,39.9999987792969
195,138,92228,2,0,L|201:177,1,39.9999987792969
380,246,92361,1,0,0:0:0:0:
140,296,92495,1,0,0:0:0:0:
415,330,92628,1,0,0:0:0:0:
415,330,92695,1,0,0:0:0:0:
415,330,92761,1,0,0:0:0:0:
302,154,92895,6,0,P|353:116|452:143,1,159.999995117188
255,90,93295,6,0,P|344:88|222:146,1,416.666666666667
107,98,93695,6,0,L|101:44,1,39.9999987792969
8,166,93828,2,0,L|14:112,1,50.0000019073487
119,249,93961,2,0,L|109:163,1,59.9999981689454
5,329,94095,1,0,0:0:0:0:
112,189,94228,1,0,0:0:0:0:
13,116,94361,1,0,0:0:0:0:
215,45,94495,6,0,P|242:38|281:48,1,59.9999981689454
350,201,94628,2,0,P|323:208|284:198,1,59.9999981689454
191,38,94761,2,0,P|215:24|255:23,1,59.9999981689454
201,217,94895,6,0,P|182:227|153:232,1,50.0000019073487
68,102,95028,2,0,P|86:91|116:87,1,50.0000019073487
222,222,95161,2,0,P|206:237|179:248,1,50.0000019073487
23,208,95295,6,0,P|43:194|65:190,1,39.9999987792969
64,321,95428,2,0,P|43:334|21:338,1,39.9999987792969
0,211,95561,2,0,P|15:192|36:183,1,39.9999987792969
170,334,95695,6,0,P|153:335|139:332,1,26.6666666666667
180,248,95828,2,0,P|197:247|211:250,1,26.6666666666667
180,346,95961,2,0,P|163:347|149:344,1,26.6666666666667
281,306,96095,6,0,B|305:314|305:314|332:305,1,50
351,296,96361,1,0,0:0:0:0:
376,135,96495,6,0,P|353:126|309:138,1,66.6666666666667
280,159,96628,2,0,P|216:179|103:118,1,200
75,37,96895,6,0,B|105:26|105:26|140:38,1,66.6666666666667
175,135,97295,6,0,P|198:144|242:132,1,66.6666666666667
271,111,97428,2,0,P|335:91|448:152,1,200
476,233,97695,6,0,B|445:243|445:243|410:231,1,66.6666666666667
376,135,98095,6,0,P|353:126|309:138,1,66.6666666666667
280,159,98228,2,0,P|216:179|103:118,1,200
75,37,98495,6,0,B|100:28|100:28|128:38,1,50
214,138,98761,2,0,B|188:146|188:146|160:136,1,50
264,37,99028,2,0,B|289:28|289:28|317:38,1,50
217,158,99295,6,0,B|191:166|191:166|163:156,1,50
264,51,99428,1,0,0:0:0:0:
485,312,99695,6,0,B|462:291|428:289|404:310|404:310|361:347|295:368|209:356|138:232,1,333.333333333333
197,197,100095,6,0,P|222:198|256:214,1,39.9999987792969
280,133,100228,2,0,P|301:150|314:183,1,50.0000019073487
446,147,100361,2,0,P|451:173|438:211,1,59.9999981689454
298,257,100495,1,0,0:0:0:0:
202,118,100628,1,0,0:0:0:0:
255,16,100761,1,0,0:0:0:0:
366,236,100895,6,0,P|343:255|306:267,1,59.9999981689454
149,190,101028,2,0,P|163:216|193:240,1,59.9999981689454
400,230,101161,2,0,P|383:254|351:275,1,59.9999981689454
234,147,101295,6,0,P|252:163|284:174,1,50.0000019073487
419,107,101428,2,0,P|407:129|380:149,1,50.0000019073487
204,141,101561,2,0,P|217:162|245:180,1,50.0000019073487
339,65,101695,6,0,P|323:78|298:86,1,39.9999987792969
190,32,101828,2,0,P|199:49|220:66,1,39.9999987792969
363,60,101961,2,0,P|351:76|329:91,1,39.9999987792969
160,126,102095,6,0,P|175:130|196:129,1,26.6666666666667
240,67,102228,2,0,P|225:63|204:64,1,26.6666666666667
150,134,102361,2,0,P|165:138|186:137,1,26.6666666666667
116,30,102495,6,0,L|61:38,1,50
20,123,102761,6,0,L|99:109,1,66.6666666666667
256,133,102895,6,0,B|295:95|284:30|184:-3|152:73|146:136|163:184|237:255,1,333.333333333333
324,162,103295,6,0,P|337:138|344:102,1,39.9999987792969
287,259,103428,2,0,P|314:264|359:238,1,50.0000019073487
147,305,103561,2,0,P|160:328|222:354,1,59.9999981689454
16,197,103695,1,0,0:0:0:0:
127,314,103828,1,0,0:0:0:0:
280,273,103961,1,0,0:0:0:0:
313,175,104095,6,0,B|286:160|286:160|239:167,1,59.9999981689454
132,200,104228,2,0,B|159:215|159:215|206:208,1,59.9999981689454
216,87,104361,2,0,B|189:72|189:72|142:79,1,59.9999981689454
276,243,104495,6,0,B|298:255|298:255|336:249,1,50.0000019073487
426,144,104628,2,0,B|403:131|403:131|365:137,1,50.0000019073487
269,265,104761,2,0,B|291:277|291:277|329:271,1,50.0000019073487
295,133,104895,5,0,0:0:0:0:
359,357,105028,1,0,0:0:0:0:
499,173,105161,1,0,0:0:0:0:
356,374,105295,6,0,P|339:380|335:360,1,39.9999987792969
452,345,105428,6,0,P|442:360|426:347,1,39.9999987792969
506,264,105561,6,0,P|508:281|488:282,1,39.9999987792969
125,73,105961,5,0,0:0:0:0:
136,152,106028,1,0,0:0:0:0:
150,234,106095,2,0,B|179:242|179:242|212:236|212:236|237:218|237:218|277:211|277:211|306:220|306:220|340:214|340:214|364:196|364:196|398:190|398:190|427:198|427:198|468:189,1,333.333333333333
311,301,106495,6,0,P|291:298|265:282,1,39.9999987792969
316,205,106628,2,0,P|308:186|309:155,1,39.9999987792969
435,119,106761,2,0,P|447:103|494:83,1,59.9999981689454
396,267,106895,1,0,0:0:0:0:
233,145,107028,1,0,0:0:0:0:
276,26,107161,1,0,0:0:0:0:
370,177,107295,6,0,P|346:195|302:195,1,59.9999981689454
207,70,107428,2,0,P|177:73|153:91,1,59.9999981689454
180,244,107561,2,0,P|156:261|126:265,1,59.9999981689454
48,151,107695,6,0,P|67:136|92:132,1,50.0000019073487
214,204,107828,2,0,P|238:199|258:185,1,50.0000019073487
274,48,107961,2,0,P|293:33|318:29,1,50.0000019073487
370,177,108095,6,0,L|351:241,1,39.9999987792969
259,125,108228,2,0,L|247:86,1,39.9999987792969
139,189,108361,2,0,L|120:253,1,39.9999987792969
6,138,108495,6,0,L|17:99,1,26.6666666666667
52,212,108628,2,0,L|44:237,1,26.6666666666667
159,55,108761,1,0,0:0:0:0:
195,39,108828,1,0,0:0:0:0:
230,23,108895,5,0,0:0:0:0:
290,235,109028,1,0,0:0:0:0:
478,72,109295,6,0,P|394:46|272:116,1,200
290,235,109561,2,0,P|299:204|289:159,1,66.6666666666667
149,68,109695,6,0,B|136:95|136:95|140:127,1,50
144,139,109961,1,0,0:0:0:0:
152,162,110028,1,0,0:0:0:0:
169,182,110095,5,0,0:0:0:0:
186,209,110161,1,0,0:0:0:0:
192,248,110228,1,0,0:0:0:0:
171,289,110295,1,0,0:0:0:0:
119,301,110361,1,0,0:0:0:0:
74,259,110428,1,0,0:0:0:0:
84,204,110495,6,0,B|183:193|183:193|276:222|276:222|394:207,1,300.000011444092
58,56,111295,2,0,L|72:131,2,66.6666666666667
412,113,112095,5,0,0:0:0:0:
58,56,112495,1,0,0:0:0:0:
176,75,112895,1,0,0:0:0:0:
294,94,113295,1,0,0:0:0:0:
412,113,113561,5,0,0:0:0:0:
58,56,113695,1,0,0:0:0:0:
176,75,114095,1,0,0:0:0:0:
294,94,114495,1,0,0:0:0:0:
412,113,114761,5,0,0:0:0:0:
421,152,114828,1,0,0:0:0:0:
411,191,114895,1,0,0:0:0:0:
230,155,115028,1,0,0:0:0:0:
355,15,115161,1,0,0:0:0:0:
302,253,115295,5,0,0:0:0:0:
212,240,115695,1,0,0:0:0:0:
142,182,116095,1,0,0:0:0:0:
118,95,116495,1,0,0:0:0:0:
139,7,116761,5,0,0:0:0:0:
302,253,116895,1,0,0:0:0:0:
212,240,117295,5,0,0:0:0:0:
315,214,117428,2,0,L|311:181,1,25.0000009536744
336,204,117561,2,0,L|332:171,1,25.0000009536744
214,221,117695,5,0,0:0:0:0:
81,166,117828,2,0,L|86:109,1,41.6666666666667
44,148,117961,2,0,L|49:91,1,41.6666666666667
216,200,118095,5,0,0:0:0:0:
411,159,118228,2,0,L|402:84,1,58.3333338896433
458,135,118361,2,0,L|448:62,1,58.3333338896433
212,240,118495,5,0,0:0:0:0:
247,271,118628,1,0,0:0:0:0:
294,271,118761,1,0,0:0:0:0:
137,199,118895,5,0,0:0:0:0:
125,248,119028,1,0,0:0:0:0:
152,293,119161,1,0,0:0:0:0:
137,104,119295,5,0,0:0:0:0:
83,119,119428,1,0,0:0:0:0:
55,168,119561,1,0,0:0:0:0:
235,60,119695,5,0,0:0:0:0:
191,16,119828,1,0,0:0:0:0:
128,16,119961,1,0,0:0:0:0:
256,146,120095,5,0,0:0:0:0:
324,123,120228,1,0,0:0:0:0:
392,100,120361,1,0,0:0:0:0:
283,189,120495,5,0,0:0:0:0:
208,163,120628,1,0,0:0:0:0:
133,138,120761,1,0,0:0:0:0:
258,242,120895,5,0,0:0:0:0:
340,213,121028,1,0,0:0:0:0:
422,185,121161,1,0,0:0:0:0:
286,295,121295,5,0,0:0:0:0:
195,263,121428,1,0,0:0:0:0:
105,232,121561,1,0,0:0:0:0:
256,146,121695,5,0,0:0:0:0:
286,295,121828,1,0,0:0:0:0:
288,133,121961,1,0,0:0:0:0:
195,263,122095,5,0,0:0:0:0:
392,276,122228,1,0,0:0:0:0:
173,182,122361,1,0,0:0:0:0:
289,377,122495,5,0,0:0:0:0:
347,187,122628,1,0,0:0:0:0:
178,365,122761,1,0,0:0:0:0:
367,166,122895,5,0,0:0:0:0:
356,135,123028,1,0,0:0:0:0:
347,104,123161,1,0,0:0:0:0:
336,72,123295,6,0,B|311:57|298:76|293:77|288:78|275:98|240:86,1,100
436,153,124095,6,0,P|463:152|443:136,1,66.6666666666667
336,72,124495,6,0,L|354:259,1,159.999995117188
364,343,124895,6,0,B|319:335|319:335|282:349|282:349|237:342|237:342|188:357|188:357|140:351|140:351|102:366|102:366|26:354,1,333.333333333333
171,216,125295,6,0,B|198:155|201:78|170:38|170:38|134:73|161:139,1,266.666666666667
487,154,125695,2,0,B|440:105|411:34|427:-14|427:-14|472:6|470:78,1,266.666666666667
110,204,126095,2,0,B|144:168|165:115|154:80|154:80|120:95|122:148,1,200
184,177,126361,2,0,P|224:189|265:174,1,66.6666666666667
326,74,126495,6,0,P|278:1|254:125,1,266.666666666667
411,219,126895,2,0,B|437:183|485:177|530:201|530:201|481:175|461:126|481:61,1,266.666666666667
247,235,127295,2,0,B|215:323|215:323|247:353|247:353|292:348|292:348|328:243,1,266.666666666667
292,113,127695,6,0,P|283:95|260:77,1,39.9999987792969
411,219,127828,2,0,P|431:220|472:198,1,50.0000019073487
247,235,127961,2,0,P|235:251|238:314,1,59.9999981689454
386,87,128095,6,0,B|369:53|369:53|339:26|339:26|293:8|293:8|250:3|250:3|205:17|205:17|167:38|167:38|131:49|131:49|88:51,1,333.333333333333
321,179,128495,6,0,B|408:188|491:147|497:75|497:75|438:114,1,266.666666666667
185,211,128895,2,0,B|220:290|297:342|363:311|363:311|299:279,1,266.666666666667
71,125,129295,2,0,B|32:178|27:248|72:279|72:279|69:226,1,200
0,195,129561,2,0,P|5:162|19:132,1,66.6666666666667
78,357,129695,6,0,B|126:334|126:334|118:358|118:358|180:321|252:326|339:370,1,266.666666666667
160,195,130095,2,0,B|212:189|212:189|197:209|197:209|268:196|334:225|400:296,1,266.666666666667
292,70,130495,2,0,B|332:80|332:80|315:90|315:90|371:99|412:139|442:209,1,200
497,0,130761,2,0,P|509:83|475:135,1,133.333333333333
369,266,131028,5,0,0:0:0:0:
396,271,131095,1,0,0:0:0:0:
409,248,131161,1,0,0:0:0:0:
391,227,131228,1,0,0:0:0:0:
365,237,131295,6,0,B|314:246|314:246|261:225|261:225|121:242|121:242|208:273,1,333.333333333333
320,169,131695,6,0,B|268:151|268:151|43:179,1,266.666666666667
382,113,132095,2,0,B|279:75|279:75|72:100,1,266.666666666667
414,47,132495,2,0,B|287:0|287:0|223:7,1,200
57,101,132761,2,0,L|138:91,1,66.6666666666667
300,130,132895,6,0,B|339:100|339:100|330:333,1,266.666666666667
461,94,133295,2,0,B|415:75|415:75|484:297,1,266.666666666667
240,150,133695,2,0,B|267:108|267:108|334:332,1,266.666666666667
342,99,134095,6,0,L|327:50,1,39.9999987792969
223,227,134228,2,0,L|238:278,1,50.0000019073487
172,57,134361,2,0,L|153:-4,1,59.9999981689454
56,246,134495,6,0,B|115:234|115:234|168:150|168:150|73:167,1,250
6,182,134761,1,0,0:0:0:0:
337,201,134895,6,0,P|361:114|252:171,1,266.666666666667
346,358,135295,6,0,L|421:348,1,66.6666666666667
247,152,135695,6,0,P|183:87|178:210,1,266.666666666667
395,310,136095,6,0,L|443:303,1,50
488,223,136361,6,0,L|421:231,1,66.6666666666667
234,252,136495,6,0,P|200:213|269:198,1,133.333333333333
460,151,136628,6,0,L|508:144,1,50
451,303,136895,6,0,L|384:311,1,66.6666666666667
262,327,137295,6,0,L|264:355,1,26.6666666666667
324,215,137695,6,0,L|317:124,1,66.6666666666667
236,16,137828,6,0,L|240:73,1,50
439,312,138095,6,0,B|486:250|509:168|478:128|420:100|366:123|350:176|378:219,1,333.333333333333
172,161,138495,2,0,B|149:86|155:2|198:-25|262:-31|305:9|302:63|261:94,1,333.333333333333
81,299,138895,2,0,B|98:243|93:179|61:159|13:154|-18:184|-16:225|14:249,1,250
81,299,139161,1,0,0:0:0:0:
82,106,139295,6,0,B|168:120|168:120|250:107|250:107|331:127|331:127|301:149|301:149|248:138,1,333.333333333333
166,47,139695,2,0,B|252:33|252:33|334:53|334:53|415:26|415:26|385:4|385:4|334:19,1,333.333333333333
256,109,140095,2,0,B|337:127|337:127|418:103|418:103|500:134|500:134|470:156|470:156|419:141,1,333.333333333333
340,203,140495,6,0,L|301:196,1,39.9999987792969
445,289,140628,2,0,L|502:277,1,50.0000019073487
417,76,140761,2,0,L|355:94,1,59.9999981689454
203,194,140895,6,0,B|166:263|166:263|178:349|178:349|238:283|238:283|232:197,1,333.333333333333
190,71,141295,6,0,B|19:103|19:103|105:36,1,266.666666666667
342,130,141695,2,0,B|513:162|513:162|427:95,1,266.666666666667
203,194,142095,2,0,B|72:218|72:218|138:167,1,200
203,194,142361,1,0,0:0:0:0:
0,292,142495,6,0,B|16:335|45:349|45:349|73:358|82:403|32:413|18:379|45:348|45:348|81:318|75:261,1,266.666666666667
157,112,142895,2,0,B|140:68|111:54|111:54|83:45|74:0|124:-10|138:24|111:55|111:55|75:85|81:142,1,266.666666666667
171,290,143295,6,0,P|196:302|227:299,1,50.0000019073487
361,220,143428,2,0,P|349:245|323:262,1,50.0000019073487
176,245,143561,2,0,P|187:270|213:287,1,50.0000019073487
436,259,143695,6,0,P|401:148|283:196,1,266.666666666667
482,332,144095,6,0,B|475:298|475:298|485:269|485:269|473:242|473:242|482:211|482:211|469:178|469:178|482:148|482:148|469:120|469:120|482:71,1,250
488,19,144361,5,0,0:0:0:0:
404,27,144428,1,0,0:0:0:0:
321,37,144495,6,0,B|132:56|132:56|220:103,1,266.666666666667
332,302,144895,2,0,B|517:282|517:282|430:235,1,266.666666666667
202,171,145295,2,0,B|62:184|62:184|127:219,1,200
202,171,145561,1,0,0:0:0:0:
432,338,145695,6,0,B|404:270|423:209|431:208|442:208|457:154|421:67,1,266.666666666667
287,272,146095,2,0,B|315:204|296:143|288:142|277:142|262:88|298:1,1,266.666666666667
161,340,146495,2,0,B|133:272|152:211|160:210|171:210|186:156|150:69,1,266.666666666667
10,271,146895,1,0,0:0:0:0:
161,340,147028,1,0,0:0:0:0:
41,195,147161,1,0,0:0:0:0:
59,152,147228,1,0,0:0:0:0:
75,114,147295,5,0,0:0:0:0:
52,353,147428,1,0,0:0:0:0:
110,27,147695,6,0,P|226:14|306:47,1,200
235,176,147961,2,0,P|227:142|247:96,1,66.6666666666667
473,96,148095,6,0,B|452:197|452:197|467:307|467:307|414:264,1,266.666666666667
305,118,148495,2,0,B|319:190|319:190|309:268|309:268|347:237,1,200
387,147,148761,1,0,0:0:0:0:
347,336,148895,6,0,P|316:345|260:322,3,50.0000019073487
235,241,149161,2,0,P|202:234|170:243,3,50.0000019073487
91,350,149428,2,0,P|70:335|55:315,3,50.0000019073487
65,180,149695,5,0,0:0:0:0:
80,148,149761,1,0,0:0:0:0:
103,121,149828,1,0,0:0:0:0:
133,102,149895,1,0,0:0:0:0:
167,96,149961,5,0,0:0:0:0:
210,107,150028,1,0,0:0:0:0:
254,111,150095,1,0,0:0:0:0:
297,99,150161,1,0,0:0:0:0:
334,73,150228,5,0,0:0:0:0:
315,130,150295,1,0,0:0:0:0:
318,189,150361,1,0,0:0:0:0:
339,245,150428,1,0,0:0:0:0:
384,284,150495,5,0,0:0:0:0:
78,250,163295,6,0,B|141:140|141:140|142:277,1,250
92,56,164095,2,0,P|176:35|231:104,1,166.666666666667
341,344,164761,5,0,0:0:0:0:
413,260,164895,2,0,B|399:202|399:202|413:146|413:146|395:84,1,166.666666666667
147,177,165561,6,0,L|155:235,1,41.6666666666667
223,153,165695,2,0,B|204:26|204:26|181:70,2,166.666666666667
398,201,166495,6,0,B|401:248|401:248|435:275|435:275|437:364|437:364|374:313,1,250
404,18,167295,2,0,P|477:71|481:151,1,166.666666666667
196,213,167961,5,0,0:0:0:0:
126,149,168095,2,0,B|213:125|213:125|288:174,1,166.666666666667
52,319,168761,6,0,L|47:262,1,41.6666666666667
123,225,168895,2,0,B|132:340|132:340|102:393,2,166.666666666667
90,62,169695,6,0,B|219:47|219:47|258:68|258:68|291:37|291:37|339:30,1,250
41,132,170495,2,0,B|50:252|50:252|92:294,1,166.666666666667
417,275,171161,5,0,0:0:0:0:
454,150,171295,2,0,L|276:189,1,166.666666666667
117,320,171961,6,0,L|99:374,1,41.6666666666667
217,298,172095,2,0,B|231:242|231:242|208:192|208:192|230:123,2,166.666666666667
319,58,172895,6,0,P|221:32|80:108,1,250
445,249,173695,2,0,P|478:168|396:137,1,166.666666666667
223,315,174361,5,0,0:0:0:0:
108,241,174495,2,0,B|160:251|160:251|286:224,1,166.666666666667
119,39,175161,6,0,L|123:87,1,41.6666666666667
181,202,175295,2,0,P|180:149|270:170,2,166.666666666667
256,192,176095,12,0,180495,0:0:0:0:
122,283,180628,5,0,0:0:0:0:
126,271,180695,1,0,0:0:0:0:
116,252,180761,1,0,0:0:0:0:
131,227,180828,1,0,0:0:0:0:
108,196,180895,6,0,L|277:224,1,166.666666666667
465,262,181295,5,0,0:0:0:0:
299,159,181428,1,0,0:0:0:0:
316,72,181561,1,0,0:0:0:0:
197,211,181695,5,0,0:0:0:0:
389,177,181828,1,0,0:0:0:0:
406,90,181961,1,0,0:0:0:0:
252,288,182095,6,0,P|267:353|373:311,1,208.333333333333
338,197,182495,5,0,0:0:0:0:
80,64,182761,2,0,B|96:67|102:81|101:87|83:98|83:98|71:106|60:134|54:163|63:198|86:236,1,200.000007629395
221,258,183161,1,0,0:0:0:0:
2,236,183295,5,0,0:0:0:0:
137,153,183428,1,0,0:0:0:0:
120,337,183561,1,0,0:0:0:0:
206,112,183695,5,0,0:0:0:0:
31,318,183828,1,0,0:0:0:0:
274,182,183961,1,0,0:0:0:0:
26,145,184095,6,0,L|46:32,2,100.000003814697
207,236,184495,2,0,L|224:334,2,100.000003814697
176,67,184895,5,0,0:0:0:0:
301,191,185028,1,0,0:0:0:0:
387,139,185161,1,0,0:0:0:0:
207,236,185295,5,0,0:0:0:0:
312,110,185428,1,0,0:0:0:0:
355,340,185561,1,0,0:0:0:0:
460,214,185695,5,0,0:0:0:0:
136,158,185961,2,0,B|185:138|175:71|175:71|188:133|258:139,1,200.000007629395
315,69,186361,1,0,0:0:0:0:
96,89,186495,5,0,0:0:0:0:
243,21,186628,1,0,0:0:0:0:
66,20,186761,1,0,0:0:0:0:
285,162,186895,5,0,0:0:0:0:
154,22,187028,1,0,0:0:0:0:
211,244,187161,1,0,0:0:0:0:
391,153,187295,6,0,P|441:185|455:231,2,100.000003814697
215,110,187695,2,0,P|217:50|250:15,2,100.000003814697
341,233,188095,5,0,0:0:0:0:
72,127,188228,1,0,0:0:0:0:
119,190,188361,1,0,0:0:0:0:
198,177,188495,1,0,0:0:0:0:
151,114,188628,1,0,0:0:0:0:
87,266,188761,1,0,0:0:0:0:
381,25,189161,6,0,B|434:55|434:55|420:219,1,200.000007629395
398,316,189561,1,0,0:0:0:0:
337,128,189695,5,0,0:0:0:0:
463,259,189828,1,0,0:0:0:0:
267,179,189961,1,0,0:0:0:0:
512,122,190095,5,0,0:0:0:0:
327,277,190228,1,0,0:0:0:0:
422,91,190361,1,0,0:0:0:0:
399,338,190495,6,0,B|374:362|374:362|292:366,2,100.000003814697
176,206,190895,2,0,B|201:182|201:182|283:178,2,100.000003814697
376,180,191295,5,0,0:0:0:0:
232,94,191428,1,0,0:0:0:0:
340,99,191561,1,0,0:0:0:0:
133,32,191695,5,0,0:0:0:0:
364,98,191828,1,0,0:0:0:0:
136,159,191961,1,0,0:0:0:0:
286,33,192095,5,0,0:0:0:0:
216,309,192361,2,0,B|317:350|317:350|417:302,1,200.000007629395
309,207,192761,1,0,0:0:0:0:
155,362,192895,5,0,0:0:0:0:
202,231,193028,1,0,0:0:0:0:
62,305,193161,1,0,0:0:0:0:
161,127,193295,5,0,0:0:0:0:
136,288,193428,1,0,0:0:0:0:
268,85,193561,1,0,0:0:0:0:
95,199,193695,6,0,P|71:174|61:148,2,50.0000019073487
65,76,194095,2,0,P|74:42|92:21,2,50.0000019073487
181,132,194495,5,0,0:0:0:0:
212,155,194628,1,0,0:0:0:0:
250,146,194761,1,0,0:0:0:0:
281,169,194894,1,0,0:0:0:0:
320,164,195028,1,0,0:0:0:0:
351,187,195161,1,0,0:0:0:0:
423,330,195295,5,0,0:0:0:0:
398,259,195695,1,0,0:0:0:0:
429,190,196095,1,0,0:0:0:0:
402,120,196495,1,0,0:0:0:0:
425,48,196761,1,0,0:0:0:0:
338,318,196895,5,0,0:0:0:0:
313,247,197295,1,0,0:0:0:0:
344,178,197695,1,0,0:0:0:0:
317,108,197961,1,0,0:0:0:0:
329,76,198027,1,0,0:0:0:0:
339,43,198094,1,0,0:0:0:0:
426,185,198227,1,0,0:0:0:0:
239,66,198361,1,0,0:0:0:0:
255,311,198495,5,0,0:0:0:0:
230,240,198895,1,0,0:0:0:0:
261,171,199295,1,0,0:0:0:0:
234,101,199695,1,0,0:0:0:0:
257,29,199961,1,0,0:0:0:0:
170,299,200095,5,0,0:0:0:0:
145,228,200495,1,0,0:0:0:0:
170,157,200895,1,0,0:0:0:0:
149,89,201161,1,0,0:0:0:0:
161,57,201227,1,0,0:0:0:0:
171,24,201294,1,0,0:0:0:0:
104,205,201428,1,0,0:0:0:0:
361,162,201561,1,0,0:0:0:0:
217,33,201695,5,0,0:0:0:0:
293,40,201828,1,0,0:0:0:0:
202,31,201961,1,0,0:0:0:0:
288,125,202095,5,0,0:0:0:0:
195,132,202228,1,0,0:0:0:0:
305,121,202361,1,0,0:0:0:0:
205,219,202495,5,0,0:0:0:0:
306,226,202628,1,0,0:0:0:0:
185,214,202761,1,0,0:0:0:0:
302,320,202895,5,0,0:0:0:0:
179,328,203028,1,0,0:0:0:0:
326,313,203161,1,0,0:0:0:0:
167,165,203295,5,0,0:0:0:0:
175,300,203428,1,0,0:0:0:0:
164,136,203561,1,0,0:0:0:0:
257,243,203695,5,0,0:0:0:0:
265,94,203828,1,0,0:0:0:0:
253,274,203961,1,0,0:0:0:0:
366,113,204095,5,0,0:0:0:0:
374,276,204228,1,0,0:0:0:0:
361,78,204361,1,0,0:0:0:0:
478,248,204495,5,0,0:0:0:0:
488,63,204628,1,0,0:0:0:0:
473,288,204761,1,0,0:0:0:0:
361,78,204895,5,0,0:0:0:0:
301,69,205028,1,0,0:0:0:0:
241,60,205161,1,0,0:0:0:0:
58,130,205295,5,0,0:0:0:0:
118,121,205428,1,0,0:0:0:0:
178,112,205561,1,0,0:0:0:0:
297,213,205695,5,0,0:0:0:0:
267,208,205828,1,0,0:0:0:0:
237,204,205961,1,0,0:0:0:0:
145,239,206095,5,0,0:0:0:0:
175,234,206228,1,0,0:0:0:0:
205,230,206361,1,0,0:0:0:0:
195,105,206495,6,0,L|200:152,1,33.3333333333333
303,266,206628,2,0,L|298:219,1,33.3333333333333
240,94,206761,6,0,P|245:120|245:141,1,39.9999987792969
258,277,206894,2,0,P|253:251|253:230,1,39.9999987792969
291,81,207028,6,0,P|298:106|295:135,1,46.6666652425131
207,290,207161,2,0,P|200:265|203:236,1,46.6666652425131
366,77,207295,6,0,P|364:102|345:127,1,56.6666677474976
132,294,207428,2,0,P|133:268|152:243,1,56.6666677474976
426,132,207561,6,0,P|416:152|386:182,1,66.6666666666667
72,235,207695,6,0,P|81:214|112:185,1,66.6666666666667
449,227,207828,6,0,P|430:245|364:257,1,79.9999975585938
50,144,207961,2,0,P|68:125|135:114,1,79.9999975585938
256,192,208095,5,0,0:0:0:0:
208,16,208495,1,0,0:0:0:0:
256,40,208895,1,0,0:0:0:0:
304,16,209295,1,0,0:0:0:0:
61,253,209695,6,0,B|145:171|244:259|253:259|263:259|357:325|446:245,1,400.00001525879
61,253,210095,2,0,B|145:335|244:246|253:246|263:246|357:181|444:258,1,400.00001525879
167,51,210495,6,0,P|248:31|381:72,1,200.000007629395
167,65,210761,2,0,P|248:45|381:86,1,200.000007629395
167,79,211028,2,0,P|248:59|381:100,1,200.000007629395
111,136,211295,5,0,0:0:0:0:
417,154,211428,1,0,0:0:0:0:
160,205,211561,1,0,0:0:0:0:
470,89,211695,2,0,L|456:253,2,133.333333333333
213,274,212095,5,0,0:0:0:0:
241,72,212228,1,0,0:0:0:0:
298,313,212361,1,0,0:0:0:0:
306,9,212495,2,0,P|217:27|163:5,2,133.333333333333
85,54,212895,6,0,P|70:92|77:123,1,66.6666666666667
129,317,213028,2,0,P|144:279|137:248,1,66.6666666666667
85,54,213161,1,0,0:0:0:0:
17,279,213295,6,0,L|93:286,1,50.0000019073487
284,244,213428,2,0,L|208:237,1,50.0000019073487
17,279,213561,1,0,0:0:0:0:
337,333,213695,6,0,B|344:316|344:316|341:297,1,33.3333333333333
274,131,213828,2,0,B|267:148|267:148|270:167,1,33.3333333333333
337,333,213961,1,0,0:0:0:0:
408,112,214095,6,0,B|381:102|381:102|340:109,1,58.3333338896433
211,211,214228,2,0,B|182:211|182:211|146:190,1,58.3333338896433
152,0,214361,1,0,0:0:0:0:
408,112,214495,5,0,0:0:0:0:
401,186,214561,1,0,0:0:0:0:
394,261,214628,1,0,0:0:0:0:
496,61,214761,1,0,0:0:0:0:
336,322,214895,2,0,B|397:340|397:340|486:310,1,116.666667779287
408,112,215161,1,0,0:0:0:0:
269,228,215295,5,0,0:0:0:0:
472,289,215428,1,0,0:0:0:0:
408,112,215561,1,0,0:0:0:0:
198,284,215695,2,0,B|226:224|226:224|224:158,2,116.666667779287
97,104,216095,6,0,L|163:85,1,66.6666666666667
375,161,216228,2,0,L|303:181,1,66.6666666666667
202,15,216361,1,0,0:0:0:0:
262,237,216495,6,0,P|300:252|336:246,1,50.0000019073487
340,93,216628,2,0,P|302:78|266:84,1,50.0000019073487
440,216,216761,1,0,0:0:0:0:
202,148,216895,6,0,B|188:162|188:162|181:178,1,33.3333333333333
308,320,217028,2,0,L|422:333,1,83.3333333333333
440,216,217161,2,0,L|322:230,1,83.3333333333333
205,273,217295,2,0,P|200:313|222:358,1,83.3333333333333
303,172,217428,2,0,P|307:131|287:79,1,83.3333333333333
212,278,217561,1,0,0:0:0:0:
277,54,217695,5,0,0:0:0:0:
30,96,217828,1,0,0:0:0:0:
376,113,217961,1,0,0:0:0:0:
128,42,218095,2,0,L|109:156,2,93.3333304850261
119,254,218495,5,0,0:0:0:0:
287,309,218628,1,0,0:0:0:0:
81,241,218761,1,0,0:0:0:0:
330,325,218895,2,0,P|359:286|353:213,2,93.3333304850261
218,119,219295,6,0,L|227:192,1,66.6666666666667
208,355,219428,2,0,L|199:288,1,66.6666666666667
296,137,219561,1,0,0:0:0:0:
66,85,219695,6,0,P|63:55|77:31,1,50.0000019073487
149,184,219828,2,0,P|152:214|138:238,1,50.0000019073487
1,127,219961,1,0,0:0:0:0:
206,57,220095,6,0,L|255:52,1,33.3333333333333
296,137,220228,2,0,L|262:140,1,33.3333333333333
176,61,220361,1,0,0:0:0:0:
422,41,220495,6,0,B|400:73|400:73|398:108,1,58.3333338896433
471,248,220628,2,0,B|493:216|493:216|495:181,1,58.3333338896433
474,101,220761,1,0,0:0:0:0:
279,49,220895,5,0,0:0:0:0:
307,45,220961,1,0,0:0:0:0:
336,41,221028,1,0,0:0:0:0:
282,256,221161,1,0,0:0:0:0:
107,136,221295,2,0,P|155:65|209:59,1,116.666667779287
303,283,221561,1,0,0:0:0:0:
127,270,221695,6,0,L|108:133,1,116.666667779287
369,201,221961,2,0,L|388:64,1,116.666667779287
45,240,222228,2,0,L|26:103,1,116.666667779287
466,49,222495,6,0,L|449:164,1,116.666667779287
93,47,222761,2,0,L|109:162,1,116.666667779287
484,63,223028,2,0,L|467:178,1,116.666667779287
71,58,223295,2,0,L|87:173,1,116.666667779287
502,77,223561,2,0,L|485:192,1,116.666667779287
53,72,223828,2,0,L|69:187,1,116.666667779287
357,120,224361,6,0,P|332:110|296:114,1,58.3333338896433
312,264,224495,1,0,0:0:0:0:
378,112,224628,6,0,P|357:94|322:85,1,58.3333338896433
296,242,224761,1,0,0:0:0:0:
400,111,224895,6,0,P|387:87|357:67,1,58.3333338896433
280,220,225028,1,0,0:0:0:0:
421,118,225161,6,0,P|417:91|395:62,1,58.3333338896433
264,198,225295,1,0,0:0:0:0:
438,132,225428,6,0,P|443:105|433:70,1,58.3333338896433
248,176,225561,1,0,0:0:0:0:
473,214,225695,6,0,L|406:222,1,66.6666666666667
264,275,225828,2,0,L|331:283,1,66.6666666666667
469,338,225961,1,0,0:0:0:0:
201,315,226095,6,0,P|191:285|198:239,1,50.0000019073487
316,137,226228,2,0,P|326:167|319:213,1,50.0000019073487
362,360,226361,1,0,0:0:0:0:
238,138,226495,6,0,L|232:171,1,33.3333333333333
281,312,226628,2,0,L|288:280,1,33.3333333333333
414,198,226761,1,0,0:0:0:0:
230,26,226895,6,0,P|259:14|301:19,1,58.3333338896433
461,115,227028,2,0,P|432:127|390:122,1,58.3333338896433
173,83,227161,1,0,0:0:0:0:
243,300,227295,5,0,0:0:0:0:
300,292,227361,1,0,0:0:0:0:
358,285,227428,1,0,0:0:0:0:
154,245,227561,1,0,0:0:0:0:
399,218,227695,1,0,0:0:0:0:
195,178,227828,1,0,0:0:0:0:
440,151,227961,1,0,0:0:0:0:
124,139,228095,6,0,B|115:200|115:200|162:253,1,116.666667779287
301,135,228361,2,0,B|309:73|309:73|262:20,1,116.666667779287
84,283,228628,2,0,B|133:321|133:321|201:307,1,116.666667779287
163,82,228895,6,0,L|84:94,1,66.6666666666667
301,135,229028,2,0,L|380:147,1,66.6666666666667
132,172,229161,1,0,0:0:0:0:
272,209,229295,6,0,L|340:219,1,50.0000019073487
151,255,229428,2,0,L|82:265,1,50.0000019073487
298,287,229561,1,0,0:0:0:0:
218,345,229695,6,0,L|161:353,1,33.3333333333333
272,131,229828,6,0,P|311:140|351:201,1,83.3333333333333
175,227,229961,2,0,L|192:128,1,83.3333333333333
288,310,230095,2,0,P|249:321|184:288,1,83.3333333333333
110,130,230228,2,0,P|148:118|213:151,1,83.3333333333333
97,249,230361,2,0,P|58:239|18:179,1,83.3333333333333
188,44,230495,5,0,0:0:0:0:
175,227,230628,1,0,0:0:0:0:
273,32,230761,1,0,0:0:0:0:
260,215,230895,2,0,P|326:252|372:240,2,116.666667779287
188,44,231295,5,0,0:0:0:0:
367,102,231428,1,0,0:0:0:0:
172,119,231561,1,0,0:0:0:0:
424,49,231695,2,0,L|406:184,2,116.666667779287
196,49,232095,6,0,P|185:100|196:134,1,66.6666666666667
320,220,232228,2,0,P|295:173|265:154,1,66.6666666666667
99,140,232361,1,0,0:0:0:0:
341,114,232495,6,0,P|351:78|341:47,1,50.0000019073487
212,190,232628,2,0,P|202:226|212:257,1,50.0000019073487
402,161,232761,1,0,0:0:0:0:
313,306,232895,6,0,L|349:302,1,33.3333333333333
445,256,233028,2,0,L|411:259,1,33.3333333333333
292,309,233161,1,0,0:0:0:0:
441,141,233295,6,0,P|411:123|371:126,1,58.3333338896433
294,63,233428,2,0,P|276:93|279:133,1,58.3333338896433
400,275,233561,2,0,P|418:245|415:205,1,58.3333338896433
238,209,233695,5,0,0:0:0:0:
243,266,233761,1,0,0:0:0:0:
249,324,233828,1,0,0:0:0:0:
340,168,233961,1,0,0:0:0:0:
78,125,234095,2,0,L|91:252,1,116.666667779287
371,174,234361,1,0,0:0:0:0:
156,77,234495,5,0,0:0:0:0:
311,51,234628,1,0,0:0:0:0:
199,144,234761,1,0,0:0:0:0:
286,218,234895,5,0,0:0:0:0:
236,292,235028,1,0,0:0:0:0:
261,367,235161,1,0,0:0:0:0:
442,282,235295,6,0,P|450:247|444:211,2,66.6666666666667
390,132,235695,2,0,P|382:97|388:61,2,66.6666666666667
459,18,236095,5,0,0:0:0:0:
339,75,236228,1,0,0:0:0:0:
147,22,236361,1,0,0:0:0:0:
311,177,236495,5,0,0:0:0:0:
250,13,236628,1,0,0:0:0:0:
135,245,236761,1,0,0:0:0:0:
339,75,236895,5,0,0:0:0:0:
248,116,237295,1,0,0:0:0:0:
151,89,237695,1,0,0:0:0:0:
59,129,238095,1,0,0:0:0:0:
327,157,238361,1,0,0:0:0:0:
109,216,238495,5,0,0:0:0:0:
200,257,238895,1,0,0:0:0:0:
297,230,239295,1,0,0:0:0:0:
389,270,239561,1,0,0:0:0:0:
417,260,239628,1,0,0:0:0:0:
444,248,239695,1,0,0:0:0:0:
382,378,239828,1,0,0:0:0:0:
411,173,239961,1,0,0:0:0:0:
487,334,240095,5,0,0:0:0:0:
307,310,240495,1,0,0:0:0:0:
134,363,240895,1,0,0:0:0:0:
17,228,241295,1,0,0:0:0:0:
344,182,241561,1,0,0:0:0:0:
33,329,241695,5,0,0:0:0:0:
220,36,242095,6,0,L|161:43,1,50.0000019073487
289,65,242228,2,0,L|348:72,1,50.0000019073487
206,72,242361,2,0,L|147:79,1,50.0000019073487
306,140,242495,6,0,L|380:152,1,66.6666666666667
193,156,242628,2,0,L|119:168,1,66.6666666666667
318,215,242761,2,0,L|392:227,1,66.6666666666667
176,243,242895,6,0,L|80:259,1,83.3333333333333
334,312,243028,2,0,L|430:328,1,83.3333333333333
151,364,243161,2,0,L|55:380,1,83.3333333333333
255,188,243295,5,0,0:0:0:0:
210,93,243428,1,0,0:0:0:0:
109,64,243561,1,0,0:0:0:0:
252,205,243695,5,0,0:0:0:0:
224,75,243828,1,0,0:0:0:0:
91,68,243961,1,0,0:0:0:0:
249,222,244095,5,0,0:0:0:0:
238,57,244228,1,0,0:0:0:0:
73,72,244361,1,0,0:0:0:0:
246,239,244495,5,0,0:0:0:0:
252,39,244628,1,0,0:0:0:0:
55,76,244761,1,0,0:0:0:0:
166,279,244895,5,0,0:0:0:0:
336,238,245028,1,0,0:0:0:0:
130,203,245161,1,0,0:0:0:0:
159,290,245295,5,0,0:0:0:0:
351,240,245428,1,0,0:0:0:0:
112,201,245561,1,0,0:0:0:0:
152,301,245695,5,0,0:0:0:0:
366,242,245828,1,0,0:0:0:0:
94,199,245961,1,0,0:0:0:0:
145,312,246095,5,0,0:0:0:0:
381,244,246228,1,0,0:0:0:0:
76,197,246361,1,0,0:0:0:0:
277,335,246495,5,0,0:0:0:0:
309,127,246628,1,0,0:0:0:0:
474,259,246761,1,0,0:0:0:0:
269,344,246895,5,0,0:0:0:0:
304,115,247028,1,0,0:0:0:0:
486,260,247161,1,0,0:0:0:0:
260,354,247295,5,0,0:0:0:0:
299,103,247428,1,0,0:0:0:0:
499,262,247561,1,0,0:0:0:0:
234,198,247695,5,0,0:0:0:0:
280,191,247828,1,0,0:0:0:0:
326,185,247961,1,0,0:0:0:0:
371,179,248095,6,0,L|360:309,1,100
58,94,248895,5,0,0:0:0:0:
90,118,249028,1,0,0:0:0:0:
134,83,249161,1,0,0:0:0:0:
203,132,249295,1,0,0:0:0:0:
282,84,249428,1,0,0:0:0:0:
391,137,249561,1,0,0:0:0:0:
68,218,249695,6,0,B|87:209|87:209|107:225|107:225|142:209|142:209|185:235|185:235|252:212,1,200.000007629395
492,178,249961,5,0,0:0:0:0:
492,178,250028,1,0,0:0:0:0:
492,178,250095,2,0,L|402:163,1,66.6666666666667
262,71,250228,2,0,L|352:64,1,66.6666666666667
428,264,250361,5,0,0:0:0:0:
428,264,250428,1,0,0:0:0:0:
428,264,250495,2,0,L|338:249,1,66.6666666666667
198,157,250628,2,0,L|288:150,1,66.6666666666667
364,350,250761,5,0,0:0:0:0:
364,350,250828,1,0,0:0:0:0:
364,350,250895,2,0,B|289:337|289:337|229:353|229:353|159:341,1,200
208,188,251161,6,0,B|207:152|230:127|230:127|240:161|221:204,1,133.333333333333
92,290,251295,6,0,B|168:272|168:272|227:283|227:283|316:257,1,200.000007629395
240,76,251561,5,0,0:0:0:0:
240,76,251628,1,0,0:0:0:0:
240,76,251695,2,0,P|237:135|250:160,1,66.6666666666667
349,262,251828,2,0,P|309:218|282:210,1,66.6666666666667
166,218,251961,5,0,0:0:0:0:
166,218,252028,1,0,0:0:0:0:
166,218,252095,2,0,P|225:221|250:208,1,66.6666666666667
362,94,252228,2,0,P|318:133|309:160,1,66.6666666666667
355,270,252361,5,0,0:0:0:0:
355,270,252428,1,0,0:0:0:0:
355,270,252495,2,0,P|383:277|436:256,1,66.6666666666667
512,309,252628,2,0,P|484:316|431:295,1,66.6666666666667
356,343,252761,2,0,P|384:350|437:329,1,66.6666666666667
466,193,252895,5,0,0:0:0:0:
239,232,253028,1,0,0:0:0:0:
249,298,253095,1,0,0:0:0:0:
259,363,253161,1,0,0:0:0:0:
346,165,253295,5,0,0:0:0:0:
118,155,253428,2,0,L|122:241,1,66.6666666666667
372,165,253561,5,0,0:0:0:0:
184,57,253695,2,0,L|188:143,1,66.6666666666667
368,308,253828,2,0,L|364:241,1,66.6666666666667
271,163,253961,5,0,0:0:0:0:
467,74,254095,1,0,0:0:0:0:
244,174,254228,1,0,0:0:0:0:
388,49,254361,6,0,B|388:13|365:-12|365:-12|355:22|374:65,1,133.333333333333
342,257,254495,6,0,P|376:267|428:253,1,66.6666666666667
307,101,254628,2,0,P|273:91|221:105,1,66.6666666666667
119,162,254761,5,0,0:0:0:0:
99,204,254828,1,0,0:0:0:0:
104,251,254895,2,0,P|181:302|222:212,1,200
252,95,255161,5,0,0:0:0:0:
296,83,255228,1,0,0:0:0:0:
342,96,255295,2,0,P|379:180|298:254,1,200
170,73,255561,2,0,B|195:31|195:31|289:0|289:0|339:20,1,200
461,142,255828,5,0,0:0:0:0:
452,201,255895,1,0,0:0:0:0:
443,259,255961,1,0,0:0:0:0:
303,300,256095,6,0,B|293:262|293:262|299:227|299:227|283:188|283:188|292:146|292:146|283:99,1,200.000007629395
84,45,256361,5,0,0:0:0:0:
84,45,256428,1,0,0:0:0:0:
84,45,256495,2,0,P|75:89|92:129,1,66.6666666666667
238,45,256628,2,0,P|194:36|154:53,1,66.6666666666667
78,195,256761,5,0,0:0:0:0:
78,195,256828,1,0,0:0:0:0:
78,195,256895,2,0,P|122:204|162:187,1,66.6666666666667
349,195,257028,2,0,P|305:186|265:203,1,66.6666666666667
199,346,257161,5,0,0:0:0:0:
199,346,257228,1,0,0:0:0:0:
199,346,257295,2,0,B|201:311|201:311|218:288|218:288|205:265|205:265|219:125,1,200
211,27,257561,6,0,P|213:74|228:23,1,133.333333333333
119,48,257695,6,0,P|182:148|311:91,1,200.000007629395
411,65,257961,5,0,0:0:0:0:
411,65,258028,1,0,0:0:0:0:
411,65,258095,2,0,B|428:87|428:87|422:134,1,66.6666666666667
396,245,258228,2,0,B|418:262|418:262|465:256,1,66.6666666666667
339,118,258361,5,0,0:0:0:0:
339,118,258428,1,0,0:0:0:0:
339,118,258495,2,0,B|322:140|322:140|328:187,1,66.6666666666667
335,291,258628,2,0,B|313:308|313:308|266:302,1,66.6666666666667
235,82,258761,5,0,0:0:0:0:
235,82,258828,1,0,0:0:0:0:
235,82,258895,2,0,P|232:128|255:161,1,66.6666666666667
139,145,259028,2,0,P|166:182|205:192,1,66.6666666666667
105,254,259161,2,0,P|149:264|186:248,1,66.6666666666667
249,234,259295,6,0,P|354:255|220:306,1,300.000011444092
112,351,259561,2,0,P|161:342|194:310,1,66.6666666666667
119,188,259695,6,0,B|113:122|113:122|51:64|51:64|52:149|52:149|106:206,1,300.000011444092
213,192,259961,6,0,B|250:138|250:138|240:54|240:54|186:120|186:120|191:197,1,300.000011444092
281,254,260228,6,0,B|344:237|344:237|390:166|390:166|307:182|307:182|260:244,1,300.000011444092
293,345,260495,6,0,B|351:373|351:373|433:348|433:348|359:306|359:306|283:325,1,300.000011444092
208,337,260761,5,0,0:0:0:0:
148,345,260828,1,0,0:0:0:0:
88,353,260895,6,0,B|74:281|74:281|104:144,1,200
216,185,261161,2,0,L|233:266,1,66.6666666666667
66,338,261295,6,0,B|52:266|52:266|82:129,1,200
243,195,261561,2,0,L|260:276,1,66.6666666666667
44,323,261695,6,0,B|30:251|30:251|60:114,1,200
270,205,261961,2,0,L|287:286,1,66.6666666666667
123,77,262095,6,0,L|181:70,1,50
305,84,262361,2,0,L|255:89,1,50
39,59,262495,5,0,0:0:0:0:
86,298,262628,1,0,0:0:0:0:
236,162,262761,5,0,0:0:0:0:
236,162,262828,1,0,0:0:0:0:
236,162,262895,2,0,B|202:149|202:149|156:162,1,66.6666666666667
321,305,263028,2,0,B|355:318|355:318|401:305,1,66.6666666666667
378,180,263161,5,0,0:0:0:0:
378,180,263228,1,0,0:0:0:0:
378,180,263295,2,0,B|414:176|414:176|455:200,1,66.6666666666667
164,289,263428,2,0,B|127:292|127:292|86:268,1,66.6666666666667
290,230,263561,5,0,0:0:0:0:
290,230,263628,1,0,0:0:0:0:
290,230,263695,2,0,B|318:78|318:78|265:122,1,200
163,151,263961,6,0,B|192:215|192:215|206:148,1,133.333333333333
176,26,264095,6,0,B|105:64|33:43|33:43|66:98,1,200.000007629395
197,224,264361,5,0,0:0:0:0:
197,224,264428,1,0,0:0:0:0:
197,224,264495,2,0,B|206:266|206:266|197:299,1,66.6666666666667
30,282,264628,2,0,B|21:240|21:240|30:207,1,66.6666666666667
279,225,264761,5,0,0:0:0:0:
279,225,264828,1,0,0:0:0:0:
279,225,264895,2,0,B|288:267|288:267|279:300,1,66.6666666666667
112,283,265028,2,0,B|103:241|103:241|112:208,1,66.6666666666667
361,226,265161,5,0,0:0:0:0:
361,226,265228,1,0,0:0:0:0:
361,226,265295,2,0,B|370:268|370:268|361:301,1,66.6666666666667
199,288,265428,2,0,B|190:246|190:246|199:213,1,66.6666666666667
381,225,265561,2,0,B|390:267|390:267|381:300,1,66.6666666666667
269,365,265695,6,0,B|282:298|282:298|264:247|264:247|289:147,1,200.000007629395
315,21,265961,5,0,0:0:0:0:
315,21,266028,1,0,0:0:0:0:
315,21,266095,2,0,L|386:30,1,66.6666666666667
192,83,266228,2,0,L|125:74,1,66.6666666666667
351,106,266361,5,0,0:0:0:0:
351,106,266428,1,0,0:0:0:0:
351,106,266495,2,0,B|355:147|355:147|342:177,1,66.6666666666667
192,233,266628,2,0,B|188:192|188:192|201:162,1,66.6666666666667
426,177,266761,5,0,0:0:0:0:
426,177,266828,1,0,0:0:0:0:
426,177,266895,2,0,B|361:301|361:301|337:207,1,200
420,59,267161,6,0,B|488:72|488:72|385:106,1,133.333333333333
307,157,267295,5,0,0:0:0:0:
260,182,267361,1,0,0:0:0:0:
206,187,267428,1,0,0:0:0:0:
153,175,267495,1,0,0:0:0:0:
111,143,267561,1,0,0:0:0:0:
83,96,267628,1,0,0:0:0:0:
87,42,267695,2,0,P|126:28|175:34,1,66.6666666666667
226,115,267828,5,0,0:0:0:0:
11,70,267961,1,0,0:0:0:0:
297,78,268095,6,0,B|324:264|324:264|265:220|265:220|255:149,1,300.000011444092
365,28,268361,6,0,L|386:169,1,133.333333333333
62,31,268628,2,0,L|41:168,1,133.333333333333
219,331,268895,6,0,P|231:288|231:272,1,50
131,212,269161,5,0,0:0:0:0:
131,212,269228,1,0,0:0:0:0:
131,212,269295,2,0,P|171:224|222:210,1,66.6666666666667
319,311,269428,2,0,P|309:270|271:233,1,66.6666666666667
176,144,269561,5,0,0:0:0:0:
176,144,269628,1,0,0:0:0:0:
176,144,269695,2,0,P|206:125|250:115,1,66.6666666666667
423,175,269828,2,0,P|393:194|349:204,1,66.6666666666667
225,38,269961,5,0,0:0:0:0:
225,38,270028,1,0,0:0:0:0:
225,38,270095,2,0,B|291:56|291:56|352:46|352:46|443:70,1,200
487,163,270361,6,0,L|345:121,1,133.333333333333
183,191,270495,6,0,P|291:177|351:272,1,200.000007629395
63,281,270761,5,0,0:0:0:0:
63,281,270827,1,0,0:0:0:0:
63,281,270894,2,0,P|54:234|72:193,1,66.6666666666667
127,90,271027,2,0,L|216:108,1,66.6666666666667
260,291,271161,5,0,0:0:0:0:
260,291,271227,1,0,0:0:0:0:
260,291,271294,2,0,L|194:277,1,66.6666666666667
21,146,271427,2,0,P|36:100|72:74,1,66.6666666666667
246,56,271561,5,0,0:0:0:0:
246,56,271627,1,0,0:0:0:0:
246,56,271694,2,0,L|234:204,1,133.333333333333
219,366,271961,5,0,0:0:0:0:
219,366,272028,1,0,0:0:0:0:
219,366,272095,6,0,B|260:375|260:375|306:365,1,66.6666666666667
386,225,272228,2,0,P|357:200|305:200,1,66.6666666666667
142,196,272361,5,0,0:0:0:0:
142,196,272428,1,0,0:0:0:0:
142,196,272495,2,0,B|134:238|134:238|142:273,1,66.6666666666667
314,120,272628,5,0,0:0:0:0:
314,120,272695,1,0,0:0:0:0:
314,120,272762,2,0,B|322:78|322:78|314:43,1,66.6666666666667
83,48,272895,6,0,B|75:90|75:90|83:125,1,66.6666666666667
217,255,273028,1,0,0:0:0:0:
239,268,273095,1,0,0:0:0:0:
264,274,273161,1,0,0:0:0:0:
290,273,273228,1,0,0:0:0:0:
316,266,273295,2,0,P|342:247|361:212,1,66.6666666666667
316,54,273428,5,0,0:0:0:0:
256,64,273495,1,0,0:0:0:0:
197,74,273561,1,0,0:0:0:0:
137,84,273628,1,0,0:0:0:0:
64,97,273695,5,0,0:0:0:0:
420,208,274095,2,0,L|434:98,1,100.000003814697
243,176,274361,2,0,L|251:243,2,50.0000019073487
226,58,274628,2,0,P|171:47|120:64,1,100.000003814697
0,187,274895,2,0,P|55:176|106:193,1,100.000003814697
191,316,275161,1,0,0:0:0:0:
54,95,275295,5,0,0:0:0:0:
