osu file format v14

[General]
AudioFilename: audio.mp3
AudioLeadIn: 0
PreviewTime: 95716
Countdown: 0
SampleSet: Soft
StackLeniency: 0.7
Mode: 3
LetterboxInBreaks: 0
SpecialStyle: 0
WidescreenStoryboard: 1

[Editor]
DistanceSpacing: 0.6
BeatDivisor: 3
GridSize: 4
TimelineZoom: 3.099999

[Metadata]
Title:SCREW // owo // SCREW
TitleUnicode:SCREW // owo // SCREW
Artist:Camellia
ArtistUnicode:かめりあ
Creator:_Stan
Version:Healthy
Source:beatmania IIDX 27 HEROIC VERSE
Tags:konami bemani twerkcore uwu beatjuggle electronic instrumental video game INFINITAS (2020) madoka2574 exneko sillyp famoss
BeatmapID:2534079
BeatmapSetID:1217976

[Difficulty]
HPDrainRate:8.8
CircleSize:7
OverallDifficulty:8.5
ApproachRate:5
SliderMultiplier:1.4
SliderTickRate:1

[Events]
//Background and Video events
0,0,"bg.jpg",0,0
Video,1030,"owo.mp4"
//Break Periods
//Storyboard Layer 0 (Background)
//Storyboard Layer 1 (Fail)
//Storyboard Layer 2 (Pass)
//Storyboard Layer 3 (Foreground)
//Storyboard Layer 4 (Overlay)
//Storyboard Sound Samples
Sample,33676,0,"TOM_1.wav",70
Sample,34203,0,"TOM_1.wav",70
Sample,34729,0,"TOM_1.wav",70
Sample,34992,0,"TOM_1.wav",70
Sample,76834,0,"LR_Snare Drum 3.wav",70
Sample,76966,0,"LR_Snare Drum 3.wav",70
Sample,77097,0,"LR_Snare Drum 3.wav",70

[TimingPoints]
2032,263.157894736842,4,2,1,50,1,0
2689,-333.333333333333,4,2,1,50,0,0
2755,-58.8235294117647,4,2,1,50,0,0
2821,-333.333333333333,4,2,1,50,0,0
2887,-58.8235294117647,4,2,1,50,0,0
2953,-100,4,2,1,50,0,0
3742,-55.555556,4,2,1,50,0,0
3774,-66.049247,4,2,1,50,0,0
3807,-80.325219,4,2,1,50,0,0
3840,-99.297477,4,2,1,50,0,0
3873,-123.45679,4,2,1,50,0,0
3906,-152.189643,4,2,1,50,0,0
3939,-183.506767,4,2,1,50,0,0
3972,-217.391304347826,4,2,1,50,0,0
4005,-303.030303030303,4,2,1,50,0,0
4071,-120.481927710843,4,2,1,50,0,0
4087,-100,4,2,1,50,0,0
4104,-80,4,2,1,50,0,0
4120,-28.4900284900285,4,2,1,50,0,0
4137,-100,4,2,1,50,0,0
5847,-55.555556,4,2,1,50,0,0
5863,-66.049247,4,2,1,50,0,0
5880,-80.325219,4,2,1,50,0,0
5896,-99.297477,4,2,1,50,0,0
5913,-123.45679,4,2,1,50,0,0
5929,-152.189643,4,2,1,50,0,0
5946,-183.506767,4,2,1,50,0,0
5962,-215.507114,4,2,1,50,0,0
5979,-55.555556,4,2,1,50,0,0
5995,-66.049247,4,2,1,50,0,0
6011,-80.325219,4,2,1,50,0,0
6028,-99.297477,4,2,1,50,0,0
6044,-123.45679,4,2,1,50,0,0
6060,-152.189643,4,2,1,50,0,0
6077,-183.506767,4,2,1,50,0,0
6093,-215.507114,4,2,1,50,0,0
6110,-333.333333333333,4,2,1,50,0,0
6143,-58.8235294117647,4,2,1,50,0,0
6176,-666.666666666667,4,2,1,50,0,0
6209,-54.054054054054,4,2,1,50,0,0
6242,-100,4,2,1,50,0,0
6768,-250,4,2,1,50,0,0
6834,-62.5,4,2,1,50,0,0
6900,-250,4,2,1,50,0,0
6966,-62.5,4,2,1,50,0,0
7031,-333.333333333333,4,2,1,50,0,0
7097,-58.8235294117647,4,2,1,50,0,0
7163,-100,4,2,1,50,0,0
7953,-55.555556,4,2,1,50,0,0
7985,-66.049247,4,2,1,50,0,0
8018,-80.325219,4,2,1,50,0,0
8051,-99.297477,4,2,1,50,0,0
8084,-123.45679,4,2,1,50,0,0
8117,-152.189643,4,2,1,50,0,0
8150,-183.506767,4,2,1,50,0,0
8183,-215.507114,4,2,1,50,0,0
8216,-300,4,2,1,50,0,0
8281,-120,4,2,1,50,0,0
8297,-100,4,2,1,50,0,0
8314,-80,4,2,1,50,0,0
8330,-28.5,4,2,1,50,0,0
8347,-100,4,2,1,50,0,0
8610,-300,4,2,1,50,0,0
8676,-120,4,2,1,50,0,0
8692,-100,4,2,1,50,0,0
8709,-80,4,2,1,50,0,0
8725,-28.5,4,2,1,50,0,0
8742,-100,4,2,1,50,0,0
9005,-300,4,2,1,50,0,0
9071,-120,4,2,1,50,0,0
9087,-100,4,2,1,50,0,0
9104,-80,4,2,1,50,0,0
9120,-28.5,4,2,1,50,0,0
9137,-100,4,2,1,50,0,0
9268,-66.666667,4,2,1,50,0,0
9301,-200,4,2,1,50,0,0
9334,-500,4,2,1,50,0,0
9367,-55.555556,4,2,1,50,0,0
9400,-66.666667,4,2,1,50,0,0
9433,-200,4,2,1,50,0,0
9466,-500,4,2,1,50,0,0
9498,-55.555556,4,2,1,50,0,0
9531,-100,4,2,1,50,0,0
9926,-300,4,2,1,50,0,0
9992,-120,4,2,1,50,0,0
10008,-100,4,2,1,50,0,0
10025,-80,4,2,1,50,0,0
10041,-28.5,4,2,1,50,0,0
10058,-45.857143,4,2,1,50,0,0
10074,-58.130435,4,2,1,50,0,0
10090,-135.59322,4,2,1,50,0,0
10107,-132.231405,4,2,1,50,0,0
10123,-129.032258,4,2,1,50,0,0
10140,-125.984252,4,2,1,50,0,0
10156,-123.076923,4,2,1,50,0,0
10173,-120.300752,4,2,1,50,0,0
10189,-117.647059,4,2,1,50,0,0
10205,-115.107914,4,2,1,50,0,0
10222,-112.676056,4,2,1,50,0,0
10238,-110.344828,4,2,1,50,0,0
10255,-108.108108,4,2,1,50,0,0
10271,-105.960265,4,2,1,50,0,0
10288,-103.896104,4,2,1,50,0,0
10304,-101.910828,4,2,1,50,0,0
10321,-100,4,2,1,50,0,0
10453,-100,4,2,1,60,0,0
18347,-50,4,2,1,60,0,0
18373,-300,4,2,1,60,0,0
18413,-50,4,2,1,60,0,0
18439,-300,4,2,1,60,0,0
18479,-50,4,2,1,60,0,0
18505,-300,4,2,1,60,0,0
18545,-50,4,2,1,60,0,0
18571,-300,4,2,1,60,0,0
18610,-66.666667,4,2,1,60,0,0
18636,-150,4,2,1,60,0,0
18676,-66.666667,4,2,1,60,0,0
18702,-150,4,2,1,60,0,0
18742,-66.666667,4,2,1,60,0,0
18768,-150,4,2,1,60,0,0
18808,-100,4,2,1,60,0,0
18874,-29,4,2,1,70,0,0
18906,-90,4,2,1,70,0,0
18939,-120,4,2,1,70,0,0
18972,-150,4,2,1,70,0,0
19005,-180,4,2,1,70,0,0
19038,-220,4,2,1,70,0,0
19137,-100,4,2,1,70,0,0
20716,-222.222224,4,2,1,70,0,0
20732,-2000,4,2,1,70,0,0
20749,-119.474314,4,2,1,70,0,0
20765,-1075.268815,4,2,1,70,0,0
20782,-81.699347,4,2,1,70,0,0
20798,-735.29412,4,2,1,70,0,0
20814,-62.073247,4,2,1,70,0,0
20830,-558.65922,4,2,1,70,0,0
20847,-50.05005,4,2,1,70,0,0
20863,-450.45045,4,2,1,70,0,0
20880,-41.928721,4,2,1,70,0,0
20896,-377.35849,4,2,1,70,0,0
20913,-36.075036,4,2,1,70,0,0
20929,-324.675325,4,2,1,70,0,0
20946,-31.655587,4,2,1,70,0,0
20962,-284.900285,4,2,1,70,0,0
20979,-29,4,2,1,70,0,0
21011,-90,4,2,1,70,0,0
21044,-120,4,2,1,70,0,0
21077,-150,4,2,1,70,0,0
21110,-180,4,2,1,70,0,0
21143,-220,4,2,1,70,0,0
21242,-100,4,2,1,70,0,0
23084,-55,4,2,1,70,0,0
23150,-100,4,2,1,70,0,0
23216,-32,4,2,1,70,0,0
23221,-300,4,2,1,70,0,0
23281,-32,4,2,1,70,0,0
23286,-300,4,2,1,70,0,0
23347,-100,4,2,1,70,0,0
25189,-29,4,2,1,70,0,0
25221,-90,4,2,1,70,0,0
25254,-120,4,2,1,70,0,0
25287,-150,4,2,1,70,0,0
25320,-180,4,2,1,70,0,0
25353,-220,4,2,1,70,0,0
25452,-100,4,2,1,70,0,0
26768,-333.333333333333,4,2,1,70,0,0
26900,-142.857142857143,4,2,1,70,0,0
27031,-76.9230769230769,4,2,1,70,0,0
27163,-58.8235294117647,4,2,1,70,0,0
27295,-29,4,2,1,70,0,0
27327,-90,4,2,1,70,0,0
27360,-120,4,2,1,70,0,0
27393,-150,4,2,1,70,0,0
27426,-180,4,2,1,70,0,0
27459,-220,4,2,1,70,0,0
27558,-100,4,2,1,70,0,0
28610,-29,4,2,1,70,0,0
28642,-90,4,2,1,70,0,0
28675,-120,4,2,1,70,0,0
28708,-150,4,2,1,70,0,0
28741,-180,4,2,1,70,0,0
28774,-220,4,2,1,70,0,0
28873,-100,4,2,1,70,0,0
29005,-60.606061,4,2,1,70,0,0
29071,-285.714286,4,2,1,70,0,0
29137,-60.606061,4,2,1,70,0,0
29202,-285.714286,4,2,1,70,0,0
29268,-100,4,2,1,70,0,0
29400,-29,4,2,1,70,0,0
29432,-90,4,2,1,70,0,0
29465,-120,4,2,1,70,0,0
29498,-150,4,2,1,70,0,0
29531,-180,4,2,1,70,0,0
29564,-220,4,2,1,70,0,0
29663,-100,4,2,1,70,0,0
30716,-60.606061,4,2,1,70,0,0
30781,-285.714286,4,2,1,70,0,0
30847,-100,4,2,1,70,0,0
31110,-60.606061,4,2,1,70,0,0
31176,-285.714286,4,2,1,70,0,0
31242,-100,4,2,1,70,0,0
31505,-43.4782608695652,4,2,1,70,0,0
31571,-125,4,2,1,70,0,0
31637,-200,4,2,1,70,0,0
31768,-100,4,2,1,70,0,0
33216,-40,4,2,1,70,0,0
33281,-58.8235294117647,4,2,1,70,0,0
33347,-90.9090909090909,4,2,1,70,0,0
33413,-250,4,2,1,70,0,0
33479,-333.333333333333,4,2,1,70,0,0
33545,-500,4,2,1,70,0,0
33610,-60.606061,4,2,1,70,0,0
33676,-285.714286,4,2,1,70,0,0
33742,-100,4,2,1,70,0,0
34137,-60.606061,4,2,1,70,0,0
34203,-285.714286,4,2,1,70,0,0
34268,-100,4,2,1,70,0,0
34663,-60.606061,4,2,1,70,0,0
34729,-285.714286,4,2,1,70,0,0
34795,-100,4,2,1,70,0,0
34926,-60.606061,4,2,1,70,0,0
34992,-285.714286,4,2,1,70,0,0
35058,-100,4,2,1,70,0,0
35189,-35.087719,4,2,1,70,0,0
35233,-666.66667,4,2,1,70,0,0
35277,-42.735043,4,2,1,70,0,0
35321,-384.615385,4,2,1,70,0,0
35365,-53.475936,4,2,1,70,0,0
35409,-303.030303,4,2,1,70,0,0
35453,-69.444444,4,2,1,70,0,0
35496,-277.777778,4,2,1,70,0,0
35540,-95.238095,4,2,1,70,0,0
35584,-285.714286,4,2,1,70,0,0
35628,-142.857143,4,2,1,70,0,0
35672,-333.333333,4,2,1,70,0,0
35716,-58.8235294117647,4,2,1,70,0,0
35781,-76.9230769230769,4,2,1,70,0,0
35847,-142.857142857143,4,2,1,70,0,0
35913,-333.333333333333,4,2,1,70,0,0
35979,-666.666666666667,4,2,1,70,0,0
36045,-500.000000000003,4,2,1,70,0,0
36110,-400,4,2,1,70,0,0
36176,-200,4,2,1,70,0,0
36242,-100,4,2,1,70,0,0
36308,-83.3333333333333,4,2,1,70,0,0
36374,-66.6666666666667,4,2,1,70,0,0
36439,-62.5,4,2,1,70,0,0
36505,-50,4,2,1,70,0,0
36521,-60.270901,4,2,1,70,0,0
36538,-74.957958,4,2,1,70,0,0
36554,-96.334239,4,2,1,70,0,0
36571,-128.205128,4,2,1,70,0,0
36587,-177.603324,4,2,1,70,0,0
36604,-260.361632,4,2,1,70,0,0
36620,-427.030203,4,2,1,70,0,0
36637,-1000,4,2,1,70,0,0
36703,-52.6315789473684,4,2,1,70,0,0
36768,-58.8235294117647,4,2,1,70,0,0
36834,-76.9230769230769,4,2,1,70,0,0
36900,-142.857142857143,4,2,1,70,0,0
36966,-333.333333333333,4,2,1,70,0,0
37031,-666.666666666667,4,2,1,70,0,0
37097,-500,4,2,1,70,0,0
37163,-400,4,2,1,70,0,0
37229,-200,4,2,1,70,0,0
37295,-100,4,2,1,70,0,0
37360,-83.3333333333333,4,2,1,70,0,0
37426,-66.6666666666667,4,2,1,70,0,0
37492,-62.5,4,2,1,70,0,0
37558,-50,4,2,1,70,0,0
37574,-60.270901,4,2,1,70,0,0
37590,-74.957958,4,2,1,70,0,0
37607,-96.334239,4,2,1,70,0,0
37623,-128.205128,4,2,1,70,0,0
37639,-177.603324,4,2,1,70,0,0
37656,-260.361632,4,2,1,70,0,0
37672,-427.030203,4,2,1,70,0,0
37689,-1000,4,2,1,70,0,0
37755,-52.6315789473684,4,2,1,70,0,0
37821,-100,4,2,1,60,0,0
39926,-100,4,2,1,70,0,0
43874,-1000,4,2,1,70,0,0
43906,-279.72028,4,2,1,70,0,0
43939,-162.601626,4,2,1,70,0,0
43972,-114.613181,4,2,1,70,0,0
44005,-88.495575,4,2,1,70,0,0
44038,-72.072072,4,2,1,70,0,0
44071,-60.790274,4,2,1,70,0,0
44104,-52.562418,4,2,1,70,0,0
44137,-29,4,2,1,70,0,0
44169,-81.880547,4,2,1,70,0,0
44202,-104.033825,4,2,1,70,0,0
44235,-135.941868,4,2,1,70,0,0
44268,-180.18018,4,2,1,70,0,0
44301,-236.345969,4,2,1,70,0,0
44334,-297.419148,4,2,1,70,0,0
44367,-352.371618,4,2,1,70,0,0
44400,-300,4,2,1,70,0,0
44466,-120,4,2,1,70,0,0
44482,-100,4,2,1,70,0,0
44499,-80,4,2,1,70,0,0
44515,-28.5,4,2,1,70,0,0
44532,-100,4,2,1,70,0,0
44663,-35.5,4,2,1,70,0,0
44695,-88.365243,4,2,1,70,0,0
44728,-124.037899,4,2,1,70,0,0
44761,-180.18018,4,2,1,70,0,0
44794,-256.71401,4,2,1,70,0,0
44827,-335.195531,4,2,1,70,0,0
44860,-166.6666667,4,2,1,70,0,0
44899,-62.5,4,2,1,70,0,0
44926,-29,4,2,1,70,0,0
44958,-81.880547,4,2,1,70,0,0
44991,-104.033825,4,2,1,70,0,0
45024,-135.941868,4,2,1,70,0,0
45057,-180.18018,4,2,1,70,0,0
45090,-236.345969,4,2,1,70,0,0
45123,-297.419148,4,2,1,70,0,0
45156,-352.371618,4,2,1,70,0,0
45189,-100,4,2,1,70,0,0
46242,-29,4,2,1,70,0,0
46274,-81.880547,4,2,1,70,0,0
46307,-104.033825,4,2,1,70,0,0
46340,-135.941868,4,2,1,70,0,0
46373,-180.18018,4,2,1,70,0,0
46406,-236.345969,4,2,1,70,0,0
46439,-297.419148,4,2,1,70,0,0
46472,-352.371618,4,2,1,70,0,0
46505,-300,4,2,1,70,0,0
46571,-120,4,2,1,70,0,0
46587,-100,4,2,1,70,0,0
46604,-80,4,2,1,70,0,0
46620,-28.5,4,2,1,70,0,0
46637,-100,4,2,1,70,0,0
46768,-35.5,4,2,1,70,0,0
46800,-88.365243,4,2,1,70,0,0
46833,-124.037899,4,2,1,70,0,0
46866,-180.18018,4,2,1,70,0,0
46899,-256.71401,4,2,1,70,0,0
46932,-335.195531,4,2,1,70,0,0
46966,-166.666667,4,2,1,70,0,0
47004,-62.5,4,2,1,70,0,0
47031,-29,4,2,1,70,0,0
47063,-81.880547,4,2,1,70,0,0
47096,-104.033825,4,2,1,70,0,0
47129,-135.941868,4,2,1,70,0,0
47162,-180.18018,4,2,1,70,0,0
47195,-236.345969,4,2,1,70,0,0
47228,-297.419148,4,2,1,70,0,0
47261,-352.371618,4,2,1,70,0,0
47295,-100,4,2,1,70,0,0
48347,-29,4,2,1,70,0,0
48379,-81.880547,4,2,1,70,0,0
48412,-104.033825,4,2,1,70,0,0
48445,-135.941868,4,2,1,70,0,0
48478,-180.18018,4,2,1,70,0,0
48511,-236.345969,4,2,1,70,0,0
48544,-297.419148,4,2,1,70,0,0
48577,-352.371618,4,2,1,70,0,0
48610,-100,4,2,1,70,0,0
50453,-400,4,2,1,70,0,0
50485,-197.907451,4,2,1,70,0,0
50518,-133.525368,4,2,1,70,0,0
50551,-102.983864,4,2,1,70,0,0
50584,-85.83691,4,2,1,70,0,0
50617,-75.271396,4,2,1,70,0,0
50650,-68.30968,4,2,1,70,0,0
50683,-63.379924,4,2,1,70,0,0
50716,-100,4,2,1,70,0,0
51505,-29,4,2,1,70,0,0
51537,-81.880547,4,2,1,70,0,0
51570,-104.033825,4,2,1,70,0,0
51603,-135.941868,4,2,1,70,0,0
51636,-180.18018,4,2,1,70,0,0
51669,-236.345969,4,2,1,70,0,0
51702,-297.419148,4,2,1,70,0,0
51735,-352.371618,4,2,1,70,0,0
51768,-48.979591,4,2,1,70,0,0
51785,-195.918367,4,2,1,70,0,0
51856,-81.632653,4,2,1,70,0,0
51873,-326.530613,4,2,1,70,0,0
51944,-97.959184,4,2,1,70,0,0
51961,-391.836734,4,2,1,70,0,0
52031,-114.285714,4,2,1,70,0,0
52053,-457.142857,4,2,1,70,0,0
52141,-130.612244,4,2,1,70,0,0
52154,-522.44898,4,2,1,70,0,0
52207,-130.612244,4,2,1,70,0,0
52215,-522.44898,4,2,1,70,0,0
52251,-285.714285714286,4,2,1,70,0,0
52295,-10000,4,2,1,70,0,0
52339,-200,4,2,1,70,0,0
52366,-160,4,2,1,70,0,0
52393,-133.333333,4,2,1,70,0,0
52421,-114.285714,4,2,1,70,0,0
52448,-100,4,2,1,70,0,0
52475,-88.888889,4,2,1,70,0,0
52503,-80,4,2,1,70,0,0
52530,-54,4,2,1,70,0,0
52558,-107.526882,4,2,1,50,0,0
56768,-104.166667,4,2,1,50,0,0
58874,-130.208334,4,2,1,50,0,0
58939,-86.805556,4,2,1,50,0,0
59005,-130.208334,4,2,1,50,0,0
59071,-86.805556,4,2,1,50,0,0
59137,-260.416668,4,2,1,50,0,0
59203,-65.104167,4,2,1,50,0,0
59268,-260.416668,4,2,1,50,0,0
59334,-65.104167,4,2,1,50,0,0
59400,-148.809524,4,2,1,50,0,0
59466,-80.128205,4,2,1,50,0,0
59531,-148.809524,4,2,1,50,0,0
59597,-80.128205,4,2,1,50,0,0
59663,-520.833335,4,2,1,50,0,0
59729,-57.870371,4,2,1,50,0,0
59795,-520.833335,4,2,1,50,0,0
59860,-57.870371,4,2,1,50,0,0
59926,-104.166667,4,2,1,50,0,0
60847,-300,4,2,1,50,0,0
60913,-120,4,2,1,50,0,0
60929,-100,4,2,1,50,0,0
60946,-80,4,2,1,50,0,0
60962,-28.5,4,2,1,50,0,0
60979,-100,4,2,1,60,0,0
61505,-333.333333,4,2,1,60,0,0
61571,-58.823529,4,2,1,60,0,0
61637,-333.333333,4,2,1,60,0,0
61702,-58.823529,4,2,1,60,0,0
61768,-333.333333,4,2,1,60,0,0
61834,-58.823529,4,2,1,60,0,0
61900,-100,4,2,1,60,0,0
62953,-300,4,2,1,60,0,0
63018,-120,4,2,1,60,0,0
63034,-100,4,2,1,60,0,0
63051,-80,4,2,1,60,0,0
63067,-28.5,4,2,1,60,0,0
63084,-100,4,2,1,60,0,0
65058,-333.333333333333,4,2,1,60,0,0
65091,-58.8235294117647,4,2,1,60,0,0
65124,-666.666666666667,4,2,1,60,0,0
65156,-54.054054054054,4,2,1,60,0,0
65190,-100,4,2,1,60,0,0
65716,-250,4,2,1,60,0,0
65781,-62.5,4,2,1,60,0,0
65847,-250,4,2,1,60,0,0
65913,-62.5,4,2,1,60,0,0
65979,-333.333333,4,2,1,60,0,0
66045,-58.823529,4,2,1,60,0,0
66110,-100,4,2,1,60,0,0
67163,-333.333333,4,2,1,60,0,0
67196,-58.8235294117647,4,2,1,60,0,0
67229,-666.666666666667,4,2,1,60,0,0
67262,-54.054054054054,4,2,1,60,0,0
67295,-100,4,2,1,60,0,0
67558,-300,4,2,1,60,0,0
67623,-120,4,2,1,60,0,0
67639,-100,4,2,1,60,0,0
67656,-80,4,2,1,60,0,0
67672,-28.5,4,2,1,60,0,0
67689,-100,4,2,1,60,0,0
67953,-300,4,2,1,60,0,0
68018,-120,4,2,1,60,0,0
68034,-100,4,2,1,60,0,0
68051,-80,4,2,1,60,0,0
68067,-28.5,4,2,1,60,0,0
68084,-100,4,2,1,60,0,0
68216,-66.666667,4,2,1,60,0,0
68249,-200,4,2,1,60,0,0
68281,-500,4,2,1,60,0,0
68314,-55.555556,4,2,1,60,0,0
68347,-66.666667,4,2,1,60,0,0
68380,-200,4,2,1,60,0,0
68413,-500,4,2,1,60,0,0
68446,-55.555556,4,2,1,60,0,0
68479,-100,4,2,1,60,0,0
68742,-333.333333,4,2,1,60,0,0
68788,-37.974684,4,2,1,60,0,0
68808,-333.333333,4,2,1,60,0,0
68854,-37.974684,4,2,1,60,0,0
68874,-300,4,2,1,60,0,0
68939,-120,4,2,1,60,0,0
68955,-100,4,2,1,60,0,0
68972,-80,4,2,1,60,0,0
68988,-28.5,4,2,1,60,0,0
69005,-45.857143,4,2,1,60,0,0
69022,-58.130435,4,2,1,60,0,0
69038,-135.59322,4,2,1,60,0,0
69055,-132.231405,4,2,1,60,0,0
69071,-129.032258,4,2,1,60,0,0
69088,-125.984252,4,2,1,60,0,0
69104,-123.076923,4,2,1,60,0,0
69121,-120.300752,4,2,1,60,0,0
69137,-117.647059,4,2,1,60,0,0
69153,-115.107914,4,2,1,60,0,0
69170,-112.676056,4,2,1,60,0,0
69186,-110.344828,4,2,1,60,0,0
69203,-108.108108,4,2,1,60,0,0
69219,-105.960265,4,2,1,60,0,0
69236,-103.896104,4,2,1,60,0,0
69252,-101.910828,4,2,1,60,0,0
69268,-100,4,2,1,60,0,0
77295,-50,4,2,1,70,0,0
77321,-300,4,2,1,70,0,0
77360,-50,4,2,1,70,0,0
77386,-300,4,2,1,70,0,0
77426,-50,4,2,1,70,0,0
77452,-300,4,2,1,70,0,0
77492,-50,4,2,1,70,0,0
77518,-300,4,2,1,70,0,0
77558,-66.666667,4,2,1,70,0,0
77584,-150,4,2,1,70,0,0
77624,-66.666667,4,2,1,70,0,0
77650,-150,4,2,1,70,0,0
77689,-66.666667,4,2,1,70,0,0
77715,-150,4,2,1,70,0,0
77755,-100,4,2,1,70,0,0
77821,-29,4,2,1,70,0,0
77853,-90,4,2,1,70,0,0
77886,-120,4,2,1,70,0,0
77919,-150,4,2,1,70,0,0
77952,-180,4,2,1,70,0,0
77985,-220,4,2,1,70,0,0
78084,-71.428571,4,2,1,70,0,0
78117,-166.666667,4,2,1,70,0,0
78150,-71.428571,4,2,1,70,0,0
78183,-166.666667,4,2,1,70,0,0
78216,-71.428571,4,2,1,70,0,0
78248,-166.666667,4,2,1,70,0,0
78281,-71.428571,4,2,1,70,0,0
78314,-166.666667,4,2,1,70,0,0
78347,-71.428571,4,2,1,70,0,0
78380,-166.666667,4,2,1,70,0,0
78413,-100,4,2,1,70,0,0
78479,-37.037037,4,2,1,70,0,0
78495,-230.769231,4,2,1,70,0,0
78545,-76.923077,4,2,1,70,0,0
78587,-239.43662,4,2,1,70,0,0
78610,-37.037037,4,2,1,70,0,0
78626,-230.769231,4,2,1,70,0,0
78676,-76.923077,4,2,1,70,0,0
78719,-239.43662,4,2,1,70,0,0
78742,-37.037037,4,2,1,70,0,0
78758,-230.769231,4,2,1,70,0,0
78808,-76.923077,4,2,1,70,0,0
78851,-239.43662,4,2,1,70,0,0
78874,-17.39130435,4,2,1,70,0,0
78890,-311.1111111,4,2,1,70,0,0
79005,-17.39130435,4,2,1,70,0,0
79021,-311.1111111,4,2,1,70,0,0
79137,-17.39130435,4,2,1,70,0,0
79153,-311.1111111,4,2,1,70,0,0
79268,-13.33333333,4,2,1,70,0,0
79284,-1400,4,2,1,70,0,0
79400,-17.39130435,4,2,1,70,0,0
79416,-311.1111111,4,2,1,70,0,0
79531,-17.39130435,4,2,1,70,0,0
79547,-311.1111111,4,2,1,70,0,0
79663,-166.6666667,4,2,1,70,0,0
79745,-60,4,2,1,70,0,0
79795,-166.6666667,4,2,1,70,0,0
79876,-60,4,2,1,70,0,0
79926,-100,4,2,1,70,0,1
83216,-52.631579,4,2,1,70,0,1
83232,-63.443143,4,2,1,70,0,1
83248,-78.637696,4,2,1,70,0,1
83265,-99.738709,4,2,1,70,0,1
83281,-128.205128,4,2,1,70,0,1
83297,-164.576611,4,2,1,70,0,1
83314,-207.617588,4,2,1,70,0,1
83330,-255.614269,4,2,1,70,0,1
83347,-100,4,2,1,70,0,1
83479,-52.631579,4,2,1,70,0,1
83495,-63.443143,4,2,1,70,0,1
83511,-78.637696,4,2,1,70,0,1
83528,-99.738709,4,2,1,70,0,1
83544,-128.205128,4,2,1,70,0,1
83560,-164.576611,4,2,1,70,0,1
83577,-207.617588,4,2,1,70,0,1
83593,-255.614269,4,2,1,70,0,1
83610,-100,4,2,1,70,0,1
83742,-166.666666666667,4,2,1,70,0,1
83775,-71.4285714285714,4,2,1,70,0,1
83808,-66.6666666666667,4,2,1,70,0,1
83841,-200,4,2,1,70,0,1
83874,-250,4,2,1,70,0,1
83906,-62.5,4,2,1,70,0,1
83939,-58.8235294117647,4,2,1,70,0,1
83972,-333.333333333333,4,2,1,70,0,1
84005,-500,4,2,1,70,0,1
84038,-55.5555555555556,4,2,1,70,0,1
84071,-52.6315789473684,4,2,1,70,0,1
84104,-1000,4,2,1,70,0,1
84137,-100,4,2,1,70,0,1
84400,-55.555556,4,2,1,70,0,1
84422,-136.363636,4,2,1,70,0,1
84488,-55.555556,4,2,1,70,0,1
84509,-136.363636,4,2,1,70,0,1
84575,-55.555556,4,2,1,70,0,1
84597,-136.363636,4,2,1,70,0,1
84663,-100,4,2,1,70,0,1
86242,-58.823529,4,2,1,70,0,1
86275,-88.171388,4,2,1,70,0,1
86308,-141.843972,4,2,1,70,0,1
86341,-213.14928,4,2,1,70,0,1
86374,-100,4,2,1,70,0,1
86505,-58.823529,4,2,1,70,0,1
86538,-88.171388,4,2,1,70,0,1
86571,-141.843972,4,2,1,70,0,1
86604,-213.14928,4,2,1,70,0,1
86637,-100,4,2,1,70,0,1
86768,-50,4,2,1,70,0,1
86811,-197.058824,4,2,1,70,0,1
86900,-100,4,2,1,70,0,1
87031,-50,4,2,1,70,0,1
87074,-197.058824,4,2,1,70,0,1
87163,-100,4,2,1,70,0,1
87426,-166.666667,4,2,1,70,0,1
87513,-56.291391,4,2,1,70,0,1
87558,-100,4,2,1,70,0,1
88347,-60.606061,4,2,1,70,0,0
88413,-285.714286,4,2,1,70,0,0
88479,-100,4,2,1,70,0,0
89268,-300,4,2,1,70,0,0
89334,-120,4,2,1,70,0,0
89350,-100,4,2,1,70,0,0
89367,-80,4,2,1,70,0,0
89383,-28.5,4,2,1,70,0,0
89400,-100,4,2,1,70,0,0
91374,-300,4,2,1,70,0,0
91440,-120,4,2,1,70,0,0
91456,-100,4,2,1,70,0,0
91473,-80,4,2,1,70,0,0
91489,-28.5,4,2,1,70,0,0
91506,-100,4,2,1,70,0,0
92097,-250,4,2,1,70,0,0
92163,-62.5,4,2,1,70,0,0
92229,-100,4,2,1,70,0,0
92295,-333.333333333333,4,2,1,70,0,0
92360,-58.8235294117647,4,2,1,70,0,0
92426,-100,4,2,1,70,0,0
92492,-666.666666666667,4,2,1,70,0,0
92525,-54.054054054054,4,2,1,70,0,0
92558,-100,4,2,1,70,0,1
93479,-300,4,2,1,70,0,1
93544,-120,4,2,1,70,0,1
93560,-100,4,2,1,70,0,1
93577,-80,4,2,1,70,0,1
93593,-28.5,4,2,1,70,0,1
93610,-100,4,2,1,70,0,1
94531,-300,4,2,1,70,0,1
94597,-120,4,2,1,70,0,1
94613,-100,4,2,1,70,0,1
94630,-80,4,2,1,70,0,1
94646,-28.5,4,2,1,70,0,1
94663,-100,4,2,1,70,0,1
95716,-100,4,2,1,70,0,0
96242,-52.631579,4,2,1,70,0,0
96275,-1000,4,2,1,70,0,0
96308,-52.631579,4,2,1,70,0,0
96341,-1000,4,2,1,70,0,0
96374,-52.631579,4,2,1,70,0,0
96406,-1000,4,2,1,70,0,0
96439,-52.631579,4,2,1,70,0,0
96472,-1000,4,2,1,70,0,0
96505,-100,4,2,1,70,0,0
96768,-100,4,2,1,70,0,1
97031,-62.5,4,2,1,70,0,1
97053,-250,4,2,1,70,0,1
97075,-62.5,4,2,1,70,0,1
97096,-250,4,2,1,70,0,1
97118,-62.5,4,2,1,70,0,1
97140,-250,4,2,1,70,0,1
97162,-100,4,2,1,70,0,1
97295,-62.5,4,2,1,70,0,1
97317,-250,4,2,1,70,0,1
97339,-62.5,4,2,1,70,0,1
97360,-250,4,2,1,70,0,1
97382,-62.5,4,2,1,70,0,1
97404,-250,4,2,1,70,0,1
97426,-100,4,2,1,70,0,1
97558,-62.5,4,2,1,70,0,1
97580,-250,4,2,1,70,0,1
97602,-62.5,4,2,1,70,0,1
97623,-250,4,2,1,70,0,1
97645,-62.5,4,2,1,70,0,1
97667,-250,4,2,1,70,0,1
97689,-100,4,2,1,70,0,1
97821,-62.5,4,2,1,70,0,1
97843,-250,4,2,1,70,0,1
97865,-62.5,4,2,1,70,0,1
97886,-250,4,2,1,70,0,1
97908,-62.5,4,2,1,70,0,1
97930,-250,4,2,1,70,0,1
97953,-100,4,2,1,70,0,1
98084,-62.5,4,2,1,70,0,1
98106,-250,4,2,1,70,0,1
98128,-62.5,4,2,1,70,0,1
98149,-250,4,2,1,70,0,1
98171,-62.5,4,2,1,70,0,1
98193,-250,4,2,1,70,0,1
98216,-100,4,2,1,70,0,1
98874,-29,4,2,1,70,0,0
98906,-81.880547,4,2,1,70,0,0
98939,-104.033825,4,2,1,70,0,0
98972,-135.941868,4,2,1,70,0,0
99005,-180.18018,4,2,1,70,0,0
99038,-236.345969,4,2,1,70,0,0
99071,-297.419148,4,2,1,70,0,0
99104,-352.371618,4,2,1,70,0,0
99137,-300,4,2,1,70,0,0
99202,-120,4,2,1,70,0,0
99218,-100,4,2,1,70,0,0
99235,-80,4,2,1,70,0,0
99251,-28.5,4,2,1,70,0,0
99268,-100,4,2,1,70,0,0
99400,-35.5,4,2,1,70,0,0
99432,-88.365243,4,2,1,70,0,0
99465,-124.037899,4,2,1,70,0,0
99498,-180.18018,4,2,1,70,0,0
99531,-256.71401,4,2,1,70,0,0
99564,-335.195531,4,2,1,70,0,0
99597,-166.666667,4,2,1,70,0,0
99636,-62.5,4,2,1,70,0,0
99663,-29,4,2,1,70,0,0
99695,-81.880547,4,2,1,70,0,0
99728,-104.033825,4,2,1,70,0,0
99761,-135.941868,4,2,1,70,0,0
99794,-180.18018,4,2,1,70,0,0
99827,-236.345969,4,2,1,70,0,0
99860,-297.419148,4,2,1,70,0,0
99893,-352.371618,4,2,1,70,0,0
99926,-300,4,2,1,70,0,0
99991,-120,4,2,1,70,0,0
100007,-100,4,2,1,70,0,0
100024,-80,4,2,1,70,0,0
100040,-28.5,4,2,1,70,0,0
100057,-100,4,2,1,70,0,0
100189,-29,4,2,1,70,0,0
100221,-81.880547,4,2,1,70,0,0
100254,-104.033825,4,2,1,70,0,0
100287,-135.941868,4,2,1,70,0,0
100320,-180.18018,4,2,1,70,0,0
100353,-236.345969,4,2,1,70,0,0
100386,-297.419148,4,2,1,70,0,0
100419,-352.371618,4,2,1,70,0,0
100453,-100,4,2,1,70,0,0
100979,-100,4,2,1,70,0,1
101242,-62.5,4,2,1,70,0,1
101264,-250,4,2,1,70,0,1
101286,-62.5,4,2,1,70,0,1
101307,-250,4,2,1,70,0,1
101329,-62.5,4,2,1,70,0,1
101351,-250,4,2,1,70,0,1
101374,-100,4,2,1,70,0,1
101505,-62.5,4,2,1,70,0,1
101527,-250,4,2,1,70,0,1
101549,-62.5,4,2,1,70,0,1
101570,-250,4,2,1,70,0,1
101592,-62.5,4,2,1,70,0,1
101614,-250,4,2,1,70,0,1
101637,-100,4,2,1,70,0,1
101768,-62.5,4,2,1,70,0,1
101790,-250,4,2,1,70,0,1
101812,-62.5,4,2,1,70,0,1
101833,-250,4,2,1,70,0,1
101855,-62.5,4,2,1,70,0,1
101877,-250,4,2,1,70,0,1
101900,-100,4,2,1,70,0,1
102031,-62.5,4,2,1,70,0,1
102053,-250,4,2,1,70,0,1
102075,-62.5,4,2,1,70,0,1
102096,-250,4,2,1,70,0,1
102118,-62.5,4,2,1,70,0,1
102140,-250,4,2,1,70,0,1
102163,-100,4,2,1,70,0,1
102295,-62.5,4,2,1,70,0,1
102317,-250,4,2,1,70,0,1
102339,-62.5,4,2,1,70,0,1
102360,-250,4,2,1,70,0,1
102382,-62.5,4,2,1,70,0,1
102404,-250,4,2,1,70,0,1
102426,-100,4,2,1,70,0,1
103084,-29,4,2,1,70,0,0
103116,-81.880547,4,2,1,70,0,0
103149,-104.033825,4,2,1,70,0,0
103182,-135.941868,4,2,1,70,0,0
103215,-180.18018,4,2,1,70,0,0
103248,-236.345969,4,2,1,70,0,0
103281,-297.419148,4,2,1,70,0,0
103314,-352.371618,4,2,1,70,0,0
103347,-300,4,2,1,70,0,0
103412,-120,4,2,1,70,0,0
103428,-100,4,2,1,70,0,0
103445,-80,4,2,1,70,0,0
103461,-28.5,4,2,1,70,0,0
103478,-100,4,2,1,70,0,0
103610,-35.5,4,2,1,70,0,0
103642,-88.365243,4,2,1,70,0,0
103675,-124.037899,4,2,1,70,0,0
103708,-180.18018,4,2,1,70,0,0
103741,-256.71401,4,2,1,70,0,0
103774,-335.195531,4,2,1,70,0,0
103807,-166.666667,4,2,1,70,0,0
103846,-62.5,4,2,1,70,0,0
103873,-29,4,2,1,70,0,0
103905,-81.880547,4,2,1,70,0,0
103938,-104.033825,4,2,1,70,0,0
103971,-135.941868,4,2,1,70,0,0
104004,-180.18018,4,2,1,70,0,0
104037,-236.345969,4,2,1,70,0,0
104070,-297.419148,4,2,1,70,0,0
104103,-352.371618,4,2,1,70,0,0
104136,-300,4,2,1,70,0,0
104201,-120,4,2,1,70,0,0
104217,-100,4,2,1,70,0,0
104234,-80,4,2,1,70,0,0
104250,-28.5,4,2,1,70,0,0
104267,-100,4,2,1,70,0,0
104399,-29,4,2,1,70,0,0
104431,-81.880547,4,2,1,70,0,0
104464,-104.033825,4,2,1,70,0,0
104497,-135.941868,4,2,1,70,0,0
104530,-180.18018,4,2,1,70,0,0
104563,-236.345969,4,2,1,70,0,0
104596,-297.419148,4,2,1,70,0,0
104629,-352.371618,4,2,1,70,0,0
104663,-100,4,2,1,70,0,0
105189,-100,4,2,1,70,0,1
105716,-50.5,4,2,1,70,0,1
105738,-250,4,2,1,70,0,1
105760,-62.5,4,2,1,70,0,1
105781,-250,4,2,1,70,0,1
105803,-82.5,4,2,1,70,0,1
105825,-250,4,2,1,70,0,1
105847,-100,4,2,1,70,0,1
105979,-50.5,4,2,1,70,0,1
106001,-250,4,2,1,70,0,1
106023,-62.5,4,2,1,70,0,1
106044,-250,4,2,1,70,0,1
106066,-82.5,4,2,1,70,0,1
106088,-250,4,2,1,70,0,1
106110,-100,4,2,1,70,0,1
106242,-50.5,4,2,1,70,0,1
106264,-250,4,2,1,70,0,1
106286,-62.5,4,2,1,70,0,1
106307,-250,4,2,1,70,0,1
106329,-82.5,4,2,1,70,0,1
106351,-250,4,2,1,70,0,1
106374,-100,4,2,1,70,0,1
106505,-50.5,4,2,1,70,0,1
106527,-250,4,2,1,70,0,1
106549,-62.5,4,2,1,70,0,1
106570,-250,4,2,1,70,0,1
106592,-82.5,4,2,1,70,0,1
106614,-250,4,2,1,70,0,1
106637,-100,4,2,1,70,0,1
106768,-50.5,4,2,1,70,0,1
106790,-250,4,2,1,70,0,1
106812,-62.5,4,2,1,70,0,1
106833,-250,4,2,1,70,0,1
106855,-82.5,4,2,1,70,0,1
106877,-250,4,2,1,70,0,1
106900,-50.5,4,2,1,70,0,1
106922,-250,4,2,1,70,0,1
106944,-62.5,4,2,1,70,0,1
106965,-250,4,2,1,70,0,1
106987,-82.5,4,2,1,70,0,1
107009,-250,4,2,1,70,0,1
107031,-100,4,2,1,70,0,1
109400,-55.555556,4,2,1,70,0,0
109416,-63.35706,4,2,1,70,0,0
109432,-73.286423,4,2,1,70,0,0
109449,-85.766459,4,2,1,70,0,0
109465,-101.050016,4,2,1,70,0,0
109482,-118.832362,4,2,1,70,0,0
109498,-137.61494,4,2,1,70,0,0
109515,-154.146548,4,2,1,70,0,0
109531,-163.934426,4,2,1,70,0,0
109547,-163.60365,4,2,1,70,0,0
109564,-153.45301,4,2,1,70,0,0
109580,-137.170146,4,2,1,70,0,0
109597,-119.103066,4,2,1,70,0,0
109613,-102.201736,4,2,1,70,0,0
109630,-87.757078,4,2,1,70,0,0
109646,-75.996154,4,2,1,70,0,0
109663,-66.666667,4,2,1,70,0,0
109679,-69.747167,4,2,1,70,0,0
109695,-73.126143,4,2,1,70,0,0
109712,-76.849183,4,2,1,70,0,0
109728,-80.97166,4,2,1,70,0,0
109745,-85.561497,4,2,1,70,0,0
109761,-90.702948,4,2,1,70,0,0
109778,-96.501809,4,2,1,70,0,0
109794,-103.092784,4,2,1,70,0,0
109810,-110.650069,4,2,1,70,0,0
109827,-119.402985,4,2,1,70,0,0
109843,-129.659643,4,2,1,70,0,0
109860,-141.843972,4,2,1,70,0,0
109876,-156.555773,4,2,1,70,0,0
109893,-174.672489,4,2,1,70,0,0
109909,-197.530864,4,2,1,70,0,0
109926,-45.5,4,2,1,70,0,0
109959,-133.333333,4,2,1,70,0,1
109992,-166.666667,4,2,1,70,0,1
110025,-222.222222,4,2,1,70,0,1
110058,-100,4,2,1,70,0,1
110124,-45.5,4,2,1,70,0,1
110157,-133.333333,4,2,1,70,0,1
110190,-166.666667,4,2,1,70,0,1
110223,-222.222222,4,2,1,70,0,1
110256,-100,4,2,1,70,0,1
110321,-45.5,4,2,1,70,0,1
110354,-133.333333,4,2,1,70,0,1
110387,-166.666667,4,2,1,70,0,1
110420,-222.222222,4,2,1,70,0,1
110453,-45.5,4,2,1,70,0,1
110486,-133.333333,4,2,1,70,0,1
110519,-166.666667,4,2,1,70,0,1
110552,-222.222222,4,2,1,70,0,1
110585,-100,4,2,1,70,0,1
110650,-45.5,4,2,1,70,0,1
110683,-133.333333,4,2,1,70,0,1
110716,-166.666667,4,2,1,70,0,1
110749,-222.222222,4,2,1,70,0,1
110782,-100,4,2,1,70,0,1
110847,-45.5,4,2,1,70,0,1
110880,-133.333333,4,2,1,70,0,1
110913,-166.666667,4,2,1,70,0,1
110946,-222.222222,4,2,1,70,0,1
110979,-45.5,4,2,1,70,0,1
111012,-133.333333,4,2,1,70,0,1
111045,-166.666667,4,2,1,70,0,1
111078,-222.222222,4,2,1,70,0,1
111111,-100,4,2,1,70,0,1
111505,-57,4,2,1,70,0,1
111538,-102.564103,4,2,1,70,0,1
111571,-133.333333,4,2,1,70,0,1
111604,-190.47619,4,2,1,70,0,1
111637,-100,4,2,1,70,0,1
111703,-57,4,2,1,70,0,1
111736,-102.564103,4,2,1,70,0,1
111769,-133.333333,4,2,1,70,0,1
111802,-190.47619,4,2,1,70,0,1
111835,-100,4,2,1,70,0,1
111900,-57,4,2,1,70,0,1
111933,-102.564103,4,2,1,70,0,1
111966,-133.333333,4,2,1,70,0,1
111999,-190.47619,4,2,1,70,0,1
112031,-57,4,2,1,70,0,1
112064,-102.564103,4,2,1,70,0,1
112097,-133.333333,4,2,1,70,0,1
112130,-190.47619,4,2,1,70,0,1
112163,-100,4,2,1,70,0,1
112229,-57,4,2,1,70,0,1
112262,-102.564103,4,2,1,70,0,1
112295,-133.333333,4,2,1,70,0,1
112328,-190.47619,4,2,1,70,0,1
112361,-100,4,2,1,70,0,1
112426,-57,4,2,1,70,0,1
112459,-102.564103,4,2,1,70,0,1
112492,-133.333333,4,2,1,70,0,1
112525,-190.47619,4,2,1,70,0,1
112558,-57,4,2,1,70,0,1
112591,-102.564103,4,2,1,70,0,1
112624,-133.333333,4,2,1,70,0,1
112657,-190.47619,4,2,1,70,0,1
112690,-100,4,2,1,70,0,1
112755,-57,4,2,1,70,0,1
112788,-102.564103,4,2,1,70,0,1
112821,-133.333333,4,2,1,70,0,1
112854,-190.47619,4,2,1,70,0,1
112887,-100,4,2,1,70,0,1
112953,-57,4,2,1,70,0,1
112986,-102.564103,4,2,1,70,0,1
113019,-133.333333,4,2,1,70,0,1
113052,-190.47619,4,2,1,70,0,1
113084,-50,4,2,1,70,0,1
113110,-300,4,2,1,70,0,1
113150,-50,4,2,1,70,0,1
113176,-300,4,2,1,70,0,1
113216,-50,4,2,1,70,0,1
113242,-300,4,2,1,70,0,1
113281,-50,4,2,1,70,0,1
113307,-300,4,2,1,70,0,1
113347,-66.666667,4,2,1,70,0,1
113373,-150,4,2,1,70,0,1
113413,-66.666667,4,2,1,70,0,1
113439,-150,4,2,1,70,0,1
113479,-66.666667,4,2,1,70,0,1
113505,-150,4,2,1,70,0,1
113545,-100,4,2,1,70,0,1
113610,-29,4,2,1,70,0,0
113642,-81.880547,4,2,1,70,0,0
113675,-104.033825,4,2,1,70,0,0
113708,-135.941868,4,2,1,70,0,0
113741,-180.18018,4,2,1,70,0,0
113774,-236.345969,4,2,1,70,0,0
113807,-297.419148,4,2,1,70,0,0
113840,-352.371618,4,2,1,70,0,0
113873,-300,4,2,1,70,0,0
113939,-120,4,2,1,70,0,0
113955,-100,4,2,1,70,0,0
113972,-80,4,2,1,70,0,0
113988,-28.5,4,2,1,70,0,0
114005,-100,4,2,1,70,0,0
114137,-35.5,4,2,1,70,0,0
114169,-88.365243,4,2,1,70,0,0
114201,-124.037899,4,2,1,70,0,0
114234,-180.18018,4,2,1,70,0,0
114267,-256.71401,4,2,1,70,0,0
114300,-335.195531,4,2,1,70,0,0
114333,-166.666667,4,2,1,70,0,0
114372,-62.5,4,2,1,70,0,0
114400,-29,4,2,1,70,0,0
114432,-81.880547,4,2,1,70,0,0
114464,-104.033825,4,2,1,70,0,0
114497,-135.941868,4,2,1,70,0,0
114530,-180.18018,4,2,1,70,0,0
114563,-236.345969,4,2,1,70,0,0
114596,-297.419148,4,2,1,70,0,0
114629,-352.371618,4,2,1,70,0,0
114663,-100,4,2,1,70,0,0
115716,-29,4,2,1,70,0,0
115748,-81.880547,4,2,1,70,0,0
115781,-104.033825,4,2,1,70,0,0
115814,-135.941868,4,2,1,70,0,0
115847,-180.18018,4,2,1,70,0,0
115880,-236.345969,4,2,1,70,0,0
115913,-297.419148,4,2,1,70,0,0
115946,-352.371618,4,2,1,70,0,0
115979,-300,4,2,1,70,0,0
116044,-120,4,2,1,70,0,0
116060,-100,4,2,1,70,0,0
116077,-80,4,2,1,70,0,0
116093,-28.5,4,2,1,70,0,0
116110,-100,4,2,1,70,0,0
116242,-35.5,4,2,1,70,0,0
116274,-88.365243,4,2,1,70,0,0
116307,-124.037899,4,2,1,70,0,0
116340,-180.18018,4,2,1,70,0,0
116373,-256.71401,4,2,1,70,0,0
116406,-335.195531,4,2,1,70,0,0
116439,-166.666667,4,2,1,70,0,0
116478,-62.5,4,2,1,70,0,0
116505,-29,4,2,1,70,0,0
116537,-81.880547,4,2,1,70,0,0
116570,-104.033825,4,2,1,70,0,0
116603,-135.941868,4,2,1,70,0,0
116636,-180.18018,4,2,1,70,0,0
116669,-236.345969,4,2,1,70,0,0
116702,-297.419148,4,2,1,70,0,0
116735,-352.371618,4,2,1,70,0,0
116768,-100,4,2,1,70,0,0
117821,-10,4,2,1,70,0,0
117853,-60,4,2,1,70,0,0
117887,-1000,4,2,1,70,0,0
117919,-600,4,2,1,70,0,0
117952,-428.571429,4,2,1,70,0,0
117985,-333.333333,4,2,1,70,0,0
118018,-272.727273,4,2,1,70,0,0
118051,-230,4,2,1,70,0,0
118084,-200,4,2,1,70,0,0
118116,-177.777778,4,2,1,70,0,0
118149,-160,4,2,1,70,0,0
118182,-145.454545,4,2,1,70,0,0
118215,-133.333333,4,2,1,70,0,0
118248,-123.076923,4,2,1,70,0,0
118281,-114.285714,4,2,1,70,0,0
118314,-106.666667,4,2,1,70,0,0
118347,-100,4,2,1,70,0,0

[HitObjects]
36,192,2031,128,2,2558:0:0:0:0:
109,192,2031,128,4,2558:0:0:0:0:
182,192,2031,1,0,0:0:0:0:
256,192,2031,1,0,0:0:0:0:
402,192,2031,1,0,0:0:0:0:
475,192,2031,1,0,0:0:0:0:
329,192,2295,128,0,2426:0:0:0:0:
475,192,2426,1,0,0:0:0:0:
256,192,2558,1,0,0:0:0:0:
36,192,2689,1,0,0:0:0:0:
109,192,2689,1,0,0:0:0:0:
329,192,2689,1,0,0:0:0:0:
36,192,2821,1,0,0:0:0:0:
109,192,2821,1,0,0:0:0:0:
402,192,2821,1,0,0:0:0:0:
36,192,2953,128,0,4005:0:0:0:0:
109,192,2953,128,0,4005:0:0:0:0:
256,192,2953,1,0,0:0:0:0:
329,192,3084,1,0,0:0:0:0:
475,192,3084,1,0,0:0:0:0:
182,192,3216,1,0,0:0:0:0:
256,192,3216,1,0,0:0:0:0:
402,192,3347,1,0,0:0:0:0:
475,192,3347,1,0,0:0:0:0:
256,192,3479,1,0,0:0:0:0:
329,192,3479,1,0,0:0:0:0:
182,192,3742,128,0,4005:0:0:0:0:
329,192,3742,128,0,4005:0:0:0:0:
402,192,3742,128,0,4005:0:0:0:0:
475,192,3742,128,0,4005:0:0:0:0:
256,192,4005,1,0,0:0:0:0:
36,192,4137,128,2,6110:0:0:0:0:
109,192,4137,128,4,6110:0:0:0:0:
182,192,4137,1,0,0:0:0:0:
256,192,4137,1,0,0:0:0:0:
402,192,4137,1,0,0:0:0:0:
475,192,4137,1,0,0:0:0:0:
329,192,4268,1,0,0:0:0:0:
329,192,4400,128,0,4531:0:0:0:0:
475,192,4531,1,0,0:0:0:0:
182,192,4663,1,0,0:0:0:0:
402,192,4729,1,0,0:0:0:0:
256,192,4795,1,0,0:0:0:0:
475,192,4860,1,0,0:0:0:0:
329,192,4926,1,0,0:0:0:0:
402,192,5058,1,0,0:0:0:0:
182,192,5189,1,0,0:0:0:0:
256,192,5189,1,0,0:0:0:0:
402,192,5321,1,0,0:0:0:0:
475,192,5321,1,0,0:0:0:0:
329,192,5387,1,0,0:0:0:0:
182,192,5453,1,0,0:0:0:0:
256,192,5453,1,0,0:0:0:0:
329,192,5584,1,0,0:0:0:0:
475,192,5584,1,0,0:0:0:0:
182,192,5716,1,0,0:0:0:0:
256,192,5847,1,0,0:0:0:0:
329,192,5847,1,0,0:0:0:0:
402,192,5847,1,0,0:0:0:0:
475,192,5847,1,0,0:0:0:0:
256,192,5979,128,0,6110:0:0:0:0:
329,192,5979,128,0,6110:0:0:0:0:
402,192,5979,128,0,6110:0:0:0:0:
475,192,5979,128,0,6110:0:0:0:0:
182,192,6110,1,0,0:0:0:0:
329,192,6176,1,0,0:0:0:0:
36,192,6242,128,2,6637:0:0:0:0:
109,192,6242,128,0,6637:0:0:0:40:cymbal.wav
182,192,6242,1,0,0:0:0:0:
256,192,6242,1,0,0:0:0:0:
402,192,6242,1,0,0:0:0:0:
475,192,6242,1,0,0:0:0:0:
329,192,6505,128,0,6637:0:0:0:0:
402,192,6637,1,0,0:0:0:0:
256,192,6703,1,0,0:0:0:0:
36,192,6768,1,0,0:0:0:0:
109,192,6768,1,0,0:0:0:0:
475,192,6768,1,0,0:0:0:0:
36,192,6900,1,0,0:0:0:0:
109,192,6900,1,0,0:0:0:0:
329,192,6900,1,0,0:0:0:0:
36,192,7031,1,0,0:0:0:0:
182,192,7031,1,0,0:0:0:0:
402,192,7031,1,0,0:0:0:0:
36,192,7163,128,0,8216:0:0:0:0:
109,192,7163,128,0,8216:0:0:0:0:
256,192,7163,1,0,0:0:0:0:
329,192,7295,1,0,0:0:0:0:
475,192,7295,1,0,0:0:0:0:
182,192,7426,1,0,0:0:0:0:
256,192,7426,1,0,0:0:0:0:
402,192,7558,1,0,0:0:0:0:
475,192,7558,1,0,0:0:0:0:
256,192,7689,1,0,0:0:0:0:
329,192,7689,1,0,0:0:0:0:
182,192,7953,128,0,8216:0:0:0:0:
329,192,7953,128,0,8216:0:0:0:0:
402,192,7953,128,0,8216:0:0:0:0:
475,192,7953,128,0,8216:0:0:0:0:
256,192,8216,1,0,0:0:0:0:
36,192,8347,128,2,8610:0:0:0:0:
109,192,8347,128,0,8610:0:0:0:40:cymbal.wav
182,192,8347,1,0,0:0:0:0:
329,192,8347,1,0,0:0:0:0:
475,192,8347,1,0,0:0:0:0:
329,192,8479,1,0,0:0:0:0:
475,192,8479,1,0,0:0:0:0:
256,192,8610,1,0,0:0:0:0:
402,192,8610,1,0,0:0:0:0:
36,192,8742,128,2,9005:0:0:0:0:
109,192,8742,128,0,9005:0:0:0:40:cymbal.wav
182,192,8742,1,0,0:0:0:0:
329,192,8742,1,0,0:0:0:0:
475,192,8742,1,0,0:0:0:0:
329,192,8874,1,0,0:0:0:0:
475,192,8874,1,0,0:0:0:0:
256,192,9005,1,0,0:0:0:0:
402,192,9005,1,0,0:0:0:0:
36,192,9137,128,2,9268:0:0:0:0:
109,192,9137,128,0,9268:0:0:0:40:cymbal.wav
182,192,9137,1,0,0:0:0:0:
329,192,9137,1,0,0:0:0:0:
475,192,9137,1,0,0:0:0:0:
256,192,9268,128,0,9334:0:0:0:0:
402,192,9268,128,0,9334:0:0:0:0:
182,192,9400,128,0,9466:0:0:0:0:
329,192,9400,128,0,9466:0:0:0:0:
36,192,9531,128,2,9795:0:0:0:0:
109,192,9531,128,0,9795:0:0:0:40:cymbal.wav
256,192,9531,1,0,0:0:0:0:
402,192,9531,1,0,0:0:0:0:
475,192,9531,1,0,0:0:0:0:
182,192,9663,1,0,0:0:0:0:
329,192,9663,1,0,0:0:0:0:
475,192,9795,1,0,0:0:0:0:
329,192,9860,1,0,0:0:0:0:
182,192,9926,1,0,0:0:0:0:
36,192,10058,128,2,10321:0:0:0:0:
109,192,10058,128,0,10321:0:0:0:0:
256,192,10058,1,0,0:0:0:0:
402,192,10058,128,0,10321:0:0:0:0:
475,192,10058,128,0,10321:0:0:0:0:
182,192,10321,1,0,0:0:0:0:
329,192,10387,1,0,0:0:0:0:
36,192,10453,1,2,0:0:0:0:
109,192,10453,1,4,0:0:0:0:
256,192,10453,1,0,0:0:0:0:
402,192,10453,1,0,0:0:0:0:
475,192,10453,1,0,0:0:0:0:
182,192,10584,1,0,0:0:0:0:
109,192,10716,1,0,0:0:0:0:
329,192,10716,1,0,0:0:0:0:
36,192,10847,1,2,0:0:0:0:
256,192,10847,1,0,0:0:0:0:
402,192,10847,1,0,0:0:0:0:
475,192,10847,1,0,0:0:0:0:
182,192,10979,1,0,0:0:0:0:
329,192,10979,1,0,0:0:0:0:
109,192,11110,1,0,0:0:0:0:
256,192,11110,1,0,0:0:0:0:
329,192,11176,1,0,0:0:0:0:
36,192,11242,1,2,0:0:0:0:
182,192,11242,1,0,0:0:0:0:
402,192,11242,1,0,0:0:0:0:
475,192,11242,1,0,0:0:0:0:
256,192,11374,1,0,0:0:0:0:
36,192,11505,1,4,0:0:0:0:
109,192,11505,1,2,0:0:0:0:
329,192,11505,1,0,0:0:0:0:
475,192,11505,1,0,0:0:0:0:
182,192,11637,1,0,0:0:0:0:
402,192,11637,1,0,0:0:0:0:
109,192,11768,1,0,0:0:0:0:
329,192,11768,1,0,0:0:0:0:
36,192,11900,1,2,0:0:0:0:
182,192,11900,1,0,0:0:0:0:
402,192,11900,1,0,0:0:0:0:
475,192,11900,1,0,0:0:0:0:
256,192,11966,1,0,0:0:0:0:
109,192,12031,1,0,0:0:0:0:
329,192,12031,1,0,0:0:0:0:
182,192,12097,1,0,0:0:0:0:
256,192,12163,1,0,0:0:0:0:
402,192,12163,1,0,0:0:0:0:
36,192,12295,1,2,0:0:0:0:
182,192,12295,1,0,0:0:0:0:
329,192,12295,1,0,0:0:0:0:
475,192,12295,1,0,0:0:0:0:
402,192,12426,1,0,0:0:0:0:
109,192,12470,1,0,0:0:0:0:
182,192,12514,1,0,0:0:0:0:
36,192,12558,1,2,0:0:0:0:
256,192,12558,1,4,0:0:0:0:
329,192,12558,1,0,0:0:0:0:
475,192,12558,1,0,0:0:0:0:
109,192,12646,1,0,0:0:0:0:
402,192,12689,1,0,0:0:0:0:
182,192,12733,1,0,0:0:0:0:
36,192,12821,1,0,0:0:0:0:
256,192,12821,1,0,0:0:0:0:
109,192,12909,1,0,0:0:0:0:
329,192,12953,1,2,0:0:0:0:
402,192,12953,1,0,0:0:0:0:
475,192,12953,1,0,0:0:0:0:
182,192,12996,1,0,0:0:0:0:
36,192,13084,1,0,0:0:0:0:
256,192,13084,1,0,0:0:0:0:
402,192,13172,1,0,0:0:0:0:
182,192,13260,1,0,0:0:0:0:
36,192,13347,1,2,0:0:0:0:
256,192,13347,1,0,0:0:0:0:
475,192,13347,1,0,0:0:0:0:
329,192,13435,1,0,0:0:0:0:
109,192,13479,1,0,0:0:0:0:
402,192,13523,1,0,0:0:0:0:
36,192,13610,1,4,0:0:0:0:
182,192,13610,1,2,0:0:0:0:
256,192,13610,1,0,0:0:0:0:
475,192,13610,1,0,0:0:0:0:
402,192,13698,1,0,0:0:0:0:
109,192,13742,1,0,0:0:0:0:
329,192,13786,1,0,0:0:0:0:
256,192,13874,1,0,0:0:0:0:
475,192,13874,1,0,0:0:0:0:
402,192,13961,1,0,0:0:0:0:
36,192,14005,1,2,0:0:0:0:
109,192,14005,1,0,0:0:0:0:
182,192,14005,1,0,0:0:0:0:
329,192,14049,1,0,0:0:0:0:
256,192,14137,1,0,0:0:0:0:
475,192,14137,1,0,0:0:0:0:
109,192,14224,1,0,0:0:0:0:
329,192,14312,1,0,0:0:0:0:
36,192,14400,1,2,0:0:0:0:
256,192,14400,1,0,0:0:0:0:
402,192,14400,128,0,14663:0:0:0:0:
475,192,14400,1,0,0:0:0:0:
182,192,14488,1,0,0:0:0:0:
109,192,14575,1,0,0:0:0:0:
36,192,14663,1,2,0:0:0:0:
256,192,14663,1,4,0:0:0:0:
329,192,14663,1,0,0:0:0:0:
475,192,14663,1,0,0:0:0:0:
109,192,14751,1,0,0:0:0:0:
402,192,14795,1,0,0:0:0:0:
182,192,14839,1,0,0:0:0:0:
36,192,14926,1,2,0:0:0:0:
256,192,14926,1,0,0:0:0:0:
475,192,14926,1,0,0:0:0:0:
109,192,15014,1,0,0:0:0:0:
329,192,15058,1,0,0:0:0:0:
182,192,15102,1,0,0:0:0:0:
36,192,15189,1,2,0:0:0:0:
256,192,15189,1,4,0:0:0:0:
402,192,15189,1,0,0:0:0:0:
475,192,15189,1,0,0:0:0:0:
182,192,15277,1,0,0:0:0:0:
329,192,15321,1,0,0:0:0:0:
109,192,15365,1,0,0:0:0:0:
36,192,15453,1,2,0:0:0:0:
256,192,15453,1,0,0:0:0:0:
475,192,15453,1,0,0:0:0:0:
182,192,15540,1,0,0:0:0:0:
402,192,15584,1,0,0:0:0:70:LR_Snare Drum 3.wav
109,192,15628,1,0,0:0:0:0:
329,192,15650,1,0,0:0:0:70:LR_Snare Drum 3.wav
36,192,15716,1,2,0:0:0:0:
182,192,15716,1,4,0:0:0:0:
256,192,15716,1,0,0:0:0:0:
475,192,15716,1,0,0:0:0:0:
402,192,15803,1,0,0:0:0:0:
109,192,15847,1,0,0:0:0:0:
329,192,15891,1,0,0:0:0:0:
36,192,15979,1,2,0:0:0:0:
256,192,15979,1,0,0:0:0:0:
475,192,15979,1,0,0:0:0:0:
329,192,16067,1,0,0:0:0:0:
182,192,16110,1,0,0:0:0:0:
402,192,16154,1,0,0:0:0:0:
36,192,16242,1,2,0:0:0:0:
109,192,16242,1,4,0:0:0:0:
256,192,16242,1,0,0:0:0:0:
475,192,16242,1,0,0:0:0:0:
329,192,16330,1,0,0:0:0:0:
182,192,16374,1,0,0:0:0:0:
402,192,16417,1,0,0:0:0:0:
36,192,16505,1,2,0:0:0:0:
256,192,16505,1,0,0:0:0:0:
475,192,16505,1,0,0:0:0:0:
329,192,16593,1,0,0:0:0:0:
182,192,16637,1,0,0:0:0:70:LR_Snare Drum 3.wav
402,192,16681,1,0,0:0:0:0:
109,192,16703,1,0,0:0:0:70:LR_Snare Drum 3.wav
36,192,16768,1,2,0:0:0:0:
256,192,16768,1,4,0:0:0:0:
329,192,16768,1,0,0:0:0:0:
182,192,16834,1,0,0:0:0:0:
475,192,16834,1,0,0:0:0:0:
109,192,16900,1,0,0:0:0:70:LR_Snare Drum 3.wav
329,192,16900,1,0,0:0:0:0:
402,192,16900,1,0,0:0:0:0:
36,192,16966,1,0,0:0:0:70:LR_Snare Drum 3.wav
256,192,16966,1,0,0:0:0:0:
182,192,17031,1,2,0:0:0:0:
402,192,17031,1,4,0:0:0:0:
475,192,17031,1,0,0:0:0:0:
109,192,17097,1,0,0:0:0:0:
329,192,17097,1,0,0:0:0:0:
36,192,17163,1,0,0:0:0:70:LR_Snare Drum 3.wav
256,192,17163,1,0,0:0:0:0:
475,192,17163,1,0,0:0:0:0:
182,192,17229,1,0,0:0:0:70:LR_Snare Drum 3.wav
402,192,17229,1,0,0:0:0:0:
36,192,17295,1,2,0:0:0:0:
109,192,17295,1,4,0:0:0:0:
329,192,17295,1,0,0:0:0:0:
182,192,17360,1,0,0:0:0:0:
402,192,17360,1,0,0:0:0:0:
36,192,17426,1,0,0:0:0:70:LR_Snare Drum 3.wav
256,192,17426,1,0,0:0:0:0:
475,192,17426,1,0,0:0:0:0:
109,192,17492,1,0,0:0:0:70:LR_Snare Drum 3.wav
329,192,17492,1,0,0:0:0:0:
182,192,17558,1,2,0:0:0:0:
402,192,17558,1,4,0:0:0:0:
475,192,17558,1,0,0:0:0:0:
36,192,17624,1,0,0:0:0:70:LR_Snare Drum 3.wav
256,192,17624,1,0,0:0:0:0:
109,192,17689,1,0,0:0:0:70:LR_Snare Drum 3.wav
329,192,17689,1,0,0:0:0:0:
475,192,17689,1,0,0:0:0:0:
182,192,17755,1,0,0:0:0:70:LR_Snare Drum 3.wav
402,192,17755,1,0,0:0:0:0:
36,192,17821,1,2,0:0:0:0:
256,192,17821,1,0,0:0:0:0:
475,192,17865,1,0,0:0:0:0:
329,192,17909,1,0,0:0:0:0:
182,192,17953,1,0,0:0:0:0:
36,192,17996,1,0,0:0:0:0:
402,192,18040,1,0,0:0:0:0:
256,192,18084,1,0,0:0:0:0:
109,192,18128,1,0,0:0:0:0:
475,192,18172,1,0,0:0:0:0:
329,192,18216,1,0,0:0:0:0:
182,192,18260,1,0,0:0:0:0:
36,192,18303,1,0,0:0:0:0:
402,192,18347,128,0,18808:0:0:0:0:
256,192,18413,128,0,18808:0:0:0:70:TOM_1.wav
109,192,18479,128,0,18808:0:0:0:70:TOM_2.wav
475,192,18545,128,0,18808:0:0:0:70:TOM_3.wav
36,192,18610,128,0,18808:0:0:0:70:TOM_4.wav
36,192,18874,1,2,0:0:0:0:
182,192,18874,1,4,0:0:0:0:
256,192,18874,1,0,0:0:0:0:
329,192,18874,1,0,0:0:0:0:
475,192,18874,1,0,0:0:0:0:
182,192,19137,128,0,19400:0:0:0:0:
329,192,19137,128,0,19400:0:0:0:0:
36,192,19400,1,0,0:0:0:50:Cymatics - Trap Snare 8 - A#.wav
109,192,19400,1,0,0:0:0:0:
402,192,19400,1,0,0:0:0:0:
475,192,19400,1,0,0:0:0:0:
182,192,19531,1,2,0:0:0:0:
256,192,19531,1,0,0:0:0:0:
329,192,19531,1,0,0:0:0:0:
182,192,19663,1,2,0:0:0:0:
256,192,19663,1,0,0:0:0:0:
329,192,19663,1,0,0:0:0:0:
402,192,19828,128,0,19926:0:0:0:0:
109,192,19828,128,0,19926:0:0:0:0:
36,192,19926,1,0,0:0:0:0:
475,192,19926,1,0,0:0:0:0:
256,192,19992,1,0,0:0:0:0:
109,192,20058,1,0,0:0:0:0:
329,192,20124,1,0,0:0:0:0:
36,192,20189,1,2,0:0:0:0:
182,192,20189,1,0,0:0:0:0:
475,192,20189,1,0,0:0:0:0:
329,192,20255,1,0,0:0:0:0:
109,192,20321,1,0,0:0:0:0:
256,192,20387,1,0,0:0:0:0:
36,192,20453,1,0,0:0:0:50:Cymatics - Trap Snare 8 - A#.wav
182,192,20453,1,0,0:0:0:0:
329,192,20453,1,0,0:0:0:0:
475,192,20453,1,0,0:0:0:0:
109,192,20584,1,2,0:0:0:0:
256,192,20584,1,0,0:0:0:0:
402,192,20584,1,0,0:0:0:0:
109,192,20716,128,0,20979:0:0:0:0:
402,192,20716,128,0,20979:0:0:0:0:
36,192,20979,1,2,0:0:0:0:
256,192,20979,1,0,0:0:0:0:
475,192,20979,1,0,0:0:0:0:
182,192,21242,128,0,21505:0:0:0:0:
329,192,21242,128,0,21505:0:0:0:0:
36,192,21505,1,0,0:0:0:50:Cymatics - Trap Snare 8 - A#.wav
109,192,21505,1,0,0:0:0:0:
402,192,21505,1,0,0:0:0:0:
475,192,21505,1,0,0:0:0:0:
182,192,21637,1,2,0:0:0:0:
256,192,21637,1,0,0:0:0:0:
329,192,21637,1,0,0:0:0:0:
182,192,21768,1,2,0:0:0:0:
256,192,21768,1,0,0:0:0:0:
329,192,21768,1,0,0:0:0:0:
402,192,21933,128,0,22031:0:0:0:0:
109,192,21933,128,0,22031:0:0:0:0:
36,192,22031,1,0,0:0:0:0:
475,192,22031,1,0,0:0:0:0:
256,192,22097,1,0,0:0:0:0:
109,192,22163,1,0,0:0:0:0:
329,192,22229,1,0,0:0:0:0:
36,192,22295,1,2,0:0:0:0:
182,192,22295,1,0,0:0:0:0:
475,192,22295,1,0,0:0:0:0:
256,192,22360,1,0,0:0:0:0:
109,192,22426,1,2,0:0:0:0:
329,192,22426,1,0,0:0:0:0:
402,192,22426,1,0,0:0:0:0:
256,192,22492,1,0,0:0:0:0:
36,192,22558,1,0,0:0:0:50:Cymatics - Trap Snare 8 - A#.wav
182,192,22558,1,0,0:0:0:0:
329,192,22558,1,0,0:0:0:0:
475,192,22558,1,0,0:0:0:0:
109,192,22689,128,2,23084:0:0:0:0:
402,192,22689,128,0,23084:0:0:0:0:
256,192,22821,1,0,0:0:0:0:
256,192,22953,1,0,0:0:0:0:
36,192,23084,1,0,0:0:0:0:
182,192,23084,1,0,0:0:0:0:
329,192,23084,1,0,0:0:0:0:
475,192,23084,1,0,0:0:0:0:
256,192,23347,128,0,23435:0:0:0:0:
109,192,23479,1,2,0:0:0:0:
329,192,23512,1,2,0:0:0:0:
182,192,23545,1,2,0:0:0:0:
402,192,23578,1,2,0:0:0:0:
36,192,23610,1,0,0:0:0:50:Cymatics - Trap Snare 8 - A#.wav
109,192,23610,1,0,0:0:0:0:
256,192,23610,1,0,0:0:0:0:
475,192,23610,1,0,0:0:0:0:
182,192,23742,1,2,0:0:0:0:
256,192,23742,1,0,0:0:0:40:cymbal.wav
329,192,23742,1,0,0:0:0:0:
182,192,23874,1,2,0:0:0:0:
256,192,23874,1,4,0:0:0:0:
329,192,23874,1,0,0:0:0:0:
402,192,24038,128,0,24137:0:0:0:0:
109,192,24038,128,0,24137:0:0:0:0:
36,192,24137,1,0,0:0:0:0:
475,192,24137,1,0,0:0:0:0:
256,192,24203,1,0,0:0:0:0:
402,192,24268,1,0,0:0:0:0:
182,192,24334,1,0,0:0:0:0:
36,192,24400,1,2,0:0:0:0:
329,192,24400,1,0,0:0:0:0:
475,192,24400,1,0,0:0:0:0:
182,192,24466,1,0,0:0:0:0:
402,192,24531,1,0,0:0:0:0:
256,192,24597,1,0,0:0:0:0:
36,192,24663,1,0,0:0:0:50:Cymatics - Trap Snare 8 - A#.wav
182,192,24663,1,0,0:0:0:0:
329,192,24663,1,0,0:0:0:0:
475,192,24663,1,0,0:0:0:0:
109,192,24795,1,2,0:0:0:0:
256,192,24795,1,0,0:0:0:0:
402,192,24795,1,0,0:0:0:0:
36,192,24926,128,0,25124:0:0:0:0:
182,192,24926,128,0,25124:0:0:0:0:
329,192,25058,128,0,25124:0:0:0:0:
475,192,25058,128,0,25124:0:0:0:0:
36,192,25189,1,2,0:0:0:0:
109,192,25189,1,0,0:0:0:40:cymbal.wav
256,192,25189,1,0,0:0:0:0:
402,192,25189,1,0,0:0:0:0:
475,192,25189,1,0,0:0:0:0:
182,192,25453,1,0,0:0:0:0:
329,192,25518,1,0,0:0:0:0:
182,192,25584,1,0,0:0:0:0:
329,192,25650,1,0,0:0:0:0:
36,192,25716,1,0,0:0:0:50:Cymatics - Trap Snare 8 - A#.wav
109,192,25716,1,0,0:0:0:0:
402,192,25716,1,0,0:0:0:0:
475,192,25716,1,0,0:0:0:0:
182,192,25847,1,2,0:0:0:0:
256,192,25847,1,0,0:0:0:0:
329,192,25847,1,0,0:0:0:0:
182,192,25979,1,2,0:0:0:0:
256,192,25979,1,0,0:0:0:0:
329,192,25979,1,0,0:0:0:0:
402,192,26143,128,0,26242:0:0:0:0:
109,192,26143,128,0,26242:0:0:0:0:
36,192,26242,1,0,0:0:0:70:LR_Snare Drum 3.wav
475,192,26242,1,0,0:0:0:0:
256,192,26308,1,0,0:0:0:70:LR_Snare Drum.wav
36,192,26374,1,0,0:0:0:70:LR_Snare Drum 3.wav
475,192,26374,1,0,0:0:0:0:
329,192,26439,1,0,0:0:0:70:LR_Snare Drum.wav
109,192,26505,1,2,0:0:0:0:
182,192,26505,1,0,0:0:0:0:
402,192,26571,1,2,0:0:0:0:
109,192,26637,1,2,0:0:0:0:
182,192,26637,1,0,0:0:0:0:
329,192,26703,1,2,0:0:0:0:
36,192,26768,1,0,0:0:0:50:Cymatics - Trap Snare 8 - A#.wav
256,192,26768,1,0,0:0:0:0:
475,192,26768,1,0,0:0:0:0:
36,192,27295,128,4,27558:0:0:0:0:
109,192,27295,128,2,27558:0:0:0:0:
182,192,27295,128,0,27558:0:0:0:0:
329,192,27295,1,0,0:0:0:0:
475,192,27295,1,0,0:0:0:0:
329,192,27558,128,0,27821:0:0:0:0:
475,192,27558,128,0,27821:0:0:0:0:
36,192,27821,1,0,0:0:0:50:Cymatics - Trap Snare 8 - A#.wav
109,192,27821,1,0,0:0:0:0:
256,192,27821,1,0,0:0:0:0:
402,192,27821,1,0,0:0:0:0:
329,192,27953,1,2,0:0:0:0:
402,192,27953,1,0,0:0:0:0:
475,192,27953,1,0,0:0:0:0:
36,192,28018,1,0,0:0:0:0:
182,192,28018,1,0,0:0:0:0:
329,192,28084,1,2,0:0:0:0:
402,192,28084,1,0,0:0:0:0:
475,192,28084,1,0,0:0:0:0:
256,192,28216,128,0,28281:0:0:0:0:
36,192,28347,1,0,0:0:0:0:
182,192,28347,1,0,0:0:0:0:
329,192,28413,1,0,0:0:0:0:
475,192,28413,1,0,0:0:0:0:
36,192,28479,1,0,0:0:0:0:
182,192,28479,1,0,0:0:0:0:
256,192,28545,1,0,0:0:0:0:
402,192,28545,1,0,0:0:0:0:
36,192,28610,128,2,28874:0:0:0:0:
109,192,28610,128,0,28874:0:0:0:0:
182,192,28610,128,0,28874:0:0:0:0:
329,192,28610,1,0,0:0:0:0:
475,192,28610,1,0,0:0:0:0:
256,192,28874,1,0,0:0:0:0:
402,192,28874,1,0,0:0:0:0:
36,192,29005,1,2,0:0:0:0:
109,192,29005,1,0,0:0:0:40:cymbal.wav
182,192,29005,1,0,0:0:0:0:
329,192,29005,1,0,0:0:0:0:
475,192,29005,1,0,0:0:0:0:
36,192,29137,1,2,0:0:0:0:
109,192,29137,1,0,0:0:0:40:cymbal.wav
182,192,29137,1,0,0:0:0:0:
329,192,29137,1,0,0:0:0:0:
475,192,29137,1,0,0:0:0:0:
402,192,29268,1,0,0:0:0:0:
256,192,29301,1,0,0:0:0:0:
109,192,29334,1,0,0:0:0:0:
36,192,29400,1,2,0:0:0:0:
182,192,29400,1,4,0:0:0:0:
329,192,29400,128,0,29663:0:0:0:0:
402,192,29400,128,0,29663:0:0:0:0:
475,192,29400,128,0,29663:0:0:0:0:
36,192,29663,128,0,29729:0:0:0:0:
182,192,29663,128,0,29729:0:0:0:0:
329,192,29795,128,0,29926:0:0:0:0:
475,192,29795,128,0,29926:0:0:0:0:
36,192,29926,1,0,0:0:0:50:Cymatics - Trap Snare 8 - A#.wav
109,192,29926,1,0,0:0:0:0:
256,192,29926,1,0,0:0:0:0:
402,192,29926,1,0,0:0:0:0:
329,192,30058,1,2,0:0:0:0:
402,192,30058,1,0,0:0:0:0:
475,192,30058,1,0,0:0:0:0:
36,192,30124,1,0,0:0:0:0:
182,192,30124,1,0,0:0:0:0:
329,192,30189,1,2,0:0:0:0:
402,192,30189,1,0,0:0:0:0:
475,192,30189,1,0,0:0:0:0:
256,192,30321,128,0,30387:0:0:0:0:
36,192,30453,1,0,0:0:0:0:
109,192,30453,1,0,0:0:0:0:
329,192,30518,1,0,0:0:0:0:
402,192,30518,1,0,0:0:0:0:
109,192,30584,1,0,0:0:0:0:
182,192,30584,1,0,0:0:0:0:
402,192,30650,1,0,0:0:0:0:
475,192,30650,1,0,0:0:0:0:
36,192,30716,1,2,0:0:0:0:
109,192,30716,1,0,0:0:0:40:cymbal.wav
182,192,30716,1,0,0:0:0:0:
256,192,30716,1,0,0:0:0:0:
329,192,30716,1,0,0:0:0:0:
36,192,30847,128,0,30913:0:0:0:0:
109,192,30847,128,0,30913:0:0:0:0:
182,192,30847,128,0,30913:0:0:0:0:
329,192,30979,128,0,31045:0:0:0:0:
475,192,30979,128,0,31045:0:0:0:0:
36,192,31110,128,2,31242:0:0:0:0:
109,192,31110,128,0,31242:0:0:0:40:cymbal.wav
182,192,31110,128,0,31242:0:0:0:0:
329,192,31110,1,0,0:0:0:0:
475,192,31110,1,0,0:0:0:0:
256,192,31242,1,0,0:0:0:0:
402,192,31374,1,0,0:0:0:0:
36,192,31505,128,0,31768:0:0:0:0:
109,192,31505,128,0,31768:0:0:0:0:
182,192,31505,128,0,31768:0:0:0:0:
329,192,31505,1,0,0:0:0:0:
475,192,31505,1,0,0:0:0:0:
329,192,31768,1,0,0:0:0:0:
402,192,31768,1,0,0:0:0:0:
109,192,31900,1,2,0:0:0:0:
182,192,31900,1,0,0:0:0:0:
36,192,32031,1,0,0:0:0:50:Cymatics - Trap Snare 8 - A#.wav
256,192,32031,1,0,0:0:0:0:
402,192,32031,1,0,0:0:0:0:
475,192,32031,1,0,0:0:0:0:
182,192,32163,1,2,0:0:0:0:
329,192,32163,1,0,0:0:0:40:cymbal.wav
402,192,32163,1,0,0:0:0:0:
36,192,32295,1,4,0:0:0:0:
109,192,32295,1,2,0:0:0:0:
256,192,32295,1,0,0:0:0:0:
329,192,32295,1,0,0:0:0:0:
402,192,32426,128,0,32492:0:0:0:0:
475,192,32426,128,0,32492:0:0:0:0:
36,192,32558,1,0,0:0:0:0:
256,192,32558,1,0,0:0:0:0:
109,192,32646,1,0,0:0:0:0:
329,192,32646,1,0,0:0:0:0:
182,192,32733,1,0,0:0:0:0:
402,192,32733,1,0,0:0:0:0:
36,192,32821,1,2,0:0:0:0:
256,192,32821,1,0,0:0:0:0:
475,192,32821,1,0,0:0:0:0:
109,192,32909,1,0,0:0:0:0:
329,192,32909,1,0,0:0:0:0:
182,192,32996,1,0,0:0:0:0:
402,192,32996,1,0,0:0:0:0:
36,192,33084,1,0,0:0:0:50:Cymatics - Trap Snare 8 - A#.wav
109,192,33084,1,0,0:0:0:0:
256,192,33084,1,0,0:0:0:0:
475,192,33084,1,0,0:0:0:0:
182,192,33216,1,2,0:0:0:0:
329,192,33216,1,0,0:0:0:0:
475,192,33216,1,0,0:0:0:0:
36,192,33610,1,2,0:0:0:0:
182,192,33610,1,0,0:0:0:40:cymbal.wav
329,192,33610,128,0,33742:0:0:0:0:
402,192,33610,128,0,33742:0:0:0:0:
475,192,33610,128,0,33742:0:0:0:0:
256,192,33742,1,0,0:0:0:70:TOM_2.wav
109,192,33808,1,0,0:0:0:70:TOM_2.wav
329,192,33874,1,0,0:0:0:70:TOM_3.wav
182,192,33939,1,0,0:0:0:70:TOM_3.wav
402,192,34005,1,0,0:0:0:70:TOM_4.wav
256,192,34071,1,0,0:0:0:70:TOM_4.wav
36,192,34137,128,2,34268:0:0:0:0:
109,192,34137,128,0,34268:0:0:0:40:cymbal.wav
182,192,34137,128,0,34268:0:0:0:0:
329,192,34137,1,0,0:0:0:0:
475,192,34137,1,0,0:0:0:0:
256,192,34268,1,0,0:0:0:70:TOM_2.wav
402,192,34334,1,0,0:0:0:70:TOM_2.wav
182,192,34400,1,0,0:0:0:70:TOM_3.wav
329,192,34466,1,0,0:0:0:70:TOM_3.wav
109,192,34531,1,0,0:0:0:70:TOM_4.wav
256,192,34597,1,0,0:0:0:70:TOM_4.wav
36,192,34663,1,2,0:0:0:0:
182,192,34663,1,0,0:0:0:40:cymbal.wav
329,192,34663,128,0,34795:0:0:0:0:
402,192,34663,128,0,34795:0:0:0:0:
475,192,34663,128,0,34795:0:0:0:0:
109,192,34795,1,0,0:0:0:70:TOM_2.wav
182,192,34860,1,0,0:0:0:70:TOM_2.wav
36,192,34926,1,2,0:0:0:0:
256,192,34926,128,0,35058:0:0:0:40:cymbal.wav
329,192,34926,128,0,35058:0:0:0:0:
402,192,34926,128,0,35058:0:0:0:0:
475,192,34926,1,0,0:0:0:0:
109,192,35058,1,0,0:0:0:70:TOM_2.wav
182,192,35124,1,0,0:0:0:70:TOM_2.wav
36,192,35189,1,0,0:0:0:50:Cymatics - Trap Snare 8 - A#.wav
256,192,35189,1,0,0:0:0:0:
329,192,35189,1,0,0:0:0:0:
402,192,35189,1,0,0:0:0:0:
475,192,35189,1,0,0:0:0:0:
36,192,35716,128,2,35979:0:0:0:0:
109,192,35716,128,0,35979:0:0:0:40:cymbal.wav
182,192,35716,128,0,35979:0:0:0:0:
329,192,35716,128,0,35979:0:0:0:0:
402,192,35716,128,0,35979:0:0:0:0:
475,192,35716,128,0,35979:0:0:0:0:
256,192,36505,1,0,0:0:0:0:
36,192,36768,128,2,37031:0:0:0:0:
109,192,36768,128,0,37031:0:0:0:40:cymbal.wav
182,192,36768,128,0,37031:0:0:0:0:
329,192,36768,128,0,37031:0:0:0:0:
402,192,36768,128,0,37031:0:0:0:0:
475,192,36768,128,0,37031:0:0:0:0:
256,192,37558,1,0,0:0:0:0:
36,192,37821,1,2,0:0:0:0:
109,192,37821,1,0,0:0:0:70:Trambolined_Short.wav
182,192,37821,1,0,0:0:0:0:
329,192,37821,1,0,0:0:0:0:
402,192,37821,1,0,0:0:0:0:
475,192,37821,1,0,0:0:0:0:
256,192,37953,1,0,0:0:0:0:
109,192,38084,1,0,0:0:0:0:
402,192,38216,1,0,0:0:0:0:
36,192,38347,1,2,0:0:0:0:
182,192,38347,1,0,0:0:0:0:
475,192,38347,1,0,0:0:0:0:
256,192,38413,1,0,0:0:0:0:
329,192,38479,1,0,0:0:0:0:
109,192,38610,1,0,0:0:0:0:
402,192,38742,1,0,0:0:0:0:
36,192,38874,1,2,0:0:0:0:
256,192,38874,1,0,0:0:0:0:
475,192,38874,1,0,0:0:0:0:
182,192,39005,1,0,0:0:0:0:
329,192,39137,1,0,0:0:0:0:
256,192,39268,1,0,0:0:0:0:
36,192,39400,1,2,0:0:0:0:
182,192,39400,1,0,0:0:0:0:
475,192,39400,1,0,0:0:0:0:
402,192,39531,1,0,0:0:0:0:
256,192,39597,1,0,0:0:0:0:
109,192,39663,1,0,0:0:0:0:
182,192,39795,1,0,0:0:0:0:
109,192,39860,1,0,0:0:0:0:
36,192,39926,1,2,0:0:0:0:
256,192,39926,1,0,0:0:0:40:cymbal.wav
329,192,39926,128,0,40189:0:0:0:0:
402,192,39926,128,0,40189:0:0:0:0:
475,192,39926,128,0,40189:0:0:0:0:
182,192,40058,1,0,0:0:0:0:
36,192,40189,1,0,0:0:0:0:
182,192,40277,1,0,0:0:0:0:
329,192,40365,1,0,0:0:0:0:
109,192,40453,1,0,0:0:0:0:
256,192,40540,1,0,0:0:0:0:
402,192,40628,1,0,0:0:0:0:
36,192,40716,1,0,0:0:0:0:
182,192,40716,1,0,0:0:0:0:
475,192,40716,1,0,0:0:0:0:
329,192,40803,1,0,0:0:0:0:
109,192,40847,1,0,0:0:0:0:
402,192,40891,1,0,0:0:0:0:
36,192,40979,128,2,41242:0:0:0:0:
109,192,40979,128,0,41242:0:0:0:40:cymbal.wav
182,192,40979,128,0,41242:0:0:0:0:
256,192,40979,1,0,0:0:0:0:
475,192,40979,1,0,0:0:0:0:
402,192,41067,1,0,0:0:0:0:
329,192,41154,1,0,0:0:0:0:
475,192,41242,1,0,0:0:0:0:
329,192,41330,1,0,0:0:0:0:
182,192,41417,1,0,0:0:0:0:
402,192,41505,1,0,0:0:0:0:
256,192,41593,1,0,0:0:0:0:
109,192,41681,1,0,0:0:0:0:
36,192,41768,1,0,0:0:0:0:
329,192,41768,1,0,0:0:0:0:
475,192,41768,1,0,0:0:0:0:
182,192,41856,1,0,0:0:0:0:
329,192,41900,1,0,0:0:0:0:
109,192,41944,1,0,0:0:0:0:
36,192,42031,1,2,0:0:0:0:
256,192,42031,1,4,0:0:0:0:
402,192,42031,1,0,0:0:0:0:
475,192,42031,1,0,0:0:0:0:
182,192,42119,1,0,0:0:0:0:
329,192,42163,1,0,0:0:0:0:
109,192,42207,1,0,0:0:0:0:
36,192,42295,1,2,0:0:0:0:
256,192,42295,1,0,0:0:0:0:
402,192,42295,1,0,0:0:0:0:
475,192,42295,1,0,0:0:0:0:
109,192,42382,1,0,0:0:0:0:
329,192,42426,1,0,0:0:0:0:
182,192,42470,1,0,0:0:0:0:
36,192,42558,1,2,0:0:0:0:
256,192,42558,1,0,0:0:0:0:
402,192,42558,1,0,0:0:0:0:
475,192,42558,1,0,0:0:0:0:
329,192,42646,1,0,0:0:0:0:
182,192,42689,1,0,0:0:0:0:
402,192,42733,1,0,0:0:0:0:
36,192,42821,1,2,0:0:0:0:
109,192,42821,1,0,0:0:0:0:
256,192,42821,1,0,0:0:0:0:
475,192,42821,1,0,0:0:0:0:
402,192,42909,1,0,0:0:0:0:
182,192,42953,1,0,0:0:0:0:
329,192,42996,1,0,0:0:0:0:
36,192,43084,1,2,0:0:0:0:
109,192,43084,1,4,0:0:0:0:
256,192,43084,1,0,0:0:0:0:
475,192,43084,1,0,0:0:0:0:
402,192,43150,1,0,0:0:0:0:
182,192,43216,1,0,0:0:0:0:
329,192,43216,1,0,0:0:0:0:
109,192,43281,1,0,0:0:0:0:
36,192,43347,1,2,0:0:0:0:
256,192,43347,1,0,0:0:0:0:
402,192,43347,1,0,0:0:0:0:
475,192,43347,1,0,0:0:0:0:
182,192,43413,1,0,0:0:0:0:
109,192,43479,1,0,0:0:0:0:
329,192,43479,1,0,0:0:0:0:
402,192,43545,1,0,0:0:0:0:
36,192,43610,1,2,0:0:0:0:
182,192,43610,1,0,0:0:0:0:
256,192,43610,1,0,0:0:0:0:
475,192,43610,1,0,0:0:0:0:
329,192,43676,1,0,0:0:0:0:
109,192,43742,1,0,0:0:0:0:
402,192,43742,1,0,0:0:0:0:
182,192,43808,1,0,0:0:0:0:
256,192,43874,1,0,0:0:0:0:
36,192,44137,128,2,44400:0:0:0:0:
182,192,44137,128,0,44400:0:0:0:40:cymbal.wav
256,192,44137,128,0,44400:0:0:0:0:
329,192,44137,128,0,44400:0:0:0:0:
402,192,44400,1,0,0:0:0:0:
475,192,44400,1,0,0:0:0:0:
36,192,44531,1,2,0:0:0:0:
182,192,44531,1,0,0:0:0:40:cymbal.wav
256,192,44531,1,0,0:0:0:0:
329,192,44531,1,0,0:0:0:0:
36,192,44663,128,2,44860:0:0:0:0:
182,192,44663,128,0,44860:0:0:0:40:cymbal.wav
256,192,44663,128,0,44860:0:0:0:0:
329,192,44663,128,0,44860:0:0:0:0:
36,192,44926,128,2,45189:0:0:0:0:
182,192,44926,128,0,45189:0:0:0:40:cymbal.wav
256,192,44926,128,0,45189:0:0:0:0:
329,192,44926,128,0,45189:0:0:0:0:
475,192,45189,1,2,0:0:0:0:
402,192,45255,1,0,0:0:0:0:
36,192,45321,1,2,0:0:0:0:
182,192,45321,1,0,0:0:0:0:
329,192,45321,1,0,0:0:0:0:
256,192,45453,1,0,0:0:0:0:
475,192,45453,1,0,0:0:0:0:
36,192,45584,1,2,0:0:0:0:
182,192,45584,1,0,0:0:0:0:
329,192,45584,1,0,0:0:0:0:
36,192,45716,1,2,0:0:0:0:
109,192,45716,1,0,0:0:0:50:Cymatics - Trap Snare 8 - A#.wav
256,192,45716,1,0,0:0:0:0:
402,192,45716,1,0,0:0:0:0:
475,192,45716,1,0,0:0:0:0:
182,192,45847,1,0,0:0:0:0:
329,192,45847,1,0,0:0:0:0:
36,192,45979,1,0,0:0:0:0:
256,192,45979,1,0,0:0:0:0:
329,192,46110,1,0,0:0:0:0:
475,192,46110,1,0,0:0:0:0:
36,192,46176,1,0,0:0:0:0:
109,192,46176,1,0,0:0:0:0:
182,192,46242,128,2,46505:0:0:0:0:
256,192,46242,128,0,46505:0:0:0:40:cymbal.wav
329,192,46242,128,0,46505:0:0:0:0:
475,192,46242,128,0,46505:0:0:0:0:
36,192,46505,1,0,0:0:0:0:
109,192,46505,1,0,0:0:0:0:
182,192,46637,1,2,0:0:0:0:
256,192,46637,1,0,0:0:0:40:cymbal.wav
329,192,46637,1,0,0:0:0:0:
475,192,46637,1,0,0:0:0:0:
182,192,46768,128,2,46966:0:0:0:0:
256,192,46768,128,0,46966:0:0:0:40:cymbal.wav
329,192,46768,128,0,46966:0:0:0:0:
475,192,46768,128,0,46966:0:0:0:0:
182,192,47031,128,2,47295:0:0:0:0:
256,192,47031,128,0,47295:0:0:0:40:cymbal.wav
329,192,47031,128,0,47295:0:0:0:0:
475,192,47031,128,0,47295:0:0:0:0:
36,192,47295,1,0,0:0:0:0:
109,192,47360,1,0,0:0:0:0:
182,192,47426,1,2,0:0:0:0:
329,192,47426,1,0,0:0:0:0:
475,192,47426,1,0,0:0:0:0:
36,192,47558,1,0,0:0:0:0:
256,192,47558,1,0,0:0:0:0:
182,192,47689,1,2,0:0:0:0:
329,192,47689,1,0,0:0:0:0:
475,192,47689,1,0,0:0:0:0:
36,192,47821,1,2,0:0:0:0:
109,192,47821,1,0,0:0:0:50:Cymatics - Trap Snare 8 - A#.wav
256,192,47821,1,0,0:0:0:0:
402,192,47821,1,0,0:0:0:0:
475,192,47821,1,0,0:0:0:0:
182,192,47953,1,0,0:0:0:0:
329,192,47953,1,0,0:0:0:0:
256,192,48084,1,0,0:0:0:0:
475,192,48084,1,0,0:0:0:0:
36,192,48216,1,0,0:0:0:0:
182,192,48216,1,0,0:0:0:0:
402,192,48281,1,0,0:0:0:0:
475,192,48281,1,0,0:0:0:0:
36,192,48347,128,2,48610:0:0:0:0:
109,192,48347,128,4,48610:0:0:0:0:
256,192,48347,128,0,48610:0:0:0:0:
329,192,48347,128,0,48610:0:0:0:0:
402,192,48610,1,2,0:0:0:0:
475,192,48610,1,0,0:0:0:0:
36,192,48742,1,2,0:0:0:0:
182,192,48742,1,0,0:0:0:0:
329,192,48742,1,0,0:0:0:0:
256,192,48874,1,0,0:0:0:0:
475,192,48874,1,0,0:0:0:0:
36,192,49005,1,2,0:0:0:0:
182,192,49005,1,0,0:0:0:0:
329,192,49005,1,0,0:0:0:0:
109,192,49137,1,2,0:0:0:0:
256,192,49137,1,0,0:0:0:0:
402,192,49137,1,0,0:0:0:0:
182,192,49268,128,0,49400:0:0:0:0:
329,192,49268,128,0,49400:0:0:0:0:
36,192,49400,1,2,0:0:0:0:
256,192,49400,1,0,0:0:0:0:
475,192,49400,1,0,0:0:0:0:
182,192,49531,1,0,0:0:0:0:
402,192,49531,1,0,0:0:0:0:
36,192,49663,1,0,0:0:0:70:LR_Snare Fast.wav
256,192,49663,1,0,0:0:0:0:
109,192,49729,1,0,0:0:0:0:
329,192,49729,1,0,0:0:0:0:
182,192,49795,1,2,0:0:0:0:
402,192,49795,1,0,0:0:0:0:
475,192,49795,1,0,0:0:0:0:
36,192,49926,1,0,0:0:0:0:
256,192,49926,1,0,0:0:0:0:
182,192,50058,1,2,0:0:0:0:
329,192,50058,1,0,0:0:0:0:
475,192,50058,1,0,0:0:0:0:
109,192,50189,1,2,0:0:0:0:
256,192,50189,1,0,0:0:0:0:
402,192,50189,1,0,0:0:0:0:
36,192,50321,1,0,0:0:0:0:
182,192,50321,1,0,0:0:0:0:
402,192,50387,1,0,0:0:0:0:
475,192,50387,1,0,0:0:0:0:
36,192,50453,128,2,50716:0:0:0:0:
109,192,50453,128,0,50716:0:0:0:40:cymbal.wav
256,192,50453,128,0,50716:0:0:0:0:
329,192,50453,128,0,50716:0:0:0:0:
402,192,50716,1,2,0:0:0:0:
475,192,50716,1,0,0:0:0:0:
36,192,50847,1,2,0:0:0:0:
182,192,50847,1,0,0:0:0:40:cymbal.wav
329,192,50847,1,0,0:0:0:0:
36,192,51110,1,2,0:0:0:0:
256,192,51110,1,0,0:0:0:0:
475,192,51110,1,0,0:0:0:0:
36,192,51242,1,2,0:0:0:0:
256,192,51242,1,0,0:0:0:40:cymbal.wav
475,192,51242,1,0,0:0:0:0:
182,192,51374,1,0,0:0:0:70:LR_Snare Fast.wav
329,192,51439,1,0,0:0:0:70:LR_Snare Fast.wav
36,192,51505,128,2,51768:0:0:0:0:
109,192,51505,128,0,51768:0:0:0:40:cymbal.wav
256,192,51505,1,0,0:0:0:0:
402,192,51505,128,0,51768:0:0:0:0:
475,192,51505,128,0,51768:0:0:0:0:
182,192,51768,1,2,0:0:0:0:
329,192,51768,1,0,0:0:0:0:
36,192,52558,1,2,0:0:0:0:
109,192,52558,1,0,0:0:0:70:Trambolined_Short.wav
256,192,52558,1,0,0:0:0:0:
402,192,52558,1,0,0:0:0:0:
475,192,52558,1,0,0:0:0:0:
182,192,52821,1,0,0:0:0:70:LR_Snare Drum 2.wav
182,192,52953,128,0,53084:0:0:0:70:LR_Snare Drum 3.wav
36,192,53084,1,0,0:0:0:70:LR_Snare Fast.wav
109,192,53084,1,0,0:0:0:0:
329,192,53084,1,0,0:0:0:0:
475,192,53216,1,0,0:0:0:0:
182,192,53347,1,0,0:0:0:0:
402,192,53347,1,0,0:0:0:0:
329,192,53479,1,0,0:0:0:0:
36,192,53512,1,0,0:0:0:70:LR_Snare Fast.wav
109,192,53512,1,0,0:0:0:0:
256,192,53610,1,0,0:0:0:0:
475,192,53610,1,0,0:0:0:0:
182,192,53742,1,0,0:0:0:70:LR_Snare Fast.wav
402,192,53742,1,0,0:0:0:0:
109,192,53874,1,2,0:0:0:0:
329,192,53874,1,0,0:0:0:0:
256,192,54005,1,2,0:0:0:0:
475,192,54005,128,0,54268:0:0:0:0:
36,192,54137,1,0,0:0:0:70:LR_Snare Fast.wav
182,192,54137,1,0,0:0:0:0:
329,192,54268,1,2,0:0:0:0:
36,192,54400,1,0,0:0:0:70:LR_Snare Fast.wav
256,192,54400,1,0,0:0:0:0:
475,192,54400,1,0,0:0:0:0:
402,192,54466,1,0,0:0:0:0:
182,192,54499,1,2,0:0:0:0:
329,192,54531,1,0,0:0:0:0:
109,192,54564,1,0,0:0:0:70:LR_Snare Drum 3.wav
256,192,54597,1,0,0:0:0:0:
36,192,54663,1,2,0:0:0:0:
182,192,54663,1,0,0:0:0:0:
402,192,54663,1,0,0:0:0:0:
475,192,54663,1,0,0:0:0:0:
182,192,54795,1,0,0:0:0:0:
402,192,54795,1,0,0:0:0:0:
256,192,54926,1,0,0:0:0:70:LR_Snare Drum 2.wav
475,192,54926,1,0,0:0:0:0:
109,192,55058,128,0,55189:0:0:0:70:LR_Snare Drum 3.wav
329,192,55058,1,0,0:0:0:0:
36,192,55189,1,0,0:0:0:70:LR_Snare Fast.wav
182,192,55189,1,0,0:0:0:0:
402,192,55189,1,0,0:0:0:0:
109,192,55321,1,0,0:0:0:0:
402,192,55321,1,0,0:0:0:0:
182,192,55387,1,0,0:0:0:70:LR_Snare Drum 3.wav
256,192,55453,1,0,0:0:0:0:
475,192,55453,1,0,0:0:0:0:
329,192,55584,1,0,0:0:0:0:
36,192,55617,1,0,0:0:0:70:LR_Snare Fast.wav
182,192,55617,1,0,0:0:0:0:
402,192,55716,1,0,0:0:0:0:
475,192,55716,1,0,0:0:0:0:
329,192,55847,1,0,0:0:0:0:
36,192,55880,1,0,0:0:0:70:LR_Snare Fast.wav
182,192,55880,1,0,0:0:0:0:
256,192,55979,1,0,0:0:0:0:
475,192,55979,1,0,0:0:0:0:
182,192,56110,1,0,0:0:0:0:
402,192,56110,128,0,56374:0:0:0:0:
36,192,56242,1,0,0:0:0:70:LR_Snare Fast.wav
109,192,56242,1,0,0:0:0:0:
256,192,56374,1,0,0:0:0:70:LR_Snare Drum 3.wav
475,192,56374,1,0,0:0:0:0:
36,192,56505,1,0,0:0:0:70:LR_Snare Drum 2.wav
182,192,56505,1,0,0:0:0:0:
329,192,56637,1,2,0:0:0:0:
475,192,56637,1,0,0:0:0:0:
36,192,56768,1,2,0:0:0:0:
109,192,56768,1,0,0:0:0:0:
256,192,56768,1,0,0:0:0:0:
402,192,56768,1,0,0:0:0:0:
256,192,56900,1,0,0:0:0:0:
402,192,56900,1,0,0:0:0:0:
182,192,57031,1,0,0:0:0:70:LR_Snare Drum 2.wav
475,192,57031,1,0,0:0:0:0:
182,192,57163,128,0,57295:0:0:0:70:LR_Snare Drum 3.wav
402,192,57163,1,0,0:0:0:0:
36,192,57295,1,0,0:0:0:70:LR_Snare Fast.wav
109,192,57295,1,0,0:0:0:0:
329,192,57295,1,0,0:0:0:0:
475,192,57426,1,0,0:0:0:0:
402,192,57558,1,0,0:0:0:0:
329,192,57689,1,0,0:0:0:0:
36,192,57722,1,0,0:0:0:70:LR_Snare Fast.wav
182,192,57722,1,0,0:0:0:0:
256,192,57821,1,0,0:0:0:0:
402,192,57821,1,0,0:0:0:0:
329,192,57953,1,0,0:0:0:0:
475,192,57953,1,0,0:0:0:0:
36,192,57985,1,0,0:0:0:70:LR_Snare Fast.wav
182,192,57985,1,0,0:0:0:0:
256,192,58084,1,2,0:0:0:0:
402,192,58084,1,0,0:0:0:0:
182,192,58216,1,2,0:0:0:0:
329,192,58216,128,0,58479:0:0:0:0:
36,192,58347,1,0,0:0:0:70:LR_Snare Fast.wav
109,192,58347,1,0,0:0:0:0:
475,192,58479,1,2,0:0:0:0:
36,192,58610,1,0,0:0:0:70:LR_Snare Fast.wav
182,192,58610,1,0,0:0:0:0:
329,192,58610,1,0,0:0:0:0:
402,192,58709,1,2,0:0:0:0:
256,192,58742,1,0,0:0:0:0:
109,192,58775,1,0,0:0:0:70:LR_Snare Drum 3.wav
36,192,58874,1,2,0:0:0:0:
182,192,58874,1,0,0:0:0:0:
329,192,58874,1,0,0:0:0:0:
475,192,58874,1,0,0:0:0:0:
36,192,59005,1,2,0:0:0:0:
182,192,59005,1,0,0:0:0:0:
256,192,59137,1,2,0:0:0:0:
475,192,59137,1,0,0:0:0:0:
256,192,59268,1,2,0:0:0:0:
475,192,59268,1,0,0:0:0:0:
36,192,59400,1,0,0:0:0:70:LR_Snare Drum 3.wav
182,192,59400,1,0,0:0:0:0:
329,192,59400,1,0,0:0:0:0:
36,192,59531,1,0,0:0:0:70:LR_Snare Drum 3.wav
182,192,59531,1,0,0:0:0:0:
329,192,59531,1,0,0:0:0:0:
109,192,59663,1,2,0:0:0:0:
256,192,59663,1,0,0:0:0:0:
402,192,59663,1,0,0:0:0:0:
475,192,59663,1,0,0:0:0:0:
109,192,59795,1,2,0:0:0:0:
256,192,59795,1,0,0:0:0:0:
402,192,59795,1,0,0:0:0:0:
475,192,59795,1,0,0:0:0:0:
36,192,59926,1,2,0:0:0:0:
182,192,59926,1,0,0:0:0:0:
329,192,59926,1,0,0:0:0:0:
256,192,60058,1,2,0:0:0:0:
402,192,60058,1,0,0:0:0:0:
329,192,60189,1,2,0:0:0:0:
475,192,60189,1,0,0:0:0:0:
36,192,60321,128,2,60847:0:0:0:0:
182,192,60321,128,0,60584:0:0:0:0:
402,192,60453,1,2,0:0:0:0:
329,192,60584,1,2,0:0:0:0:
475,192,60584,1,0,0:0:0:0:
256,192,60716,1,2,0:0:0:0:
402,192,60716,1,0,0:0:0:0:
182,192,60847,1,2,0:0:0:0:
329,192,60847,1,0,0:0:0:0:
36,192,60979,1,2,0:0:0:0:
109,192,60979,1,0,0:0:0:40:cymbal.wav
256,192,60979,1,0,0:0:0:0:
402,192,60979,128,0,61505:0:0:0:0:
475,192,60979,128,0,61505:0:0:0:0:
182,192,61242,128,0,61374:0:0:0:70:LR_Snare Drum 2.wav
36,192,61374,1,0,0:0:0:70:LR_Snare Drum 3.wav
256,192,61505,1,0,0:0:0:70:LR_Snare Fast.wav
182,192,61637,1,0,0:0:0:0:
402,192,61637,1,0,0:0:0:0:
475,192,61637,1,0,0:0:0:0:
109,192,61768,1,0,0:0:0:0:
402,192,61768,1,0,0:0:0:0:
475,192,61768,1,0,0:0:0:0:
256,192,61900,1,0,0:0:0:70:LR_Snare Fast.wav
402,192,61900,128,0,62821:0:0:0:0:
475,192,61900,128,0,62821:0:0:0:0:
36,192,62031,1,0,0:0:0:0:
182,192,62031,1,0,0:0:0:0:
109,192,62163,1,0,0:0:0:70:LR_Snare Fast.wav
329,192,62163,1,0,0:0:0:0:
36,192,62295,1,2,0:0:0:0:
256,192,62295,1,0,0:0:0:0:
182,192,62426,1,2,0:0:0:0:
329,192,62426,1,0,0:0:0:0:
109,192,62558,1,0,0:0:0:70:LR_Snare Fast.wav
36,192,62689,1,0,0:0:0:0:
256,192,62689,1,0,0:0:0:0:
109,192,62821,128,0,62953:0:0:0:0:
182,192,62821,128,0,62953:0:0:0:0:
329,192,62953,1,0,0:0:0:0:
36,192,63084,1,2,0:0:0:0:
109,192,63084,1,0,0:0:0:40:cymbal.wav
256,192,63084,1,0,0:0:0:0:
402,192,63084,128,0,64926:0:0:0:0:
475,192,63084,128,0,64926:0:0:0:0:
182,192,63347,128,0,63479:0:0:0:70:LR_Snare Drum 2.wav
36,192,63479,1,0,0:0:0:70:LR_Snare Drum 3.wav
256,192,63610,1,0,0:0:0:70:LR_Snare Fast.wav
109,192,63676,1,0,0:0:0:0:
329,192,63742,1,0,0:0:0:0:
182,192,63808,1,0,0:0:0:0:
36,192,63874,1,0,0:0:0:0:
256,192,64005,1,0,0:0:0:70:LR_Snare Fast.wav
36,192,64137,1,0,0:0:0:0:
109,192,64137,1,0,0:0:0:0:
182,192,64268,1,0,0:0:0:70:LR_Snare Fast.wav
329,192,64268,1,0,0:0:0:0:
36,192,64400,1,2,0:0:0:0:
256,192,64400,1,0,0:0:0:0:
109,192,64531,1,2,0:0:0:0:
329,192,64531,1,0,0:0:0:0:
182,192,64663,1,0,0:0:0:70:LR_Snare Fast.wav
36,192,64795,1,0,0:0:0:0:
256,192,64795,1,0,0:0:0:0:
36,192,64926,1,0,0:0:0:0:
256,192,64926,1,0,0:0:0:0:
182,192,65058,1,0,0:0:0:0:
329,192,65124,1,0,0:0:0:0:
36,192,65189,1,2,0:0:0:0:
109,192,65189,1,0,0:0:0:40:cymbal.wav
256,192,65189,1,0,0:0:0:0:
402,192,65189,128,0,65584:0:0:0:0:
475,192,65189,128,0,65584:0:0:0:0:
182,192,65453,128,0,65584:0:0:0:0:
109,192,65584,1,0,0:0:0:0:
256,192,65650,1,0,0:0:0:0:
36,192,65716,1,0,0:0:0:0:
402,192,65716,1,0,0:0:0:0:
475,192,65716,1,0,0:0:0:0:
109,192,65847,1,0,0:0:0:0:
402,192,65847,1,0,0:0:0:0:
475,192,65847,1,0,0:0:0:0:
182,192,65979,1,0,0:0:0:0:
329,192,65979,1,0,0:0:0:0:
475,192,65979,1,0,0:0:0:0:
36,192,66110,1,0,0:0:0:70:LR_Snare Fast.wav
402,192,66110,128,0,67031:0:0:0:0:
475,192,66110,128,0,67031:0:0:0:0:
256,192,66242,1,0,0:0:0:0:
329,192,66242,1,0,0:0:0:0:
36,192,66374,1,0,0:0:0:70:LR_Snare Fast.wav
109,192,66374,1,0,0:0:0:0:
182,192,66505,1,2,0:0:0:0:
256,192,66505,1,0,0:0:0:0:
36,192,66637,1,2,0:0:0:0:
329,192,66637,1,0,0:0:0:0:
182,192,66768,1,0,0:0:0:70:LR_Snare Fast.wav
36,192,66900,1,0,0:0:0:0:
256,192,66900,1,0,0:0:0:0:
182,192,67031,1,2,0:0:0:0:
329,192,67031,1,0,0:0:0:0:
109,192,67163,1,0,0:0:0:0:
256,192,67229,1,0,0:0:0:0:
36,192,67295,1,2,0:0:0:0:
182,192,67295,1,0,0:0:0:40:cymbal.wav
329,192,67295,1,0,0:0:0:0:
402,192,67295,128,0,67558:0:0:0:0:
475,192,67295,128,0,67558:0:0:0:0:
36,192,67426,1,0,0:0:0:0:
182,192,67426,1,0,0:0:0:0:
109,192,67558,1,0,0:0:0:0:
256,192,67558,1,0,0:0:0:0:
36,192,67689,1,2,0:0:0:0:
182,192,67689,1,0,0:0:0:40:cymbal.wav
329,192,67689,1,0,0:0:0:0:
402,192,67689,128,0,67953:0:0:0:0:
475,192,67689,128,0,67953:0:0:0:0:
36,192,67821,1,0,0:0:0:0:
182,192,67821,1,0,0:0:0:0:
109,192,67953,1,0,0:0:0:0:
256,192,67953,1,0,0:0:0:0:
36,192,68084,1,2,0:0:0:0:
182,192,68084,1,0,0:0:0:40:cymbal.wav
329,192,68084,1,0,0:0:0:0:
402,192,68084,128,0,68216:0:0:0:0:
475,192,68084,128,0,68216:0:0:0:0:
109,192,68216,128,0,68281:0:0:0:0:
256,192,68216,128,0,68281:0:0:0:0:
182,192,68347,128,0,68413:0:0:0:0:
329,192,68347,128,0,68413:0:0:0:0:
36,192,68479,1,2,0:0:0:0:
109,192,68479,1,0,0:0:0:40:cymbal.wav
256,192,68479,1,0,0:0:0:0:
402,192,68479,128,0,68742:0:0:0:0:
475,192,68479,128,0,68742:0:0:0:0:
256,192,68610,1,0,0:0:0:0:
36,192,68742,1,0,0:0:0:0:
182,192,68808,1,0,0:0:0:0:
329,192,68874,1,0,0:0:0:0:
36,192,69005,128,2,69268:0:0:0:0:
109,192,69005,128,0,69268:0:0:0:0:
256,192,69005,1,0,0:0:0:0:
402,192,69005,128,0,69268:0:0:0:0:
475,192,69005,128,0,69268:0:0:0:0:
182,192,69268,1,0,0:0:0:0:
329,192,69334,1,0,0:0:0:0:
36,192,69400,1,2,0:0:0:0:
109,192,69400,1,4,0:0:0:0:
256,192,69400,1,0,0:0:0:0:
402,192,69400,1,0,0:0:0:0:
475,192,69400,1,0,0:0:0:0:
182,192,69531,1,0,0:0:0:0:
329,192,69663,1,0,0:0:0:0:
109,192,69663,1,0,0:0:0:0:
475,192,69795,1,2,0:0:0:0:
402,192,69795,1,0,0:0:0:0:
256,192,69795,1,0,0:0:0:0:
36,192,69795,1,0,0:0:0:0:
329,192,69926,1,0,0:0:0:0:
182,192,69926,1,0,0:0:0:0:
402,192,70058,1,0,0:0:0:0:
256,192,70058,1,0,0:0:0:0:
182,192,70124,1,0,0:0:0:0:
36,192,70189,1,2,0:0:0:0:
109,192,70189,1,0,0:0:0:0:
329,192,70189,1,0,0:0:0:0:
475,192,70189,1,0,0:0:0:0:
182,192,70321,1,0,0:0:0:0:
36,192,70453,1,4,0:0:0:0:
256,192,70453,1,2,0:0:0:0:
402,192,70453,1,0,0:0:0:0:
475,192,70453,1,0,0:0:0:0:
109,192,70584,1,0,0:0:0:0:
329,192,70584,1,0,0:0:0:0:
182,192,70716,1,0,0:0:0:0:
402,192,70716,1,0,0:0:0:0:
36,192,70847,1,2,0:0:0:0:
109,192,70847,1,0,0:0:0:0:
329,192,70847,1,0,0:0:0:0:
475,192,70847,1,0,0:0:0:0:
256,192,70913,1,0,0:0:0:0:
182,192,70979,1,0,0:0:0:0:
402,192,70979,1,0,0:0:0:0:
329,192,71045,1,0,0:0:0:0:
109,192,71110,1,0,0:0:0:0:
256,192,71110,1,0,0:0:0:0:
36,192,71242,1,2,0:0:0:0:
182,192,71242,1,0,0:0:0:0:
329,192,71242,1,0,0:0:0:0:
475,192,71242,1,0,0:0:0:0:
109,192,71374,1,0,0:0:0:0:
402,192,71417,1,0,0:0:0:0:
329,192,71461,1,0,0:0:0:0:
36,192,71505,1,2,0:0:0:0:
182,192,71505,1,4,0:0:0:0:
256,192,71505,1,0,0:0:0:0:
475,192,71505,1,0,0:0:0:0:
402,192,71593,1,0,0:0:0:0:
109,192,71637,1,0,0:0:0:0:
329,192,71681,1,0,0:0:0:0:
256,192,71768,1,0,0:0:0:0:
475,192,71768,1,0,0:0:0:0:
402,192,71856,1,0,0:0:0:0:
36,192,71900,1,2,0:0:0:0:
109,192,71900,1,0,0:0:0:0:
182,192,71900,1,0,0:0:0:0:
329,192,71944,1,0,0:0:0:0:
256,192,72031,1,0,0:0:0:0:
475,192,72031,1,0,0:0:0:0:
109,192,72119,1,0,0:0:0:0:
329,192,72207,1,0,0:0:0:0:
36,192,72295,1,2,0:0:0:0:
256,192,72295,1,0,0:0:0:0:
475,192,72295,1,0,0:0:0:0:
182,192,72382,1,0,0:0:0:0:
402,192,72426,1,0,0:0:0:0:
109,192,72470,1,0,0:0:0:0:
36,192,72558,1,4,0:0:0:0:
256,192,72558,1,2,0:0:0:0:
329,192,72558,1,0,0:0:0:0:
475,192,72558,1,0,0:0:0:0:
109,192,72646,1,0,0:0:0:0:
402,192,72689,1,0,0:0:0:0:
182,192,72733,1,0,0:0:0:0:
36,192,72821,1,0,0:0:0:0:
256,192,72821,1,0,0:0:0:0:
109,192,72909,1,0,0:0:0:0:
329,192,72953,1,2,0:0:0:0:
402,192,72953,1,0,0:0:0:0:
475,192,72953,1,0,0:0:0:0:
182,192,72996,1,0,0:0:0:0:
36,192,73084,1,0,0:0:0:0:
256,192,73084,1,0,0:0:0:0:
402,192,73172,1,0,0:0:0:0:
182,192,73260,1,0,0:0:0:0:
36,192,73347,1,2,0:0:0:0:
256,192,73347,128,0,73610:0:0:0:0:
329,192,73347,1,0,0:0:0:0:
475,192,73347,1,0,0:0:0:0:
109,192,73435,1,0,0:0:0:0:
402,192,73523,1,0,0:0:0:0:
36,192,73610,1,2,0:0:0:0:
182,192,73610,1,4,0:0:0:0:
329,192,73610,1,0,0:0:0:0:
475,192,73610,1,0,0:0:0:0:
402,192,73698,1,0,0:0:0:0:
109,192,73742,1,0,0:0:0:0:
329,192,73786,1,0,0:0:0:0:
36,192,73874,1,2,0:0:0:0:
256,192,73874,1,0,0:0:0:0:
475,192,73874,1,0,0:0:0:0:
402,192,73961,1,0,0:0:0:0:
182,192,74005,1,0,0:0:0:0:
329,192,74049,1,0,0:0:0:0:
36,192,74137,1,2,0:0:0:0:
109,192,74137,1,4,0:0:0:0:
256,192,74137,1,0,0:0:0:0:
475,192,74137,1,0,0:0:0:0:
329,192,74224,1,0,0:0:0:0:
182,192,74268,1,0,0:0:0:0:
402,192,74312,1,0,0:0:0:0:
36,192,74400,1,2,0:0:0:0:
256,192,74400,1,0,0:0:0:0:
475,192,74400,1,0,0:0:0:0:
329,192,74488,1,0,0:0:0:0:
109,192,74531,1,0,0:0:0:70:LR_Snare Drum 3.wav
402,192,74575,1,0,0:0:0:0:
182,192,74597,1,0,0:0:0:70:LR_Snare Drum 3.wav
36,192,74663,1,2,0:0:0:0:
256,192,74663,1,4,0:0:0:0:
329,192,74663,1,0,0:0:0:0:
475,192,74663,1,0,0:0:0:0:
109,192,74751,1,0,0:0:0:0:
402,192,74795,1,0,0:0:0:0:
182,192,74839,1,0,0:0:0:0:
36,192,74926,1,2,0:0:0:0:
256,192,74926,1,0,0:0:0:0:
475,192,74926,1,0,0:0:0:0:
329,192,75014,1,0,0:0:0:0:
109,192,75058,1,0,0:0:0:0:
256,192,75102,1,0,0:0:0:0:
36,192,75189,1,2,0:0:0:0:
182,192,75189,1,4,0:0:0:0:
402,192,75189,1,0,0:0:0:0:
475,192,75189,1,0,0:0:0:0:
256,192,75277,1,0,0:0:0:0:
109,192,75321,1,0,0:0:0:0:
329,192,75365,1,0,0:0:0:0:
36,192,75453,1,2,0:0:0:0:
182,192,75453,1,0,0:0:0:0:
402,192,75453,1,0,0:0:0:0:
475,192,75540,1,0,0:0:0:0:
256,192,75584,1,0,0:0:0:70:LR_Snare Drum 3.wav
109,192,75628,1,0,0:0:0:0:
329,192,75650,1,0,0:0:0:70:LR_Snare Drum 3.wav
36,192,75716,1,2,0:0:0:0:
182,192,75716,1,4,0:0:0:0:
402,192,75716,1,0,0:0:0:0:
256,192,75781,1,0,0:0:0:0:
475,192,75781,1,0,0:0:0:0:
36,192,75847,1,0,0:0:0:70:LR_Snare Drum 3.wav
109,192,75847,1,0,0:0:0:0:
329,192,75847,1,0,0:0:0:0:
182,192,75913,1,0,0:0:0:70:LR_Snare Drum 3.wav
402,192,75913,1,0,0:0:0:0:
36,192,75979,1,2,0:0:0:0:
256,192,75979,1,4,0:0:0:0:
475,192,75979,1,0,0:0:0:0:
109,192,76045,1,0,0:0:0:0:
329,192,76045,1,0,0:0:0:0:
182,192,76110,1,0,0:0:0:70:LR_Snare Drum 3.wav
402,192,76110,1,0,0:0:0:0:
475,192,76110,1,0,0:0:0:0:
36,192,76176,1,0,0:0:0:70:LR_Snare Drum 3.wav
256,192,76176,1,0,0:0:0:0:
109,192,76242,1,2,0:0:0:0:
329,192,76242,1,4,0:0:0:0:
402,192,76242,1,0,0:0:0:0:
182,192,76308,1,0,0:0:0:0:
475,192,76308,1,0,0:0:0:0:
36,192,76374,1,0,0:0:0:70:LR_Snare Drum 3.wav
256,192,76374,1,0,0:0:0:0:
329,192,76374,1,0,0:0:0:0:
109,192,76439,1,0,0:0:0:70:LR_Snare Drum 3.wav
402,192,76439,1,0,0:0:0:0:
182,192,76505,1,2,0:0:0:0:
256,192,76505,1,4,0:0:0:0:
475,192,76505,1,0,0:0:0:0:
36,192,76571,1,0,0:0:0:0:
329,192,76571,1,0,0:0:0:0:
109,192,76637,1,0,0:0:0:70:LR_Snare Drum 3.wav
182,192,76637,1,0,0:0:0:0:
402,192,76637,1,0,0:0:0:0:
256,192,76703,1,0,0:0:0:70:LR_Snare Drum 3.wav
475,192,76703,1,0,0:0:0:0:
109,192,76768,1,2,0:0:0:0:
36,192,76768,1,4,0:0:0:0:
329,192,76768,128,0,76900:0:0:0:0:
182,192,76768,1,0,0:0:0:0:
182,192,76900,1,2,0:0:0:0:
109,192,76900,1,0,0:0:0:0:
402,192,76900,128,0,77031:0:0:0:0:
256,192,76900,1,0,0:0:0:0:
256,192,77031,1,2,0:0:0:0:
182,192,77031,1,4,0:0:0:0:
475,192,77031,128,0,77163:0:0:0:0:
329,192,77031,1,0,0:0:0:0:
329,192,77163,1,2,0:0:0:0:
256,192,77163,1,0,0:0:0:0:
402,192,77163,1,0,0:0:0:0:
109,192,77295,128,0,77755:0:0:0:0:
256,192,77360,128,0,77755:0:0:0:70:TOM_1.wav
402,192,77426,128,0,77755:0:0:0:70:TOM_2.wav
475,192,77492,128,0,77755:0:0:0:70:TOM_3.wav
36,192,77558,128,0,77755:0:0:0:70:TOM_4.wav
36,192,77821,1,4,0:0:0:0:
182,192,77821,128,2,78479:0:0:0:0:
256,192,77821,128,0,78545:0:0:0:0:
329,192,77821,128,0,78610:0:0:0:0:
475,192,77821,1,0,0:0:0:0:
109,192,78084,128,0,78413:0:0:0:0:
402,192,78084,128,0,78676:0:0:0:0:
109,192,78479,1,0,0:0:0:0:
182,192,78545,1,0,0:0:0:0:
256,192,78610,1,0,0:0:0:0:
329,192,78676,1,0,0:0:0:0:
402,192,78742,1,0,0:0:0:0:
256,192,78808,1,0,0:0:0:0:
36,192,78874,1,0,0:0:0:0:
36,192,79005,1,0,0:0:0:0:
36,192,79137,1,0,0:0:0:0:
475,192,79268,1,0,0:0:0:0:
36,192,79400,1,0,0:0:0:0:
36,192,79531,1,0,0:0:0:0:
475,192,79531,1,0,0:0:0:0:
329,192,79663,128,0,79926:0:0:0:0:
182,192,79795,128,0,79926:0:0:0:0:
36,192,79926,1,2,0:0:0:0:
109,192,79926,1,4,0:0:0:0:
256,192,79926,1,0,0:0:0:0:
402,192,79926,1,0,0:0:0:0:
475,192,79926,1,0,0:0:0:0:
182,192,80058,1,0,0:0:0:0:
329,192,80058,1,0,0:0:0:0:
109,192,80124,1,0,0:0:0:0:
36,192,80189,1,2,0:0:0:0:
256,192,80189,1,0,0:0:0:0:
402,192,80189,1,0,0:0:0:0:
475,192,80189,1,0,0:0:0:0:
182,192,80321,1,0,0:0:0:50:Slapachair.wav
329,192,80321,1,0,0:0:0:0:
36,192,80453,1,2,0:0:0:0:
109,192,80453,1,0,0:0:0:0:
256,192,80453,1,0,0:0:0:0:
475,192,80453,1,0,0:0:0:0:
182,192,80584,1,0,0:0:0:50:Slapachair.wav
402,192,80584,1,0,0:0:0:0:
329,192,80650,1,0,0:0:0:0:
36,192,80716,1,2,0:0:0:0:
109,192,80716,1,0,0:0:0:0:
256,192,80716,1,0,0:0:0:0:
475,192,80716,1,0,0:0:0:0:
256,192,80847,128,0,80913:0:0:0:0:
36,192,80979,1,2,0:0:0:0:
182,192,80979,1,0,0:0:0:0:
402,192,80979,1,0,0:0:0:0:
475,192,80979,1,0,0:0:0:0:
329,192,81045,1,0,0:0:0:0:
109,192,81110,1,0,0:0:0:0:
256,192,81110,1,0,0:0:0:0:
329,192,81176,1,0,0:0:0:0:
182,192,81242,1,2,0:0:0:0:
36,192,81242,1,0,0:0:0:0:
402,192,81242,1,0,0:0:0:0:
475,192,81242,1,0,0:0:0:0:
256,192,81308,1,0,0:0:0:0:
109,192,81374,1,0,0:0:0:50:Slapachair.wav
329,192,81374,1,0,0:0:0:0:
402,192,81439,1,0,0:0:0:0:
36,192,81505,1,2,0:0:0:0:
182,192,81505,1,0,0:0:0:0:
256,192,81505,1,0,0:0:0:0:
475,192,81505,128,0,81966:0:0:0:0:
182,192,81637,1,0,0:0:0:50:Slapachair.wav
329,192,81637,1,0,0:0:0:0:
36,192,81768,1,2,0:0:0:0:
109,192,81768,1,0,0:0:0:0:
256,192,81768,1,0,0:0:0:0:
402,192,81768,128,0,81966:0:0:0:0:
182,192,81900,1,0,0:0:0:0:
36,192,82031,1,2,0:0:0:0:
109,192,82031,1,0,0:0:0:40:cymbal.wav
256,192,82031,1,0,0:0:0:0:
329,192,82031,1,0,0:0:0:0:
475,192,82031,1,0,0:0:0:0:
182,192,82163,1,0,0:0:0:0:
402,192,82163,1,0,0:0:0:0:
109,192,82229,1,0,0:0:0:0:
36,192,82295,1,2,0:0:0:0:
256,192,82295,1,0,0:0:0:0:
329,192,82295,1,0,0:0:0:0:
475,192,82295,1,0,0:0:0:0:
109,192,82426,1,0,0:0:0:50:Slapachair.wav
402,192,82426,1,0,0:0:0:0:
36,192,82558,1,2,0:0:0:0:
182,192,82558,1,0,0:0:0:0:
329,192,82558,1,0,0:0:0:0:
475,192,82558,1,0,0:0:0:0:
109,192,82689,1,0,0:0:0:50:Slapachair.wav
256,192,82689,1,0,0:0:0:0:
329,192,82755,1,0,0:0:0:0:
36,192,82821,1,2,0:0:0:0:
182,192,82821,1,0,0:0:0:0:
402,192,82821,1,0,0:0:0:0:
475,192,82821,1,0,0:0:0:0:
256,192,82953,128,0,83018:0:0:0:0:
36,192,83084,1,2,0:0:0:0:
109,192,83084,1,0,0:0:0:0:
182,192,83084,1,0,0:0:0:0:
329,192,83150,1,0,0:0:0:0:
475,192,83150,1,0,0:0:0:0:
36,192,83216,128,0,83347:0:0:0:0:
182,192,83216,128,0,83347:0:0:0:0:
329,192,83347,1,2,0:0:0:0:
402,192,83347,1,0,0:0:0:0:
475,192,83347,1,0,0:0:0:0:
36,192,83413,1,0,0:0:0:0:
182,192,83413,1,0,0:0:0:0:
329,192,83479,128,0,83610:0:0:0:50:Slapachair.wav
475,192,83479,128,0,83610:0:0:0:0:
36,192,83610,128,2,84071:0:0:0:0:
109,192,83610,1,0,0:0:0:40:cymbal.wav
256,192,83610,1,0,0:0:0:0:
402,192,83610,1,0,0:0:0:0:
182,192,83742,128,0,83808:0:0:0:50:Slapachair.wav
329,192,83742,128,0,83808:0:0:0:0:
109,192,83874,128,0,84071:0:0:0:0:
256,192,83874,128,0,83939:0:0:0:0:
402,192,83874,128,0,83939:0:0:0:0:
329,192,84005,128,0,84071:0:0:0:0:
475,192,84005,128,0,84071:0:0:0:0:
36,192,84137,1,2,0:0:0:0:
109,192,84137,1,4,0:0:0:0:
256,192,84137,1,0,0:0:0:0:
402,192,84137,1,0,0:0:0:0:
475,192,84137,1,0,0:0:0:0:
182,192,84268,1,0,0:0:0:0:
329,192,84268,1,0,0:0:0:0:
109,192,84334,1,0,0:0:0:0:
36,192,84400,128,2,84488:0:0:0:0:
256,192,84400,1,0,0:0:0:0:
402,192,84400,1,0,0:0:0:0:
475,192,84400,1,0,0:0:0:0:
182,192,84488,128,0,84575:0:0:0:0:
329,192,84575,128,0,84663:0:0:0:0:
36,192,84663,1,2,0:0:0:0:
109,192,84663,1,0,0:0:0:40:cymbal.wav
256,192,84663,1,0,0:0:0:0:
475,192,84663,1,0,0:0:0:0:
182,192,84795,1,0,0:0:0:50:Slapachair.wav
329,192,84795,1,0,0:0:0:0:
109,192,84860,1,0,0:0:0:0:
36,192,84926,1,2,0:0:0:0:
256,192,84926,1,0,0:0:0:0:
402,192,84926,1,0,0:0:0:0:
475,192,84926,1,0,0:0:0:0:
256,192,85058,128,0,85124:0:0:0:0:
36,192,85189,1,2,0:0:0:0:
109,192,85189,1,0,0:0:0:0:
329,192,85189,1,0,0:0:0:0:
475,192,85189,1,0,0:0:0:0:
182,192,85255,1,0,0:0:0:0:
256,192,85321,1,0,0:0:0:0:
402,192,85321,1,0,0:0:0:0:
182,192,85387,1,0,0:0:0:0:
36,192,85453,1,2,0:0:0:0:
109,192,85453,1,0,0:0:0:0:
329,192,85453,1,0,0:0:0:0:
475,192,85453,1,0,0:0:0:0:
256,192,85518,1,0,0:0:0:0:
182,192,85584,1,0,0:0:0:50:Slapachair.wav
402,192,85584,1,0,0:0:0:0:
109,192,85650,1,0,0:0:0:0:
36,192,85716,1,2,0:0:0:0:
256,192,85716,1,0,0:0:0:0:
329,192,85716,1,0,0:0:0:0:
475,192,85716,128,0,86176:0:0:0:0:
109,192,85847,1,0,0:0:0:50:Slapachair.wav
182,192,85847,1,0,0:0:0:0:
36,192,85979,1,2,0:0:0:0:
329,192,85979,1,0,0:0:0:0:
256,192,85979,1,0,0:0:0:0:
402,192,85979,128,0,86176:0:0:0:0:
182,192,86110,1,0,0:0:0:0:
36,192,86242,128,2,86374:0:0:0:0:
109,192,86242,128,0,86374:0:0:0:40:cymbal.wav
182,192,86242,128,0,86374:0:0:0:0:
329,192,86242,1,0,0:0:0:0:
475,192,86242,1,0,0:0:0:0:
402,192,86374,1,0,0:0:0:0:
256,192,86439,1,0,0:0:0:0:
36,192,86505,128,2,86637:0:0:0:0:
109,192,86505,128,0,86637:0:0:0:40:cymbal.wav
182,192,86505,128,0,86637:0:0:0:0:
329,192,86505,1,0,0:0:0:0:
475,192,86505,1,0,0:0:0:0:
256,192,86637,1,0,0:0:0:0:
36,192,86768,1,2,0:0:0:0:
182,192,86768,1,0,0:0:0:0:
329,192,86768,128,0,86900:0:0:0:0:
402,192,86768,128,0,86900:0:0:0:0:
475,192,86768,128,0,86900:0:0:0:0:
109,192,86900,1,0,0:0:0:50:Slapachair.wav
256,192,86900,1,0,0:0:0:0:
36,192,87031,1,2,0:0:0:0:
182,192,87031,1,0,0:0:0:0:
329,192,87031,128,0,87163:0:0:0:0:
402,192,87031,128,0,87163:0:0:0:0:
475,192,87031,128,0,87163:0:0:0:0:
109,192,87163,1,0,0:0:0:0:
182,192,87229,1,0,0:0:0:0:
36,192,87295,1,2,0:0:0:0:
256,192,87295,1,0,0:0:0:0:
402,192,87295,1,0,0:0:0:0:
475,192,87295,1,0,0:0:0:0:
109,192,87382,1,0,0:0:0:50:Slapachair.wav
182,192,87470,1,0,0:0:0:50:Slapachair.wav
36,192,87558,1,2,0:0:0:0:
329,192,87558,1,0,0:0:0:0:
402,192,87558,1,0,0:0:0:0:
475,192,87558,1,0,0:0:0:0:
109,192,87602,1,0,0:0:0:0:
182,192,87646,1,0,0:0:0:0:
256,192,87689,1,0,0:0:0:0:
36,192,87733,1,0,0:0:0:0:
109,192,87777,1,0,0:0:0:0:
182,192,87821,1,2,0:0:0:0:
329,192,87821,1,0,0:0:0:40:cymbal.wav
402,192,87821,1,0,0:0:0:0:
475,192,87821,128,0,88216:0:0:0:0:
36,192,87887,1,0,0:0:0:70:TOM_1.wav
256,192,87953,1,0,0:0:0:70:TOM_2.wav
109,192,88018,1,0,0:0:0:70:TOM_2.wav
329,192,88084,1,0,0:0:0:70:TOM_3.wav
182,192,88150,1,0,0:0:0:70:TOM_3.wav
402,192,88216,1,0,0:0:0:70:TOM_4.wav
256,192,88281,1,0,0:0:0:70:TOM_4.wav
36,192,88347,1,0,0:0:0:70:Cymatics - Trap Snare 8 - B.wav
109,192,88347,1,0,0:0:0:0:
182,192,88347,1,0,0:0:0:0:
329,192,88347,1,0,0:0:0:0:
475,192,88347,1,0,0:0:0:0:
109,192,88610,128,0,89005:0:0:0:0:
182,192,88610,128,0,89005:0:0:0:0:
329,192,88874,128,2,89005:0:0:0:0:
402,192,88874,128,4,89005:0:0:0:0:
256,192,89071,128,0,89137:0:0:0:0:
256,192,89268,1,0,0:0:0:0:
36,192,89400,1,0,0:0:0:70:Cymatics - Trap Snare 8 - B.wav
109,192,89400,1,0,0:0:0:0:
256,192,89400,1,0,0:0:0:0:
475,192,89400,1,0,0:0:0:0:
182,192,89488,1,0,0:0:0:0:
402,192,89488,1,0,0:0:0:0:
109,192,89575,1,0,0:0:0:0:
329,192,89575,1,0,0:0:0:0:
36,192,89663,1,2,0:0:0:0:
256,192,89663,1,0,0:0:0:0:
475,192,89663,1,0,0:0:0:0:
182,192,89751,1,0,0:0:0:0:
402,192,89751,1,0,0:0:0:0:
109,192,89839,1,0,0:0:0:0:
329,192,89839,1,0,0:0:0:0:
36,192,89926,128,2,90453:0:0:0:0:
256,192,89926,1,0,0:0:0:0:
475,192,89926,128,0,90453:0:0:0:0:
256,192,90189,128,0,90453:0:0:0:0:
182,192,90453,1,0,0:0:0:70:Cymatics - Trap Snare 8 - B.wav
329,192,90453,1,0,0:0:0:0:
329,192,90716,128,0,91110:0:0:0:0:
402,192,90716,128,0,91110:0:0:0:0:
109,192,90979,128,4,91110:0:0:0:0:
182,192,90979,128,2,91110:0:0:0:0:
256,192,91176,128,0,91242:0:0:0:0:
256,192,91374,1,0,0:0:0:0:
36,192,91505,1,0,0:0:0:70:Cymatics - Trap Snare 8 - B.wav
256,192,91505,1,0,0:0:0:0:
402,192,91505,1,0,0:0:0:0:
475,192,91505,1,0,0:0:0:0:
109,192,91593,1,0,0:0:0:0:
329,192,91593,1,0,0:0:0:0:
182,192,91681,1,0,0:0:0:0:
402,192,91681,1,0,0:0:0:0:
36,192,91768,1,2,0:0:0:0:
256,192,91768,1,0,0:0:0:0:
475,192,91768,1,0,0:0:0:0:
109,192,91856,1,0,0:0:0:0:
329,192,91856,1,0,0:0:0:0:
182,192,91944,1,0,0:0:0:0:
402,192,91944,1,0,0:0:0:0:
36,192,92031,128,2,92558:0:0:0:0:
109,192,92031,128,0,92097:0:0:0:0:
256,192,92031,128,0,92097:0:0:0:0:
329,192,92031,1,0,0:0:0:0:
475,192,92031,128,0,92558:0:0:0:0:
182,192,92229,128,0,92295:0:0:0:0:
329,192,92229,128,0,92295:0:0:0:0:
256,192,92426,128,0,92492:0:0:0:0:
402,192,92426,128,0,92492:0:0:0:0:
109,192,92558,1,2,0:0:0:0:
256,192,92558,1,4,0:0:0:0:
329,192,92558,1,0,0:0:0:0:
402,192,92558,1,0,0:0:0:0:
182,192,92646,1,0,0:0:0:0:
109,192,92733,1,0,0:0:0:0:
36,192,92821,1,2,0:0:0:0:
256,192,92821,1,0,0:0:0:0:
329,192,92821,128,0,93018:0:0:0:0:
402,192,92821,128,0,93018:0:0:0:0:
475,192,92821,128,0,93018:0:0:0:0:
182,192,92909,1,0,0:0:0:0:
109,192,92996,1,0,0:0:0:0:
36,192,93084,1,2,0:0:0:0:
256,192,93084,1,4,0:0:0:0:
329,192,93084,1,0,0:0:0:0:
402,192,93084,1,0,0:0:0:0:
475,192,93084,1,0,0:0:0:0:
109,192,93172,1,0,0:0:0:0:
182,192,93260,1,0,0:0:0:0:
36,192,93347,1,2,0:0:0:0:
256,192,93347,1,0,0:0:0:0:
329,192,93347,128,0,93413:0:0:0:0:
402,192,93347,128,0,93413:0:0:0:0:
475,192,93347,128,0,93413:0:0:0:0:
182,192,93479,128,0,93610:0:0:0:0:
36,192,93610,1,2,0:0:0:0:
109,192,93610,1,4,0:0:0:0:
256,192,93610,1,0,0:0:0:0:
402,192,93610,1,0,0:0:0:0:
475,192,93610,1,0,0:0:0:0:
329,192,93698,1,0,0:0:0:0:
402,192,93786,1,0,0:0:0:0:
36,192,93874,128,2,94071:0:0:0:0:
109,192,93874,128,0,94071:0:0:0:0:
182,192,93874,128,0,94071:0:0:0:0:
475,192,93874,1,0,0:0:0:0:
256,192,93874,1,0,0:0:0:0:
329,192,93961,1,0,0:0:0:0:
402,192,94049,1,0,0:0:0:0:
36,192,94137,1,2,0:0:0:0:
109,192,94137,1,4,0:0:0:0:
182,192,94137,1,0,0:0:0:0:
256,192,94137,1,0,0:0:0:0:
475,192,94137,1,0,0:0:0:0:
402,192,94224,1,0,0:0:0:0:
329,192,94312,1,0,0:0:0:0:
36,192,94400,128,2,94466:0:0:0:0:
109,192,94400,128,0,94466:0:0:0:0:
182,192,94400,128,0,94466:0:0:0:0:
256,192,94400,1,0,0:0:0:0:
475,192,94400,1,0,0:0:0:0:
329,192,94531,128,0,94663:0:0:0:0:
256,192,94663,1,2,0:0:0:0:
402,192,94663,1,0,0:0:0:0:
475,192,94663,1,4,0:0:0:0:
36,192,94663,1,0,0:0:0:0:
109,192,94795,1,0,0:0:0:70:LR_Snare Drum 3.wav
182,192,94795,1,0,0:0:0:0:
329,192,94860,1,0,0:0:0:70:LR_Snare Drum 3.wav
256,192,94860,1,0,0:0:0:0:
402,192,94926,1,2,0:0:0:0:
109,192,94926,1,4,0:0:0:0:
475,192,94926,1,0,0:0:0:0:
36,192,94926,1,0,0:0:0:0:
182,192,94992,1,0,0:0:0:0:
256,192,94992,1,0,0:0:0:70:LR_Snare Drum 3.wav
402,192,95058,1,0,0:0:0:70:LR_Snare Drum 3.wav
329,192,95058,1,0,0:0:0:0:
182,192,95124,1,0,0:0:0:70:LR_Snare Drum 3.wav
109,192,95124,1,0,0:0:0:0:
256,192,95189,1,2,0:0:0:0:
475,192,95189,1,4,0:0:0:0:
329,192,95189,1,0,0:0:0:0:
36,192,95189,1,0,0:0:0:0:
109,192,95321,1,0,0:0:0:70:LR_Snare Drum 3.wav
182,192,95321,1,0,0:0:0:0:
402,192,95387,1,0,0:0:0:70:LR_Snare Drum 3.wav
329,192,95387,1,0,0:0:0:0:
182,192,95453,1,2,0:0:0:0:
109,192,95453,1,4,0:0:0:0:
256,192,95453,1,0,0:0:0:0:
36,192,95453,1,0,0:0:0:0:
475,192,95518,1,0,0:0:0:0:
402,192,95518,1,0,0:0:0:70:LR_Snare Drum 3.wav
256,192,95584,1,0,0:0:0:70:LR_Snare Drum 3.wav
329,192,95584,1,0,0:0:0:0:
109,192,95650,1,0,0:0:0:70:LR_Snare Drum 3.wav
182,192,95650,1,0,0:0:0:0:
475,192,95716,1,2,0:0:0:0:
36,192,95716,1,0,0:0:0:0:
402,192,95716,1,0,0:0:0:0:
109,192,95847,1,0,0:0:0:0:
182,192,95847,1,0,0:0:0:0:
329,192,95979,1,0,0:0:0:0:
402,192,95979,1,0,0:0:0:0:
182,192,96110,1,0,0:0:0:0:
109,192,96110,1,0,0:0:0:0:
402,192,96242,128,0,96505:0:0:0:70:Cymatics - Trap Snare 8 - B5.wav
329,192,96242,128,0,96505:0:0:0:0:
182,192,96242,128,0,96505:0:0:0:0:
109,192,96242,128,0,96505:0:0:0:0:
256,192,96505,1,0,0:0:0:0:
256,192,96637,1,0,0:0:0:0:
36,192,96768,1,4,0:0:0:0:
109,192,96768,1,2,0:0:0:0:
475,192,96768,1,0,0:0:0:0:
256,192,96768,1,0,0:0:0:0:
402,192,96834,1,0,0:0:0:0:
182,192,96900,1,0,0:0:0:0:
329,192,96900,1,0,0:0:0:0:
109,192,96966,1,0,0:0:0:0:
36,192,97031,128,2,97163:0:0:0:0:
475,192,97031,128,0,97163:0:0:0:0:
256,192,97031,1,0,0:0:0:0:
182,192,97163,1,0,0:0:0:0:
402,192,97163,1,0,0:0:0:0:
36,192,97295,128,2,97426:0:0:0:0:
475,192,97295,128,0,97426:0:0:0:0:
256,192,97295,1,0,0:0:0:0:
329,192,97426,1,0,0:0:0:0:
109,192,97426,1,0,0:0:0:0:
182,192,97492,1,0,0:0:0:0:
36,192,97558,128,2,97689:0:0:0:0:
475,192,97558,128,0,97689:0:0:0:0:
256,192,97558,1,0,0:0:0:0:
182,192,97689,1,0,0:0:0:0:
402,192,97689,1,0,0:0:0:0:
36,192,97821,128,2,97953:0:0:0:0:
475,192,97821,128,0,97953:0:0:0:0:
256,192,97821,1,0,0:0:0:0:
109,192,97953,1,0,0:0:0:0:
329,192,97953,1,0,0:0:0:0:
36,192,98084,128,2,98216:0:0:0:0:
475,192,98084,128,0,98216:0:0:0:0:
256,192,98084,1,0,0:0:0:0:
182,192,98216,1,0,0:0:0:0:
402,192,98216,1,0,0:0:0:0:
329,192,98281,1,0,0:0:0:0:
36,192,98347,1,2,0:0:0:0:
256,192,98347,1,0,0:0:0:0:
475,192,98347,1,0,0:0:0:0:
182,192,98413,1,0,0:0:0:70:TOM_1.wav
402,192,98413,1,0,0:0:0:0:
329,192,98479,1,0,0:0:0:70:TOM_2.wav
109,192,98479,1,0,0:0:0:0:
256,192,98545,1,0,0:0:0:70:TOM_2.wav
36,192,98545,1,0,0:0:0:0:
182,192,98610,1,2,0:0:0:0:
402,192,98610,1,0,0:0:0:0:
475,192,98610,1,0,0:0:0:0:
109,192,98676,1,0,0:0:0:70:TOM_3.wav
329,192,98676,1,0,0:0:0:0:
256,192,98742,1,0,0:0:0:70:TOM_4.wav
36,192,98742,1,0,0:0:0:0:
182,192,98808,1,0,0:0:0:70:TOM_4.wav
475,192,98808,1,0,0:0:0:0:
36,192,98874,128,2,99137:0:0:0:0:
109,192,98874,128,0,99137:0:0:0:40:cymbal.wav
256,192,98874,128,0,99137:0:0:0:0:
402,192,98874,128,0,99137:0:0:0:0:
36,192,99268,1,2,0:0:0:0:
109,192,99268,1,0,0:0:0:40:cymbal.wav
256,192,99268,1,0,0:0:0:0:
402,192,99268,1,0,0:0:0:0:
36,192,99400,128,2,99597:0:0:0:0:
109,192,99400,128,0,99597:0:0:0:40:cymbal.wav
256,192,99400,128,0,99597:0:0:0:0:
402,192,99400,128,0,99597:0:0:0:0:
36,192,99663,128,2,99926:0:0:0:0:
109,192,99663,128,0,99926:0:0:0:40:cymbal.wav
256,192,99663,128,0,99926:0:0:0:0:
402,192,99663,128,0,99926:0:0:0:0:
475,192,99926,1,0,0:0:0:0:
36,192,100058,1,2,0:0:0:0:
109,192,100058,1,0,0:0:0:40:cymbal.wav
256,192,100058,1,0,0:0:0:0:
402,192,100058,1,0,0:0:0:0:
36,192,100189,128,2,100453:0:0:0:0:
109,192,100189,128,0,100453:0:0:0:40:cymbal.wav
256,192,100189,128,0,100453:0:0:0:0:
402,192,100189,128,0,100453:0:0:0:0:
475,192,100453,1,0,0:0:0:0:
329,192,100518,1,0,0:0:0:0:
36,192,100584,1,2,0:0:0:0:
109,192,100584,1,0,0:0:0:0:
182,192,100584,1,0,0:0:0:0:
402,192,100716,1,0,0:0:0:0:
256,192,100781,1,0,0:0:0:0:
109,192,100847,1,0,0:0:0:0:
182,192,100913,1,0,0:0:0:0:
36,192,100979,1,4,0:0:0:0:
402,192,100979,1,2,0:0:0:0:
256,192,100979,1,0,0:0:0:0:
475,192,100979,1,0,0:0:0:0:
329,192,101110,1,0,0:0:0:0:
109,192,101110,1,0,0:0:0:0:
182,192,101176,1,0,0:0:0:0:
36,192,101242,128,2,101374:0:0:0:0:
256,192,101242,1,0,0:0:0:0:
475,192,101242,128,0,101374:0:0:0:0:
182,192,101374,1,0,0:0:0:0:
329,192,101374,1,0,0:0:0:0:
109,192,101439,1,0,0:0:0:0:
36,192,101505,128,2,101637:0:0:0:0:
256,192,101505,1,0,0:0:0:0:
475,192,101505,128,0,101637:0:0:0:0:
329,192,101637,1,0,0:0:0:0:
182,192,101637,1,0,0:0:0:0:
402,192,101703,1,0,0:0:0:0:
36,192,101768,128,2,101900:0:0:0:0:
256,192,101768,1,0,0:0:0:0:
475,192,101768,128,0,101900:0:0:0:0:
182,192,101834,1,0,0:0:0:0:
109,192,101900,1,0,0:0:0:0:
329,192,101900,1,0,0:0:0:0:
36,192,102031,128,2,102163:0:0:0:0:
256,192,102031,1,0,0:0:0:0:
475,192,102031,128,0,102163:0:0:0:0:
329,192,102163,1,0,0:0:0:0:
182,192,102163,1,0,0:0:0:0:
109,192,102229,1,0,0:0:0:0:
36,192,102295,128,2,102426:0:0:0:0:
256,192,102295,1,0,0:0:0:0:
475,192,102295,128,0,102426:0:0:0:0:
329,192,102360,1,0,0:0:0:0:
182,192,102426,1,0,0:0:0:0:
402,192,102426,1,0,0:0:0:0:
109,192,102492,1,0,0:0:0:0:
36,192,102558,1,2,0:0:0:0:
256,192,102558,1,0,0:0:0:0:
475,192,102558,1,0,0:0:0:0:
402,192,102624,1,0,0:0:0:70:TOM_1.wav
182,192,102624,1,0,0:0:0:0:
109,192,102689,1,0,0:0:0:70:TOM_2.wav
329,192,102689,1,0,0:0:0:0:
256,192,102755,1,0,0:0:0:70:TOM_2.wav
475,192,102755,1,0,0:0:0:0:
36,192,102821,1,2,0:0:0:0:
402,192,102821,1,0,0:0:0:0:
182,192,102821,1,0,0:0:0:0:
329,192,102887,1,0,0:0:0:70:TOM_3.wav
109,192,102887,1,0,0:0:0:0:
475,192,102953,1,0,0:0:0:70:TOM_4.wav
256,192,102953,1,0,0:0:0:0:
402,192,103018,1,0,0:0:0:70:TOM_4.wav
109,192,103018,1,0,0:0:0:0:
36,192,103084,128,2,103347:0:0:0:0:
182,192,103084,128,0,103347:0:0:0:40:cymbal.wav
329,192,103084,128,0,103347:0:0:0:0:
475,192,103084,128,0,103347:0:0:0:0:
36,192,103479,1,2,0:0:0:0:
182,192,103479,1,0,0:0:0:40:cymbal.wav
329,192,103479,1,0,0:0:0:0:
475,192,103479,1,0,0:0:0:0:
36,192,103610,128,2,103808:0:0:0:0:
182,192,103610,128,0,103808:0:0:0:40:cymbal.wav
329,192,103610,128,0,103808:0:0:0:0:
475,192,103610,128,0,103808:0:0:0:0:
36,192,103874,128,2,104137:0:0:0:0:
182,192,103874,128,0,104137:0:0:0:40:cymbal.wav
329,192,103874,128,0,104137:0:0:0:0:
475,192,103874,128,0,104137:0:0:0:0:
256,192,104137,1,0,0:0:0:0:
36,192,104268,1,2,0:0:0:0:
182,192,104268,1,0,0:0:0:40:cymbal.wav
329,192,104268,1,0,0:0:0:0:
475,192,104268,1,0,0:0:0:0:
36,192,104400,128,2,104663:0:0:0:0:
182,192,104400,128,0,104663:0:0:0:40:cymbal.wav
329,192,104400,128,0,104663:0:0:0:0:
475,192,104400,128,0,104663:0:0:0:0:
256,192,104663,1,0,0:0:0:0:
36,192,104795,1,0,0:0:0:0:
182,192,104926,1,2,0:0:0:0:
329,192,104926,1,0,0:0:0:0:
182,192,105058,1,2,0:0:0:0:
329,192,105058,1,0,0:0:0:0:
36,192,105189,1,0,0:0:0:50:Cymatics - Trap Snare 8 - A#.wav
109,192,105189,1,0,0:0:0:0:
256,192,105189,1,0,0:0:0:0:
402,192,105189,1,0,0:0:0:0:
475,192,105189,1,0,0:0:0:0:
182,192,105321,1,0,0:0:0:0:
329,192,105321,1,0,0:0:0:0:
402,192,105453,1,0,0:0:0:0:
475,192,105453,1,0,0:0:0:0:
109,192,105584,1,2,0:0:0:0:
182,192,105617,1,2,0:0:0:0:
256,192,105650,1,2,0:0:0:0:
329,192,105683,1,2,0:0:0:0:
36,192,105716,1,0,0:0:0:50:Cymatics - Trap Snare 8 - A#.wav
109,192,105716,1,0,0:0:0:0:
402,192,105716,128,0,105847:0:0:0:0:
475,192,105716,128,0,105847:0:0:0:0:
109,192,105847,1,2,0:0:0:0:
182,192,105847,1,0,0:0:0:0:
182,192,105979,1,4,0:0:0:0:
256,192,105979,1,2,0:0:0:0:
402,192,105979,128,0,106110:0:0:0:0:
475,192,105979,128,0,106110:0:0:0:0:
36,192,106110,1,0,0:0:0:0:
109,192,106110,1,0,0:0:0:0:
182,192,106242,1,0,0:0:0:0:
329,192,106242,1,0,0:0:0:0:
402,192,106242,128,0,106374:0:0:0:0:
475,192,106242,128,0,106374:0:0:0:0:
109,192,106374,1,0,0:0:0:0:
256,192,106374,1,0,0:0:0:0:
36,192,106505,1,2,0:0:0:0:
182,192,106505,1,0,0:0:0:0:
402,192,106505,128,0,106637:0:0:0:0:
475,192,106505,128,0,106637:0:0:0:0:
109,192,106637,1,0,0:0:0:0:
256,192,106637,1,0,0:0:0:0:
36,192,106768,1,0,0:0:0:50:Cymatics - Trap Snare 8 - A#.wav
182,192,106768,1,0,0:0:0:0:
329,192,106768,1,0,0:0:0:0:
475,192,106768,1,0,0:0:0:0:
36,192,106900,1,0,0:0:0:50:Cymatics - Trap Snare 8 - A#.wav
182,192,106900,1,0,0:0:0:0:
329,192,106900,1,0,0:0:0:0:
475,192,106900,1,0,0:0:0:0:
109,192,107031,1,2,0:0:0:0:
256,192,107031,1,0,0:0:0:0:
402,192,107097,1,0,0:0:0:0:
109,192,107163,1,2,0:0:0:0:
256,192,107163,1,0,0:0:0:0:
402,192,107229,1,0,0:0:0:0:
36,192,107295,1,0,0:0:0:0:
109,192,107295,1,0,0:0:0:0:
182,192,107295,1,0,0:0:0:0:
329,192,107295,1,0,0:0:0:0:
475,192,107295,1,0,0:0:0:0:
256,192,107426,1,2,0:0:0:0:
402,192,107426,1,0,0:0:0:0:
182,192,107492,1,0,0:0:0:0:
109,192,107558,128,0,107821:0:0:0:0:
329,192,107558,128,0,107821:0:0:0:0:
182,192,107689,128,0,107821:0:0:0:50:Cymatics - Trap Snare 8 - A#.wav
402,192,107689,128,0,107821:0:0:0:0:
36,192,107821,1,0,0:0:0:50:Cymatics - Trap Snare 8 - A#.wav
256,192,107821,1,0,0:0:0:0:
182,192,107953,1,2,0:0:0:0:
329,192,107953,1,0,0:0:0:0:
475,192,107953,1,0,0:0:0:0:
182,192,108084,1,2,0:0:0:0:
329,192,108084,1,0,0:0:0:0:
475,192,108084,1,0,0:0:0:0:
36,192,108150,1,0,0:0:0:0:
256,192,108216,1,0,0:0:0:0:
402,192,108216,1,0,0:0:0:0:
109,192,108281,1,0,0:0:0:0:
329,192,108347,1,0,0:0:0:0:
475,192,108347,1,0,0:0:0:0:
36,192,108413,1,0,0:0:0:0:
182,192,108479,1,0,0:0:0:0:
402,192,108479,1,0,0:0:0:0:
256,192,108545,1,0,0:0:0:0:
109,192,108610,1,2,0:0:0:0:
329,192,108610,1,0,0:0:0:0:
475,192,108610,1,0,0:0:0:0:
109,192,108742,1,2,0:0:0:0:
329,192,108742,1,0,0:0:0:0:
475,192,108742,1,0,0:0:0:0:
182,192,108808,1,0,0:0:0:0:
36,192,108874,1,0,0:0:0:50:Cymatics - Trap Snare 8 - A#.wav
256,192,108874,1,0,0:0:0:0:
402,192,108874,1,0,0:0:0:0:
475,192,108874,1,0,0:0:0:0:
109,192,108939,1,0,0:0:0:0:
182,192,109005,1,2,0:0:0:0:
329,192,109005,1,0,0:0:0:0:
402,192,109137,1,0,0:0:0:0:
256,192,109203,1,0,0:0:0:0:
109,192,109268,1,0,0:0:0:0:
256,192,109334,1,0,0:0:0:0:
36,192,109400,1,0,0:0:0:0:
182,192,109400,1,0,0:0:0:0:
329,192,109400,1,0,0:0:0:0:
402,192,109400,1,0,0:0:0:0:
475,192,109400,1,0,0:0:0:0:
256,192,109663,128,0,109926:0:0:0:0:
36,192,109926,128,2,110058:0:0:0:0:
182,192,109926,128,4,110058:0:0:0:0:
329,192,109926,128,0,110058:0:0:0:0:
475,192,109926,128,0,110058:0:0:0:0:
36,192,110124,128,2,110255:0:0:0:0:
182,192,110124,128,4,110255:0:0:0:0:
329,192,110124,128,0,110255:0:0:0:0:
475,192,110124,128,0,110255:0:0:0:0:
36,192,110321,1,2,0:0:0:0:
182,192,110321,1,4,0:0:0:0:
329,192,110321,1,0,0:0:0:0:
475,192,110321,1,0,0:0:0:0:
36,192,110453,128,4,110584:0:0:0:0:
109,192,110453,128,2,110584:0:0:0:0:
256,192,110453,128,0,110584:0:0:0:0:
402,192,110453,128,0,110584:0:0:0:0:
36,192,110650,128,2,110781:0:0:0:0:
109,192,110650,128,4,110781:0:0:0:0:
256,192,110650,128,0,110781:0:0:0:0:
402,192,110650,128,0,110781:0:0:0:0:
36,192,110847,1,4,0:0:0:0:
109,192,110847,1,2,0:0:0:0:
256,192,110847,1,0,0:0:0:0:
402,192,110847,1,0,0:0:0:0:
36,192,110979,1,2,0:0:0:0:
182,192,110979,1,0,0:0:0:40:cymbal.wav
329,192,110979,1,0,0:0:0:0:
475,192,110979,1,0,0:0:0:0:
109,192,111110,1,0,0:0:0:0:
402,192,111176,1,2,0:0:0:0:
109,192,111308,1,0,0:0:0:0:
402,192,111374,1,2,0:0:0:0:
36,192,111505,128,2,111637:0:0:0:0:
182,192,111505,128,4,111637:0:0:0:0:
256,192,111505,128,0,111637:0:0:0:0:
329,192,111505,128,0,111637:0:0:0:0:
475,192,111505,128,0,111637:0:0:0:0:
36,192,111703,128,2,111834:0:0:0:0:
182,192,111703,128,4,111834:0:0:0:0:
256,192,111703,128,0,111834:0:0:0:0:
329,192,111703,128,0,111834:0:0:0:0:
475,192,111703,128,0,111834:0:0:0:0:
36,192,111900,1,2,0:0:0:0:
182,192,111900,1,4,0:0:0:0:
256,192,111900,1,0,0:0:0:0:
329,192,111900,1,0,0:0:0:0:
475,192,111900,1,0,0:0:0:0:
36,192,112031,128,4,112163:0:0:0:0:
109,192,112031,128,2,112163:0:0:0:0:
256,192,112031,128,0,112163:0:0:0:0:
402,192,112031,128,0,112163:0:0:0:0:
475,192,112031,128,0,112163:0:0:0:0:
36,192,112229,128,2,112360:0:0:0:0:
109,192,112229,128,4,112360:0:0:0:0:
256,192,112229,128,0,112360:0:0:0:0:
402,192,112229,128,0,112360:0:0:0:0:
475,192,112229,128,0,112360:0:0:0:0:
36,192,112426,1,4,0:0:0:0:
109,192,112426,1,2,0:0:0:0:
256,192,112426,1,0,0:0:0:0:
402,192,112426,1,0,0:0:0:0:
475,192,112426,1,0,0:0:0:0:
109,192,112558,128,2,112689:0:0:0:0:
182,192,112558,128,4,112689:0:0:0:0:
256,192,112558,128,0,112689:0:0:0:0:
329,192,112558,128,0,112689:0:0:0:0:
402,192,112558,128,0,112689:0:0:0:0:
109,192,112755,128,2,112887:0:0:0:0:
182,192,112755,128,4,112887:0:0:0:0:
256,192,112755,128,0,112887:0:0:0:0:
329,192,112755,128,0,112887:0:0:0:0:
402,192,112755,128,0,112887:0:0:0:0:
109,192,112953,1,2,0:0:0:0:
182,192,112953,1,0,0:0:0:40:cymbal.wav
256,192,112953,1,0,0:0:0:0:
329,192,112953,1,0,0:0:0:0:
402,192,112953,1,0,0:0:0:0:
36,192,113084,128,2,113545:0:0:0:0:
329,192,113150,128,2,113545:0:0:0:0:
256,192,113216,128,2,113545:0:0:0:0:
182,192,113281,128,2,113545:0:0:0:0:
475,192,113347,128,2,113545:0:0:0:0:
36,192,113610,1,2,0:0:0:0:
182,192,113610,1,0,0:0:0:40:cymbal.wav
256,192,113610,1,0,0:0:0:0:
329,192,113610,1,0,0:0:0:0:
475,192,113610,1,0,0:0:0:0:
36,192,114005,1,2,0:0:0:0:
182,192,114005,1,0,0:0:0:40:cymbal.wav
256,192,114005,1,0,0:0:0:0:
329,192,114005,1,0,0:0:0:0:
475,192,114005,1,0,0:0:0:0:
36,192,114137,1,2,0:0:0:0:
182,192,114137,1,0,0:0:0:40:cymbal.wav
256,192,114137,1,0,0:0:0:0:
329,192,114137,1,0,0:0:0:0:
475,192,114137,1,0,0:0:0:0:
36,192,114400,1,2,0:0:0:0:
182,192,114400,1,0,0:0:0:40:cymbal.wav
256,192,114400,1,0,0:0:0:0:
329,192,114400,1,0,0:0:0:0:
475,192,114400,1,0,0:0:0:0:
256,192,114663,1,2,0:0:0:0:
182,192,114729,1,0,0:0:0:0:
36,192,114795,1,2,0:0:0:0:
109,192,114795,1,0,0:0:0:0:
329,192,114795,1,0,0:0:0:0:
256,192,114926,1,0,0:0:0:0:
475,192,114926,1,0,0:0:0:0:
36,192,115058,1,2,0:0:0:0:
182,192,115058,1,0,0:0:0:0:
402,192,115058,1,0,0:0:0:0:
36,192,115189,1,2,0:0:0:0:
109,192,115189,1,0,0:0:0:50:Cymatics - Trap Snare 8 - A#.wav
329,192,115189,1,0,0:0:0:0:
475,192,115189,1,0,0:0:0:0:
182,192,115321,1,0,0:0:0:0:
402,192,115321,1,0,0:0:0:0:
256,192,115453,1,0,0:0:0:0:
475,192,115453,1,0,0:0:0:0:
182,192,115584,1,0,0:0:0:0:
329,192,115650,1,0,0:0:0:0:
36,192,115716,1,2,0:0:0:0:
109,192,115716,1,0,0:0:0:40:cymbal.wav
256,192,115716,1,0,0:0:0:0:
402,192,115716,1,0,0:0:0:0:
475,192,115716,1,0,0:0:0:0:
36,192,116110,1,2,0:0:0:0:
109,192,116110,1,0,0:0:0:40:cymbal.wav
256,192,116110,1,0,0:0:0:0:
402,192,116110,1,0,0:0:0:0:
475,192,116110,1,0,0:0:0:0:
36,192,116242,1,2,0:0:0:0:
109,192,116242,1,0,0:0:0:40:cymbal.wav
256,192,116242,1,0,0:0:0:0:
402,192,116242,1,0,0:0:0:0:
475,192,116242,1,0,0:0:0:0:
36,192,116505,1,2,0:0:0:0:
109,192,116505,1,0,0:0:0:40:cymbal.wav
256,192,116505,1,0,0:0:0:0:
402,192,116505,1,0,0:0:0:0:
475,192,116505,1,0,0:0:0:0:
182,192,116768,1,0,0:0:0:0:
329,192,116834,1,0,0:0:0:0:
36,192,116900,1,2,0:0:0:0:
109,192,116900,1,0,0:0:0:0:
256,192,116900,1,0,0:0:0:0:
402,192,116966,1,0,0:0:0:0:
182,192,117031,1,0,0:0:0:0:
475,192,117031,1,0,0:0:0:0:
329,192,117097,1,0,0:0:0:0:
36,192,117163,1,2,0:0:0:0:
109,192,117163,1,0,0:0:0:0:
402,192,117163,1,0,0:0:0:0:
256,192,117229,1,0,0:0:0:0:
36,192,117295,1,2,0:0:0:0:
182,192,117295,1,0,0:0:0:50:Cymatics - Trap Snare 8 - A#.wav
329,192,117295,1,0,0:0:0:0:
475,192,117295,1,0,0:0:0:0:
256,192,117426,128,0,117558:0:0:0:0:
182,192,117558,1,0,0:0:0:0:
329,192,117624,1,0,0:0:0:0:
182,192,117689,1,0,0:0:0:0:
329,192,117755,1,0,0:0:0:0:
36,192,117821,128,2,118347:0:0:0:0:
109,192,117821,128,4,118347:0:0:0:0:
256,192,117821,128,0,118347:0:0:0:0:
402,192,117821,128,0,118347:0:0:0:0:
475,192,117821,128,0,118347:0:0:0:0:
