osu file format v14

[General]
AudioFilename: new owo new.mp3
AudioLeadIn: 0
PreviewTime: 95442
Countdown: 0
SampleSet: Normal
StackLeniency: 0.7
Mode: 1
LetterboxInBreaks: 0
WidescreenStoryboard: 1

[Editor]
Bookmarks: 60992
DistanceSpacing: 1.1
BeatDivisor: 4
GridSize: 32
TimelineZoom: 3.5

[Metadata]
Title:SCREW // owo // SCREW
TitleUnicode:SCREW // owo // SCREW
Artist:Camellia
ArtistUnicode:かめりあ
Creator:Capu
Version:ONI // owo // ONI
Source:beatmania IIDX 27 HEROIC VERSE
Tags:callmelyra radar electronic instrumental bistrover 28 hardcore pumpcore dnb drum and bass INFINITAS (2020) twerkcore uwu beatjuggle fa featured artist konami bemani rhythm video game
BeatmapID:2814822
BeatmapSetID:1347043

[Difficulty]
HPDrainRate:5
CircleSize:5
OverallDifficulty:6
ApproachRate:5
SliderMultiplier:1.4
SliderTickRate:1

[Events]
//Background and Video events
0,0,"1784621.jpg",0,-80
//Break Periods
2,52482,59503
//Storyboard Layer 0 (Background)
//Storyboard Layer 1 (Fail)
//Storyboard Layer 2 (Pass)
//Storyboard Layer 3 (Foreground)
//Storyboard Layer 4 (Overlay)
//Storyboard Sound Samples

[TimingPoints]
704,263.157894736842,4,1,0,70,1,0
704,-117.647058823529,4,1,0,70,0,0
10046,-114.285714285714,4,1,0,70,0,0
10177,-111.111111111111,4,1,0,70,0,0
18598,-125,4,1,0,70,0,0
37809,-133.333333333333,4,1,0,70,0,0
39651,-125,4,1,0,70,0,0
43861,-111.111111111111,4,1,0,70,0,0
44914,-125,4,1,0,70,0,0
45967,-111.111111111111,4,1,0,70,0,0
47019,-125,4,1,0,70,0,0
48072,-111.111111111111,4,1,0,70,0,0
51493,-114.285714285714,4,1,0,70,0,0
52282,-117.647058823529,4,1,0,70,0,0
53335,-125,4,1,0,70,0,0
54388,-133.333333333333,4,1,0,70,0,0
55440,-142.857142857143,4,1,0,70,0,0
60703,-117.647058823529,4,1,0,70,0,0
68993,-114.285714285714,4,1,0,70,0,0
69125,-111.111111111111,4,1,0,70,0,0
77546,-125,4,1,0,70,0,0
79651,-100,4,1,0,70,0,1
87677,-102.040816326531,4,1,0,70,0,1
87743,-104.166666666667,4,1,0,70,0,1
87809,-106.382978723404,4,1,0,70,0,1
87940,-108.695652173913,4,1,0,70,0,1
88072,-111.111111111111,4,1,0,70,0,1
92282,-100,4,1,0,70,0,1
95440,-100,4,1,0,70,0,0
96493,-100,4,1,0,70,0,1
105177,-105.263157894737,4,1,0,70,0,1
105243,-106.382978723404,4,1,0,70,0,1
105309,-107.52688172043,4,1,0,70,0,1
105375,-108.695652173913,4,1,0,70,0,1
105440,-109.89010989011,4,1,0,70,0,1
105572,-111.111111111111,4,1,0,70,0,1
109651,-100,4,1,0,70,0,1
113335,-111.111111111111,4,1,0,70,0,0
114388,-125,4,1,0,70,0,0
115440,-111.111111111111,4,1,0,70,0,0
116493,-125,4,1,0,70,0,0
117546,-111.111111111111,4,1,0,70,0,0

[HitObjects]
100,86,1756,5,12,0:0:0:0:
129,328,2019,1,8,0:0:0:0:
129,328,2282,1,0,0:0:0:0:
129,328,2414,1,0,0:0:0:0:
129,328,2546,1,8,0:0:0:0:
129,328,2677,1,0,0:0:0:0:
129,328,2809,1,8,0:0:0:0:
129,328,2940,1,8,0:0:0:0:
129,328,3072,1,0,0:0:0:0:
129,328,3203,1,8,0:0:0:0:
94,60,3467,1,4,0:0:0:0:
111,290,3730,1,0,0:0:0:0:
122,81,3861,1,12,0:0:0:0:
111,290,4125,1,0,0:0:0:0:
111,290,4388,1,0,0:0:0:0:
111,290,4519,1,0,0:0:0:0:
111,290,4651,1,8,0:0:0:0:
111,290,4782,1,8,0:0:0:0:
111,290,4914,1,0,0:0:0:0:
111,290,5046,1,0,0:0:0:0:
111,290,5177,1,0,0:0:0:0:
115,297,5309,1,8,0:0:0:0:
109,82,5572,1,4,0:0:0:0:
109,82,5703,1,4,0:0:0:0:
109,82,5967,1,12,0:0:0:0:
129,298,6230,1,0,0:0:0:0:
129,298,6361,1,8,0:0:0:0:
129,298,6427,1,8,0:0:0:0:
129,298,6493,1,8,0:0:0:0:
129,298,6625,1,8,0:0:0:0:
129,298,6756,1,0,0:0:0:0:
129,298,6888,1,0,0:0:0:0:
140,296,7019,1,8,0:0:0:0:
140,296,7151,1,0,0:0:0:0:
140,296,7282,1,0,0:0:0:0:
129,298,7414,1,8,0:0:0:0:
110,66,7677,1,4,0:0:0:0:
124,305,7940,1,0,0:0:0:0:
123,71,8072,1,12,0:0:0:0:
126,300,8203,1,0,0:0:0:0:
126,300,8335,1,0,0:0:0:0:
123,71,8467,1,12,0:0:0:0:
126,300,8598,1,0,0:0:0:0:
126,300,8730,1,0,0:0:0:0:
123,71,8861,1,12,0:0:0:0:
126,300,9125,1,0,0:0:0:0:
123,71,9256,1,12,0:0:0:0:
126,300,9519,1,0,0:0:0:0:
126,300,9585,1,0,0:0:0:0:
126,300,9651,1,0,0:0:0:0:
123,71,9782,1,12,0:0:0:0:
126,300,10046,1,0,0:0:0:0:
132,104,10177,1,12,0:0:0:0:
131,305,10440,1,8,0:0:0:0:
131,305,10572,1,0,0:0:0:0:
131,305,10638,1,0,0:0:0:0:
131,305,10703,1,8,0:0:0:0:
131,292,10835,1,8,0:0:0:0:
131,292,10901,1,8,0:0:0:0:
131,292,10967,1,0,0:0:0:0:
131,292,11098,1,0,0:0:0:0:
128,0,11230,1,12,0:0:0:0:
130,284,11493,1,0,0:0:0:0:
130,284,11625,1,8,0:0:0:0:
130,284,11690,1,0,0:0:0:0:
130,284,11756,1,8,0:0:0:0:
130,284,11888,1,0,0:0:0:0:
130,284,12019,1,0,0:0:0:0:
130,284,12151,1,8,0:0:0:0:
136,21,12282,1,12,0:0:0:0:
130,284,12546,1,0,0:0:0:0:
130,284,12677,1,0,0:0:0:0:
130,284,12809,1,8,0:0:0:0:
130,284,12940,1,0,0:0:0:0:
130,284,13006,1,0,0:0:0:0:
130,284,13072,1,8,0:0:0:0:
136,277,13203,1,0,0:0:0:0:
113,56,13335,1,12,0:0:0:0:
151,258,13467,1,0,0:0:0:0:
141,271,13598,1,8,0:0:0:0:
141,271,13730,1,0,0:0:0:0:
141,271,13861,1,8,0:0:0:0:
141,271,13949,1,8,0:0:0:0:
141,271,14037,1,8,0:0:0:0:
141,271,14125,1,0,0:0:0:0:
112,64,14388,1,12,0:0:0:0:
145,298,14651,1,8,0:0:0:0:
145,298,14782,1,0,0:0:0:0:
126,45,14914,1,12,0:0:0:0:
149,285,15177,1,0,0:0:0:0:
149,285,15309,1,0,0:0:0:0:
139,75,15440,1,12,0:0:0:0:
153,283,15572,1,0,0:0:0:0:
132,81,15703,1,12,0:0:0:0:
146,268,15835,1,0,0:0:0:0:
140,89,15967,1,12,0:0:0:0:
140,290,16230,1,0,0:0:0:0:
140,289,16318,1,0,0:0:0:0:
142,286,16405,1,0,0:0:0:0:
151,275,16493,1,8,0:0:0:0:
139,289,16625,1,8,0:0:0:0:
140,290,16690,1,8,0:0:0:0:
143,283,16756,1,8,0:0:0:0:
143,283,16888,1,8,0:0:0:0:
143,283,16953,1,8,0:0:0:0:
143,283,17019,1,0,0:0:0:0:
151,290,17151,1,8,0:0:0:0:
150,290,17217,1,0,0:0:0:0:
150,290,17282,1,0,0:0:0:0:
150,290,17414,1,0,0:0:0:0:
150,290,17480,1,0,0:0:0:0:
150,290,17546,1,0,0:0:0:0:
148,280,18072,1,0,0:0:0:0:
148,280,18138,1,0,0:0:0:0:
155,275,18203,1,0,0:0:0:0:
148,280,18335,1,0,0:0:0:0:
110,37,18598,1,4,0:0:0:0:
149,289,18861,1,8,0:0:0:0:
156,277,19125,1,8,0:0:0:0:
156,277,19256,1,0,0:0:0:0:
155,277,19388,1,0,0:0:0:0:
155,277,19519,1,8,0:0:0:0:
155,277,19651,1,0,0:0:0:0:
156,277,19717,1,0,0:0:0:0:
156,277,19782,1,0,0:0:0:0:
156,277,19914,1,8,0:0:0:0:
155,277,19980,1,8,0:0:0:0:
156,277,20046,1,8,0:0:0:0:
155,277,20177,1,8,0:0:0:0:
166,277,20309,1,0,0:0:0:0:
166,277,20440,1,0,0:0:0:0:
132,72,20703,1,4,0:0:0:0:
178,277,20967,1,8,0:0:0:0:
178,277,21230,1,8,0:0:0:0:
178,277,21361,1,0,0:0:0:0:
178,277,21493,1,0,0:0:0:0:
178,277,21625,1,8,0:0:0:0:
178,277,21756,1,0,0:0:0:0:
178,277,21822,1,8,0:0:0:0:
178,277,21888,1,0,0:0:0:0:
178,277,22019,1,8,0:0:0:0:
178,277,22085,1,0,0:0:0:0:
178,277,22151,1,8,0:0:0:0:
171,280,22282,1,8,0:0:0:0:
171,280,22414,1,0,0:0:0:0:
171,280,22677,1,0,0:0:0:0:
183,275,22809,1,8,0:0:0:0:
174,273,23072,1,0,0:0:0:0:
174,273,23203,1,0,0:0:0:0:
174,273,23269,1,0,0:0:0:0:
174,273,23335,1,8,0:0:0:0:
185,272,23467,1,0,0:0:0:0:
183,275,23598,1,0,0:0:0:0:
183,271,23730,1,8,0:0:0:0:
183,271,23861,1,0,0:0:0:0:
183,271,23927,1,0,0:0:0:0:
183,271,23993,1,0,0:0:0:0:
183,271,24125,1,8,0:0:0:0:
185,272,24190,1,8,0:0:0:0:
185,272,24256,1,8,0:0:0:0:
183,275,24388,1,8,0:0:0:0:
183,271,24519,1,0,0:0:0:0:
183,271,24651,1,0,0:0:0:0:
128,52,24914,1,4,0:0:0:0:
176,282,25177,1,0,0:0:0:0:
176,282,25243,1,0,0:0:0:0:
176,282,25309,1,0,0:0:0:0:
146,66,25440,1,8,0:0:0:0:
181,278,25572,1,0,0:0:0:0:
180,277,25703,1,0,0:0:0:0:
184,273,25835,1,8,0:0:0:0:
184,273,25967,1,8,0:0:0:0:
184,273,26032,1,8,0:0:0:0:
184,273,26098,1,8,0:0:0:0:
184,273,26164,1,8,0:0:0:0:
184,272,26230,1,0,0:0:0:0:
191,253,26361,1,0,0:0:0:0:
188,267,26493,1,8,0:0:0:0:
118,48,27019,1,4,0:0:0:0:
127,288,27282,1,8,0:0:0:0:
127,288,27546,1,8,0:0:0:0:
127,288,27677,1,0,0:0:0:0:
127,288,27809,1,0,0:0:0:0:
127,288,27940,1,8,0:0:0:0:
127,288,28072,1,0,0:0:0:0:
127,288,28138,1,0,0:0:0:0:
127,288,28203,1,8,0:0:0:0:
116,0,28335,1,4,0:0:0:0:
137,288,28598,1,8,0:0:0:0:
128,51,28730,1,4,0:0:0:0:
129,67,28861,1,4,0:0:0:0:
135,75,29125,1,4,0:0:0:0:
154,292,29388,1,8,0:0:0:0:
154,291,29519,1,8,0:0:0:0:
154,292,29651,1,8,0:0:0:0:
154,292,29782,1,0,0:0:0:0:
154,292,29914,1,0,0:0:0:0:
154,292,30046,1,8,0:0:0:0:
149,286,30177,1,0,0:0:0:0:
149,286,30243,1,0,0:0:0:0:
149,286,30309,1,8,0:0:0:0:
131,52,30440,1,4,0:0:0:0:
156,281,30703,1,8,0:0:0:0:
126,63,30835,1,4,0:0:0:0:
161,271,31098,1,0,0:0:0:0:
161,271,31230,1,8,0:0:0:0:
151,267,31318,1,8,0:0:0:0:
151,267,31405,1,8,0:0:0:0:
151,267,31493,1,8,0:0:0:0:
153,275,31625,1,0,0:0:0:0:
153,275,31756,1,8,0:0:0:0:
161,271,31888,1,0,0:0:0:0:
161,271,32019,1,0,0:0:0:0:
166,276,32282,1,0,0:0:0:0:
166,276,32457,1,8,0:0:0:0:
166,276,32546,1,0,0:0:0:0:
166,276,32720,1,0,0:0:0:0:
166,276,32809,1,8,0:0:0:0:
166,276,32940,1,0,0:0:0:0:
166,276,33138,1,0,0:0:0:0:
139,57,33335,1,4,0:0:0:0:
166,276,33467,1,8,0:0:0:0:
166,276,33532,1,8,0:0:0:0:
166,276,33598,1,8,0:0:0:0:
166,276,33730,1,0,0:0:0:0:
158,45,33861,1,4,0:0:0:0:
165,269,33993,1,8,0:0:0:0:
165,269,34059,1,8,0:0:0:0:
165,269,34125,1,8,0:0:0:0:
165,269,34256,1,0,0:0:0:0:
129,72,34388,1,4,0:0:0:0:
166,255,34519,1,8,0:0:0:0:
142,113,34651,1,4,0:0:0:0:
166,255,34782,1,8,0:0:0:0:
162,259,34914,1,8,0:0:0:0:
123,47,35440,1,4,0:0:0:0:
155,267,36230,1,8,0:0:0:0:
155,267,36296,1,8,0:0:0:0:
155,267,36361,1,8,0:0:0:0:
116,75,36493,1,4,0:0:0:0:
142,272,37282,1,8,0:0:0:0:
142,272,37348,1,8,0:0:0:0:
142,272,37414,1,8,0:0:0:0:
103,53,37546,1,4,0:0:0:0:
149,275,37809,1,8,0:0:0:0:
149,275,37940,1,0,0:0:0:0:
150,274,38072,1,8,0:0:0:0:
150,274,38138,1,8,0:0:0:0:
150,274,38203,1,8,0:0:0:0:
149,275,38335,1,0,0:0:0:0:
149,275,38467,1,8,0:0:0:0:
156,259,38532,1,8,0:0:0:0:
149,275,38598,1,0,0:0:0:0:
149,275,38730,1,0,0:0:0:0:
150,274,38861,1,8,0:0:0:0:
150,274,38993,1,8,0:0:0:0:
149,275,39125,1,0,0:0:0:0:
149,275,39256,1,8,0:0:0:0:
151,269,39322,1,8,0:0:0:0:
151,269,39388,1,0,0:0:0:0:
139,48,39651,1,4,0:0:0:0:
148,288,39914,1,8,0:0:0:0:
149,285,40089,1,8,0:0:0:0:
149,285,40177,1,0,0:0:0:0:
148,288,40353,1,8,0:0:0:0:
148,288,40440,1,0,0:0:0:0:
137,51,40703,1,4,0:0:0:0:
156,279,40967,1,8,0:0:0:0:
156,279,41142,1,0,0:0:0:0:
156,279,41230,1,8,0:0:0:0:
156,279,41405,1,0,0:0:0:0:
156,279,41493,1,8,0:0:0:0:
144,31,41756,1,4,0:0:0:0:
153,288,42019,1,8,0:0:0:0:
153,288,42107,1,8,0:0:0:0:
139,0,42282,1,4,0:0:0:0:
158,293,42546,1,8,0:0:0:0:
137,62,42809,1,4,0:0:0:0:
165,279,42940,1,8,0:0:0:0:
164,290,43072,1,8,0:0:0:0:
165,285,43203,1,8,0:0:0:0:
174,261,43335,1,0,0:0:0:0:
167,262,43467,1,8,0:0:0:0:
164,290,43598,1,0,0:0:0:0:
128,55,43861,1,12,0:0:0:0:
143,288,44124,1,0,0:0:0:0:
138,77,44256,1,12,0:0:0:0:
138,77,44387,1,12,0:0:0:0:
143,288,44519,1,0,0:0:0:0:
138,77,44651,1,12,0:0:0:0:
143,288,44914,1,0,0:0:0:0:
143,288,44979,1,0,0:0:0:0:
143,288,45045,1,8,0:0:0:0:
143,288,45177,1,8,0:0:0:0:
143,288,45308,1,0,0:0:0:0:
143,288,45440,1,0,0:0:0:0:
143,288,45572,1,8,0:0:0:0:
143,288,45703,1,0,0:0:0:0:
143,288,45835,1,0,0:0:0:0:
138,77,45967,1,12,0:0:0:0:
154,284,46229,1,0,0:0:0:0:
138,77,46361,1,12,0:0:0:0:
138,77,46493,1,12,0:0:0:0:
154,284,46624,1,0,0:0:0:0:
138,77,46756,1,12,0:0:0:0:
154,284,47019,1,0,0:0:0:0:
154,284,47085,1,0,0:0:0:0:
154,284,47151,1,8,0:0:0:0:
164,290,47282,1,0,0:0:0:0:
164,290,47414,1,8,0:0:0:0:
164,290,47545,1,8,0:0:0:0:
164,290,47677,1,0,0:0:0:0:
164,290,47808,1,0,0:0:0:0:
164,294,47874,1,0,0:0:0:0:
164,294,47940,1,0,0:0:0:0:
138,77,48072,1,12,0:0:0:0:
148,296,48335,1,0,0:0:0:0:
154,235,48467,1,8,0:0:0:0:
154,291,48598,1,0,0:0:0:0:
155,291,48730,1,0,0:0:0:0:
153,301,48861,1,8,0:0:0:0:
153,298,48993,1,0,0:0:0:0:
153,298,49059,1,0,0:0:0:0:
153,298,49125,1,0,0:0:0:0:
160,303,49256,1,8,0:0:0:0:
148,298,49388,1,0,0:0:0:0:
148,298,49453,1,0,0:0:0:0:
166,282,49519,1,8,0:0:0:0:
155,292,49651,1,0,0:0:0:0:
182,298,49782,1,8,0:0:0:0:
184,327,49914,1,8,0:0:0:0:
137,99,50177,1,12,0:0:0:0:
168,308,50440,1,0,0:0:0:0:
134,295,50572,1,8,0:0:0:0:
159,283,50660,1,8,0:0:0:0:
159,283,50747,1,8,0:0:0:0:
164,296,50835,1,0,0:0:0:0:
154,239,50967,1,8,0:0:0:0:
165,264,51098,1,0,0:0:0:0:
155,100,51230,1,12,0:0:0:0:
124,77,51493,1,4,0:0:0:0:
140,69,52282,1,4,0:0:0:0:
100,86,60703,5,12,0:0:0:0:
129,328,60966,1,8,0:0:0:0:
129,328,61229,1,0,0:0:0:0:
129,328,61361,1,0,0:0:0:0:
129,328,61493,1,8,0:0:0:0:
129,328,61624,1,8,0:0:0:0:
129,328,61756,1,0,0:0:0:0:
129,328,61887,1,8,0:0:0:0:
129,328,62019,1,0,0:0:0:0:
129,328,62150,1,0,0:0:0:0:
99,276,62413,1,8,0:0:0:0:
144,282,62546,1,0,0:0:0:0:
111,290,62677,1,0,0:0:0:0:
122,81,62808,1,12,0:0:0:0:
111,290,63072,1,0,0:0:0:0:
111,290,63335,1,8,0:0:0:0:
111,290,63466,1,0,0:0:0:0:
111,290,63598,1,8,0:0:0:0:
111,290,63729,1,8,0:0:0:0:
111,290,63861,1,0,0:0:0:0:
111,290,63993,1,0,0:0:0:0:
111,290,64124,1,8,0:0:0:0:
115,297,64256,1,0,0:0:0:0:
111,283,64519,1,0,0:0:0:0:
111,283,64650,1,0,0:0:0:0:
112,296,64782,1,8,0:0:0:0:
109,82,64914,1,12,0:0:0:0:
129,298,65177,1,0,0:0:0:0:
129,298,65308,1,8,0:0:0:0:
129,298,65374,1,8,0:0:0:0:
129,298,65440,1,8,0:0:0:0:
129,298,65572,1,8,0:0:0:0:
129,298,65703,1,0,0:0:0:0:
129,298,65835,1,0,0:0:0:0:
140,296,65966,1,8,0:0:0:0:
140,296,66098,1,0,0:0:0:0:
129,298,66229,1,8,0:0:0:0:
140,296,66361,1,0,0:0:0:0:
122,297,66624,1,0,0:0:0:0:
124,305,66756,1,8,0:0:0:0:
135,288,66887,1,0,0:0:0:0:
123,71,67019,1,12,0:0:0:0:
126,300,67150,1,0,0:0:0:0:
126,300,67282,1,0,0:0:0:0:
123,71,67414,1,12,0:0:0:0:
126,300,67545,1,0,0:0:0:0:
126,300,67677,1,0,0:0:0:0:
123,71,67808,1,12,0:0:0:0:
126,300,68072,1,0,0:0:0:0:
123,71,68203,1,12,0:0:0:0:
126,300,68466,1,0,0:0:0:0:
126,300,68532,1,0,0:0:0:0:
126,300,68598,1,0,0:0:0:0:
123,71,68729,1,12,0:0:0:0:
126,300,68993,1,0,0:0:0:0:
132,104,69125,1,12,0:0:0:0:
131,305,69387,1,8,0:0:0:0:
131,305,69519,1,0,0:0:0:0:
131,305,69585,1,0,0:0:0:0:
131,305,69650,1,8,0:0:0:0:
131,292,69782,1,8,0:0:0:0:
131,292,69848,1,8,0:0:0:0:
131,292,69914,1,0,0:0:0:0:
131,292,70045,1,0,0:0:0:0:
128,0,70177,1,12,0:0:0:0:
130,284,70440,1,0,0:0:0:0:
130,284,70572,1,8,0:0:0:0:
130,284,70637,1,0,0:0:0:0:
130,284,70703,1,8,0:0:0:0:
130,284,70835,1,0,0:0:0:0:
130,284,70966,1,0,0:0:0:0:
130,284,71098,1,8,0:0:0:0:
136,21,71229,1,12,0:0:0:0:
130,284,71493,1,0,0:0:0:0:
130,284,71624,1,0,0:0:0:0:
130,284,71756,1,8,0:0:0:0:
130,284,71887,1,8,0:0:0:0:
130,284,71953,1,8,0:0:0:0:
130,284,72019,1,0,0:0:0:0:
136,277,72150,1,0,0:0:0:0:
113,56,72282,1,12,0:0:0:0:
151,258,72414,1,0,0:0:0:0:
141,271,72545,1,8,0:0:0:0:
141,271,72677,1,8,0:0:0:0:
141,271,72808,1,0,0:0:0:0:
141,271,72896,1,0,0:0:0:0:
141,271,72984,1,0,0:0:0:0:
141,271,73072,1,8,0:0:0:0:
112,64,73335,1,12,0:0:0:0:
145,298,73598,1,8,0:0:0:0:
145,298,73729,1,0,0:0:0:0:
145,298,73795,1,0,0:0:0:0:
126,45,73861,1,12,0:0:0:0:
149,285,74124,1,0,0:0:0:0:
149,285,74256,1,0,0:0:0:0:
139,75,74387,1,12,0:0:0:0:
153,283,74519,1,0,0:0:0:0:
132,81,74650,1,12,0:0:0:0:
146,268,74782,1,0,0:0:0:0:
140,89,74914,1,12,0:0:0:0:
140,290,75177,1,0,0:0:0:0:
140,289,75243,1,0,0:0:0:0:
142,286,75309,1,0,0:0:0:0:
133,0,75440,1,12,0:0:0:0:
139,289,75572,1,8,0:0:0:0:
140,290,75637,1,8,0:0:0:0:
143,283,75703,1,8,0:0:0:0:
143,283,75835,1,8,0:0:0:0:
143,283,75900,1,8,0:0:0:0:
143,283,75966,1,0,0:0:0:0:
151,290,76098,1,8,0:0:0:0:
150,290,76164,1,0,0:0:0:0:
150,290,76229,1,0,0:0:0:0:
150,290,76361,1,0,0:0:0:0:
150,290,76427,1,0,0:0:0:0:
150,290,76493,1,0,0:0:0:0:
143,283,76625,1,0,0:0:0:0:
143,283,76756,1,0,0:0:0:0:
142,287,76888,1,0,0:0:0:0:
148,280,77019,1,8,0:0:0:0:
148,280,77085,1,8,0:0:0:0:
155,275,77150,1,8,0:0:0:0:
148,280,77282,1,0,0:0:0:0:
110,37,77546,1,4,0:0:0:0:
140,287,77809,1,8,0:0:0:0:
140,287,78203,1,0,0:0:0:0:
140,287,78269,1,0,0:0:0:0:
140,287,78335,1,0,0:0:0:0:
140,287,78467,1,0,0:0:0:0:
140,287,78598,1,8,0:0:0:0:
256,192,78730,12,8,79388,0:0:0:0:
100,68,79651,5,12,0:0:0:0:
148,310,79782,1,0,0:0:0:0:
148,310,79848,1,0,0:0:0:0:
148,310,79914,1,8,0:0:0:0:
148,310,80046,1,0,0:0:0:0:
145,304,80177,1,8,0:0:0:0:
145,304,80309,1,8,0:0:0:0:
145,304,80375,1,8,0:0:0:0:
145,304,80440,1,0,0:0:0:0:
144,306,80572,1,8,0:0:0:0:
144,306,80703,1,0,0:0:0:0:
144,306,80769,1,0,0:0:0:0:
144,306,80835,1,0,0:0:0:0:
145,304,80967,1,0,0:0:0:0:
145,304,81032,1,0,0:0:0:0:
145,304,81098,1,0,0:0:0:0:
131,10,81230,1,12,0:0:0:0:
131,29,81493,1,4,0:0:0:0:
123,88,81756,1,12,0:0:0:0:
142,326,81888,1,0,0:0:0:0:
142,326,81953,1,0,0:0:0:0:
142,326,82019,1,8,0:0:0:0:
142,326,82151,1,8,0:0:0:0:
142,326,82282,1,0,0:0:0:0:
142,326,82414,1,8,0:0:0:0:
142,326,82480,1,0,0:0:0:0:
142,326,82546,1,8,0:0:0:0:
142,326,82677,1,0,0:0:0:0:
142,326,82809,1,8,0:0:0:0:
142,326,82875,1,8,0:0:0:0:
142,326,82940,1,0,0:0:0:0:
146,317,83072,1,8,0:0:0:0:
146,317,83138,1,8,0:0:0:0:
146,317,83203,1,0,0:0:0:0:
135,3,83335,1,12,0:0:0:0:
146,324,83467,1,0,0:0:0:0:
146,323,83598,1,0,0:0:0:0:
150,314,83730,1,0,0:0:0:0:
119,0,83861,1,12,0:0:0:0:
144,313,84125,1,0,0:0:0:0:
116,85,84388,1,12,0:0:0:0:
144,315,84519,1,0,0:0:0:0:
144,313,84651,1,0,0:0:0:0:
144,313,84782,1,8,0:0:0:0:
144,313,84914,1,0,0:0:0:0:
144,315,84980,1,0,0:0:0:0:
144,315,85046,1,0,0:0:0:0:
144,315,85177,1,0,0:0:0:0:
144,315,85243,1,0,0:0:0:0:
144,315,85309,1,0,0:0:0:0:
130,69,85440,1,12,0:0:0:0:
127,114,85703,1,4,0:0:0:0:
127,114,85967,1,12,0:0:0:0:
120,57,86230,1,12,0:0:0:0:
135,50,86493,1,4,0:0:0:0:
138,11,86756,1,4,0:0:0:0:
149,307,87019,1,8,0:0:0:0:
133,304,87107,1,8,0:0:0:0:
133,304,87195,1,8,0:0:0:0:
133,304,87282,1,0,0:0:0:0:
123,63,87546,1,12,0:0:0:0:
136,303,87677,1,0,0:0:0:0:
136,303,87743,1,0,0:0:0:0:
136,303,87809,1,0,0:0:0:0:
133,304,87940,1,0,0:0:0:0:
119,103,88072,1,12,0:0:0:0:
136,311,88335,1,0,0:0:0:0:
143,295,88598,1,8,0:0:0:0:
143,295,88774,1,0,0:0:0:0:
138,295,88993,1,8,0:0:0:0:
145,291,89125,1,0,0:0:0:0:
145,291,89300,1,8,0:0:0:0:
146,289,89388,1,0,0:0:0:0:
146,289,89563,1,8,0:0:0:0:
146,289,89651,1,0,0:0:0:0:
145,291,89914,1,0,0:0:0:0:
145,291,90089,1,0,0:0:0:0:
142,293,90177,1,0,0:0:0:0:
146,289,90440,1,8,0:0:0:0:
152,275,90703,1,8,0:0:0:0:
154,287,90879,1,0,0:0:0:0:
155,289,91098,1,8,0:0:0:0:
155,289,91230,1,0,0:0:0:0:
155,289,91405,1,0,0:0:0:0:
155,289,91493,1,0,0:0:0:0:
157,290,91668,1,0,0:0:0:0:
155,289,91756,1,8,0:0:0:0:
160,285,91932,1,0,0:0:0:0:
160,285,92107,1,0,0:0:0:0:
133,33,92282,1,12,0:0:0:0:
161,301,92546,1,0,0:0:0:0:
161,301,92611,1,0,0:0:0:0:
161,301,92677,1,0,0:0:0:0:
135,66,92809,1,12,0:0:0:0:
165,289,93072,1,8,0:0:0:0:
165,289,93203,1,0,0:0:0:0:
132,71,93335,1,12,0:0:0:0:
156,291,93598,1,0,0:0:0:0:
156,291,93664,1,0,0:0:0:0:
156,291,93730,1,0,0:0:0:0:
128,82,93861,1,12,0:0:0:0:
160,273,94125,1,8,0:0:0:0:
159,276,94256,1,0,0:0:0:0:
158,85,94388,1,12,0:0:0:0:
168,255,94519,1,0,0:0:0:0:
146,99,94651,1,12,0:0:0:0:
172,261,94782,1,0,0:0:0:0:
149,116,94914,1,12,0:0:0:0:
186,250,95046,1,0,0:0:0:0:
159,121,95177,1,12,0:0:0:0:
185,257,95309,1,0,0:0:0:0:
185,257,95375,1,0,0:0:0:0:
185,257,95440,1,0,0:0:0:0:
150,293,96230,5,0,0:0:0:0:
150,293,96296,1,0,0:0:0:0:
150,293,96361,1,0,0:0:0:0:
109,0,96493,1,12,0:0:0:0:
146,301,96625,1,0,0:0:0:0:
146,301,96690,1,0,0:0:0:0:
146,301,96756,1,8,0:0:0:0:
139,289,96888,1,8,0:0:0:0:
139,289,97019,1,0,0:0:0:0:
141,290,97151,1,8,0:0:0:0:
141,290,97217,1,8,0:0:0:0:
141,290,97282,1,0,0:0:0:0:
144,290,97414,1,0,0:0:0:0:
146,274,97546,1,8,0:0:0:0:
145,280,97677,1,0,0:0:0:0:
145,280,97743,1,0,0:0:0:0:
145,280,97809,1,8,0:0:0:0:
145,280,97940,1,8,0:0:0:0:
145,280,98006,1,0,0:0:0:0:
145,280,98072,1,8,0:0:0:0:
145,280,98203,1,0,0:0:0:0:
145,280,98335,1,8,0:0:0:0:
145,280,98401,1,8,0:0:0:0:
145,280,98467,1,8,0:0:0:0:
115,38,98598,1,4,0:0:0:0:
115,38,98993,1,4,0:0:0:0:
115,38,99125,1,4,0:0:0:0:
115,38,99388,1,4,0:0:0:0:
142,273,99651,1,8,0:0:0:0:
115,38,99782,1,4,0:0:0:0:
115,38,99914,1,4,0:0:0:0:
142,273,100177,1,8,0:0:0:0:
115,38,100309,1,4,0:0:0:0:
146,283,100440,1,8,0:0:0:0:
140,257,100506,1,8,0:0:0:0:
146,283,100572,1,8,0:0:0:0:
138,57,100703,1,12,0:0:0:0:
140,301,100835,1,0,0:0:0:0:
144,302,100967,1,8,0:0:0:0:
144,302,101098,1,0,0:0:0:0:
144,302,101164,1,0,0:0:0:0:
144,302,101230,1,8,0:0:0:0:
144,302,101361,1,0,0:0:0:0:
144,302,101427,1,0,0:0:0:0:
144,302,101493,1,0,0:0:0:0:
144,302,101625,1,8,0:0:0:0:
144,302,101756,1,0,0:0:0:0:
153,312,101888,1,8,0:0:0:0:
153,312,101953,1,0,0:0:0:0:
153,312,102019,1,8,0:0:0:0:
147,317,102151,1,0,0:0:0:0:
147,316,102217,1,0,0:0:0:0:
147,316,102282,1,8,0:0:0:0:
147,315,102414,1,8,0:0:0:0:
147,315,102546,1,0,0:0:0:0:
147,315,102677,1,8,0:0:0:0:
99,83,102809,1,4,0:0:0:0:
147,316,103072,1,8,0:0:0:0:
99,83,103203,1,4,0:0:0:0:
99,83,103335,1,4,0:0:0:0:
99,83,103598,1,4,0:0:0:0:
147,316,103861,1,8,0:0:0:0:
106,106,103993,1,4,0:0:0:0:
106,106,104125,1,4,0:0:0:0:
147,316,104388,1,8,0:0:0:0:
147,316,104453,1,8,0:0:0:0:
147,316,104519,1,8,0:0:0:0:
147,316,104651,1,0,0:0:0:0:
147,316,104782,1,0,0:0:0:0:
106,106,104914,1,12,0:0:0:0:
137,306,105177,1,0,0:0:0:0:
137,306,105243,1,0,0:0:0:0:
137,306,105309,1,0,0:0:0:0:
137,306,105375,1,0,0:0:0:0:
137,306,105440,1,8,0:0:0:0:
140,298,105572,1,0,0:0:0:0:
103,55,105703,1,12,0:0:0:0:
137,306,105835,1,0,0:0:0:0:
137,306,105901,1,0,0:0:0:0:
137,306,105967,1,0,0:0:0:0:
137,306,106098,1,8,0:0:0:0:
137,306,106230,1,8,0:0:0:0:
137,306,106361,1,0,0:0:0:0:
137,306,106427,1,0,0:0:0:0:
136,305,106493,1,8,0:0:0:0:
137,306,106625,1,8,0:0:0:0:
137,306,106756,1,0,0:0:0:0:
144,281,106888,1,8,0:0:0:0:
108,0,107019,1,4,0:0:0:0:
137,288,107151,1,8,0:0:0:0:
140,285,107414,1,0,0:0:0:0:
140,285,107546,1,8,0:0:0:0:
144,281,107677,1,0,0:0:0:0:
148,278,107809,1,8,0:0:0:0:
148,278,107875,1,8,0:0:0:0:
148,278,107940,1,8,0:0:0:0:
149,293,108072,1,0,0:0:0:0:
149,293,108203,1,8,0:0:0:0:
149,293,108269,1,8,0:0:0:0:
149,293,108335,1,0,0:0:0:0:
151,282,108467,1,0,0:0:0:0:
151,282,108598,1,8,0:0:0:0:
151,282,108730,1,0,0:0:0:0:
151,279,108861,1,8,0:0:0:0:
151,279,108927,1,8,0:0:0:0:
151,279,108993,1,8,0:0:0:0:
114,42,109125,1,4,0:0:0:0:
150,288,109388,1,0,0:0:0:0:
121,90,109651,1,12,0:0:0:0:
121,90,109848,1,12,0:0:0:0:
121,90,110046,1,12,0:0:0:0:
121,90,110177,1,4,0:0:0:0:
121,90,110375,1,4,0:0:0:0:
121,90,110572,1,4,0:0:0:0:
121,90,110703,1,12,0:0:0:0:
141,298,110835,1,0,0:0:0:0:
141,298,110901,1,0,0:0:0:0:
141,298,111032,1,0,0:0:0:0:
147,307,111098,1,8,0:0:0:0:
117,100,111230,1,12,0:0:0:0:
117,100,111427,1,4,0:0:0:0:
117,100,111625,1,12,0:0:0:0:
117,100,111756,1,4,0:0:0:0:
117,100,111953,1,12,0:0:0:0:
117,100,112151,1,4,0:0:0:0:
117,100,112282,1,12,0:0:0:0:
117,100,112480,1,4,0:0:0:0:
117,100,112677,1,12,0:0:0:0:
133,260,112809,1,0,0:0:0:0:
133,260,112875,1,0,0:0:0:0:
133,260,112940,1,0,0:0:0:0:
131,273,113072,1,0,0:0:0:0:
128,55,113335,1,12,0:0:0:0:
143,288,113598,1,0,0:0:0:0:
138,77,113730,1,12,0:0:0:0:
138,77,113861,1,12,0:0:0:0:
143,288,113993,1,0,0:0:0:0:
138,77,114125,1,12,0:0:0:0:
143,288,114388,1,0,0:0:0:0:
143,288,114453,1,0,0:0:0:0:
143,288,114519,1,8,0:0:0:0:
143,288,114651,1,8,0:0:0:0:
143,288,114782,1,0,0:0:0:0:
143,288,114914,1,0,0:0:0:0:
143,288,115046,1,8,0:0:0:0:
143,288,115177,1,0,0:0:0:0:
143,288,115309,1,0,0:0:0:0:
138,77,115440,1,12,0:0:0:0:
154,284,115703,1,0,0:0:0:0:
138,77,115835,1,12,0:0:0:0:
138,77,115967,1,12,0:0:0:0:
154,284,116098,1,0,0:0:0:0:
138,77,116230,1,12,0:0:0:0:
154,284,116493,1,0,0:0:0:0:
154,284,116559,1,0,0:0:0:0:
154,284,116625,1,8,0:0:0:0:
164,290,116756,1,0,0:0:0:0:
164,290,116888,1,8,0:0:0:0:
164,290,117019,1,8,0:0:0:0:
164,290,117151,1,0,0:0:0:0:
164,290,117282,1,0,0:0:0:0:
164,294,117348,1,0,0:0:0:0:
164,294,117414,1,0,0:0:0:0:
138,77,117546,1,12,0:0:0:0:
