osu file format v14

[General]
AudioFilename: new owo new.mp3
AudioLeadIn: 0
PreviewTime: 95442
Countdown: 0
SampleSet: Normal
StackLeniency: 0.7
Mode: 1
LetterboxInBreaks: 0
WidescreenStoryboard: 1

[Editor]
Bookmarks: 74150
DistanceSpacing: 1
BeatDivisor: 3
GridSize: 32
TimelineZoom: 2.5

[Metadata]
Title:SCREW // owo // SCREW
TitleUnicode:SCREW // owo // SCREW
Artist:Camellia
ArtistUnicode:かめりあ
Creator:Capu
Version:MUZU // owo // MUZU
Source:beatmania IIDX 27 HEROIC VERSE
Tags:callmelyra radar electronic instrumental bistrover 28 hardcore pumpcore dnb drum and bass INFINITAS (2020) twerkcore uwu beatjuggle fa featured artist konami bemani rhythm video game
BeatmapID:2789518
BeatmapSetID:1347043

[Difficulty]
HPDrainRate:5.5
CircleSize:2
OverallDifficulty:5
ApproachRate:10
SliderMultiplier:1.3
SliderTickRate:1

[Events]
//Background and Video events
0,0,"1784621.jpg",0,-80
//Break Periods
//Storyboard Layer 0 (Background)
//Storyboard Layer 1 (Fail)
//Storyboard Layer 2 (Pass)
//Storyboard Layer 3 (Foreground)
//Storyboard Layer 4 (Overlay)
//Storyboard Sound Samples

[TimingPoints]
704,263.157894736842,4,1,0,70,1,0
1688,-90.9090909090909,4,1,0,70,0,0
1820,-100,4,1,0,70,0,0
3794,-90.9090909090909,4,1,0,70,0,0
3926,-100,4,1,0,70,0,0
5899,-90.9090909090909,4,1,0,70,0,0
6031,-100,4,1,0,70,0,0
8004,-90.9090909090909,4,1,0,70,0,0
8136,-100,4,1,0,70,0,0
8399,-90.9090909090909,4,1,0,70,0,0
8531,-100,4,1,0,70,0,0
8794,-90.9090909090909,4,1,0,70,0,0
8926,-100,4,1,0,70,0,0
9188,-90.9090909090909,4,1,0,70,0,0
9320,-100,4,1,0,70,0,0
9715,-90.9090909090909,4,1,0,70,0,0
9847,-100,4,1,0,70,0,0
10109,-95.2380952380952,4,1,0,70,0,0
10241,-100,4,1,0,70,0,0
11162,-95.2380952380952,4,1,0,70,0,0
11294,-100,4,1,0,70,0,0
12215,-95.2380952380952,4,1,0,70,0,0
12347,-100,4,1,0,70,0,0
13267,-95.2380952380952,4,1,0,70,0,0
13399,-100,4,1,0,70,0,0
13728,-104.166666666667,4,1,0,70,0,0
13859,-108.695652173913,4,1,0,70,0,0
14386,-100,4,1,0,70,0,0
14649,-99.1749634788197,4,1,0,70,0,0
14912,-98.3634292639071,4,1,0,70,0,0
15175,-97.565068583365,4,1,0,70,0,0
15307,-97.1707756948682,4,1,0,70,0,0
15438,-96.779563253187,4,1,0,70,0,0
15701,-96.0066974272125,4,1,0,70,0,0
15965,-95.2459870484507,4,1,0,70,0,0
16228,-94.497236900793,4,1,0,70,0,0
16359,-94.1272148133646,4,1,0,70,0,0
16491,-93.7601671181219,4,1,0,70,0,0
16623,-93.3958836698231,4,1,0,70,0,0
16754,-93.0345064984603,4,1,0,70,0,0
16886,-92.6759151051547,4,1,0,70,0,0
16951,-92.4976112491895,4,1,0,70,0,0
17017,-92.3199921712647,4,1,0,70,0,0
17149,-91.9668772095042,4,1,0,70,0,0
17280,-91.616369279932,4,1,0,70,0,0
17412,-91.2686062462409,4,1,0,70,0,0
17544,-90.9233906787158,4,1,0,70,0,0
18530,-90.9233906787158,4,1,0,70,0,0
18598,-90.9233906787158,4,1,0,70,0,1
18794,-95.2380952380952,4,1,0,70,0,1
19057,-100,4,1,0,70,0,1
19254,-102.040816326531,4,1,0,70,0,1
19451,-100,4,1,0,70,0,1
19517,-100,4,1,0,70,0,1
19649,-98.0550775370526,4,1,0,70,0,1
19715,-97.110760649166,4,1,0,70,0,1
19780,-96.184458707531,4,1,0,70,0,1
19912,-94.3837871305819,4,1,0,70,0,1
20044,-92.6492973940532,4,1,0,70,0,1
20175,-90.9774066708274,4,1,0,70,0,1
20438,-100,4,1,0,70,0,1
20899,-95.2380952380952,4,1,0,70,0,1
21162,-100,4,1,0,70,0,1
21359,-102.040816326531,4,1,0,70,0,1
21556,-100,4,1,0,70,0,1
21622,-100,4,1,0,70,0,1
21754,-98.0550775370526,4,1,0,70,0,1
21820,-97.110760649166,4,1,0,70,0,1
21885,-96.184458707531,4,1,0,70,0,1
22017,-94.3837871305819,4,1,0,70,0,1
22149,-92.6492973940532,4,1,0,70,0,1
22280,-90.9774066708274,4,1,0,70,0,1
22412,-89.2857142857143,4,1,0,70,0,1
22675,-94.3396226415094,4,1,0,70,0,1
22809,-100,4,1,0,70,0,0
23267,-90.9090909090909,4,1,0,70,0,0
23335,-90.9090909090909,4,1,0,70,0,1
23465,-95.2380952380952,4,1,0,70,0,1
23728,-100,4,1,0,70,0,1
23794,-98.0392156862745,4,1,0,70,0,1
23859,-96.1538461538461,4,1,0,70,0,1
23991,-94.3396226415094,4,1,0,70,0,1
24123,-92.5925925925926,4,1,0,70,0,1
24386,-90.9090909090909,4,1,0,70,0,1
24517,-92.5925925925926,4,1,0,70,0,1
24649,-94.3396226415094,4,1,0,70,0,1
24780,-96.1538461538461,4,1,0,70,0,1
24912,-90.9090909090909,4,1,0,70,0,1
25175,-100,4,1,0,70,0,1
25438,-96.1538461538461,4,1,0,70,0,1
25614,-98.0392156862745,4,1,0,70,0,1
25833,-100,4,1,0,70,0,1
25965,-92.5925925925926,4,1,0,70,0,1
26096,-94.3396226415094,4,1,0,70,0,1
26228,-96.1538461538461,4,1,0,70,0,1
26359,-98.0392156862745,4,1,0,70,0,1
26493,-100,4,1,0,70,0,0
26951,-90.9233906787158,4,1,0,70,0,0
27019,-90.9233906787158,4,1,0,70,0,1
27215,-95.2380952380952,4,1,0,70,0,1
27478,-100,4,1,0,70,0,1
27675,-102.040816326531,4,1,0,70,0,1
27872,-100,4,1,0,70,0,1
27938,-100,4,1,0,70,0,1
28070,-98.0550775370526,4,1,0,70,0,1
28136,-97.110760649166,4,1,0,70,0,1
28201,-96.184458707531,4,1,0,70,0,1
28335,-90.9090909090909,4,1,0,70,0,0
28596,-100.082668284003,4,1,0,70,0,0
28728,-95.2380952380952,4,1,0,70,0,0
28859,-90.9090909090909,4,1,0,70,0,0
29125,-90.9090909090909,4,1,0,70,0,1
29386,-100,4,1,0,70,0,1
29517,-98.0392156862745,4,1,0,70,0,1
29649,-96.1538461538461,4,1,0,70,0,1
29824,-98.0392156862745,4,1,0,70,0,1
30044,-100,4,1,0,70,0,1
30175,-98.0392156862745,4,1,0,70,0,1
30241,-96.1538461538461,4,1,0,70,0,1
30307,-94.3396226415094,4,1,0,70,0,1
30438,-90.9090909090909,4,1,0,70,0,1
30570,-92.5925925925926,4,1,0,70,0,1
30701,-94.3396226415094,4,1,0,70,0,1
30835,-96.1538461538461,4,1,0,70,0,0
31228,-100,4,1,0,70,0,0
31754,-100,4,1,0,70,0,0
31886,-98.7717730027113,4,1,0,70,0,0
32019,-97.5733507664387,4,1,0,70,0,1
32280,-95.261593097726,4,1,0,70,0,1
32412,-94.1463561594312,4,1,0,70,0,1
32544,-93.0569294377221,4,1,0,70,0,1
32675,-91.9923425574055,4,1,0,70,0,1
32809,-90.9519209955233,4,1,0,70,0,0
33267,-100,4,1,0,70,0,0
33335,-100,4,1,0,70,0,1
33465,-97.0873786407767,4,1,0,70,0,1
33598,-94.3396226415094,4,1,0,70,0,0
33794,-100,4,1,0,70,0,0
33861,-100,4,1,0,70,0,1
33992,-97.0873786407767,4,1,0,70,0,1
34125,-94.3396226415094,4,1,0,70,0,0
34320,-100,4,1,0,70,0,0
34388,-100,4,1,0,70,0,1
34516,-98.0392156862745,4,1,0,70,0,1
34649,-96.1538461538461,4,1,0,70,0,1
34780,-94.3396226415094,4,1,0,70,0,1
34914,-92.5925925925926,4,1,0,70,0,0
35373,-100,4,1,0,70,0,0
36425,-111.111111111111,4,1,0,70,0,0
39583,-105.263157894737,4,1,0,70,0,0
39715,-111.111111111111,4,1,0,70,0,0
40636,-105.263157894737,4,1,0,70,0,0
40768,-111.111111111111,4,1,0,70,0,0
41688,-111.111111111111,4,1,0,70,0,0
41754,-111.111111111111,4,1,0,70,0,0
42017,-108.527081305233,4,1,0,70,0,0
42149,-107.27967704526,4,1,0,70,0,0
42280,-106.060622130397,4,1,0,70,0,0
42544,-103.703672976689,4,1,0,70,0,0
42807,-101.449304767914,4,1,0,70,0,0
42938,-100.358379774174,4,1,0,70,0,0
43070,-99.2907660580474,4,1,0,70,0,0
43201,-98.2456278239478,4,1,0,70,0,0
43333,-97.2222627314984,4,1,0,70,0,0
43465,-96.2199048192702,4,1,0,70,0,0
43596,-95.2380952380952,4,1,0,70,0,0
43859,-90.9090909090909,4,1,0,70,0,0
44912,-100,4,1,0,70,0,0
45965,-90.9090909090909,4,1,0,70,0,0
46951,-100,4,1,0,70,0,0
48070,-90.9090909090909,4,1,0,70,0,0
48201,-100,4,1,0,70,0,0
50175,-100,4,1,0,70,0,0
50438,-97.5733507664387,4,1,0,70,0,0
50570,-96.4035684744906,4,1,0,70,0,0
50833,-94.1463561594312,4,1,0,70,0,0
50965,-93.0569294377221,4,1,0,70,0,0
51096,-91.9923425574055,4,1,0,70,0,0
51228,-90.9519209955233,4,1,0,70,0,0
51425,-100,4,1,0,70,0,0
51623,-105.263157894737,4,1,0,70,0,0
52280,-111.111111111111,4,1,0,70,0,0
60636,-95.2380952380952,4,1,0,70,0,0
60767,-100,4,1,0,70,0,0
62741,-95.2380952380952,4,1,0,70,0,0
62872,-100,4,1,0,70,0,0
64846,-95.2380952380952,4,1,0,70,0,0
64977,-100,4,1,0,70,0,0
66951,-95.2380952380952,4,1,0,70,0,0
67082,-100,4,1,0,70,0,0
67346,-95.2380952380952,4,1,0,70,0,0
67477,-100,4,1,0,70,0,0
67741,-95.2380952380952,4,1,0,70,0,0
67872,-100,4,1,0,70,0,0
68136,-95.2380952380952,4,1,0,70,0,0
68267,-100,4,1,0,70,0,0
68728,-90.9090909090909,4,1,0,70,0,0
69057,-95.2380952380952,4,1,0,70,0,0
69189,-100,4,1,0,70,0,0
70110,-95.2380952380952,4,1,0,70,0,0
70242,-100,4,1,0,70,0,0
71163,-95.2380952380952,4,1,0,70,0,0
71295,-100,4,1,0,70,0,0
72215,-95.2380952380952,4,1,0,70,0,0
72347,-100,4,1,0,70,0,0
72676,-104.166666666667,4,1,0,70,0,0
72807,-108.695652173913,4,1,0,70,0,0
73333,-100,4,1,0,70,0,0
73334,-100,4,1,0,70,0,0
73596,-98.9399572975144,4,1,0,70,0,0
73859,-97.9020568243118,4,1,0,70,0,0
74122,-96.8857997389896,4,1,0,70,0,0
74254,-96.3855421686747,4,1,0,70,0,0
74385,-95.8904240945786,4,1,0,70,0,0
74648,-94.9152928468988,4,1,0,70,0,0
74912,-93.9597063195419,4,1,0,70,0,0
75175,-93.0232558139535,4,1,0,70,0,0
75306,-92.5619957106771,4,1,0,70,0,0
75438,-92.1052873961283,4,1,0,70,0,0
75570,-91.6530638244441,4,1,0,70,0,0
75701,-91.2051760761527,4,1,0,70,0,0
75833,-90.7617268689201,4,1,0,70,0,0
75898,-90.541656405279,4,1,0,70,0,0
75964,-90.3225689906363,4,1,0,70,0,0
76096,-89.8876404494382,4,1,0,70,0,0
76227,-89.4568804417738,4,1,0,70,0,0
76491,-88.6076285851754,4,1,0,70,0,0
76623,-88.1889430466987,4,1,0,70,0,0
76754,-87.7742726584896,4,1,0,70,0,0
76886,-87.3634836363827,4,1,0,70,0,0
77017,-86.9565217391304,4,1,0,70,0,0
77544,-90.9090909090909,4,1,0,70,0,0
77807,-95.2380952380952,4,1,0,70,0,0
78070,-100,4,1,0,70,0,0
79583,-90.9090909090909,4,1,0,70,0,0
79651,-90.9090909090909,4,1,0,70,0,1
79912,-100,4,1,0,70,0,1
80175,-97.0990682373412,4,1,0,70,0,1
80307,-95.7109071192644,4,1,0,70,0,1
80373,-95.0315599810697,4,1,0,70,0,1
80570,-93.0501754461058,4,1,0,70,0,1
80701,-91.7745246767931,4,1,0,70,0,1
80767,-91.1498092690241,4,1,0,70,0,1
80833,-90.5334593559087,4,1,0,70,0,1
80965,-89.3254322011037,4,1,0,70,0,1
81030,-88.7334279231675,4,1,0,70,0,1
81096,-88.1492189979197,4,1,0,70,0,1
81228,-87.0035793272535,4,1,0,70,0,1
81688,-90.9090909090909,4,1,0,70,0,1
82017,-100,4,1,0,70,0,1
82280,-97.0990682373412,4,1,0,70,0,1
82412,-95.7109071192644,4,1,0,70,0,1
82478,-95.0315599810697,4,1,0,70,0,1
82675,-93.0501754461058,4,1,0,70,0,1
82809,-91.7745246767931,4,1,0,70,0,0
82872,-91.1498092690241,4,1,0,70,0,0
83070,-89.3254322011037,4,1,0,70,0,0
83135,-88.7334279231675,4,1,0,70,0,0
83333,-87.0035793272535,4,1,0,70,0,0
83859,-90.9090909090909,4,1,0,70,0,0
84123,-93.3332960000149,4,1,0,70,0,0
84254,-94.594581811543,4,1,0,70,0,0
84388,-95.8904240945786,4,1,0,70,0,1
84561,-97.9020568243118,4,1,0,70,0,1
84780,-100,4,1,0,70,0,1
84912,-97.5855386038632,4,1,0,70,0,1
84978,-96.4215085530699,4,1,0,70,0,1
85044,-95.2848301786114,4,1,0,70,0,1
85175,-93.090194158218,4,1,0,70,0,1
85241,-92.0303552923896,4,1,0,70,0,1
85307,-90.9943774574169,4,1,0,70,0,1
85438,-89.2857142857143,4,1,0,70,0,1
85965,-86.9565217391304,4,1,0,70,0,1
86491,-90.9090909090909,4,1,0,70,0,1
87019,-95.2380952380952,4,1,0,70,0,0
87544,-100,4,1,0,70,0,0
88004,-111.111111111111,4,1,0,70,0,0
91666,-109.289617486339,4,1,0,70,0,0
91754,-107.146683810136,4,1,0,70,0,0
91951,-103.455410717981,4,1,0,70,0,0
92149,-100,4,1,0,70,0,0
92215,-95.2380952380952,4,1,0,70,0,0
92346,-100,4,1,0,70,0,0
92741,-95.2380952380952,4,1,0,70,0,0
92872,-100,4,1,0,70,0,0
93267,-95.2380952380952,4,1,0,70,0,0
93398,-100,4,1,0,70,0,0
93794,-95.2380952380952,4,1,0,70,0,0
93925,-100,4,1,0,70,0,0
94386,-100,4,1,0,70,0,0
94517,-98.7654320987654,4,1,0,70,0,0
94649,-97.5609756097561,4,1,0,70,0,0
94780,-96.3855421686747,4,1,0,70,0,0
94912,-95.2380952380952,4,1,0,70,0,0
95044,-94.1176470588235,4,1,0,70,0,0
95109,-93.5672514619883,4,1,0,70,0,0
95175,-93.0232558139535,4,1,0,70,0,0
95307,-91.9540229885058,4,1,0,70,0,0
95438,-90.9090909090909,4,1,0,70,0,0
95899,-100,4,1,0,70,0,0
96493,-90.9090909090909,4,1,0,70,0,1
98070,-92.5925925925926,4,1,0,70,0,1
98136,-93.4579439252336,4,1,0,70,0,1
98201,-94.3396226415094,4,1,0,70,0,1
98333,-96.1538461538461,4,1,0,70,0,1
98465,-98.0392156862745,4,1,0,70,0,1
98598,-86.9565217391304,4,1,0,70,0,0
100175,-100,4,1,0,70,0,0
100703,-90.9090909090909,4,1,0,70,0,1
102280,-92.5925925925926,4,1,0,70,0,1
102346,-93.4579439252336,4,1,0,70,0,1
102411,-94.3396226415094,4,1,0,70,0,1
102543,-96.1538461538461,4,1,0,70,0,1
102675,-98.0392156862745,4,1,0,70,0,1
102809,-86.9565217391304,4,1,0,70,0,0
104583,-90.9090909090909,4,1,0,70,0,0
104780,-95.2380952380952,4,1,0,70,0,0
104912,-100,4,1,0,70,0,0
109057,-95.2380952380952,4,1,0,70,0,0
109320,-105.263157894737,4,1,0,70,0,0
109583,-90.9090909090909,4,1,0,70,0,0
111230,-90.9090909090909,4,1,0,70,0,1
111425,-89.8911148925307,4,1,0,70,0,1
111623,-88.8957634945991,4,1,0,70,0,1
111754,-88.244274270264,4,1,0,70,0,1
111951,-87.284788443494,4,1,0,70,0,1
112149,-86.3460178511757,4,1,0,70,0,1
112280,-85.7312360043757,4,1,0,70,0,1
112478,-84.8253403828846,4,1,0,70,0,1
112675,-83.9384596789018,4,1,0,70,0,1
112809,-83.3573680411185,4,1,0,70,0,0
113267,-90.9376949476835,4,1,0,70,0,0
114386,-100.034611975744,4,1,0,70,0,0
115438,-90.9376949476839,4,1,0,70,0,0
116491,-100,4,1,0,70,0,0
117017,-102.040816326531,4,1,0,70,0,0
117149,-104.166666666667,4,1,0,70,0,0
117544,-95.2380952380952,4,1,0,70,0,0

[HitObjects]
256,192,1756,5,4,0:0:0:0:
256,192,2019,1,0,0:0:0:0:
256,192,2282,1,8,0:0:0:0:
256,192,2414,1,8,0:0:0:0:
256,192,2546,1,0,0:0:0:0:
256,192,2677,1,0,0:0:0:0:
256,192,2809,1,8,0:0:0:0:
256,192,3203,1,0,0:0:0:0:
256,192,3467,1,8,0:0:0:0:
256,192,3861,1,4,0:0:0:0:
256,192,4125,1,8,0:0:0:0:
256,192,4388,1,0,0:0:0:0:
256,192,4519,1,8,0:0:0:0:
256,192,4651,1,8,0:0:0:0:
256,192,4782,1,0,0:0:0:0:
256,192,4914,1,8,0:0:0:0:
256,192,5309,1,0,0:0:0:0:
256,192,5572,1,8,0:0:0:0:
256,192,5703,1,8,0:0:0:0:
256,192,5967,1,4,0:0:0:0:
256,192,6230,1,8,0:0:0:0:
256,192,6361,1,0,0:0:0:0:
256,192,6493,1,8,0:0:0:0:
256,192,6625,1,8,0:0:0:0:
256,192,6756,1,8,0:0:0:0:
256,192,6888,1,0,0:0:0:0:
256,192,7019,1,8,0:0:0:0:
256,192,7282,1,8,0:0:0:0:
256,192,7414,1,0,0:0:0:0:
256,192,7677,1,8,0:0:0:0:
256,192,8072,1,4,0:0:0:0:
256,192,8335,1,8,0:0:0:0:
256,192,8467,1,4,0:0:0:0:
256,192,8730,1,8,0:0:0:0:
256,192,8861,1,4,0:0:0:0:
256,192,9256,1,4,0:0:0:0:
256,192,9519,1,8,0:0:0:0:
256,192,9651,1,0,0:0:0:0:
256,192,9782,1,12,0:0:0:0:
256,192,10177,1,4,0:0:0:0:
256,192,10440,1,8,0:0:0:0:
256,192,10572,1,8,0:0:0:0:
256,192,10967,1,8,0:0:0:0:
256,192,11230,1,4,0:0:0:0:
256,192,11493,1,8,0:0:0:0:
256,192,11625,1,8,0:0:0:0:
256,192,12019,1,8,0:0:0:0:
256,192,12282,1,4,0:0:0:0:
256,192,12546,1,8,0:0:0:0:
256,192,12677,1,8,0:0:0:0:
256,192,13072,1,8,0:0:0:0:
256,192,13335,1,4,0:0:0:0:
256,192,13598,1,8,0:0:0:0:
256,192,13730,1,0,0:0:0:0:
256,192,13861,1,0,0:0:0:0:
256,192,14388,5,4,0:0:0:0:
256,192,14651,1,8,0:0:0:0:
256,192,14914,1,0,0:0:0:0:
256,192,15177,1,8,0:0:0:0:
256,192,15309,1,8,0:0:0:0:
256,192,15440,1,0,0:0:0:0:
256,192,15703,1,8,0:0:0:0:
256,192,15967,1,0,0:0:0:0:
256,192,16230,1,8,0:0:0:0:
256,192,16361,1,8,0:0:0:0:
256,192,16493,1,0,0:0:0:0:
256,192,16625,1,8,0:0:0:0:
256,192,16756,1,0,0:0:0:0:
256,192,16888,1,8,0:0:0:0:
256,192,16953,1,8,0:0:0:0:
256,192,17019,1,8,0:0:0:0:
256,192,17151,1,0,0:0:0:0:
256,192,17282,1,8,0:0:0:0:
256,192,17414,1,0,0:0:0:0:
256,192,17546,1,0,0:0:0:0:
256,192,18598,1,12,0:0:0:0:
256,192,18861,1,0,0:0:0:0:
256,192,19125,1,8,0:0:0:0:
256,192,19300,1,0,0:0:0:0:
256,192,19519,5,8,0:0:0:0:
256,192,19651,1,0,0:0:0:0:
256,192,19717,1,0,0:0:0:0:
256,192,19782,1,0,0:0:0:0:
256,192,19914,1,8,0:0:0:0:
256,192,20046,1,8,0:0:0:0:
256,192,20177,1,0,0:0:0:0:
256,192,20440,1,8,0:0:0:0:
256,192,20967,1,8,0:0:0:0:
256,192,21230,1,8,0:0:0:0:
256,192,21405,1,0,0:0:0:0:
256,192,21625,1,0,0:0:0:0:
256,192,21756,1,8,0:0:0:0:
256,192,21822,1,8,0:0:0:0:
256,192,21888,1,8,0:0:0:0:
256,192,22019,1,0,0:0:0:0:
256,192,22151,1,0,0:0:0:0:
256,192,22282,1,8,0:0:0:0:
256,192,22414,1,8,0:0:0:0:
256,192,22677,1,8,0:0:0:0:
256,192,22809,1,0,0:0:0:0:
256,192,23335,1,8,0:0:0:0:
256,192,23511,1,0,0:0:0:0:
256,192,23730,1,8,0:0:0:0:
256,192,23796,1,8,0:0:0:0:
256,192,23861,1,8,0:0:0:0:
256,192,23993,1,0,0:0:0:0:
256,192,24125,1,8,0:0:0:0:
256,192,24388,5,8,0:0:0:0:
256,192,24519,1,0,0:0:0:0:
256,192,24651,1,0,0:0:0:0:
256,192,24782,1,8,0:0:0:0:
256,192,24914,1,4,0:0:0:0:
256,192,25309,1,0,0:0:0:0:
256,192,25440,1,8,0:0:0:0:
256,192,25616,1,0,0:0:0:0:
256,192,25835,1,0,0:0:0:0:
256,192,25967,5,8,0:0:0:0:
256,192,26098,1,8,0:0:0:0:
256,192,26230,1,0,0:0:0:0:
256,192,26361,1,0,0:0:0:0:
256,192,26493,1,8,0:0:0:0:
256,192,27019,1,4,0:0:0:0:
256,192,27282,1,8,0:0:0:0:
256,192,27546,1,8,0:0:0:0:
256,192,27721,1,0,0:0:0:0:
256,192,27940,1,8,0:0:0:0:
256,192,28072,1,0,0:0:0:0:
256,192,28138,1,0,0:0:0:0:
256,192,28203,1,0,0:0:0:0:
256,192,28335,1,12,0:0:0:0:
256,192,28598,1,0,0:0:0:0:
256,192,28730,1,12,0:0:0:0:
256,192,28861,1,12,0:0:0:0:
256,192,29125,1,4,0:0:0:0:
256,192,29388,1,8,0:0:0:0:
256,192,29519,1,0,0:0:0:0:
256,192,29651,1,8,0:0:0:0:
256,192,29826,1,8,0:0:0:0:
256,192,30046,5,8,0:0:0:0:
256,192,30177,1,0,0:0:0:0:
256,192,30243,1,0,0:0:0:0:
256,192,30309,1,0,0:0:0:0:
256,192,30440,1,12,0:0:0:0:
256,192,30703,1,8,0:0:0:0:
256,192,30835,1,4,0:0:0:0:
256,192,31230,1,8,0:0:0:0:
256,192,31756,5,8,0:0:0:0:
256,192,31888,1,0,0:0:0:0:
256,192,32019,1,4,0:0:0:0:
256,192,32282,1,0,0:0:0:0:
256,192,32414,1,0,0:0:0:0:
256,192,32546,1,8,0:0:0:0:
256,192,32677,1,0,0:0:0:0:
256,192,32809,1,8,0:0:0:0:
256,192,33335,1,4,0:0:0:0:
256,192,33598,1,8,0:0:0:0:
256,192,33861,1,4,0:0:0:0:
256,192,34125,1,8,0:0:0:0:
256,192,34388,1,0,0:0:0:0:
256,192,34519,1,8,0:0:0:0:
256,192,34651,1,0,0:0:0:0:
256,192,34782,1,8,0:0:0:0:
256,192,34914,1,12,0:0:0:0:
256,192,35440,1,0,0:0:0:0:
256,192,36493,1,0,0:0:0:0:
256,192,37546,1,0,0:0:0:0:
256,192,37809,1,8,0:0:0:0:
256,192,37940,1,8,0:0:0:0:
256,192,38072,1,0,0:0:0:0:
256,192,38203,1,0,0:0:0:0:
256,192,38335,1,8,0:0:0:0:
256,192,38467,1,8,0:0:0:0:
256,192,38730,1,0,0:0:0:0:
256,192,38861,1,8,0:0:0:0:
256,192,38993,1,8,0:0:0:0:
256,192,39125,1,0,0:0:0:0:
256,192,39256,1,8,0:0:0:0:
256,192,39388,1,8,0:0:0:0:
256,192,39651,1,12,0:0:0:0:
256,192,39914,1,0,0:0:0:0:
256,192,40177,1,0,0:0:0:0:
256,192,40440,1,0,0:0:0:0:
256,192,40703,1,12,0:0:0:0:
256,192,40967,1,0,0:0:0:0:
256,192,41230,1,8,0:0:0:0:
256,192,41756,5,4,0:0:0:0:
256,192,42019,1,0,0:0:0:0:
256,192,42151,1,8,0:0:0:0:
256,192,42282,1,0,0:0:0:0:
256,192,42546,1,0,0:0:0:0:
256,192,42809,1,0,0:0:0:0:
256,192,42940,1,8,0:0:0:0:
256,192,43072,1,0,0:0:0:0:
256,192,43203,1,8,0:0:0:0:
256,192,43335,1,0,0:0:0:0:
256,192,43467,1,8,0:0:0:0:
256,192,43598,1,8,0:0:0:0:
256,192,43861,1,12,0:0:0:0:
256,192,44256,1,12,0:0:0:0:
256,192,44388,1,12,0:0:0:0:
256,192,44651,1,12,0:0:0:0:
256,192,44914,1,0,0:0:0:0:
256,192,45046,1,8,0:0:0:0:
256,192,45177,1,8,0:0:0:0:
256,192,45309,1,0,0:0:0:0:
256,192,45440,1,8,0:0:0:0:
256,192,45572,1,0,0:0:0:0:
256,192,45703,1,0,0:0:0:0:
256,192,45967,1,12,0:0:0:0:
256,192,46361,1,12,0:0:0:0:
256,192,46493,1,12,0:0:0:0:
256,192,46756,1,12,0:0:0:0:
256,192,47151,1,8,0:0:0:0:
256,192,47282,1,8,0:0:0:0:
256,192,47414,1,8,0:0:0:0:
256,192,47546,1,0,0:0:0:0:
256,192,47677,1,8,0:0:0:0:
256,192,47809,1,8,0:0:0:0:
256,192,48072,1,12,0:0:0:0:
256,192,48467,1,0,0:0:0:0:
256,192,48598,1,8,0:0:0:0:
256,192,48730,1,8,0:0:0:0:
256,192,48861,1,0,0:0:0:0:
256,192,49256,1,8,0:0:0:0:
256,192,49519,1,0,0:0:0:0:
256,192,49651,1,8,0:0:0:0:
256,192,49782,1,8,0:0:0:0:
256,192,49914,1,0,0:0:0:0:
256,192,50177,5,12,0:0:0:0:
256,192,50440,1,0,0:0:0:0:
256,192,50572,1,8,0:0:0:0:
256,192,50835,1,0,0:0:0:0:
256,192,50967,1,8,0:0:0:0:
256,192,51098,1,0,0:0:0:0:
256,192,51230,1,0,0:0:0:0:
256,192,51493,1,8,0:0:0:0:
256,192,51625,12,0,52151,0:0:0:0:
256,192,52282,5,4,0:0:0:0:
256,192,52809,1,8,0:0:0:0:
256,192,53203,1,0,0:0:0:0:
256,192,53467,1,8,0:0:0:0:
256,192,53598,1,0,0:0:0:0:
256,192,53861,1,8,0:0:0:0:
256,192,53993,1,0,0:0:0:0:
256,192,54125,1,8,0:0:0:0:
256,192,54388,1,0,0:0:0:0:
256,192,54519,1,0,0:0:0:0:
256,192,54651,1,8,0:0:0:0:
256,192,54914,1,0,0:0:0:0:
256,192,55046,1,8,0:0:0:0:
256,192,55177,1,8,0:0:0:0:
256,192,55309,1,0,0:0:0:0:
256,192,55440,1,8,0:0:0:0:
256,192,55703,1,0,0:0:0:0:
256,192,55835,1,0,0:0:0:0:
256,192,56098,1,8,0:0:0:0:
256,192,56493,1,0,0:0:0:0:
256,192,56625,1,0,0:0:0:0:
256,192,56756,1,8,0:0:0:0:
256,192,56888,1,0,0:0:0:0:
256,192,57019,1,0,0:0:0:0:
256,192,57151,1,8,0:0:0:0:
256,192,57282,1,8,0:0:0:0:
256,192,57414,1,0,0:0:0:0:
256,192,57546,1,8,0:0:0:0:
256,192,57809,1,0,0:0:0:0:
256,192,57940,1,8,0:0:0:0:
256,192,58335,1,8,0:0:0:0:
256,192,58598,1,0,0:0:0:0:
256,192,58861,1,8,0:0:0:0:
256,192,58993,1,8,0:0:0:0:
256,192,59125,1,0,0:0:0:0:
256,192,59388,1,8,0:0:0:0:
256,192,59519,1,8,0:0:0:0:
256,192,59651,1,0,0:0:0:0:
256,192,59782,1,0,0:0:0:0:
256,192,59914,1,0,0:0:0:0:
256,192,60046,1,8,0:0:0:0:
256,192,60703,1,12,0:0:0:0:
256,192,60967,1,0,0:0:0:0:
256,192,61230,1,8,0:0:0:0:
256,192,61361,1,8,0:0:0:0:
256,192,61493,1,0,0:0:0:0:
256,192,61625,1,0,0:0:0:0:
256,192,61756,1,8,0:0:0:0:
256,192,62019,1,0,0:0:0:0:
256,192,62151,1,8,0:0:0:0:
256,192,62414,1,8,0:0:0:0:
256,192,62809,1,4,0:0:0:0:
256,192,63072,1,8,0:0:0:0:
256,192,63335,1,8,0:0:0:0:
256,192,63467,1,0,0:0:0:0:
256,192,63598,1,8,0:0:0:0:
256,192,63730,1,8,0:0:0:0:
256,192,63861,1,0,0:0:0:0:
256,192,63993,1,8,0:0:0:0:
256,192,64125,1,0,0:0:0:0:
256,192,64256,1,8,0:0:0:0:
256,192,64519,1,8,0:0:0:0:
256,192,64651,1,8,0:0:0:0:
256,192,64914,1,4,0:0:0:0:
256,192,65177,1,8,0:0:0:0:
256,192,65309,1,0,0:0:0:0:
256,192,65375,1,0,0:0:0:0:
256,192,65440,1,0,0:0:0:0:
256,192,65572,1,0,0:0:0:0:
256,192,65703,1,8,0:0:0:0:
256,192,65835,1,8,0:0:0:0:
256,192,65967,1,0,0:0:0:0:
256,192,66230,1,0,0:0:0:0:
256,192,66361,1,8,0:0:0:0:
256,192,66756,1,8,0:0:0:0:
256,192,67019,1,4,0:0:0:0:
256,192,67282,1,8,0:0:0:0:
256,192,67414,1,4,0:0:0:0:
256,192,67677,1,8,0:0:0:0:
256,192,67809,1,4,0:0:0:0:
256,192,68203,1,4,0:0:0:0:
256,192,68335,1,8,0:0:0:0:
256,192,68467,1,0,0:0:0:0:
256,192,68532,1,0,0:0:0:0:
256,192,68598,1,0,0:0:0:0:
256,192,68730,1,12,0:0:0:0:
256,192,69125,1,4,0:0:0:0:
256,192,69388,1,8,0:0:0:0:
256,192,69520,1,8,0:0:0:0:
256,192,69915,1,8,0:0:0:0:
256,192,70178,1,4,0:0:0:0:
256,192,70441,1,8,0:0:0:0:
256,192,70573,1,8,0:0:0:0:
256,192,70967,1,8,0:0:0:0:
256,192,71230,1,4,0:0:0:0:
256,192,71494,1,8,0:0:0:0:
256,192,71625,1,8,0:0:0:0:
256,192,72020,1,8,0:0:0:0:
256,192,72283,1,4,0:0:0:0:
256,192,72546,1,8,0:0:0:0:
256,192,72678,1,0,0:0:0:0:
256,192,72809,1,0,0:0:0:0:
256,192,73335,5,4,0:0:0:0:
256,192,73598,1,8,0:0:0:0:
256,192,73861,1,0,0:0:0:0:
256,192,74124,1,8,0:0:0:0:
256,192,74256,1,8,0:0:0:0:
256,192,74387,1,0,0:0:0:0:
256,192,74650,1,8,0:0:0:0:
256,192,74914,1,0,0:0:0:0:
256,192,75177,1,8,0:0:0:0:
256,192,75308,1,8,0:0:0:0:
256,192,75440,1,0,0:0:0:0:
256,192,75572,1,8,0:0:0:0:
256,192,75703,1,0,0:0:0:0:
256,192,75835,1,8,0:0:0:0:
256,192,75900,1,8,0:0:0:0:
256,192,75966,1,8,0:0:0:0:
256,192,76098,1,0,0:0:0:0:
256,192,76229,1,8,0:0:0:0:
256,192,76493,1,0,0:0:0:0:
256,192,76625,1,0,0:0:0:0:
256,192,76756,1,8,0:0:0:0:
256,192,76888,1,8,0:0:0:0:
256,192,77019,1,0,0:0:0:0:
256,192,77085,1,0,0:0:0:0:
256,192,77151,1,0,0:0:0:0:
256,192,77282,1,8,0:0:0:0:
256,192,77546,1,4,0:0:0:0:
256,192,77809,1,8,0:0:0:0:
256,192,78203,1,0,0:0:0:0:
256,192,78335,1,0,0:0:0:0:
256,192,78598,1,8,0:0:0:0:
256,192,78730,1,0,0:0:0:0:
256,192,78861,1,8,0:0:0:0:
256,192,78993,1,8,0:0:0:0:
256,192,79125,1,0,0:0:0:0:
256,192,79256,1,0,0:0:0:0:
256,192,79651,5,4,0:0:0:0:
256,192,79914,5,8,0:0:0:0:
256,192,80177,1,8,0:0:0:0:
256,192,80309,1,0,0:0:0:0:
256,192,80375,1,8,0:0:0:0:
256,192,80572,1,8,0:0:0:0:
256,192,80703,1,8,0:0:0:0:
256,192,80769,1,8,0:0:0:0:
256,192,80835,1,8,0:0:0:0:
256,192,80967,1,0,0:0:0:0:
256,192,81032,1,0,0:0:0:0:
256,192,81098,1,0,0:0:0:0:
256,192,81230,1,8,0:0:0:0:
256,192,81756,1,4,0:0:0:0:
256,192,82019,1,8,0:0:0:0:
256,192,82282,1,8,0:0:0:0:
256,192,82414,1,0,0:0:0:0:
256,192,82480,1,8,0:0:0:0:
256,192,82677,1,8,0:0:0:0:
256,192,82809,1,0,0:0:0:0:
256,192,82875,1,0,0:0:0:0:
256,192,83072,1,8,0:0:0:0:
256,192,83138,1,8,0:0:0:0:
256,192,83335,1,8,0:0:0:0:
256,192,83861,5,12,0:0:0:0:
256,192,84125,1,0,0:0:0:0:
256,192,84256,1,0,0:0:0:0:
256,192,84388,1,8,0:0:0:0:
256,192,84563,1,0,0:0:0:0:
256,192,84782,1,0,0:0:0:0:
256,192,84914,5,8,0:0:0:0:
256,192,84980,1,8,0:0:0:0:
256,192,85046,1,8,0:0:0:0:
256,192,85177,1,0,0:0:0:0:
256,192,85243,1,0,0:0:0:0:
256,192,85309,1,0,0:0:0:0:
256,192,85440,1,8,0:0:0:0:
256,192,85967,1,12,0:0:0:0:
256,192,86230,1,12,0:0:0:0:
256,192,86493,1,4,0:0:0:0:
256,192,86756,1,4,0:0:0:0:
256,192,87019,1,8,0:0:0:0:
256,192,87282,1,8,0:0:0:0:
256,192,87546,1,0,0:0:0:0:
256,192,88072,1,0,0:0:0:0:
256,192,88335,1,8,0:0:0:0:
256,192,88598,1,8,0:0:0:0:
256,192,88774,1,0,0:0:0:0:
256,192,88993,1,0,0:0:0:0:
256,192,89125,1,8,0:0:0:0:
256,192,89300,1,8,0:0:0:0:
256,192,89388,1,8,0:0:0:0:
256,192,89563,1,8,0:0:0:0:
256,192,89651,1,0,0:0:0:0:
256,192,90440,1,8,0:0:0:0:
256,192,90703,1,0,0:0:0:0:
256,192,90879,1,8,0:0:0:0:
256,192,91098,1,8,0:0:0:0:
256,192,91230,1,0,0:0:0:0:
256,192,91405,1,0,0:0:0:0:
256,192,91493,1,0,0:0:0:0:
256,192,91668,1,8,0:0:0:0:
256,192,91756,1,8,0:0:0:0:
256,192,91953,1,8,0:0:0:0:
256,192,92151,1,8,0:0:0:0:
256,192,92282,1,4,0:0:0:0:
256,192,92546,1,8,0:0:0:0:
256,192,92809,1,4,0:0:0:0:
256,192,93072,1,8,0:0:0:0:
256,192,93335,1,4,0:0:0:0:
256,192,93598,1,8,0:0:0:0:
256,192,93861,1,4,0:0:0:0:
256,192,94125,1,8,0:0:0:0:
256,192,94388,5,8,0:0:0:0:
256,192,94519,1,8,0:0:0:0:
256,192,94651,1,0,0:0:0:0:
256,192,94782,1,0,0:0:0:0:
256,192,94914,1,8,0:0:0:0:
256,192,95046,1,0,0:0:0:0:
256,192,95111,1,0,0:0:0:0:
256,192,95177,1,0,0:0:0:0:
256,192,95309,1,0,0:0:0:0:
256,192,95440,1,8,0:0:0:0:
256,192,96230,1,0,0:0:0:0:
256,192,96361,1,0,0:0:0:0:
256,192,96493,1,12,0:0:0:0:
256,192,96756,1,0,0:0:0:0:
256,192,96888,1,0,0:0:0:0:
256,192,97019,1,8,0:0:0:0:
256,192,97151,1,8,0:0:0:0:
256,192,97282,1,0,0:0:0:0:
256,192,97546,1,8,0:0:0:0:
256,192,97677,1,8,0:0:0:0:
256,192,97809,1,0,0:0:0:0:
256,192,98072,5,8,0:0:0:0:
256,192,98138,1,8,0:0:0:0:
256,192,98203,1,8,0:0:0:0:
256,192,98335,1,0,0:0:0:0:
256,192,98467,1,0,0:0:0:0:
256,192,98598,1,12,0:0:0:0:
256,192,98993,1,12,0:0:0:0:
256,192,99125,1,12,0:0:0:0:
256,192,99388,1,12,0:0:0:0:
256,192,99782,1,12,0:0:0:0:
256,192,99914,1,12,0:0:0:0:
256,192,100177,1,0,0:0:0:0:
256,192,100309,1,0,0:0:0:0:
256,192,100440,1,0,0:0:0:0:
256,192,100703,1,12,0:0:0:0:
256,192,100967,1,0,0:0:0:0:
256,192,101098,1,8,0:0:0:0:
256,192,101230,1,8,0:0:0:0:
256,192,101361,1,0,0:0:0:0:
256,192,101493,1,8,0:0:0:0:
256,192,101756,1,8,0:0:0:0:
256,192,101888,1,0,0:0:0:0:
256,192,102019,1,8,0:0:0:0:
256,192,102282,1,0,0:0:0:0:
256,192,102348,1,0,0:0:0:0:
256,192,102414,1,0,0:0:0:0:
256,192,102546,1,8,0:0:0:0:
256,192,102677,1,0,0:0:0:0:
256,192,102809,1,12,0:0:0:0:
256,192,103203,1,12,0:0:0:0:
256,192,103335,1,12,0:0:0:0:
256,192,103598,1,12,0:0:0:0:
256,192,103993,1,12,0:0:0:0:
256,192,104125,1,12,0:0:0:0:
256,192,104651,1,0,0:0:0:0:
256,192,104782,1,0,0:0:0:0:
256,192,104914,1,12,0:0:0:0:
256,192,105309,1,0,0:0:0:0:
256,192,105440,1,8,0:0:0:0:
256,192,105572,1,8,0:0:0:0:
256,192,105703,1,0,0:0:0:0:
256,192,105967,1,8,0:0:0:0:
256,192,106098,1,0,0:0:0:0:
256,192,106230,1,8,0:0:0:0:
256,192,106493,1,8,0:0:0:0:
256,192,106625,1,8,0:0:0:0:
256,192,106756,1,8,0:0:0:0:
256,192,106888,1,0,0:0:0:0:
256,192,106953,1,0,0:0:0:0:
256,192,107019,1,0,0:0:0:0:
256,192,107151,1,8,0:0:0:0:
256,192,107414,1,8,0:0:0:0:
256,192,107546,1,0,0:0:0:0:
256,192,107677,1,8,0:0:0:0:
256,192,107809,1,0,0:0:0:0:
256,192,107940,1,0,0:0:0:0:
256,192,108072,1,8,0:0:0:0:
256,192,108335,1,0,0:0:0:0:
256,192,108467,1,0,0:0:0:0:
256,192,108598,1,8,0:0:0:0:
256,192,108730,1,8,0:0:0:0:
256,192,109125,1,8,0:0:0:0:
256,192,109388,1,0,0:0:0:0:
256,192,109651,1,12,0:0:0:0:
256,192,109848,1,12,0:0:0:0:
256,192,110046,1,12,0:0:0:0:
256,192,110177,1,12,0:0:0:0:
256,192,110375,1,12,0:0:0:0:
256,192,110572,1,12,0:0:0:0:
256,192,110703,1,12,0:0:0:0:
256,192,111230,5,4,0:0:0:0:
256,192,111427,1,4,0:0:0:0:
256,192,111625,1,4,0:0:0:0:
256,192,111756,1,4,0:0:0:0:
256,192,111953,1,4,0:0:0:0:
256,192,112151,1,4,0:0:0:0:
256,192,112282,1,4,0:0:0:0:
256,192,112480,1,4,0:0:0:0:
256,192,112677,1,4,0:0:0:0:
256,192,112809,1,4,0:0:0:0:
256,192,113335,1,12,0:0:0:0:
256,192,113730,1,12,0:0:0:0:
256,192,113861,1,12,0:0:0:0:
256,192,114125,1,12,0:0:0:0:
256,192,114519,1,8,0:0:0:0:
256,192,114651,1,8,0:0:0:0:
256,192,114782,1,8,0:0:0:0:
256,192,114914,1,0,0:0:0:0:
256,192,115046,1,8,0:0:0:0:
256,192,115177,1,8,0:0:0:0:
256,192,115440,1,12,0:0:0:0:
256,192,115835,1,12,0:0:0:0:
256,192,115967,1,12,0:0:0:0:
256,192,116230,1,12,0:0:0:0:
256,192,116493,1,0,0:0:0:0:
256,192,116625,1,8,0:0:0:0:
256,192,116756,1,8,0:0:0:0:
256,192,116888,1,0,0:0:0:0:
256,192,117019,1,8,0:0:0:0:
256,192,117151,1,0,0:0:0:0:
256,192,117546,1,4,0:0:0:0:
