osu file format v14

[General]
AudioFilename: audio.mp3
AudioLeadIn: 0
PreviewTime: 221179
Countdown: 1
SampleSet: Normal
StackLeniency: 0.7
Mode: 1
LetterboxInBreaks: 0
WidescreenStoryboard: 0

[Editor]
Bookmarks: 17979,43579,69179,81979,133179,158779,184379,209979,222779
DistanceSpacing: 1.1
BeatDivisor: 4
GridSize: 32
TimelineZoom: 1.6

[Metadata]
Title:S.A.T.E.L.L.I.T.E.
TitleUnicode:S.A.T.E.L.L.I.T.E.
Artist:Camellia
ArtistUnicode:かめりあ
Creator:KatK1
Version:W.I.S.H.
Source:
Tags:fa featured artist satellite heart of android CTCD-018 かめるかめりあ KamelCamellia Cametek 大箭将也 Masaya Oya hardstyle electronic instrumental english japanese oni inner wish
BeatmapID:3678000
BeatmapSetID:1794458

[Difficulty]
HPDrainRate:6
CircleSize:4
OverallDifficulty:6.5
ApproachRate:8
SliderMultiplier:1.4
SliderTickRate:1

[Events]
//Background and Video events
0,0,"bg.jpg",0,-50
//Break Periods
2,185779,196029
//Storyboard Layer 0 (Background)
//Storyboard Layer 1 (Fail)
//Storyboard Layer 2 (Pass)
//Storyboard Layer 3 (Foreground)
//Storyboard Layer 4 (Overlay)
//Storyboard Sound Samples

[TimingPoints]
-1221,400,4,1,0,20,1,0
379,-166.666666666667,4,1,0,20,0,0
40379,-166.66666,4,1,0,20,0,0
42679,-129.09946,4,1,0,60,0,0
42779,-71.4285714285714,4,1,0,60,0,0
43179,-62.5,4,1,0,60,0,0
43579,-83.33333,4,1,0,60,0,0
43779,-84.28835,4,1,0,60,0,0
43979,-85.254326,4,1,0,60,0,0
44079,-85.74145,4,1,0,60,0,0
44179,-86.23135,4,1,0,60,0,0
44379,-87.2196,4,1,0,60,0,0
44479,-87.71795,4,1,0,60,0,0
44579,-88.219154,4,1,0,60,0,0
44779,-89.23017,4,1,0,60,0,0
44979,-90.25276,4,1,0,60,0,0
45179,-91.2871,4,1,0,60,0,0
45379,-92.333275,4,1,0,60,0,0
45479,-92.86084,4,1,0,60,0,0
45579,-93.39143,4,1,0,60,0,0
45779,-94.46172,4,1,0,60,0,0
45879,-95.00146,4,1,0,60,0,0
45979,-95.54428,4,1,0,60,0,0
46179,-96.639244,4,1,0,60,0,0
46379,-97.74676,4,1,0,60,0,0
46579,-98.86695,4,1,0,60,0,0
46779,-100,4,1,0,60,0,0
49579,-66.6666666666667,4,1,0,60,0,0
49779,-74.0740740740741,4,1,0,60,0,0
49979,-100,4,1,0,60,0,0
53379,-97.560974,4,1,0,60,0,0
53579,-95.2381,4,1,0,60,0,0
53679,-94.117645,4,1,0,60,0,0
53779,-93.023254,4,1,0,60,0,0
53979,-90.90909,4,1,0,60,0,0
54079,-89.88764,4,1,0,60,0,0
54179,-88.888885,4,1,0,60,0,0
54379,-86.95652,4,1,0,60,0,0
54579,-85.106384,4,1,0,60,0,0
54779,-83.33333,4,1,0,60,0,0
55079,-80.80808,4,1,0,60,0,0
55179,-80,4,1,0,60,0,0
55379,-78.431366,4,1,0,60,0,0
55479,-77.66989,4,1,0,60,0,0
55579,-76.92307,4,1,0,60,0,0
55879,-74.76635,4,1,0,60,0,0
56179,-72.727264,4,1,0,60,0,0
56379,-71.428566,4,1,0,60,0,0
56579,-72.202166064982,4,1,0,60,0,0
56779,-72.81826,4,1,0,60,0,0
56879,-73.16988,4,1,0,60,0,0
56979,-73.52321,4,1,0,60,0,0
57179,-74.234985,4,1,0,60,0,0
57279,-74.59346,4,1,0,60,0,0
57379,-74.95365,4,1,0,60,0,0
57579,-75.679276,4,1,0,60,0,0
57779,-76.41193,4,1,0,60,0,0
57979,-77.151665,4,1,0,60,0,0
58179,-77.89857,4,1,0,60,0,0
58279,-78.27473,4,1,0,60,0,0
58379,-78.65271,4,1,0,60,0,0
58579,-79.41414,4,1,0,60,0,0
58679,-79.79762,4,1,0,60,0,0
58779,-80.18295,4,1,0,60,0,0
58979,-80.9592,4,1,0,60,0,0
59179,-81.74296,4,1,0,60,0,0
59379,-82.53432,4,1,0,60,0,0
59579,-83.33333,4,1,0,60,0,0
62379,-66.6666645333334,4,1,0,60,0,0
62579,-74.0740740740741,4,1,0,60,0,0
62779,-83.3333300000001,4,1,0,60,0,0
67579,-83.333336,4,1,0,60,0,0
67779,-87.665794,4,1,0,55,0,0
67979,-92.22349,4,1,0,50,0,0
68179,-97.01814,4,1,0,45,0,0
68279,-99.508156,4,1,0,43,0,0
68379,-102.062065,4,1,0,40,0,0
68779,-55.5555555555556,4,1,0,50,0,0
69179,-71.42857,4,1,0,60,0,0
69379,-72.6887,4,1,0,60,0,0
69579,-73.97106,4,1,0,60,0,0
69679,-74.6207,4,1,0,60,0,0
69779,-75.27605,4,1,0,60,0,0
69979,-76.60404,4,1,0,60,0,0
70079,-77.27681,4,1,0,60,0,0
70179,-77.95548,4,1,0,60,0,0
70379,-79.33076,4,1,0,60,0,0
70579,-80.73029,4,1,0,60,0,0
70679,-81.43929,4,1,0,60,0,0
70779,-82.154526,4,1,0,60,0,0
70979,-83.603874,4,1,0,60,0,0
71079,-84.33811,4,1,0,60,0,0
71179,-85.0788,4,1,0,60,0,0
71379,-86.57974,4,1,0,60,0,0
71479,-87.34012,4,1,0,60,0,0
71579,-88.10716,4,1,0,60,0,0
71779,-89.66154,4,1,0,60,0,0
71979,-91.24333,4,1,0,60,0,0
72179,-92.85302,4,1,0,60,0,0
72279,-93.66849,4,1,0,60,0,0
72379,-94.49111,4,1,0,60,0,0
72579,-96.158104,4,1,0,60,0,0
72779,-97.85452,4,1,0,60,0,0
72879,-98.7139,4,1,0,60,0,0
72979,-99.58085,4,1,0,60,0,0
73179,-101.33762,4,1,0,60,0,0
73279,-102.22761,4,1,0,60,0,0
73379,-103.125404,4,1,0,60,0,0
73579,-104.944725,4,1,0,60,0,0
73779,-106.79614,4,1,0,60,0,0
73879,-107.73406,4,1,0,60,0,0
73979,-108.68021,4,1,0,60,0,0
74179,-107.55526,4,1,0,60,0,0
74245,-107.1866,4,1,0,60,0,0
74379,-106.441956,4,1,0,60,0,0
74445,-106.077095,4,1,0,60,0,0
74579,-105.34018,4,1,0,60,0,0
74645,-104.9791,4,1,0,60,0,0
74779,-104.2498,4,1,0,60,0,0
74845,-103.892456,4,1,0,60,0,0
74979,-103.17071,4,1,0,60,0,0
75045,-102.81707,4,1,0,60,0,0
75179,-102.10278,4,1,0,60,0,0
75245,-101.75281,4,1,0,60,0,0
75379,-101.04593,4,1,0,60,0,0
75479,-100.52159,4,1,0,60,0,0
75579,-100,4,1,0,60,0,0
75779,-98.60781,4,1,0,60,0,0
75979,-97.23501,4,1,0,61,0,0
76079,-96.55579,4,1,0,61,0,0
76179,-95.881325,4,1,0,61,0,0
76379,-94.54647,4,1,0,62,0,0
76479,-93.88603,4,1,0,62,0,0
76579,-93.23021,4,1,0,62,0,0
76779,-91.93227,4,1,0,63,0,0
76979,-90.652405,4,1,0,63,0,0
77079,-90.019165,4,1,0,63,0,0
77179,-89.39035,4,1,0,63,0,0
77379,-88.14588,4,1,0,64,0,0
77479,-87.53014,4,1,0,64,0,0
77579,-86.91872,4,1,0,64,0,0
77779,-85.70865,4,1,0,65,0,0
77879,-85.10995,4,1,0,65,0,0
77979,-84.51543,4,1,0,65,0,0
78179,-83.33881,4,1,0,65,0,0
78379,-82.17858,4,1,0,66,0,0
78479,-81.6326530612245,4,1,0,66,0,0
78579,-81.03451,4,1,0,66,0,0
78679,-80.46845,4,1,0,66,0,0
78779,-79.90635,4,1,0,67,0,0
78879,-79.34818,4,1,0,67,0,0
78979,-78.793915,4,1,0,67,0,0
79079,-78.24351,4,1,0,67,0,0
79179,-77.69695,4,1,0,68,0,0
79279,-77.15421,4,1,0,68,0,0
79379,-76.615265,4,1,0,68,0,0
79445,-76.26163,4,1,0,68,0,0
79512,-75.9043,4,1,0,68,0,0
79579,-75.54864,4,1,0,68,0,0
79679,-75.020905,4,1,0,69,0,0
79779,-74.496864,4,1,0,69,0,0
79879,-73.97647,4,1,0,69,0,0
79979,-73.459724,4,1,0,69,0,0
80079,-72.94659,4,1,0,69,0,0
80179,-72.43703,4,1,0,70,0,0
80245,-72.10268,4,1,0,70,0,0
80312,-71.76483,4,1,0,70,0,0
80379,-62.5,4,1,0,70,0,0
80779,-100,4,1,0,40,0,0
81379,-62.5,4,1,0,55,0,0
81779,-83.3333333333333,4,1,0,80,0,0
81979,-71.4285714285714,4,1,0,80,0,1
93979,-62.5,4,1,0,80,0,1
94579,-71.4285714285714,4,1,0,80,0,0
94779,-71.4285714285714,4,1,0,80,0,1
97479,-71.4285714285714,4,1,0,50,0,1
97579,-71.4285689795919,4,1,0,50,0,0
97979,-71.42857,4,1,0,80,0,1
100779,-71.42857,4,1,0,80,0,0
101179,-71.4285714285714,4,1,0,80,0,1
102379,-71.4285714285714,4,1,0,80,0,0
102779,-66.6666666666667,4,1,0,80,0,1
103979,-66.6666666666667,4,1,0,80,0,0
104379,-62.5,4,1,0,80,0,1
104779,-62.5,4,1,0,80,0,0
105179,-58.8235294117647,4,1,0,80,0,1
105579,-58.8235294117647,4,1,0,80,0,0
105979,-55.5555555555556,4,1,0,80,0,1
107079,-62.5,4,1,0,80,0,1
107179,-62.5,4,1,0,80,0,0
107579,-71.4285714285714,4,1,0,80,0,1
113979,-55.5555555555556,4,1,0,80,0,1
114179,-55.5555555555556,4,1,0,80,0,0
114379,-71.4285714285714,4,1,0,80,0,1
118779,-71.4285714285714,4,1,0,80,0,0
120379,-71.4285714285714,4,1,0,80,0,1
123579,-55.5555555555556,4,1,0,80,0,1
123779,-71.4285714285714,4,1,0,80,0,0
123979,-71.42857,4,1,0,80,0,1
125079,-71.42857,4,1,0,50,0,1
125179,-71.42857,4,1,0,50,0,0
125479,-75.67928,4,1,0,50,0,0
125779,-80.18296,4,1,0,50,0,0
125979,-83.3333333333333,4,1,0,50,0,0
126279,-78.65271,4,1,0,50,0,0
126579,-74.23499,4,1,0,50,0,0
126779,-71.428566,4,1,0,80,0,1
129679,-70.95326,4,1,0,80,0,1
129779,-70.48112,4,1,0,80,0,1
129879,-70.01211,4,1,0,80,0,1
129979,-69.54622,4,1,0,80,0,1
130179,-68.62374,4,1,0,80,0,1
130379,-67.71348,4,1,0,80,0,1
130579,-66.81531,4,1,0,80,0,1
130645,-66.52153,4,1,0,80,0,1
130712,-66.224625,4,1,0,80,0,1
130779,-65.92905,4,1,0,80,0,1
130879,-65.49033,4,1,0,80,0,1
130979,-65.054535,4,1,0,80,0,1
131079,-64.62165,4,1,0,80,0,1
131179,-64.191635,4,1,0,80,0,1
131279,-63.764477,4,1,0,80,0,1
131379,-63.340164,4,1,0,80,0,1
131479,-62.918682,4,1,0,80,0,1
131579,-62.5,4,1,0,80,0,1
131779,-64.62164,4,1,0,73,0,1
131979,-66.81531,4,1,0,65,0,1
132179,-69.08344,4,1,0,58,0,1
132379,-71.42857,4,1,0,50,0,1
132579,-62.5,4,1,0,60,0,1
132979,-90.9090909090909,4,1,0,60,0,1
133079,-83.3333333333333,4,1,0,40,0,1
133179,-100,4,1,0,40,0,0
134779,-111.8034,4,1,0,40,0,0
136379,-125,4,1,0,40,0,0
157179,-117.647058823529,4,1,0,40,0,0
157979,-111.111111111111,4,1,0,60,0,0
158579,-83.33333,4,1,0,40,0,0
159179,-85.254326,4,1,0,40,0,0
159579,-87.2196,4,1,0,40,0,0
159979,-89.23017,4,1,0,40,0,0
160379,-91.2871,4,1,0,40,0,0
160779,-93.39143,4,1,0,40,0,0
161179,-95.54428,4,1,0,40,0,0
161579,-97.74676,4,1,0,40,0,0
161779,-98.86695,4,1,0,40,0,0
161979,-100,4,1,0,40,0,0
164579,-66.6666666666667,4,1,0,60,0,0
164879,-74.0740740740741,4,1,0,50,0,0
165079,-83.33333,4,1,0,40,0,0
165579,-85.254326,4,1,0,40,0,0
165979,-87.2196,4,1,0,40,0,0
166379,-89.23017,4,1,0,40,0,0
166579,-90.25276,4,1,0,40,0,0
166779,-91.2871,4,1,0,40,0,0
167179,-93.39143,4,1,0,40,0,0
167579,-95.54428,4,1,0,40,0,0
167979,-97.74676,4,1,0,40,0,0
168179,-98.86695,4,1,0,40,0,0
168379,-100,4,1,0,40,0,0
171079,-88.145874,4,1,0,44,0,0
171379,-77.69695,4,1,0,48,0,0
171579,-71.42857,4,1,0,50,0,0
171879,-72.46832,4,1,0,50,0,0
171979,-72.81827,4,1,0,50,0,0
172179,-73.52321,4,1,0,50,0,0
172379,-74.23499,4,1,0,50,0,0
172579,-74.95366,4,1,0,50,0,0
172679,-75.3156,4,1,0,50,0,0
172779,-75.67928,4,1,0,50,0,0
172979,-76.411934,4,1,0,50,0,0
173179,-77.15167,4,1,0,50,0,0
173479,-78.27473,4,1,0,50,0,0
173579,-78.65272,4,1,0,50,0,0
173779,-79.41414,4,1,0,50,0,0
173979,-80.18296,4,1,0,50,0,0
174079,-80.570145,4,1,0,50,0,0
174179,-80.959206,4,1,0,50,0,0
174379,-81.742966,4,1,0,50,0,0
174579,-82.53432,4,1,0,50,0,0
174679,-82.93287,4,1,0,50,0,0
174779,-83.33333,4,1,0,50,0,0
177479,-66.6666666666667,4,1,0,60,0,0
177679,-74.0740740740741,4,1,0,50,0,0
177879,-83.33333,4,1,0,40,0,0
178179,-82.91748,4,1,0,40,0,0
178279,-82.710335,4,1,0,40,0,0
178379,-82.503716,4,1,0,40,0,0
178579,-82.092,4,1,0,40,0,0
178779,-81.68236,4,1,0,40,0,0
178879,-81.478294,4,1,0,40,0,0
178979,-81.27475,4,1,0,40,0,0
179179,-80.86917,4,1,0,40,0,0
179379,-80.465614,4,1,0,40,0,0
179479,-80.264595,4,1,0,40,0,0
179579,-80.06408,4,1,0,40,0,0
179779,-79.66455,4,1,0,40,0,0
179979,-79.267006,4,1,0,40,0,0
180079,-79.06898,4,1,0,40,0,0
180179,-78.87145,4,1,0,40,0,0
180379,-78.477875,4,1,0,40,0,0
180479,-78.281815,4,1,0,40,0,0
180579,-78.08626,4,1,0,40,0,0
180779,-77.696594,4,1,0,40,0,0
180879,-77.50248,4,1,0,41,0,0
180979,-77.30887,4,1,0,43,0,0
181079,-77.11574,4,1,0,44,0,0
181179,-71.42857,4,1,0,46,0,0
181279,-71.03226,4,1,0,47,0,0
181379,-70.638145,4,1,0,49,0,0
181479,-70.246216,4,1,0,50,0,0
181579,-69.856476,4,1,0,52,0,0
181679,-69.46888,4,1,0,53,0,0
181779,-69.08344,4,1,0,54,0,0
181845,-68.83022,4,1,0,55,0,0
181912,-68.57412,4,1,0,56,0,0
181979,-68.31897,4,1,0,57,0,0
182079,-67.93992,4,1,0,59,0,0
182179,-67.56296,4,1,0,60,0,0
182279,-67.188095,4,1,0,62,0,0
182379,-66.815315,4,1,0,63,0,0
182479,-66.44459,4,1,0,65,0,0
182579,-66.075935,4,1,0,66,0,0
182645,-65.83374,4,1,0,67,0,0
182712,-65.58878,4,1,0,68,0,0
182779,-65.34474,4,1,0,69,0,0
182879,-64.982185,4,1,0,70,0,0
182979,-64.62164,4,1,0,72,0,0
183045,-64.38479,4,1,0,73,0,0
183112,-64.14522,4,1,0,74,0,0
183179,-63.906544,4,1,0,75,0,0
183279,-63.551964,4,1,0,76,0,0
183379,-63.19936,4,1,0,78,0,0
183445,-62.967705,4,1,0,79,0,0
183512,-62.733414,4,1,0,80,0,0
183545,-62.5,4,1,0,40,0,0
184379,400,69,1,0,5,1,8
184379,-62.5,7,1,0,5,0,0
195579,400,4,1,0,25,1,8
195579,-81.63265,4,1,0,25,0,0
196679,-55.5555555555556,4,1,0,80,0,0
196979,-71.4285689795919,4,1,0,60,0,0
197379,-74.074066,4,1,0,60,0,0
197579,-75.228165,4,1,0,60,0,0
197679,-75.70348,4,1,0,60,0,0
197779,-76.13841,4,1,0,60,0,0
197979,-76.92307,4,1,0,60,0,0
198079,-77.28369,4,1,0,60,0,0
198179,-77.6279,4,1,0,60,0,0
198379,-78.27631,4,1,0,60,0,0
198579,-78.88224,4,1,0,60,0,0
198779,-79.45471,4,1,0,60,0,0
198979,-79.99999,4,1,0,60,0,0
199079,-80.26392,4,1,0,60,0,0
199179,-80.52268,4,1,0,60,0,0
199379,-81.026184,4,1,0,60,0,0
199479,-81.271614,4,1,0,60,0,0
199579,-81.51321,4,1,0,60,0,0
199779,-81.98586,4,1,0,60,0,0
199979,-82.44585,4,1,0,60,0,0
200179,-82.894615,4,1,0,60,0,0
200379,-83.33333,4,1,0,60,0,0
203179,-62.499998125,4,1,0,60,0,0
203379,-68.9655172413793,4,1,0,60,0,0
203579,-83.3333300000001,4,1,0,60,0,0
208679,-82.847885,4,1,0,60,0,0
208779,-82.47422,4,1,0,60,0,0
208979,-81.42493,4,1,0,60,0,0
209079,-80.6451612903226,4,1,0,60,0,0
209179,-79.99999,4,1,0,60,0,0
209479,-77.24803,4,1,0,60,0,0
209779,-73.903,4,1,0,60,0,0
209879,-71.428566,4,1,0,40,0,0
210379,-74.50093,4,1,0,40,0,0
210479,-74.88111,4,1,0,40,0,0
210579,-75.228165,4,1,0,40,0,0
210779,-75.85236,4,1,0,40,0,0
210879,-76.13841,4,1,0,40,0,0
210979,-76.41095,4,1,0,40,0,0
211179,-76.92307,4,1,0,40,0,0
211379,-77.40012,4,1,0,40,0,0
211479,-77.6279,4,1,0,40,0,0
211579,-77.84948,4,1,0,40,0,0
211779,-78.27631,4,1,0,40,0,0
211879,-78.48249,4,1,0,40,0,0
211979,-78.68435,4,1,0,40,0,0
212179,-79.07642,4,1,0,40,0,0
212279,-79.267166,4,1,0,40,0,0
212379,-79.45471,4,1,0,40,0,0
212579,-79.820946,4,1,0,40,0,0
212779,-80.176544,4,1,0,40,0,0
212979,-80.52268,4,1,0,40,0,0
213079,-80.6925,4,1,0,40,0,0
213179,-80.860306,4,1,0,40,0,0
213379,-81.19025,4,1,0,40,0,0
213579,-81.51321,4,1,0,40,0,0
213679,-81.672264,4,1,0,40,0,0
213779,-81.829796,4,1,0,40,0,0
213979,-82.14052,4,1,0,40,0,0
214079,-82.29383,4,1,0,40,0,0
214179,-82.44585,4,1,0,40,0,0
214379,-82.7462,4,1,0,40,0,0
214579,-83.041916,4,1,0,40,0,0
214679,-83.18814,4,1,0,40,0,0
214779,-83.33333,4,1,0,40,0,0
215079,-83.0899,4,1,0,40,0,0
215179,-82.90155,4,1,0,40,0,0
215379,-82.36808,4,1,0,40,0,0
215579,-81.63265,4,1,0,40,0,0
215779,-80.70618,4,1,0,40,0,0
215879,-80.175385,4,1,0,40,0,0
215979,-79.60199,4,1,0,40,0,0
216179,-78.33537,4,1,0,40,0,0
216279,-77.64635,4,1,0,40,0,0
216379,-76.92308,4,1,0,40,0,0
216579,-76.89227,4,1,0,41,0,0
216779,-76.8,4,1,0,43,0,0
216979,-76.64671,4,1,0,44,0,0
217179,-76.43312,4,1,0,45,0,0
217379,-76.16026,4,1,0,46,0,0
217579,-75.82939,4,1,0,48,0,0
217779,-75.44205,4,1,0,49,0,0
217979,-75.00001,4,1,0,50,0,0
218179,-74.50524,4,1,0,51,0,0
218379,-73.959946,4,1,0,53,0,0
218579,-73.366455,4,1,0,54,0,0
218779,-72.72728,4,1,0,55,0,0
218979,-72.04503,4,1,0,56,0,0
219179,-71.32244,4,1,0,58,0,0
219279,-70.9219858156028,4,1,0,58,0,0
219379,-70.562294,4,1,0,59,0,0
219479,-70.16903,4,1,0,59,0,0
219579,-69.76744,4,1,0,60,0,0
219679,-69.357895,4,1,0,61,0,0
219779,-68.94075,4,1,0,61,0,0
219879,-68.51637,4,1,0,62,0,0
219979,-68.085106,4,1,0,63,0,0
220079,-67.64732,4,1,0,63,0,0
220179,-67.20336,4,1,0,64,0,0
220245,-66.90714,4,1,0,64,0,0
220312,-66.60395,4,1,0,65,0,0
220379,-66.29834,4,1,0,65,0,0
220479,-65.837975,4,1,0,66,0,0
220579,-65.372826,4,1,0,66,0,0
220679,-64.90324,4,1,0,67,0,0
220779,-64.42953,4,1,0,68,0,0
220879,-63.952038,4,1,0,68,0,0
220979,-63.471073,4,1,0,69,0,0
221045,-63.151894,4,1,0,69,0,0
221112,-62.82656,4,1,0,70,0,0
221179,-62.5,4,1,0,70,0,0
221579,-83.3333333333333,4,1,0,40,0,0
222179,-55.5555555555556,4,1,0,60,0,0
222579,-71.4285714285714,4,1,0,80,0,0
222779,-62.5,4,1,0,80,0,1
234779,-55.5555555555556,4,1,0,80,0,1
235379,-62.5,4,1,0,80,0,0
235579,-62.5,4,1,0,80,0,1
238279,-62.5,4,1,0,50,0,1
238379,-62.5,4,1,0,50,0,0
238679,-62.5,4,1,0,80,0,0
238779,-62.5,4,1,0,80,0,1
241579,-62.5,4,1,0,80,0,0
241979,-58.8235294117647,4,1,0,80,0,1
243179,-58.8235294117647,4,1,0,80,0,0
243579,-55.5555555555556,4,1,0,80,0,1
244779,-55.5555555555556,4,1,0,80,0,0
245179,-52.6315789473684,4,1,0,80,0,1
245579,-52.6315789473684,4,1,0,80,0,0
245979,-50,4,1,0,80,0,1
246379,-50,4,1,0,80,0,0
246779,-50,4,1,0,80,0,1
247879,-66.6666666666667,4,1,0,60,0,1
247979,-66.6666666666667,4,1,0,60,0,0
248279,-66.6666666666667,4,1,0,40,0,0
248379,-71.42857,4,1,0,40,0,0
248579,-75.228165,4,1,0,43,0,0
248779,-76.92308,4,1,0,45,0,0
248879,-77.62791,4,1,0,46,0,0
248979,-78.27632,4,1,0,48,0,0
249179,-79.45471,4,1,0,50,0,0
249279,-79.99999,4,1,0,51,0,0
249379,-80.52268,4,1,0,53,0,0
249579,-81.51321,4,1,0,55,0,0
249779,-82.44585,4,1,0,58,0,0
249979,-83.33333,4,1,0,60,0,0
250179,-82.90155,4,1,0,63,0,0
250279,-82.36808,4,1,0,64,0,0
250379,-81.632645,4,1,0,65,0,0
250579,-79.60198,4,1,0,68,0,0
250679,-78.335365,4,1,0,69,0,0
250779,-76.92307,4,1,0,70,0,0
250979,-73.73272,4,1,0,73,0,0
251079,-71.991,4,1,0,74,0,0
251279,-68.3031,4,1,0,76,0,0
251379,-66.39004,4,1,0,78,0,0
251579,-62.5,4,1,0,80,0,1
254779,-62.5,4,1,0,40,0,1
254979,-62.5,4,1,0,40,0,0
255079,-62.5,4,1,0,80,0,0
255179,-62.5,4,1,0,80,0,1
260979,-62.5,4,1,0,80,0,0
261179,-62.5,4,1,0,80,0,1
264379,-55.5555555555556,4,1,0,80,0,1
264579,-62.5,4,1,0,80,0,0
264779,-62.5,4,1,0,80,0,1
265879,-62.5,4,1,0,40,0,1
265979,-62.5,4,1,0,40,0,0
266279,-65.7894736842105,4,1,0,40,0,0
266579,-68.9655172413793,4,1,0,40,0,0
266779,-71.4285714285714,4,1,0,40,0,0
267079,-68.9655172413793,4,1,0,40,0,0
267379,-64.5161290322581,4,1,0,40,0,0
267479,-62.5,4,1,0,80,0,0
267579,-62.5,4,1,0,80,0,1
267779,-62.48474,4,1,0,80,0,1
267979,-62.439026,4,1,0,80,0,1
268079,-62.404778,4,1,0,80,0,1
268179,-62.362972,4,1,0,80,0,1
268379,-62.25681,4,1,0,80,0,1
268479,-62.192528,4,1,0,80,0,1
268579,-62.120842,4,1,0,80,0,1
268679,-62.041805,4,1,0,80,0,1
268779,-61.955467,4,1,0,80,0,1
268979,-61.761158,4,1,0,80,0,1
269179,-61.53846,4,1,0,80,0,1
269379,-61.288006,4,1,0,80,0,1
269479,-61.152584,4,1,0,80,0,1
269579,-61.010487,4,1,0,80,0,1
269779,-60.70666,4,1,0,80,0,1
269879,-60.54514,4,1,0,80,0,1
269979,-60.377357,4,1,0,80,0,1
270179,-60.023445,4,1,0,80,0,1
270379,-59.64585,4,1,0,80,0,1
270479,-59.3119810201661,4,1,0,80,0,1
270579,-59.245544,4,1,0,80,0,1
270679,-59.037186,4,1,0,80,0,1
270779,-55.555557,4,1,0,80,0,1
270879,-55.531452,4,1,0,80,0,1
270979,-55.45927,4,1,0,80,0,1
271079,-55.339386,4,1,0,80,0,1
271179,-55.172413,4,1,0,80,0,1
271279,-54.959213,4,1,0,80,0,1
271379,-54.700855,4,1,0,80,0,1
271445,-54.50622,4,1,0,80,0,1
271512,-54.28953,4,1,0,80,0,1
271579,-54.054054,4,1,0,80,0,1
271679,-53.668762,4,1,0,80,0,1
271779,-53.244595,4,1,0,80,0,1
271879,-52.783504,4,1,0,80,0,1
271979,-52.287582,4,1,0,80,0,1
272079,-51.758995,4,1,0,80,0,1
272179,-51.2,4,1,0,80,0,1
272279,-50.612892,4,1,0,80,0,1
272379,-50,4,1,0,80,0,1
272579,-54.054054,4,1,0,73,0,1
272779,-55.93254,4,1,0,65,0,1
272979,-57.46491,4,1,0,58,0,1
273179,-58.82353,4,1,0,50,0,1
273379,-58.8235294117647,4,1,0,60,0,1
273779,-75.4716981132076,4,1,0,60,0,1
273879,-75.4716981132076,4,1,0,40,0,1
273979,-83.33333,4,1,0,40,0,0
275579,-109.38211,4,1,0,40,0,0
277179,-125.65104,4,1,0,40,0,0
278779,-141.8389,4,1,0,40,0,0
279579,-150.29317,4,1,0,40,0,0
280379,-159.12103,4,1,0,40,0,0
281979,-178.2562,4,1,0,40,0,0
282779,-188.7501,4,1,0,40,0,0
283579,-200,4,1,0,40,0,0
284579,454.545454545455,4,1,0,40,1,8
284579,-168.59488,4,1,0,40,0,8
284806,472.44094488189,4,1,0,38,1,8
284806,-158.83041,4,1,0,38,0,8
285042,-154.7822,4,1,0,37,0,8
285278,535.714285714286,4,1,0,35,1,0
285278,-132.53024,4,1,0,35,0,0
285545,461.538461538462,4,1,0,33,1,8
285545,-148.1776,4,1,0,33,0,8
285775,600,4,1,0,31,1,8
285775,-110.028,4,1,0,31,0,8
286075,588.235294117647,4,1,0,29,1,8
286075,-106.78073,4,1,0,29,0,8
286369,722.89156626506,4,1,0,27,1,8
286369,-82.47029,4,1,0,27,0,8
286730,1090.90909090909,4,1,0,24,1,8
286730,-51.064297,4,1,0,24,0,8
287275,1090.90909090909,4,1,0,20,1,8
287275,-45.833332,4,1,0,20,0,0

[HitObjects]
288,160,17979,5,8,0:0:0:0:
224,160,21179,1,0,0:0:0:0:
224,160,22779,1,0,0:0:0:0:
224,160,23579,1,0,0:0:0:0:
288,160,24379,1,8,0:0:0:0:
288,160,25979,1,8,0:0:0:0:
288,160,26779,1,8,0:0:0:0:
224,160,27579,1,0,0:0:0:0:
288,160,29179,1,8,0:0:0:0:
224,160,29979,1,0,0:0:0:0:
288,160,30279,1,8,0:0:0:0:
288,160,30579,1,8,0:0:0:0:
224,160,30779,1,0,0:0:0:0:
224,160,33979,1,0,0:0:0:0:
288,160,34779,1,8,0:0:0:0:
224,160,35079,1,0,0:0:0:0:
288,160,35379,1,8,0:0:0:0:
288,160,35579,1,8,0:0:0:0:
288,160,36379,1,8,0:0:0:0:
224,160,37179,1,0,0:0:0:0:
288,160,38779,1,8,0:0:0:0:
288,160,39579,1,8,0:0:0:0:
224,160,40379,1,0,0:0:0:0:
256,192,40579,12,0,42379,0:0:0:0:
288,160,42779,5,8,0:0:0:0:
288,160,43179,1,8,0:0:0:0:
224,224,43579,1,4,0:0:0:0:
288,160,43779,1,8,0:0:0:0:
224,160,43979,1,0,0:0:0:0:
224,160,44079,1,0,0:0:0:0:
288,160,44179,1,8,0:0:0:0:
224,160,44379,1,0,0:0:0:0:
224,160,44479,1,0,0:0:0:0:
288,160,44579,1,8,0:0:0:0:
288,160,44779,1,8,0:0:0:0:
224,160,44979,1,0,0:0:0:0:
224,160,45379,1,0,0:0:0:0:
288,160,45479,1,8,0:0:0:0:
224,160,45579,1,0,0:0:0:0:
224,160,45779,1,0,0:0:0:0:
288,160,45879,1,8,0:0:0:0:
224,160,45979,1,0,0:0:0:0:
288,160,46179,1,8,0:0:0:0:
224,160,46379,1,0,0:0:0:0:
288,160,46579,1,8,0:0:0:0:
224,160,46979,1,0,0:0:0:0:
224,160,47179,1,0,0:0:0:0:
224,160,47279,1,0,0:0:0:0:
224,160,47379,1,0,0:0:0:0:
224,160,47579,1,0,0:0:0:0:
224,160,47679,1,0,0:0:0:0:
224,160,47779,1,0,0:0:0:0:
288,160,47979,1,8,0:0:0:0:
224,160,48179,1,0,0:0:0:0:
288,160,48679,1,8,0:0:0:0:
288,160,48979,1,8,0:0:0:0:
224,160,49179,1,0,0:0:0:0:
224,160,49479,1,0,0:0:0:0:
288,224,49579,1,12,0:0:0:0:
288,224,49779,1,12,0:0:0:0:
288,160,50179,1,8,0:0:0:0:
224,160,50379,1,0,0:0:0:0:
224,160,50479,1,0,0:0:0:0:
288,160,50579,1,8,0:0:0:0:
224,160,50779,1,0,0:0:0:0:
224,160,50879,1,0,0:0:0:0:
288,160,50979,1,8,0:0:0:0:
288,160,51179,1,8,0:0:0:0:
224,160,51379,1,0,0:0:0:0:
224,160,51779,1,0,0:0:0:0:
288,160,51879,1,8,0:0:0:0:
224,160,51979,1,0,0:0:0:0:
224,160,52179,1,0,0:0:0:0:
288,160,52279,1,8,0:0:0:0:
224,160,52379,1,0,0:0:0:0:
288,160,52579,1,8,0:0:0:0:
224,160,52779,1,0,0:0:0:0:
288,160,52979,1,8,0:0:0:0:
288,160,53379,1,8,0:0:0:0:
224,160,53579,1,0,0:0:0:0:
288,160,53679,1,8,0:0:0:0:
288,160,53779,1,8,0:0:0:0:
224,160,53979,1,0,0:0:0:0:
288,160,54079,1,8,0:0:0:0:
288,160,54179,1,8,0:0:0:0:
224,160,54379,1,0,0:0:0:0:
288,160,54579,1,8,0:0:0:0:
288,160,55079,1,8,0:0:0:0:
224,160,55179,1,0,0:0:0:0:
224,160,55379,1,0,0:0:0:0:
224,160,55479,1,0,0:0:0:0:
288,160,55579,1,8,0:0:0:0:
224,160,55879,1,0,0:0:0:0:
288,160,56179,1,8,0:0:0:0:
224,224,56379,1,4,0:0:0:0:
288,160,56579,1,8,0:0:0:0:
224,160,56779,1,0,0:0:0:0:
224,160,56879,1,0,0:0:0:0:
288,160,56979,1,8,0:0:0:0:
224,160,57179,1,0,0:0:0:0:
224,160,57279,1,0,0:0:0:0:
288,160,57379,1,8,0:0:0:0:
288,160,57579,1,8,0:0:0:0:
224,160,57779,1,0,0:0:0:0:
224,160,58179,1,0,0:0:0:0:
288,160,58279,1,8,0:0:0:0:
224,160,58379,1,0,0:0:0:0:
224,160,58579,1,0,0:0:0:0:
288,160,58679,1,8,0:0:0:0:
224,160,58779,1,0,0:0:0:0:
288,160,58979,1,8,0:0:0:0:
224,160,59179,1,0,0:0:0:0:
288,160,59379,1,8,0:0:0:0:
224,160,59779,1,0,0:0:0:0:
224,160,59979,1,0,0:0:0:0:
224,160,60079,1,0,0:0:0:0:
224,160,60179,1,0,0:0:0:0:
224,160,60379,1,0,0:0:0:0:
224,160,60479,1,0,0:0:0:0:
224,160,60579,1,0,0:0:0:0:
288,160,60779,1,8,0:0:0:0:
224,160,60979,1,0,0:0:0:0:
288,160,61479,1,8,0:0:0:0:
288,160,61779,1,8,0:0:0:0:
224,160,61979,1,0,0:0:0:0:
224,160,62279,1,0,0:0:0:0:
288,224,62379,1,12,0:0:0:0:
288,224,62579,1,12,0:0:0:0:
288,160,62979,1,8,0:0:0:0:
224,160,63179,1,0,0:0:0:0:
224,160,63279,1,0,0:0:0:0:
288,160,63379,1,8,0:0:0:0:
224,160,63579,1,0,0:0:0:0:
224,160,63679,1,0,0:0:0:0:
288,160,63779,1,8,0:0:0:0:
288,160,63979,1,8,0:0:0:0:
224,160,64179,1,0,0:0:0:0:
224,160,64579,1,0,0:0:0:0:
288,160,64679,1,8,0:0:0:0:
224,160,64779,1,0,0:0:0:0:
224,160,64979,1,0,0:0:0:0:
288,160,65079,1,8,0:0:0:0:
224,160,65179,1,0,0:0:0:0:
288,160,65379,1,8,0:0:0:0:
224,160,65579,1,0,0:0:0:0:
288,160,65779,1,8,0:0:0:0:
288,160,66179,1,8,0:0:0:0:
224,160,66379,1,0,0:0:0:0:
224,160,66479,1,0,0:0:0:0:
288,160,66579,1,8,0:0:0:0:
224,160,66779,1,0,0:0:0:0:
224,160,66879,1,0,0:0:0:0:
288,160,66979,1,8,0:0:0:0:
224,160,67179,1,0,0:0:0:0:
224,160,67279,1,0,0:0:0:0:
224,160,67379,1,0,0:0:0:0:
224,160,67479,1,0,0:0:0:0:
288,160,67579,1,8,0:0:0:0:
224,160,67779,1,0,0:0:0:0:
288,160,67979,1,8,0:0:0:0:
224,160,68179,1,0,0:0:0:0:
224,160,68279,1,0,0:0:0:0:
288,160,68379,1,8,0:0:0:0:
288,160,68779,1,8,0:0:0:0:
224,224,69179,1,4,0:0:0:0:
288,160,69379,1,8,0:0:0:0:
224,160,69579,1,0,0:0:0:0:
224,160,69679,1,0,0:0:0:0:
288,160,69779,1,8,0:0:0:0:
224,160,69979,1,0,0:0:0:0:
224,160,70079,1,0,0:0:0:0:
288,160,70179,1,8,0:0:0:0:
288,160,70379,1,8,0:0:0:0:
224,160,70579,1,0,0:0:0:0:
224,160,70679,1,0,0:0:0:0:
224,160,70779,1,0,0:0:0:0:
224,160,70979,1,0,0:0:0:0:
288,160,71079,1,8,0:0:0:0:
224,160,71179,1,0,0:0:0:0:
224,160,71379,1,0,0:0:0:0:
288,160,71479,1,8,0:0:0:0:
224,160,71579,1,0,0:0:0:0:
288,160,71779,1,8,0:0:0:0:
224,160,71979,1,0,0:0:0:0:
288,160,72179,1,8,0:0:0:0:
224,160,72279,1,0,0:0:0:0:
224,160,72379,1,0,0:0:0:0:
288,160,72579,1,8,0:0:0:0:
224,160,72779,1,0,0:0:0:0:
224,160,72879,1,0,0:0:0:0:
288,160,72979,1,8,0:0:0:0:
224,160,73179,1,0,0:0:0:0:
224,160,73279,1,0,0:0:0:0:
288,160,73379,1,8,0:0:0:0:
288,160,73579,1,8,0:0:0:0:
224,160,73779,1,0,0:0:0:0:
224,160,73879,1,0,0:0:0:0:
224,160,73979,1,0,0:0:0:0:
288,160,74179,1,8,0:0:0:0:
288,160,74245,1,8,0:0:0:0:
288,160,74379,1,8,0:0:0:0:
288,160,74445,1,8,0:0:0:0:
288,160,74579,1,8,0:0:0:0:
288,160,74645,1,8,0:0:0:0:
224,160,74779,1,0,0:0:0:0:
224,160,74845,1,0,0:0:0:0:
224,160,74979,1,0,0:0:0:0:
224,160,75045,1,0,0:0:0:0:
288,160,75179,1,8,0:0:0:0:
288,160,75245,1,8,0:0:0:0:
224,160,75379,1,0,0:0:0:0:
288,160,75479,1,8,0:0:0:0:
224,160,75579,1,0,0:0:0:0:
288,160,75779,1,8,0:0:0:0:
224,160,75979,1,0,0:0:0:0:
224,160,76079,1,0,0:0:0:0:
288,160,76179,1,8,0:0:0:0:
224,160,76379,1,0,0:0:0:0:
224,160,76479,1,0,0:0:0:0:
288,160,76579,1,8,0:0:0:0:
288,160,76779,1,8,0:0:0:0:
224,160,76979,1,0,0:0:0:0:
224,160,77079,1,0,0:0:0:0:
224,160,77179,1,0,0:0:0:0:
224,160,77379,1,0,0:0:0:0:
288,160,77479,1,8,0:0:0:0:
224,160,77579,1,0,0:0:0:0:
224,160,77779,1,0,0:0:0:0:
288,160,77879,1,8,0:0:0:0:
224,160,77979,1,0,0:0:0:0:
288,160,78179,1,8,0:0:0:0:
224,160,78379,1,0,0:0:0:0:
224,160,78479,1,0,0:0:0:0:
288,160,78579,1,8,0:0:0:0:
288,160,78679,1,8,0:0:0:0:
224,160,78779,1,0,0:0:0:0:
224,160,78879,1,0,0:0:0:0:
288,160,78979,1,8,0:0:0:0:
288,160,79079,1,8,0:0:0:0:
224,160,79179,1,0,0:0:0:0:
224,160,79279,1,0,0:0:0:0:
288,160,79379,1,8,0:0:0:0:
288,160,79445,1,8,0:0:0:0:
288,160,79512,1,8,0:0:0:0:
224,160,79579,1,0,0:0:0:0:
224,160,79679,1,0,0:0:0:0:
288,160,79779,1,8,0:0:0:0:
224,160,79879,1,0,0:0:0:0:
288,160,79979,1,8,0:0:0:0:
288,160,80079,1,8,0:0:0:0:
224,160,80179,1,0,0:0:0:0:
224,160,80245,1,0,0:0:0:0:
224,160,80312,1,0,0:0:0:0:
288,160,80979,1,8,0:0:0:0:
288,160,81045,1,8,0:0:0:0:
288,160,81112,1,8,0:0:0:0:
224,160,81179,1,0,0:0:0:0:
288,224,81579,1,12,0:0:0:0:
224,224,81979,1,4,0:0:0:0:
288,160,82179,1,8,0:0:0:0:
224,160,82379,1,0,0:0:0:0:
224,160,82479,1,0,0:0:0:0:
288,160,82579,1,8,0:0:0:0:
224,160,82779,1,0,0:0:0:0:
224,160,82879,1,0,0:0:0:0:
288,160,82979,1,8,0:0:0:0:
224,160,83079,1,0,0:0:0:0:
288,160,83179,1,8,0:0:0:0:
288,160,83379,1,8,0:0:0:0:
288,160,83479,1,8,0:0:0:0:
224,160,83579,1,0,0:0:0:0:
224,160,83779,1,0,0:0:0:0:
288,160,83879,1,8,0:0:0:0:
224,160,83979,1,0,0:0:0:0:
224,160,84179,1,0,0:0:0:0:
288,160,84279,1,8,0:0:0:0:
224,160,84379,1,0,0:0:0:0:
288,160,84579,1,8,0:0:0:0:
224,160,84779,1,0,0:0:0:0:
288,160,84979,1,8,0:0:0:0:
288,160,85079,1,8,0:0:0:0:
224,160,85179,1,0,0:0:0:0:
288,160,85379,1,8,0:0:0:0:
224,160,85579,1,0,0:0:0:0:
224,160,85679,1,0,0:0:0:0:
224,160,85779,1,0,0:0:0:0:
224,160,85979,1,0,0:0:0:0:
224,160,86079,1,0,0:0:0:0:
224,160,86179,1,0,0:0:0:0:
224,160,86279,1,0,0:0:0:0:
288,160,86379,1,8,0:0:0:0:
288,160,86579,1,8,0:0:0:0:
224,160,86779,1,0,0:0:0:0:
224,160,86979,1,0,0:0:0:0:
288,160,87079,1,8,0:0:0:0:
224,160,87179,1,0,0:0:0:0:
224,160,87279,1,0,0:0:0:0:
288,160,87379,1,8,0:0:0:0:
224,224,87579,1,4,0:0:0:0:
288,160,87779,1,8,0:0:0:0:
224,224,87879,1,4,0:0:0:0:
288,160,88079,1,8,0:0:0:0:
224,224,88179,1,4,0:0:0:0:
288,160,88579,1,8,0:0:0:0:
224,160,88779,1,0,0:0:0:0:
224,160,88879,1,0,0:0:0:0:
288,160,88979,1,8,0:0:0:0:
224,160,89179,1,0,0:0:0:0:
224,160,89279,1,0,0:0:0:0:
288,160,89379,1,8,0:0:0:0:
224,160,89479,1,0,0:0:0:0:
288,160,89579,1,8,0:0:0:0:
224,160,89779,1,0,0:0:0:0:
224,160,89879,1,0,0:0:0:0:
224,160,89979,1,0,0:0:0:0:
224,160,90179,1,0,0:0:0:0:
288,160,90279,1,8,0:0:0:0:
224,160,90379,1,0,0:0:0:0:
224,160,90579,1,0,0:0:0:0:
288,160,90679,1,8,0:0:0:0:
224,160,90779,1,0,0:0:0:0:
288,160,90979,1,8,0:0:0:0:
224,160,91179,1,0,0:0:0:0:
288,160,91279,1,8,0:0:0:0:
224,160,91379,1,0,0:0:0:0:
288,160,91479,1,8,0:0:0:0:
224,160,91579,1,0,0:0:0:0:
288,160,91779,1,8,0:0:0:0:
224,160,91979,1,0,0:0:0:0:
288,160,92079,1,8,0:0:0:0:
288,160,92179,1,8,0:0:0:0:
224,160,92379,1,0,0:0:0:0:
288,160,92479,1,8,0:0:0:0:
288,160,92579,1,8,0:0:0:0:
224,160,92779,1,0,0:0:0:0:
224,160,92879,1,0,0:0:0:0:
288,160,92979,1,8,0:0:0:0:
288,160,93079,1,8,0:0:0:0:
224,160,93179,1,0,0:0:0:0:
288,160,93379,1,8,0:0:0:0:
224,160,93479,1,0,0:0:0:0:
288,160,93579,1,8,0:0:0:0:
288,160,93779,1,8,0:0:0:0:
224,224,93979,1,4,0:0:0:0:
224,160,94179,1,0,0:0:0:0:
288,224,94279,1,12,0:0:0:0:
288,160,94779,1,8,0:0:0:0:
288,160,94879,1,8,0:0:0:0:
288,160,94979,1,8,0:0:0:0:
224,160,95179,1,0,0:0:0:0:
224,160,95279,1,0,0:0:0:0:
288,160,95379,1,8,0:0:0:0:
224,160,95579,1,0,0:0:0:0:
224,160,95679,1,0,0:0:0:0:
288,160,95779,1,8,0:0:0:0:
224,160,95879,1,0,0:0:0:0:
288,160,95979,1,8,0:0:0:0:
288,160,96179,1,8,0:0:0:0:
288,160,96279,1,8,0:0:0:0:
224,160,96379,1,0,0:0:0:0:
224,160,96579,1,0,0:0:0:0:
288,160,96679,1,8,0:0:0:0:
224,160,96779,1,0,0:0:0:0:
224,160,96979,1,0,0:0:0:0:
288,160,97079,1,8,0:0:0:0:
224,160,97179,1,0,0:0:0:0:
224,160,97279,1,0,0:0:0:0:
288,160,97379,1,8,0:0:0:0:
288,160,97479,1,8,0:0:0:0:
224,160,97579,1,0,0:0:0:0:
288,160,97779,1,8,0:0:0:0:
224,224,97979,1,4,0:0:0:0:
288,160,98179,1,8,0:0:0:0:
224,160,98379,1,0,0:0:0:0:
288,160,98479,1,8,0:0:0:0:
224,160,98579,1,0,0:0:0:0:
224,160,98779,1,0,0:0:0:0:
288,160,98879,1,8,0:0:0:0:
224,160,98979,1,0,0:0:0:0:
224,160,99179,1,0,0:0:0:0:
288,160,99379,1,8,0:0:0:0:
288,160,99479,1,8,0:0:0:0:
224,160,99579,1,0,0:0:0:0:
224,160,99779,1,0,0:0:0:0:
224,160,99845,1,0,0:0:0:0:
224,160,99912,1,0,0:0:0:0:
288,160,99979,1,8,0:0:0:0:
288,160,100179,1,8,0:0:0:0:
224,160,100379,1,0,0:0:0:0:
288,160,100479,1,8,0:0:0:0:
224,160,100579,1,0,0:0:0:0:
224,160,100679,1,0,0:0:0:0:
288,160,100779,1,8,0:0:0:0:
288,160,100979,1,8,0:0:0:0:
224,224,101179,1,4,0:0:0:0:
288,160,101379,1,8,0:0:0:0:
288,160,101479,1,8,0:0:0:0:
224,160,101579,1,0,0:0:0:0:
288,160,101679,1,8,0:0:0:0:
288,160,101779,1,8,0:0:0:0:
224,160,101979,1,0,0:0:0:0:
288,160,102079,1,8,0:0:0:0:
224,160,102179,1,0,0:0:0:0:
288,160,102379,1,8,0:0:0:0:
224,160,102579,1,0,0:0:0:0:
288,224,102779,1,12,0:0:0:0:
224,160,102979,1,0,0:0:0:0:
224,160,103079,1,0,0:0:0:0:
288,160,103179,1,8,0:0:0:0:
224,160,103279,1,0,0:0:0:0:
288,160,103379,1,8,0:0:0:0:
288,160,103445,1,8,0:0:0:0:
288,160,103512,1,8,0:0:0:0:
288,160,103579,1,8,0:0:0:0:
288,160,103779,1,8,0:0:0:0:
288,160,103845,1,8,0:0:0:0:
288,160,103912,1,8,0:0:0:0:
224,160,103979,1,0,0:0:0:0:
288,160,104179,1,8,0:0:0:0:
224,224,104379,1,4,0:0:0:0:
288,160,104579,1,8,0:0:0:0:
288,160,104645,1,8,0:0:0:0:
288,160,104712,1,8,0:0:0:0:
224,160,104779,1,0,0:0:0:0:
224,160,104879,1,0,0:0:0:0:
288,160,104979,1,8,0:0:0:0:
224,224,105179,1,4,0:0:0:0:
288,160,105379,1,8,0:0:0:0:
288,160,105445,1,8,0:0:0:0:
288,160,105512,1,8,0:0:0:0:
224,160,105579,1,0,0:0:0:0:
288,160,105779,1,8,0:0:0:0:
224,224,105979,1,4,0:0:0:0:
256,192,106079,12,8,106979,0:0:0:0:
288,224,107179,5,12,0:0:0:0:
224,224,107579,1,4,0:0:0:0:
288,160,107779,1,8,0:0:0:0:
224,160,107979,1,0,0:0:0:0:
224,160,108079,1,0,0:0:0:0:
288,160,108179,1,8,0:0:0:0:
224,160,108379,1,0,0:0:0:0:
224,160,108479,1,0,0:0:0:0:
288,160,108579,1,8,0:0:0:0:
224,160,108679,1,0,0:0:0:0:
288,160,108779,1,8,0:0:0:0:
224,160,108979,1,0,0:0:0:0:
224,160,109079,1,0,0:0:0:0:
224,160,109179,1,0,0:0:0:0:
224,160,109379,1,0,0:0:0:0:
288,160,109479,1,8,0:0:0:0:
224,160,109579,1,0,0:0:0:0:
224,160,109779,1,0,0:0:0:0:
288,160,109879,1,8,0:0:0:0:
224,160,109979,1,0,0:0:0:0:
224,160,110179,1,0,0:0:0:0:
288,160,110279,1,8,0:0:0:0:
224,160,110379,1,0,0:0:0:0:
224,160,110479,1,0,0:0:0:0:
288,160,110579,1,8,0:0:0:0:
224,160,110779,1,0,0:0:0:0:
288,160,110979,1,8,0:0:0:0:
224,160,111179,1,0,0:0:0:0:
224,160,111279,1,0,0:0:0:0:
288,160,111379,1,8,0:0:0:0:
224,160,111579,1,0,0:0:0:0:
224,160,111679,1,0,0:0:0:0:
288,160,111779,1,8,0:0:0:0:
224,160,111879,1,0,0:0:0:0:
288,160,111979,1,8,0:0:0:0:
288,160,112179,1,8,0:0:0:0:
224,160,112379,1,0,0:0:0:0:
224,160,112579,1,0,0:0:0:0:
288,160,112679,1,8,0:0:0:0:
224,160,112779,1,0,0:0:0:0:
224,160,112879,1,0,0:0:0:0:
288,160,112979,1,8,0:0:0:0:
224,224,113179,1,4,0:0:0:0:
288,160,113379,1,8,0:0:0:0:
224,224,113479,1,4,0:0:0:0:
288,160,113679,1,8,0:0:0:0:
224,224,113779,1,4,0:0:0:0:
224,224,114379,1,4,0:0:0:0:
288,160,114579,1,8,0:0:0:0:
224,160,114779,1,0,0:0:0:0:
224,160,114879,1,0,0:0:0:0:
224,160,114979,1,0,0:0:0:0:
224,160,115079,1,0,0:0:0:0:
288,160,115179,1,8,0:0:0:0:
288,160,115379,1,8,0:0:0:0:
224,160,115579,1,0,0:0:0:0:
224,160,115779,1,0,0:0:0:0:
288,160,115879,1,8,0:0:0:0:
224,160,115979,1,0,0:0:0:0:
224,160,116079,1,0,0:0:0:0:
224,160,116179,1,0,0:0:0:0:
288,160,116279,1,8,0:0:0:0:
224,160,116379,1,0,0:0:0:0:
224,160,116479,1,0,0:0:0:0:
288,160,116579,1,8,0:0:0:0:
224,160,116679,1,0,0:0:0:0:
224,160,116879,1,0,0:0:0:0:
288,160,116979,1,8,0:0:0:0:
288,160,117079,1,8,0:0:0:0:
224,160,117179,1,0,0:0:0:0:
288,160,117379,1,8,0:0:0:0:
288,160,117579,1,8,0:0:0:0:
224,160,117679,1,0,0:0:0:0:
288,160,117779,1,8,0:0:0:0:
224,160,117979,1,0,0:0:0:0:
224,160,118079,1,0,0:0:0:0:
288,160,118179,1,8,0:0:0:0:
288,160,118245,1,8,0:0:0:0:
288,160,118312,1,8,0:0:0:0:
224,160,118379,1,0,0:0:0:0:
288,160,118579,1,8,0:0:0:0:
224,160,118779,1,0,0:0:0:0:
224,160,118979,1,0,0:0:0:0:
288,160,119179,1,8,0:0:0:0:
288,160,119279,1,8,0:0:0:0:
224,160,119379,1,0,0:0:0:0:
224,160,119445,1,0,0:0:0:0:
224,160,119512,1,0,0:0:0:0:
288,160,119579,1,8,0:0:0:0:
288,160,119879,1,8,0:0:0:0:
224,224,120379,1,4,0:0:0:0:
288,160,120579,1,8,0:0:0:0:
288,160,120679,1,8,0:0:0:0:
224,160,120779,1,0,0:0:0:0:
288,160,120879,1,8,0:0:0:0:
224,160,120979,1,0,0:0:0:0:
288,160,121179,1,8,0:0:0:0:
224,160,121279,1,0,0:0:0:0:
288,160,121379,1,8,0:0:0:0:
288,160,121579,1,8,0:0:0:0:
288,160,121679,1,8,0:0:0:0:
224,160,121779,1,0,0:0:0:0:
288,160,121879,1,8,0:0:0:0:
224,160,121979,1,0,0:0:0:0:
224,160,122179,1,0,0:0:0:0:
224,160,122279,1,0,0:0:0:0:
288,160,122379,1,8,0:0:0:0:
224,160,122579,1,0,0:0:0:0:
224,160,122679,1,0,0:0:0:0:
288,160,122779,1,8,0:0:0:0:
224,160,122879,1,0,0:0:0:0:
288,160,122979,1,8,0:0:0:0:
288,160,123079,1,8,0:0:0:0:
224,160,123179,1,0,0:0:0:0:
288,160,123279,1,8,0:0:0:0:
224,224,123379,1,4,0:0:0:0:
288,160,123779,1,8,0:0:0:0:
288,160,123845,1,8,0:0:0:0:
288,160,123912,1,8,0:0:0:0:
224,160,123979,1,0,0:0:0:0:
224,160,124079,1,0,0:0:0:0:
288,160,124179,1,8,0:0:0:0:
224,160,124379,1,0,0:0:0:0:
224,160,124479,1,0,0:0:0:0:
288,160,124579,1,8,0:0:0:0:
224,160,124679,1,0,0:0:0:0:
288,160,124779,1,8,0:0:0:0:
224,160,124979,1,0,0:0:0:0:
288,160,125179,1,8,0:0:0:0:
224,160,125479,1,0,0:0:0:0:
288,160,125779,1,8,0:0:0:0:
224,160,125979,1,0,0:0:0:0:
224,160,126279,1,0,0:0:0:0:
288,160,126579,1,8,0:0:0:0:
224,224,126779,1,4,0:0:0:0:
288,160,126979,1,8,0:0:0:0:
224,160,127179,1,0,0:0:0:0:
288,160,127279,1,8,0:0:0:0:
288,160,127379,1,8,0:0:0:0:
288,160,127579,1,8,0:0:0:0:
224,160,127679,1,0,0:0:0:0:
288,160,127779,1,8,0:0:0:0:
224,160,127879,1,0,0:0:0:0:
224,160,127979,1,0,0:0:0:0:
288,160,128179,1,8,0:0:0:0:
224,160,128379,1,0,0:0:0:0:
288,160,128579,1,8,0:0:0:0:
288,160,128679,1,8,0:0:0:0:
224,160,128779,1,0,0:0:0:0:
288,160,128979,1,8,0:0:0:0:
224,160,129079,1,0,0:0:0:0:
224,160,129179,1,0,0:0:0:0:
224,160,129379,1,0,0:0:0:0:
288,160,129579,1,8,0:0:0:0:
224,160,129679,1,0,0:0:0:0:
288,160,129779,1,8,0:0:0:0:
288,160,129879,1,8,0:0:0:0:
224,160,129979,1,0,0:0:0:0:
224,160,130179,1,0,0:0:0:0:
224,160,130379,1,0,0:0:0:0:
224,160,130579,1,0,0:0:0:0:
224,160,130645,1,0,0:0:0:0:
224,160,130712,1,0,0:0:0:0:
288,160,130779,1,8,0:0:0:0:
224,160,130879,1,0,0:0:0:0:
288,160,130979,1,8,0:0:0:0:
288,160,131079,1,8,0:0:0:0:
224,160,131179,1,0,0:0:0:0:
288,160,131279,1,8,0:0:0:0:
224,160,131379,1,0,0:0:0:0:
224,160,131479,1,0,0:0:0:0:
288,160,131579,1,8,0:0:0:0:
224,160,131779,1,0,0:0:0:0:
288,160,131979,1,8,0:0:0:0:
288,160,132179,1,8,0:0:0:0:
224,160,132379,1,0,0:0:0:0:
288,224,132779,1,12,0:0:0:0:
224,224,133179,1,4,0:0:0:0:
288,160,136379,1,8,0:0:0:0:
224,160,137979,1,0,0:0:0:0:
224,160,138779,1,0,0:0:0:0:
224,160,138979,1,0,0:0:0:0:
288,160,139179,1,8,0:0:0:0:
224,160,139379,1,0,0:0:0:0:
288,160,139579,1,8,0:0:0:0:
288,160,141179,1,8,0:0:0:0:
288,160,141979,1,8,0:0:0:0:
288,160,142579,1,8,0:0:0:0:
288,160,142679,1,8,0:0:0:0:
224,160,142779,1,0,0:0:0:0:
224,160,144379,1,0,0:0:0:0:
288,160,144579,1,8,0:0:0:0:
288,160,144979,1,8,0:0:0:0:
224,160,145179,1,0,0:0:0:0:
224,160,145579,1,0,0:0:0:0:
288,160,145979,1,8,0:0:0:0:
288,160,146379,1,8,0:0:0:0:
224,160,146579,1,0,0:0:0:0:
288,160,146779,1,8,0:0:0:0:
288,160,147179,1,8,0:0:0:0:
224,160,148179,1,0,0:0:0:0:
224,160,148279,1,0,0:0:0:0:
288,160,148379,1,8,0:0:0:0:
224,160,148579,1,0,0:0:0:0:
224,160,148779,1,0,0:0:0:0:
288,160,148979,1,8,0:0:0:0:
224,160,149179,1,0,0:0:0:0:
288,160,149779,1,8,0:0:0:0:
224,160,149979,1,0,0:0:0:0:
288,160,150279,1,8,0:0:0:0:
224,160,150579,1,0,0:0:0:0:
288,160,150779,1,8,0:0:0:0:
288,160,151379,1,8,0:0:0:0:
224,160,151579,1,0,0:0:0:0:
224,160,151879,1,0,0:0:0:0:
288,160,152179,1,8,0:0:0:0:
224,160,152379,1,0,0:0:0:0:
224,160,153779,1,0,0:0:0:0:
288,160,153979,1,8,0:0:0:0:
288,160,154179,1,8,0:0:0:0:
224,160,154379,1,0,0:0:0:0:
224,160,154579,1,0,0:0:0:0:
224,160,155179,1,0,0:0:0:0:
224,160,155379,1,0,0:0:0:0:
224,160,155479,1,0,0:0:0:0:
288,160,155579,1,8,0:0:0:0:
256,192,157179,12,0,157979,0:0:0:0:
288,224,158379,5,12,0:0:0:0:
224,224,158779,1,4,0:0:0:0:
224,160,159179,1,0,0:0:0:0:
224,160,159579,1,0,0:0:0:0:
224,160,159979,1,0,0:0:0:0:
224,160,160379,1,0,0:0:0:0:
224,160,160779,1,0,0:0:0:0:
224,160,161179,1,0,0:0:0:0:
224,160,161579,1,0,0:0:0:0:
288,160,161779,1,8,0:0:0:0:
224,160,161979,1,0,0:0:0:0:
224,160,162379,1,0,0:0:0:0:
288,160,162779,1,8,0:0:0:0:
288,160,163179,1,8,0:0:0:0:
224,160,163579,1,0,0:0:0:0:
288,160,163979,1,8,0:0:0:0:
224,160,164379,1,0,0:0:0:0:
288,224,164779,1,12,0:0:0:0:
288,224,164979,1,12,0:0:0:0:
224,160,165179,1,0,0:0:0:0:
224,160,165579,1,0,0:0:0:0:
224,160,165979,1,0,0:0:0:0:
224,160,166379,1,0,0:0:0:0:
288,160,166579,1,8,0:0:0:0:
224,160,166779,1,0,0:0:0:0:
224,160,167179,1,0,0:0:0:0:
288,160,167579,1,8,0:0:0:0:
288,160,167979,1,8,0:0:0:0:
288,160,168179,1,8,0:0:0:0:
224,160,168379,1,0,0:0:0:0:
224,160,168779,1,0,0:0:0:0:
224,160,169179,1,0,0:0:0:0:
224,160,169579,1,0,0:0:0:0:
288,160,169979,1,8,0:0:0:0:
224,160,170379,1,0,0:0:0:0:
288,160,170779,1,8,0:0:0:0:
288,160,171079,1,8,0:0:0:0:
288,160,171379,1,8,0:0:0:0:
288,224,171579,1,12,0:0:0:0:
288,160,171879,1,8,0:0:0:0:
224,160,171979,1,0,0:0:0:0:
288,160,172179,1,8,0:0:0:0:
224,160,172379,1,0,0:0:0:0:
288,160,172579,1,8,0:0:0:0:
224,160,172679,1,0,0:0:0:0:
288,160,172779,1,8,0:0:0:0:
224,160,172979,1,0,0:0:0:0:
288,160,173179,1,8,0:0:0:0:
224,160,173479,1,0,0:0:0:0:
288,160,173579,1,8,0:0:0:0:
224,160,173779,1,0,0:0:0:0:
288,160,173979,1,8,0:0:0:0:
288,160,174079,1,8,0:0:0:0:
224,160,174179,1,0,0:0:0:0:
288,160,174379,1,8,0:0:0:0:
224,160,174579,1,0,0:0:0:0:
288,160,174679,1,8,0:0:0:0:
224,160,174779,1,0,0:0:0:0:
224,160,175079,1,0,0:0:0:0:
288,160,175179,1,8,0:0:0:0:
224,160,175379,1,0,0:0:0:0:
288,160,175579,1,8,0:0:0:0:
224,160,175679,1,0,0:0:0:0:
224,160,175779,1,0,0:0:0:0:
288,160,175879,1,8,0:0:0:0:
224,160,175979,1,0,0:0:0:0:
224,160,176079,1,0,0:0:0:0:
288,160,176179,1,8,0:0:0:0:
224,160,176379,1,0,0:0:0:0:
224,160,176679,1,0,0:0:0:0:
224,160,176779,1,0,0:0:0:0:
288,160,176979,1,8,0:0:0:0:
224,160,177179,1,0,0:0:0:0:
224,160,177279,1,0,0:0:0:0:
224,160,177379,1,0,0:0:0:0:
288,224,177579,1,12,0:0:0:0:
288,224,177779,1,12,0:0:0:0:
224,160,177979,1,0,0:0:0:0:
224,160,178179,1,0,0:0:0:0:
288,160,178279,1,8,0:0:0:0:
224,160,178379,1,0,0:0:0:0:
288,160,178579,1,8,0:0:0:0:
224,160,178779,1,0,0:0:0:0:
224,160,178879,1,0,0:0:0:0:
224,160,178979,1,0,0:0:0:0:
288,160,179179,1,8,0:0:0:0:
288,160,179379,1,8,0:0:0:0:
288,160,179479,1,8,0:0:0:0:
224,160,179579,1,0,0:0:0:0:
224,160,179779,1,0,0:0:0:0:
288,160,179979,1,8,0:0:0:0:
224,160,180079,1,0,0:0:0:0:
288,160,180179,1,8,0:0:0:0:
224,160,180379,1,0,0:0:0:0:
224,160,180479,1,0,0:0:0:0:
288,160,180579,1,8,0:0:0:0:
288,160,180779,1,8,0:0:0:0:
224,160,180879,1,0,0:0:0:0:
288,160,180979,1,8,0:0:0:0:
288,160,181079,1,8,0:0:0:0:
224,160,181179,1,0,0:0:0:0:
224,160,181279,1,0,0:0:0:0:
224,160,181379,1,0,0:0:0:0:
224,160,181479,1,0,0:0:0:0:
288,160,181579,1,8,0:0:0:0:
288,160,181679,1,8,0:0:0:0:
224,160,181779,1,0,0:0:0:0:
224,160,181845,1,0,0:0:0:0:
224,160,181912,1,0,0:0:0:0:
288,160,181979,1,8,0:0:0:0:
288,160,182079,1,8,0:0:0:0:
224,160,182179,1,0,0:0:0:0:
224,160,182279,1,0,0:0:0:0:
288,160,182379,1,8,0:0:0:0:
288,160,182479,1,8,0:0:0:0:
224,160,182579,1,0,0:0:0:0:
224,160,182645,1,0,0:0:0:0:
224,160,182712,1,0,0:0:0:0:
288,160,182779,1,8,0:0:0:0:
288,160,182879,1,8,0:0:0:0:
224,160,182979,1,0,0:0:0:0:
224,160,183045,1,0,0:0:0:0:
224,160,183112,1,0,0:0:0:0:
288,160,183179,1,8,0:0:0:0:
224,160,183279,1,0,0:0:0:0:
288,160,183379,1,8,0:0:0:0:
224,160,183445,1,0,0:0:0:0:
224,160,183512,1,0,0:0:0:0:
288,160,183579,1,8,0:0:0:0:
224,160,184179,1,0,0:0:0:0:
288,224,196779,5,12,0:0:0:0:
224,224,197179,1,4,0:0:0:0:
288,160,197379,1,8,0:0:0:0:
224,160,197579,1,0,0:0:0:0:
224,160,197679,1,0,0:0:0:0:
288,160,197779,1,8,0:0:0:0:
224,160,197979,1,0,0:0:0:0:
224,160,198079,1,0,0:0:0:0:
288,160,198179,1,8,0:0:0:0:
288,160,198379,1,8,0:0:0:0:
224,160,198579,1,0,0:0:0:0:
224,160,198979,1,0,0:0:0:0:
288,160,199079,1,8,0:0:0:0:
224,160,199179,1,0,0:0:0:0:
224,160,199379,1,0,0:0:0:0:
288,160,199479,1,8,0:0:0:0:
224,160,199579,1,0,0:0:0:0:
288,160,199779,1,8,0:0:0:0:
224,160,199979,1,0,0:0:0:0:
288,160,200179,1,8,0:0:0:0:
224,160,200579,1,0,0:0:0:0:
224,160,200779,1,0,0:0:0:0:
224,160,200879,1,0,0:0:0:0:
224,160,200979,1,0,0:0:0:0:
224,160,201179,1,0,0:0:0:0:
224,160,201279,1,0,0:0:0:0:
224,160,201379,1,0,0:0:0:0:
288,160,201579,1,8,0:0:0:0:
224,160,201779,1,0,0:0:0:0:
288,160,202279,1,8,0:0:0:0:
288,160,202579,1,8,0:0:0:0:
224,160,202779,1,0,0:0:0:0:
224,160,203079,1,0,0:0:0:0:
288,224,203179,1,12,0:0:0:0:
288,224,203379,1,12,0:0:0:0:
288,160,203779,1,8,0:0:0:0:
224,160,203979,1,0,0:0:0:0:
224,160,204079,1,0,0:0:0:0:
288,160,204179,1,8,0:0:0:0:
224,160,204379,1,0,0:0:0:0:
224,160,204479,1,0,0:0:0:0:
288,160,204579,1,8,0:0:0:0:
288,160,204779,1,8,0:0:0:0:
224,160,204979,1,0,0:0:0:0:
224,160,205379,1,0,0:0:0:0:
288,160,205479,1,8,0:0:0:0:
224,160,205579,1,0,0:0:0:0:
224,160,205779,1,0,0:0:0:0:
288,160,205879,1,8,0:0:0:0:
224,160,205979,1,0,0:0:0:0:
288,160,206179,1,8,0:0:0:0:
224,160,206379,1,0,0:0:0:0:
288,160,206579,1,8,0:0:0:0:
288,160,206979,1,8,0:0:0:0:
224,160,207179,1,0,0:0:0:0:
288,160,207279,1,8,0:0:0:0:
288,160,207379,1,8,0:0:0:0:
224,160,207579,1,0,0:0:0:0:
288,160,207679,1,8,0:0:0:0:
288,160,207779,1,8,0:0:0:0:
224,160,207979,1,0,0:0:0:0:
288,160,208179,1,8,0:0:0:0:
288,160,208679,1,8,0:0:0:0:
224,160,208779,1,0,0:0:0:0:
224,160,208979,1,0,0:0:0:0:
224,160,209079,1,0,0:0:0:0:
288,160,209179,1,8,0:0:0:0:
224,160,209479,1,0,0:0:0:0:
288,160,209779,1,8,0:0:0:0:
224,224,209979,1,4,0:0:0:0:
224,160,210379,1,0,0:0:0:0:
224,160,210479,1,0,0:0:0:0:
288,160,210579,1,8,0:0:0:0:
224,160,210779,1,0,0:0:0:0:
224,160,210879,1,0,0:0:0:0:
288,160,210979,1,8,0:0:0:0:
288,160,211179,1,8,0:0:0:0:
224,160,211379,1,0,0:0:0:0:
224,160,211479,1,0,0:0:0:0:
224,160,211579,1,0,0:0:0:0:
224,160,211779,1,0,0:0:0:0:
288,160,211879,1,8,0:0:0:0:
224,160,211979,1,0,0:0:0:0:
224,160,212179,1,0,0:0:0:0:
288,160,212279,1,8,0:0:0:0:
224,160,212379,1,0,0:0:0:0:
288,160,212579,1,8,0:0:0:0:
224,160,212779,1,0,0:0:0:0:
288,160,212979,1,8,0:0:0:0:
224,160,213079,1,0,0:0:0:0:
224,160,213179,1,0,0:0:0:0:
288,160,213379,1,8,0:0:0:0:
224,160,213579,1,0,0:0:0:0:
224,160,213679,1,0,0:0:0:0:
224,160,213779,1,0,0:0:0:0:
224,160,213979,1,0,0:0:0:0:
224,160,214079,1,0,0:0:0:0:
224,160,214179,1,0,0:0:0:0:
224,160,214379,1,0,0:0:0:0:
288,160,214579,1,8,0:0:0:0:
288,160,214679,1,8,0:0:0:0:
224,160,214779,1,0,0:0:0:0:
288,160,215079,1,8,0:0:0:0:
224,160,215179,1,0,0:0:0:0:
288,160,215379,1,8,0:0:0:0:
224,160,215579,1,0,0:0:0:0:
224,160,215779,1,0,0:0:0:0:
288,160,215879,1,8,0:0:0:0:
224,160,215979,1,0,0:0:0:0:
288,160,216179,1,8,0:0:0:0:
288,160,216279,1,8,0:0:0:0:
224,160,216379,1,0,0:0:0:0:
224,160,216579,1,0,0:0:0:0:
288,160,216779,1,8,0:0:0:0:
224,160,216979,1,0,0:0:0:0:
224,160,217179,1,0,0:0:0:0:
224,160,217379,1,0,0:0:0:0:
288,160,217579,1,8,0:0:0:0:
224,160,217779,1,0,0:0:0:0:
224,160,217979,1,0,0:0:0:0:
224,160,218179,1,0,0:0:0:0:
288,160,218379,1,8,0:0:0:0:
224,160,218579,1,0,0:0:0:0:
224,160,218779,1,0,0:0:0:0:
224,160,218979,1,0,0:0:0:0:
288,160,219179,1,8,0:0:0:0:
224,160,219279,1,0,0:0:0:0:
288,160,219379,1,8,0:0:0:0:
224,160,219479,1,0,0:0:0:0:
288,160,219579,1,8,0:0:0:0:
224,160,219679,1,0,0:0:0:0:
224,160,219779,1,0,0:0:0:0:
224,160,219879,1,0,0:0:0:0:
288,160,219979,1,8,0:0:0:0:
224,160,220079,1,0,0:0:0:0:
288,160,220179,1,8,0:0:0:0:
288,160,220245,1,8,0:0:0:0:
288,160,220312,1,8,0:0:0:0:
224,160,220379,1,0,0:0:0:0:
224,160,220479,1,0,0:0:0:0:
288,160,220579,1,8,0:0:0:0:
224,160,220679,1,0,0:0:0:0:
288,160,220779,1,8,0:0:0:0:
288,160,220879,1,8,0:0:0:0:
224,160,220979,1,0,0:0:0:0:
224,160,221045,1,0,0:0:0:0:
224,160,221112,1,0,0:0:0:0:
288,160,221779,1,8,0:0:0:0:
288,160,221845,1,8,0:0:0:0:
288,160,221912,1,8,0:0:0:0:
224,160,221979,1,0,0:0:0:0:
288,224,222379,1,12,0:0:0:0:
224,224,222779,1,4,0:0:0:0:
288,160,222979,1,8,0:0:0:0:
224,160,223179,1,0,0:0:0:0:
224,160,223279,1,0,0:0:0:0:
288,160,223379,1,8,0:0:0:0:
224,160,223579,1,0,0:0:0:0:
224,160,223679,1,0,0:0:0:0:
288,160,223779,1,8,0:0:0:0:
224,160,223879,1,0,0:0:0:0:
288,160,223979,1,8,0:0:0:0:
288,160,224179,1,8,0:0:0:0:
288,160,224279,1,8,0:0:0:0:
224,160,224379,1,0,0:0:0:0:
224,160,224579,1,0,0:0:0:0:
288,160,224679,1,8,0:0:0:0:
224,160,224779,1,0,0:0:0:0:
224,160,224979,1,0,0:0:0:0:
288,160,225079,1,8,0:0:0:0:
224,160,225179,1,0,0:0:0:0:
288,160,225379,1,8,0:0:0:0:
224,160,225579,1,0,0:0:0:0:
288,160,225779,1,8,0:0:0:0:
288,160,225879,1,8,0:0:0:0:
224,160,225979,1,0,0:0:0:0:
288,160,226179,1,8,0:0:0:0:
224,160,226379,1,0,0:0:0:0:
224,160,226479,1,0,0:0:0:0:
224,160,226579,1,0,0:0:0:0:
224,160,226779,1,0,0:0:0:0:
224,160,226879,1,0,0:0:0:0:
224,160,226979,1,0,0:0:0:0:
224,160,227079,1,0,0:0:0:0:
288,160,227179,1,8,0:0:0:0:
288,160,227379,1,8,0:0:0:0:
224,160,227579,1,0,0:0:0:0:
224,160,227779,1,0,0:0:0:0:
288,160,227879,1,8,0:0:0:0:
224,160,227979,1,0,0:0:0:0:
224,160,228079,1,0,0:0:0:0:
288,160,228179,1,8,0:0:0:0:
224,224,228379,1,4,0:0:0:0:
288,160,228579,1,8,0:0:0:0:
224,224,228679,1,4,0:0:0:0:
288,160,228879,1,8,0:0:0:0:
224,224,228979,1,4,0:0:0:0:
288,160,229379,1,8,0:0:0:0:
224,160,229579,1,0,0:0:0:0:
224,160,229679,1,0,0:0:0:0:
288,160,229779,1,8,0:0:0:0:
224,160,229979,1,0,0:0:0:0:
224,160,230079,1,0,0:0:0:0:
288,160,230179,1,8,0:0:0:0:
224,160,230279,1,0,0:0:0:0:
288,160,230379,1,8,0:0:0:0:
224,160,230579,1,0,0:0:0:0:
224,160,230679,1,0,0:0:0:0:
224,160,230779,1,0,0:0:0:0:
224,160,230979,1,0,0:0:0:0:
288,160,231079,1,8,0:0:0:0:
224,160,231179,1,0,0:0:0:0:
224,160,231379,1,0,0:0:0:0:
288,160,231479,1,8,0:0:0:0:
224,160,231579,1,0,0:0:0:0:
288,160,231779,1,8,0:0:0:0:
224,160,231979,1,0,0:0:0:0:
224,160,232179,1,0,0:0:0:0:
288,160,232279,1,8,0:0:0:0:
224,160,232379,1,0,0:0:0:0:
288,160,232579,1,8,0:0:0:0:
224,160,232779,1,0,0:0:0:0:
288,160,232879,1,8,0:0:0:0:
288,160,232979,1,8,0:0:0:0:
224,160,233179,1,0,0:0:0:0:
288,160,233279,1,8,0:0:0:0:
288,160,233379,1,8,0:0:0:0:
224,160,233579,1,0,0:0:0:0:
224,160,233679,1,0,0:0:0:0:
288,160,233779,1,8,0:0:0:0:
288,160,233879,1,8,0:0:0:0:
224,160,233979,1,0,0:0:0:0:
288,160,234179,1,8,0:0:0:0:
224,160,234279,1,0,0:0:0:0:
288,160,234379,1,8,0:0:0:0:
288,160,234579,1,8,0:0:0:0:
224,224,234779,1,4,0:0:0:0:
224,160,234979,1,0,0:0:0:0:
288,224,235079,1,12,0:0:0:0:
288,160,235579,1,8,0:0:0:0:
288,160,235679,1,8,0:0:0:0:
288,160,235779,1,8,0:0:0:0:
224,160,235979,1,0,0:0:0:0:
224,160,236079,1,0,0:0:0:0:
288,160,236179,1,8,0:0:0:0:
224,160,236379,1,0,0:0:0:0:
224,160,236479,1,0,0:0:0:0:
288,160,236579,1,8,0:0:0:0:
224,160,236679,1,0,0:0:0:0:
288,160,236779,1,8,0:0:0:0:
288,160,236979,1,8,0:0:0:0:
288,160,237079,1,8,0:0:0:0:
224,160,237179,1,0,0:0:0:0:
224,160,237379,1,0,0:0:0:0:
288,160,237479,1,8,0:0:0:0:
224,160,237579,1,0,0:0:0:0:
224,160,237779,1,0,0:0:0:0:
288,160,237879,1,8,0:0:0:0:
224,160,237979,1,0,0:0:0:0:
224,160,238079,1,0,0:0:0:0:
288,160,238179,1,8,0:0:0:0:
288,160,238279,1,8,0:0:0:0:
224,160,238379,1,0,0:0:0:0:
288,160,238579,1,8,0:0:0:0:
224,224,238779,1,4,0:0:0:0:
288,160,238979,1,8,0:0:0:0:
224,160,239179,1,0,0:0:0:0:
288,160,239279,1,8,0:0:0:0:
224,160,239379,1,0,0:0:0:0:
224,160,239579,1,0,0:0:0:0:
288,160,239679,1,8,0:0:0:0:
224,160,239779,1,0,0:0:0:0:
224,160,239979,1,0,0:0:0:0:
288,160,240179,1,8,0:0:0:0:
288,160,240279,1,8,0:0:0:0:
224,160,240379,1,0,0:0:0:0:
224,160,240579,1,0,0:0:0:0:
224,160,240645,1,0,0:0:0:0:
224,160,240712,1,0,0:0:0:0:
288,160,240779,1,8,0:0:0:0:
288,160,240979,1,8,0:0:0:0:
224,160,241179,1,0,0:0:0:0:
224,160,241379,1,0,0:0:0:0:
224,160,241479,1,0,0:0:0:0:
288,160,241579,1,8,0:0:0:0:
288,160,241779,1,8,0:0:0:0:
224,224,241979,1,4,0:0:0:0:
288,160,242179,1,8,0:0:0:0:
288,160,242279,1,8,0:0:0:0:
224,160,242379,1,0,0:0:0:0:
288,160,242479,1,8,0:0:0:0:
288,160,242579,1,8,0:0:0:0:
224,160,242779,1,0,0:0:0:0:
288,160,242879,1,8,0:0:0:0:
224,160,242979,1,0,0:0:0:0:
288,160,243179,1,8,0:0:0:0:
224,160,243379,1,0,0:0:0:0:
288,224,243579,1,12,0:0:0:0:
224,160,243779,1,0,0:0:0:0:
288,160,243879,1,8,0:0:0:0:
224,160,243979,1,0,0:0:0:0:
224,160,244079,1,0,0:0:0:0:
288,160,244179,1,8,0:0:0:0:
288,160,244245,1,8,0:0:0:0:
288,160,244312,1,8,0:0:0:0:
288,160,244379,1,8,0:0:0:0:
288,160,244579,1,8,0:0:0:0:
288,160,244645,1,8,0:0:0:0:
288,160,244712,1,8,0:0:0:0:
224,160,244779,1,0,0:0:0:0:
288,160,244979,1,8,0:0:0:0:
224,224,245179,1,4,0:0:0:0:
288,160,245379,1,8,0:0:0:0:
288,160,245445,1,8,0:0:0:0:
288,160,245512,1,8,0:0:0:0:
224,160,245579,1,0,0:0:0:0:
224,160,245679,1,0,0:0:0:0:
288,160,245779,1,8,0:0:0:0:
224,224,245979,1,4,0:0:0:0:
288,160,246179,1,8,0:0:0:0:
288,160,246245,1,8,0:0:0:0:
288,160,246312,1,8,0:0:0:0:
224,160,246379,1,0,0:0:0:0:
288,160,246579,1,8,0:0:0:0:
224,224,246779,1,4,0:0:0:0:
256,192,246879,12,8,247779,0:0:0:0:
288,224,247979,5,12,0:0:0:0:
224,224,248379,1,4,0:0:0:0:
288,160,248579,1,8,0:0:0:0:
224,160,248779,1,0,0:0:0:0:
224,160,248879,1,0,0:0:0:0:
288,160,248979,1,8,0:0:0:0:
224,160,249179,1,0,0:0:0:0:
224,160,249279,1,0,0:0:0:0:
288,160,249379,1,8,0:0:0:0:
288,160,249579,1,8,0:0:0:0:
224,160,249779,1,0,0:0:0:0:
224,160,250179,1,0,0:0:0:0:
288,160,250279,1,8,0:0:0:0:
224,160,250379,1,0,0:0:0:0:
224,160,250579,1,0,0:0:0:0:
288,160,250679,1,8,0:0:0:0:
224,224,250779,1,4,0:0:0:0:
288,224,251079,1,12,0:0:0:0:
288,224,251379,1,12,0:0:0:0:
224,224,251579,1,4,0:0:0:0:
288,160,251779,1,8,0:0:0:0:
224,160,251979,1,0,0:0:0:0:
224,160,252079,1,0,0:0:0:0:
288,160,252179,1,8,0:0:0:0:
288,160,252279,1,8,0:0:0:0:
224,160,252379,1,0,0:0:0:0:
224,160,252479,1,0,0:0:0:0:
288,160,252579,1,8,0:0:0:0:
224,160,252679,1,0,0:0:0:0:
288,160,252779,1,8,0:0:0:0:
288,160,252979,1,8,0:0:0:0:
224,160,253179,1,0,0:0:0:0:
224,160,253379,1,0,0:0:0:0:
288,160,253479,1,8,0:0:0:0:
224,160,253579,1,0,0:0:0:0:
224,160,253679,1,0,0:0:0:0:
288,160,253779,1,8,0:0:0:0:
224,160,253979,1,0,0:0:0:0:
288,160,254179,1,8,0:0:0:0:
224,160,254279,1,0,0:0:0:0:
288,160,254379,1,8,0:0:0:0:
288,160,254479,1,8,0:0:0:0:
224,160,254579,1,0,0:0:0:0:
224,224,255179,1,4,0:0:0:0:
288,160,255379,1,8,0:0:0:0:
224,160,255579,1,0,0:0:0:0:
224,160,255679,1,0,0:0:0:0:
224,160,255779,1,0,0:0:0:0:
224,160,255879,1,0,0:0:0:0:
288,160,255979,1,8,0:0:0:0:
288,160,256179,1,8,0:0:0:0:
288,160,256279,1,8,0:0:0:0:
224,160,256379,1,0,0:0:0:0:
224,160,256579,1,0,0:0:0:0:
288,160,256679,1,8,0:0:0:0:
224,160,256779,1,0,0:0:0:0:
224,160,256879,1,0,0:0:0:0:
224,160,256979,1,0,0:0:0:0:
288,160,257079,1,8,0:0:0:0:
224,160,257179,1,0,0:0:0:0:
224,160,257279,1,0,0:0:0:0:
288,160,257379,1,8,0:0:0:0:
224,160,257479,1,0,0:0:0:0:
224,160,257679,1,0,0:0:0:0:
288,160,257779,1,8,0:0:0:0:
288,160,257879,1,8,0:0:0:0:
224,160,257979,1,0,0:0:0:0:
288,160,258179,1,8,0:0:0:0:
288,160,258379,1,8,0:0:0:0:
224,160,258479,1,0,0:0:0:0:
288,160,258579,1,8,0:0:0:0:
224,160,258779,1,0,0:0:0:0:
224,160,258879,1,0,0:0:0:0:
288,160,258979,1,8,0:0:0:0:
288,160,259045,1,8,0:0:0:0:
288,160,259112,1,8,0:0:0:0:
224,160,259179,1,0,0:0:0:0:
288,160,259379,1,8,0:0:0:0:
224,160,259579,1,0,0:0:0:0:
224,160,259779,1,0,0:0:0:0:
288,160,259979,1,8,0:0:0:0:
288,160,260079,1,8,0:0:0:0:
224,160,260179,1,0,0:0:0:0:
224,160,260245,1,0,0:0:0:0:
224,160,260312,1,0,0:0:0:0:
288,160,260379,1,8,0:0:0:0:
288,160,260679,1,8,0:0:0:0:
224,224,261179,1,4,0:0:0:0:
288,160,261379,1,8,0:0:0:0:
288,160,261479,1,8,0:0:0:0:
224,160,261579,1,0,0:0:0:0:
288,160,261679,1,8,0:0:0:0:
224,160,261779,1,0,0:0:0:0:
288,160,261979,1,8,0:0:0:0:
224,160,262079,1,0,0:0:0:0:
288,160,262179,1,8,0:0:0:0:
288,160,262279,1,8,0:0:0:0:
288,160,262379,1,8,0:0:0:0:
224,160,262479,1,0,0:0:0:0:
224,160,262579,1,0,0:0:0:0:
288,160,262679,1,8,0:0:0:0:
224,160,262779,1,0,0:0:0:0:
224,160,262979,1,0,0:0:0:0:
224,160,263079,1,0,0:0:0:0:
288,160,263179,1,8,0:0:0:0:
224,160,263379,1,0,0:0:0:0:
224,160,263479,1,0,0:0:0:0:
288,160,263579,1,8,0:0:0:0:
224,160,263679,1,0,0:0:0:0:
288,160,263779,1,8,0:0:0:0:
288,160,263879,1,8,0:0:0:0:
224,224,263979,1,4,0:0:0:0:
224,224,264179,1,4,0:0:0:0:
288,160,264579,1,8,0:0:0:0:
288,160,264645,1,8,0:0:0:0:
288,160,264712,1,8,0:0:0:0:
224,160,264779,1,0,0:0:0:0:
224,160,264879,1,0,0:0:0:0:
288,160,264979,1,8,0:0:0:0:
224,160,265179,1,0,0:0:0:0:
224,160,265279,1,0,0:0:0:0:
288,160,265379,1,8,0:0:0:0:
224,160,265479,1,0,0:0:0:0:
288,160,265579,1,8,0:0:0:0:
224,160,265779,1,0,0:0:0:0:
288,160,265979,1,8,0:0:0:0:
224,160,266279,1,0,0:0:0:0:
288,160,266579,1,8,0:0:0:0:
224,160,266779,1,0,0:0:0:0:
224,160,267079,1,0,0:0:0:0:
288,160,267379,1,8,0:0:0:0:
224,224,267579,1,4,0:0:0:0:
288,160,267779,1,8,0:0:0:0:
224,160,267979,1,0,0:0:0:0:
288,160,268079,1,8,0:0:0:0:
288,160,268179,1,8,0:0:0:0:
288,160,268379,1,8,0:0:0:0:
224,160,268479,1,0,0:0:0:0:
288,160,268579,1,8,0:0:0:0:
224,160,268679,1,0,0:0:0:0:
224,160,268779,1,0,0:0:0:0:
288,160,268979,1,8,0:0:0:0:
224,160,269179,1,0,0:0:0:0:
288,160,269379,1,8,0:0:0:0:
288,160,269479,1,8,0:0:0:0:
224,160,269579,1,0,0:0:0:0:
288,160,269779,1,8,0:0:0:0:
224,160,269879,1,0,0:0:0:0:
224,160,269979,1,0,0:0:0:0:
224,160,270179,1,0,0:0:0:0:
288,160,270379,1,8,0:0:0:0:
224,160,270479,1,0,0:0:0:0:
288,160,270579,1,8,0:0:0:0:
288,160,270679,1,8,0:0:0:0:
224,160,270779,1,0,0:0:0:0:
224,160,270879,1,0,0:0:0:0:
288,160,270979,1,8,0:0:0:0:
224,160,271079,1,0,0:0:0:0:
288,160,271179,1,8,0:0:0:0:
288,160,271279,1,8,0:0:0:0:
224,160,271379,1,0,0:0:0:0:
224,160,271445,1,0,0:0:0:0:
224,160,271512,1,0,0:0:0:0:
288,160,271579,1,8,0:0:0:0:
224,160,271679,1,0,0:0:0:0:
288,160,271779,1,8,0:0:0:0:
288,160,271879,1,8,0:0:0:0:
224,160,271979,1,0,0:0:0:0:
288,160,272079,1,8,0:0:0:0:
224,160,272179,1,0,0:0:0:0:
224,160,272279,1,0,0:0:0:0:
288,160,272379,1,8,0:0:0:0:
224,160,272579,1,0,0:0:0:0:
288,160,272779,1,8,0:0:0:0:
288,160,272979,1,8,0:0:0:0:
224,160,273179,1,0,0:0:0:0:
288,224,273579,1,12,0:0:0:0:
224,224,273979,1,4,0:0:0:0:
288,160,277179,1,8,0:0:0:0:
224,160,278779,1,0,0:0:0:0:
224,160,279579,1,0,0:0:0:0:
288,160,280379,1,8,0:0:0:0:
288,160,281979,1,8,0:0:0:0:
288,160,282779,1,8,0:0:0:0:
224,160,283579,1,0,0:0:0:0:
224,160,284579,1,0,0:0:0:0:
224,160,284806,1,0,0:0:0:0:
224,160,285042,1,0,0:0:0:0:
288,160,285278,1,8,0:0:0:0:
224,160,285545,1,0,0:0:0:0:
288,160,285775,1,8,0:0:0:0:
288,160,286075,1,8,0:0:0:0:
288,160,286369,1,8,0:0:0:0:
224,160,286730,1,0,0:0:0:0:
288,160,287275,1,8,0:0:0:0:
