osu file format v14

[General]
AudioFilename: audio.mp3
AudioLeadIn: 0
PreviewTime: 221179
Countdown: 1
SampleSet: Normal
StackLeniency: 0.7
Mode: 1
LetterboxInBreaks: 0
WidescreenStoryboard: 0

[Editor]
Bookmarks: 17979,43579,69179,81979,133179,158779,184379,209979,222779
DistanceSpacing: 1.1
BeatDivisor: 4
GridSize: 32
TimelineZoom: 1.900001

[Metadata]
Title:S.A.T.E.L.L.I.T.E.
TitleUnicode:S.A.T.E.L.L.I.T.E.
Artist:Camellia
ArtistUnicode:かめりあ
Creator:KatK1
Version:O.N.I.
Source:
Tags:fa featured artist satellite heart of android CTCD-018 かめるかめりあ KamelCamellia Cametek 大箭将也 Masaya Oya hardstyle electronic instrumental english japanese oni inner wish
BeatmapID:3678878
BeatmapSetID:1794458

[Difficulty]
HPDrainRate:5.5
CircleSize:4
OverallDifficulty:6
ApproachRate:8
SliderMultiplier:1.4
SliderTickRate:1

[Events]
//Background and Video events
0,0,"bg.jpg",0,-50
//Break Periods
2,185779,196029
//Storyboard Layer 0 (Background)
//Storyboard Layer 1 (Fail)
//Storyboard Layer 2 (Pass)
//Storyboard Layer 3 (Foreground)
//Storyboard Layer 4 (Overlay)
//Storyboard Sound Samples

[TimingPoints]
-1221,400,4,1,0,20,1,0
379,-125,4,1,0,20,0,0
41979,-117.19512,4,1,0,20,0,0
42679,-108.71041,4,1,0,48,0,0
43179,-103.82455,4,1,0,49,0,0
43479,-100,4,1,0,50,0,0
55079,-99.64967,4,1,0,50,0,0
55179,-99.37888,4,1,0,50,0,0
55379,-98.61325,4,1,0,50,0,0
55479,-98.0392156862745,4,1,0,50,0,0
55579,-97.560974,4,1,0,50,0,0
55879,-95.486755,4,1,0,50,0,0
56179,-92.888245,4,1,0,50,0,0
56279,-100,4,1,0,60,0,0
56379,-90.90909,4,1,0,60,0,0
67379,-90.90909,4,1,0,60,0,0
67579,-90.90909,4,1,0,40,0,0
67979,-104.32111,4,1,0,40,0,0
68179,-107.898735,4,1,0,40,0,0
68279,-109.53897,4,1,0,40,0,0
68379,-111.111115,4,1,0,40,0,0
68679,-83.3333333333333,4,1,0,60,0,0
69079,-90.9090909090909,4,1,0,40,0,0
69579,-95.944885,4,1,0,42,0,0
69979,-98.19803,4,1,0,43,0,0
70379,-100,4,1,0,45,0,0
70579,-100.8077,4,1,0,45,0,0
70679,-101.194435,4,1,0,46,0,0
70779,-101.57132,4,1,0,46,0,0
71179,-102.997154,4,1,0,47,0,0
71579,-104.32111,4,1,0,49,0,0
71779,-104.953384,4,1,0,50,0,0
71879,-105.26316,4,1,0,50,0,0
71979,-105.56903,4,1,0,50,0,0
72179,-106.16995,4,1,0,51,0,0
72279,-106.46538,4,1,0,51,0,0
72379,-106.75769,4,1,0,52,0,0
72779,-107.898735,4,1,0,53,0,0
73179,-109.00063,4,1,0,55,0,0
73579,-110.06978,4,1,0,56,0,0
73779,-110.59365,4,1,0,57,0,0
73879,-110.85316,4,1,0,57,0,0
73979,-111.111115,4,1,0,57,0,0
74179,-111.07495,4,1,0,58,0,0
74379,-110.96662,4,1,0,59,0,0
74579,-110.786545,4,1,0,59,0,0
74779,-110.5354,4,1,0,60,0,0
74979,-110.21419,4,1,0,61,0,0
75179,-109.824104,4,1,0,62,0,0
75579,-108.84354,4,1,0,63,0,0
75779,-108.25668,4,1,0,64,0,0
75979,-107.60824,4,1,0,64,0,0
76179,-106.900505,4,1,0,65,0,0
76379,-106.13599,4,1,0,66,0,0
76579,-105.31729,4,1,0,67,0,0
76779,-104.44716,4,1,0,67,0,0
76979,-103.528465,4,1,0,68,0,0
77079,-103.0518,4,1,0,68,0,0
77179,-102.5641,4,1,0,69,0,0
77379,-101.557076,4,1,0,69,0,0
77579,-100.51041,4,1,0,70,0,0
77779,-99.427124,4,1,0,71,0,0
77979,-98.310295,4,1,0,72,0,0
78179,-97.16292,4,1,0,72,0,0
78379,-95.988,4,1,0,73,0,0
78479,-95.391136,4,1,0,73,0,0
78579,-94.78848,4,1,0,74,0,0
78679,-94.180405,4,1,0,74,0,0
78779,-93.56725,4,1,0,74,0,0
78979,-92.32711,4,1,0,75,0,0
79079,-91.700806,4,1,0,75,0,0
79179,-91.07079,4,1,0,76,0,0
79379,-89.80093,4,1,0,76,0,0
79579,-88.52005,4,1,0,77,0,0
79679,-87.87625,4,1,0,78,0,0
79779,-87.2306,4,1,0,78,0,0
79879,-86.583374,4,1,0,78,0,0
79979,-85.934875,4,1,0,79,0,0
80179,-84.63509,4,1,0,79,0,0
80279,-83.98434,4,1,0,80,0,0
80379,-83.33333,4,1,0,80,0,0
80479,-100,4,1,0,40,0,0
81479,-71.4285714285714,4,1,0,60,0,0
81879,-83.3333333333333,4,1,0,80,0,0
81979,-83.3333333333333,4,1,0,80,0,1
93979,-71.4285714285714,4,1,0,80,0,1
94579,-83.3333333333333,4,1,0,80,0,0
94779,-83.3333333333333,4,1,0,80,0,1
97479,-83.3333333333333,4,1,0,40,0,1
97579,-83.3333333333333,4,1,0,40,0,0
97879,-83.3333333333333,4,1,0,80,0,0
97979,-83.3333333333333,4,1,0,80,0,1
100779,-83.3333333333333,4,1,0,60,0,0
101079,-83.3333333333333,4,1,0,80,0,0
101179,-83.3333333333333,4,1,0,80,0,1
102279,-83.3333333333333,4,1,0,60,0,1
102379,-83.3333333333333,4,1,0,60,0,0
102679,-83.3333333333333,4,1,0,80,0,0
102779,-83.3333333333333,4,1,0,80,0,1
103929,-83.3333333333333,4,1,0,70,0,1
103979,-83.3333333333333,4,1,0,70,0,0
104279,-83.3333333333333,4,1,0,80,0,0
104379,-83.3333333333333,4,1,0,80,0,1
104729,-83.3333333333333,4,1,0,60,0,1
104779,-83.3333333333333,4,1,0,60,0,0
105079,-83.3333333333333,4,1,0,80,0,0
105179,-83.3333333333333,4,1,0,80,0,1
105529,-83.3333333333333,4,1,0,70,0,1
105579,-83.3333333333333,4,1,0,70,0,0
105879,-83.3333333333333,4,1,0,80,0,0
105979,-83.3333333333333,4,1,0,80,0,1
106079,-83.3333333333333,4,1,0,50,0,1
107079,-100,4,1,0,60,0,1
107179,-100,4,1,0,60,0,0
107479,-83.3333333333333,4,1,0,80,0,0
107579,-83.3333333333333,4,1,0,80,0,1
113179,-76.9230769230769,4,1,0,80,0,1
113879,-83.3333333333333,4,1,0,40,0,1
113979,-71.4285714285714,4,1,0,40,0,1
114179,-71.4285714285714,4,1,0,40,0,0
114279,-71.4285714285714,4,1,0,80,0,0
114379,-83.3333333333333,4,1,0,80,0,1
118779,-83.3333333333333,4,1,0,80,0,0
119979,-83.3333333333333,4,1,0,40,0,0
120279,-83.3333333333333,4,1,0,80,0,0
120379,-83.3333333333333,4,1,0,80,0,1
123579,-71.4285714285714,4,1,0,80,0,1
123679,-83.3333333333333,4,1,0,40,0,1
123779,-83.3333333333333,4,1,0,40,0,0
123879,-83.3333333333333,4,1,0,80,0,0
123979,-83.3333333333333,4,1,0,60,0,1
125179,-83.33333,4,1,0,60,0,0
125479,-90.9090909090909,4,1,0,60,0,0
125779,-95.2380952380952,4,1,0,60,0,0
125979,-100,4,1,0,60,0,0
126279,-97.0873786407767,4,1,0,60,0,0
126579,-88.4955752212389,4,1,0,60,0,0
126779,-83.3333325694445,4,1,0,80,0,1
129979,-83.33333,4,1,0,80,0,1
130179,-83.11688,4,1,0,80,0,1
130279,-82.84789,4,1,0,80,0,1
130379,-82.47423,4,1,0,80,0,1
130579,-81.424934,4,1,0,80,0,1
130679,-80.757095,4,1,0,80,0,1
130779,-80,4,1,0,80,0,1
130879,-79.158936,4,1,0,80,0,1
130979,-78.23961,4,1,0,80,0,1
131179,-76.190475,4,1,0,80,0,1
131279,-75.07331,4,1,0,80,0,1
131379,-73.903,4,1,0,80,0,1
131479,-72.685974,4,1,0,80,0,1
131579,-71.42857,4,1,0,80,0,1
132679,-100,4,1,0,60,0,1
133179,-83.3333333333333,4,1,0,80,0,0
133279,-125,4,1,0,40,0,0
157179,-111.111115,4,1,0,40,0,0
158279,-90.39548,4,1,0,60,0,0
158679,-83.33333,4,1,0,60,0,0
159179,-88.55126,4,1,0,58,0,0
159579,-90.90909,4,1,0,55,0,0
159979,-92.80523,4,1,0,53,0,0
160379,-94.466286,4,1,0,50,0,0
160779,-95.979774,4,1,0,48,0,0
161179,-97.390434,4,1,0,45,0,0
161579,-98.724754,4,1,0,43,0,0
161779,-99.368935,4,1,0,41,0,0
161979,-100,4,1,0,40,0,0
164679,-83.3333333333333,4,1,0,40,0,0
164879,-90.9090909090909,4,1,0,40,0,0
165079,-100,4,1,0,40,0,0
168779,-99.68848,4,1,0,43,0,0
169179,-98.76543,4,1,0,45,0,0
169579,-97.264435,4,1,0,48,0,0
169979,-95.2381,4,1,0,50,0,0
170379,-92.753624,4,1,0,53,0,0
170779,-89.88764,4,1,0,55,0,0
171079,-87.53632,4,1,0,57,0,0
171179,-86.72086,4,1,0,58,0,0
171379,-85.049835,4,1,0,59,0,0
171579,-83.33333,4,1,0,60,0,0
171779,-83.38761,4,1,0,60,0,0
171879,-83.455574,4,1,0,60,0,0
171979,-83.55091,4,1,0,60,0,0
172179,-83.824486,4,1,0,60,0,0
172679,-85.00746,4,1,0,60,0,0
172779,-85.33333,4,1,0,60,0,0
172979,-86.079346,4,1,0,60,0,0
173179,-86.95651,4,1,0,60,0,0
173379,-87.972496,4,1,0,60,0,0
173479,-88.535355,4,1,0,60,0,0
173579,-89.13649,4,1,0,60,0,0
173779,-90.459366,4,1,0,60,0,0
173979,-91.954025,4,1,0,60,0,0
174179,-93.635704,4,1,0,60,0,0
174379,-95.522385,4,1,0,60,0,0
174579,-97.63539,4,1,0,60,0,0
174779,-100,4,1,0,60,0,0
177479,-83.3333333333333,4,1,0,60,0,0
177679,-90.9090909090909,4,1,0,60,0,0
177879,-100,4,1,0,60,0,0
178379,-99.796326,4,1,0,60,0,0
178579,-99.542915,4,1,0,60,0,0
178779,-99.190285,4,1,0,60,0,0
179079,-98.48009,4,1,0,60,0,0
179179,-98.196396,4,1,0,60,0,0
179379,-97.560974,4,1,0,60,0,0
179479,-97.210175,4,1,0,60,0,0
179579,-96.837944,4,1,0,60,0,0
179779,-96.03136,4,1,0,60,0,0
179979,-95.14563,4,1,0,60,0,0
180179,-94.185486,4,1,0,60,0,0
180579,-92.062004,4,1,0,60,0,0
180779,-90.90909,4,1,0,60,0,0
180879,-90.31218,4,1,0,61,0,0
180979,-89.702515,4,1,0,61,0,0
181079,-89.08079,4,1,0,62,0,0
181179,-88.447655,4,1,0,63,0,0
181379,-87.14985,4,1,0,64,0,0
181479,-86.48649,4,1,0,65,0,0
181579,-85.81436,4,1,0,66,0,0
181779,-84.446365,4,1,0,67,0,0
181979,-83.05084,4,1,0,69,0,0
182079,-82.34429,4,1,0,69,0,0
182179,-81.63265,4,1,0,70,0,0
182379,-80.196396,4,1,0,71,0,0
182579,-78.74648,4,1,0,73,0,0
182679,-78.017715,4,1,0,74,0,0
182779,-77.28706,4,1,0,74,0,0
182979,-75.82205,4,1,0,76,0,0
183079,-75.088585,4,1,0,76,0,0
183179,-74.35508,4,1,0,77,0,0
183279,-73.62194,4,1,0,78,0,0
183379,-72.88955,4,1,0,79,0,0
183479,-72.1583,4,1,0,79,0,0
183529,-71.42857,4,1,0,40,0,0
184379,400,69,1,0,5,1,8
184379,-71.42857,4,1,0,5,0,0
195579,400,4,1,0,25,1,8
195579,-97.5609712373589,4,1,0,25,0,0
196679,-71.4285714285714,4,1,0,60,0,0
197079,-83.33333,4,1,0,60,0,0
197379,-86.95651,4,1,0,60,0,0
197579,-88.55126,4,1,0,60,0,0
197679,-89.210594,4,1,0,60,0,0
197779,-89.815186,4,1,0,60,0,0
197979,-90.90909,4,1,0,60,0,0
198079,-91.413185,4,1,0,60,0,0
198179,-91.89516,4,1,0,60,0,0
198379,-92.80523,4,1,0,60,0,0
198579,-93.658165,4,1,0,60,0,0
198779,-94.466286,4,1,0,60,0,0
198979,-95.2381,4,1,0,60,0,0
199079,-95.61237,4,1,0,60,0,0
199179,-95.979774,4,1,0,60,0,0
199379,-96.69601,4,1,0,60,0,0
199479,-97.04575,4,1,0,60,0,0
199579,-97.390434,4,1,0,60,0,0
199779,-98.0659,4,1,0,60,0,0
199979,-98.724754,4,1,0,60,0,0
200179,-99.368935,4,1,0,60,0,0
200379,-100,4,1,0,60,0,0
206779,-100,4,1,0,60,0,0
206979,-99.92193,4,1,0,60,0,0
207179,-99.68848,4,1,0,60,0,0
207279,-99.51409,4,1,0,60,0,0
207379,-99.30179,4,1,0,60,0,0
207579,-98.76543,4,1,0,60,0,0
207679,-98.44261,4,1,0,60,0,0
207779,-98.08429,4,1,0,60,0,0
207979,-97.264435,4,1,0,60,0,0
208179,-96.31302,4,1,0,60,0,0
208379,-95.2381,4,1,0,60,0,0
208679,-93.41361,4,1,0,64,0,0
208779,-92.753624,4,1,0,65,0,0
208979,-91.363304,4,1,0,68,0,0
209079,-90.635506,4,1,0,68,0,0
209179,-89.88764,4,1,0,70,0,0
209479,-87.53632,4,1,0,74,0,0
209779,-85.04983,4,1,0,78,0,0
209979,-83.33333,4,1,0,80,0,0
210179,-83.33333,4,1,0,40,0,0
210379,-87.545364,4,1,0,40,0,0
210479,-88.07079,4,1,0,40,0,0
210579,-88.55126,4,1,0,40,0,0
210779,-89.41743,4,1,0,40,0,0
210879,-89.815186,4,1,0,40,0,0
210979,-90.19467,4,1,0,40,0,0
211179,-90.90909,4,1,0,40,0,0
211379,-91.57612,4,1,0,40,0,0
211479,-91.89516,4,1,0,40,0,0
211579,-92.20585,4,1,0,40,0,0
211779,-92.80523,4,1,0,40,0,0
211879,-93.095184,4,1,0,40,0,0
211979,-93.37935,4,1,0,40,0,0
212179,-93.932045,4,1,0,40,0,0
212279,-94.20131,4,1,0,40,0,0
212379,-94.466286,4,1,0,40,0,0
212579,-94.98444,4,1,0,40,0,0
212779,-95.48841,4,1,0,40,0,0
212979,-95.97978,4,1,0,40,0,0
213379,-96.7117988394584,4,1,0,40,0,0
213579,-97.390434,4,1,0,40,0,0
213679,-97.61758,4,1,0,40,0,0
213779,-97.842705,4,1,0,40,0,0
213979,-98.287254,4,1,0,40,0,0
214079,-98.50686,4,1,0,40,0,0
214179,-98.72477,4,1,0,40,0,0
214379,-99.15572,4,1,0,40,0,0
214579,-99.58066,4,1,0,40,0,0
214679,-99.79101,4,1,0,40,0,0
214779,-100,4,1,0,40,0,0
215079,-99.912186,4,1,0,40,0,0
215179,-99.843994,4,1,0,40,0,0
215379,-99.64967,4,1,0,40,0,0
215579,-99.37888,4,1,0,40,0,0
215779,-99.03288,4,1,0,40,0,0
215879,-98.83216,4,1,0,40,0,0
215979,-98.61325,4,1,0,40,0,0
216179,-98.12189,4,1,0,40,0,0
216279,-97.849976,4,1,0,40,0,0
216379,-97.560974,4,1,0,40,0,0
216579,-96.932976,4,1,0,42,0,0
216779,-96.2406,4,1,0,43,0,0
216979,-95.486755,4,1,0,45,0,0
217179,-94.67456,4,1,0,47,0,0
217379,-93.80726,4,1,0,48,0,0
217579,-92.888245,4,1,0,50,0,0
217779,-91.921005,4,1,0,52,0,0
217979,-90.90909,4,1,0,53,0,0
218179,-89.856094,4,1,0,55,0,0
218379,-88.7656,4,1,0,57,0,0
218579,-87.64122,4,1,0,58,0,0
218779,-86.48649,4,1,0,60,0,0
218979,-85.30489,4,1,0,62,0,0
219179,-84.09987,4,1,0,63,0,0
219279,-83.4896,4,1,0,64,0,0
219379,-82.87472,4,1,0,65,0,0
219479,-82.2556,4,1,0,66,0,0
219579,-81.63265,4,1,0,67,0,0
219779,-80.37676,4,1,0,68,0,0
219879,-79.74457,4,1,0,69,0,0
219979,-79.11001,4,1,0,70,0,0
220179,-77.83521,4,1,0,72,0,0
220379,-76.55502,4,1,0,73,0,0
220479,-75.913704,4,1,0,74,0,0
220579,-75.27198,4,1,0,75,0,0
220679,-74.63013,4,1,0,76,0,0
220779,-73.98844,4,1,0,77,0,0
220979,-72.70662,4,1,0,78,0,0
221079,-72.067,4,1,0,79,0,0
221179,-71.42857,4,1,0,80,0,0
221279,-100,4,1,0,40,0,0
222279,-62.5,4,1,0,60,0,0
222679,-71.4285714285714,4,1,0,80,0,0
222779,-71.4285714285714,4,1,0,80,0,1
234779,-62.5,4,1,0,80,0,1
235279,-71.4285714285714,4,1,0,40,0,1
235379,-71.4285714285714,4,1,0,40,0,0
235529,-71.4285714285714,4,1,0,80,0,0
235579,-71.4285714285714,4,1,0,80,0,1
238279,-71.4285714285714,4,1,0,60,0,1
238379,-71.4285714285714,4,1,0,60,0,0
238679,-71.4285714285714,4,1,0,80,0,0
238779,-71.4285714285714,4,1,0,80,0,1
241579,-71.4285714285714,4,1,0,60,0,0
241929,-71.4285714285714,4,1,0,80,0,0
241979,-71.4285714285714,4,1,0,80,0,1
243129,-71.4285714285714,4,1,0,60,0,1
243179,-71.4285714285714,4,1,0,60,0,0
243529,-71.4285714285714,4,1,0,80,0,0
243579,-71.4285714285714,4,1,0,80,0,1
244729,-71.4285714285714,4,1,0,70,0,1
244779,-71.4285714285714,4,1,0,70,0,0
245129,-71.4285714285714,4,1,0,80,0,0
245179,-71.4285714285714,4,1,0,80,0,1
245529,-71.4285714285714,4,1,0,60,0,1
245579,-71.4285714285714,4,1,0,60,0,0
245929,-71.4285714285714,4,1,0,80,0,0
245979,-71.4285714285714,4,1,0,80,0,1
246329,-71.4285714285714,4,1,0,70,0,1
246379,-71.4285714285714,4,1,0,70,0,0
246729,-71.4285714285714,4,1,0,80,0,0
246779,-71.4285714285714,4,1,0,80,0,1
247879,-71.4285714285714,4,1,0,60,0,1
247979,-100,4,1,0,60,0,0
248329,-83.33333,4,1,0,40,0,0
248379,-83.33333,4,1,0,41,0,0
248579,-83.27911,4,1,0,43,0,0
248779,-83.11688,4,1,0,46,0,0
248879,-82.99562,4,1,0,47,0,0
248979,-82.84789,4,1,0,48,0,0
249179,-82.47423,4,1,0,50,0,0
249279,-82.24899,4,1,0,52,0,0
249379,-81.99872,4,1,0,53,0,0
249579,-81.424934,4,1,0,55,0,0
249779,-80.757095,4,1,0,58,0,0
249979,-80,4,1,0,60,0,0
250179,-79.158936,4,1,0,63,0,0
250279,-78.70869,4,1,0,64,0,0
250379,-78.23961,4,1,0,65,0,0
250579,-77.24804,4,1,0,68,0,0
250679,-76.72711,4,1,0,69,0,0
250779,-76.190475,4,1,0,70,0,0
251079,-74.4944,4,1,0,74,0,0
251179,-73.903,4,1,0,75,0,0
251379,-72.685974,4,1,0,78,0,0
251579,-71.42857,4,1,0,80,0,1
254679,-71.42857,4,1,0,40,0,1
254779,-71.4285714285714,4,1,0,40,0,1
254979,-71.4285714285714,4,1,0,40,0,0
255079,-71.4285714285714,4,1,0,80,0,0
255179,-71.4285714285714,4,1,0,80,0,1
260979,-71.4285714285714,4,1,0,40,0,0
261129,-71.4285714285714,4,1,0,80,0,0
261179,-71.4285714285714,4,1,0,80,0,1
264379,-71.4285714285714,4,1,0,40,0,1
264579,-71.4285714285714,4,1,0,40,0,0
264779,-71.4285714285714,4,1,0,80,0,1
265929,-71.4285714285714,4,1,0,60,0,1
265979,-71.45506,4,1,0,60,0,0
266279,-72.75015,4,1,0,60,0,0
266579,-76.20303,4,1,0,60,0,0
266779,-80,4,1,0,60,0,0
267079,-74.52365,4,1,0,60,0,0
267379,-72.46882,4,1,0,60,0,0
267579,-71.42857,4,1,0,80,0,1
270779,-71.42857,4,1,0,80,0,1
270979,-71.269485,4,1,0,80,0,1
271079,-71.071625,4,1,0,80,0,1
271179,-70.796455,4,1,0,80,0,1
271379,-70.02188,4,1,0,80,0,1
271479,-69.52743,4,1,0,80,0,1
271579,-68.965515,4,1,0,80,0,1
271679,-68.33956,4,1,0,80,0,1
271779,-67.653275,4,1,0,80,0,1
271979,-66.1157,4,1,0,80,0,1
272079,-65.27282,4,1,0,80,0,1
272179,-64.386314,4,1,0,80,0,1
272279,-63.460587,4,1,0,80,0,1
272379,-62.5,4,1,0,80,0,1
273479,-100,4,1,0,60,0,1
273879,-71.4285714285714,4,1,0,80,0,1
273979,-71.42857,4,1,0,80,0,0
274079,-71.42857,4,1,0,40,0,0
275579,-119.858864,4,1,0,40,0,0
277179,-166.66666,4,1,0,40,0,0
278779,-168.07375,4,1,0,40,0,0
279579,-169.86638,4,1,0,40,0,0
280379,-172.44125,4,1,0,40,0,0
281979,-180.24768,4,1,0,40,0,0
282779,-185.71237,4,1,0,40,0,0
283579,-200,4,1,0,40,0,0
284579,454.545454545455,4,1,0,40,1,8
284579,-168.59488,4,1,0,40,0,8
284806,472.44094488189,4,1,0,40,1,8
284806,-158.83041,4,1,0,40,0,8
285042,-154.7822,4,1,0,40,0,8
285278,535.714285714286,4,1,0,40,1,0
285278,-132.53024,4,1,0,40,0,0
285545,461.538461538462,4,1,0,40,1,8
285545,-148.1776,4,1,0,40,0,8
285775,600,4,1,0,40,1,8
285775,-110.028,4,1,0,40,0,8
286075,588.235294117647,4,1,0,40,1,8
286075,-106.78073,4,1,0,40,0,8
286369,722.89156626506,4,1,0,40,1,8
286369,-82.47029,4,1,0,40,0,8
286730,1090.90909090909,4,1,0,40,1,8
286730,-51.064297,4,1,0,40,0,8
287275,1090.90909090909,4,1,0,40,1,8
287275,-45.833332,4,1,0,40,0,8

[HitObjects]
288,160,17979,5,8,0:0:0:0:
224,160,21179,1,0,0:0:0:0:
224,160,22779,1,0,0:0:0:0:
224,160,23579,1,0,0:0:0:0:
288,160,24379,1,8,0:0:0:0:
288,160,25979,1,8,0:0:0:0:
288,160,26779,1,8,0:0:0:0:
224,160,27579,1,0,0:0:0:0:
288,160,29179,1,8,0:0:0:0:
224,160,29979,1,0,0:0:0:0:
288,160,30279,1,8,0:0:0:0:
288,160,30579,1,8,0:0:0:0:
224,160,30779,1,0,0:0:0:0:
224,160,33979,1,0,0:0:0:0:
288,160,34779,1,8,0:0:0:0:
224,160,35079,1,0,0:0:0:0:
288,160,35379,1,8,0:0:0:0:
288,160,35579,1,8,0:0:0:0:
288,160,36379,1,8,0:0:0:0:
224,160,37179,1,0,0:0:0:0:
288,160,38779,1,8,0:0:0:0:
288,160,39579,1,8,0:0:0:0:
288,160,40379,1,0,0:0:0:0:
256,192,40579,12,0,42579,0:0:0:0:
288,160,42779,5,8,0:0:0:0:
288,160,43179,1,8,0:0:0:0:
224,224,43579,1,4,0:0:0:0:
288,160,43779,1,8,0:0:0:0:
224,160,43979,1,0,0:0:0:0:
224,160,44079,1,0,0:0:0:0:
288,160,44179,1,8,0:0:0:0:
224,160,44379,1,0,0:0:0:0:
224,160,44479,1,0,0:0:0:0:
288,160,44579,1,8,0:0:0:0:
288,160,44779,1,8,0:0:0:0:
224,160,44979,1,0,0:0:0:0:
288,160,45379,1,8,0:0:0:0:
224,160,45479,1,0,0:0:0:0:
288,160,45579,1,8,0:0:0:0:
224,160,45779,1,0,0:0:0:0:
288,160,45879,1,8,0:0:0:0:
224,160,45979,1,0,0:0:0:0:
288,160,46179,1,8,0:0:0:0:
224,160,46379,1,0,0:0:0:0:
288,160,46579,1,8,0:0:0:0:
224,160,46979,1,0,0:0:0:0:
288,160,47179,1,8,0:0:0:0:
224,160,47279,1,0,0:0:0:0:
224,160,47379,1,0,0:0:0:0:
288,160,47579,1,8,0:0:0:0:
224,160,47679,1,0,0:0:0:0:
224,160,47779,1,0,0:0:0:0:
224,160,47979,1,0,0:0:0:0:
288,160,48179,1,8,0:0:0:0:
288,160,48679,1,8,0:0:0:0:
288,160,48979,1,8,0:0:0:0:
224,160,49179,1,0,0:0:0:0:
224,160,49479,1,0,0:0:0:0:
288,160,49779,1,8,0:0:0:0:
288,160,50179,1,8,0:0:0:0:
224,160,50379,1,0,0:0:0:0:
224,160,50479,1,0,0:0:0:0:
288,160,50579,1,8,0:0:0:0:
224,160,50779,1,0,0:0:0:0:
224,160,50879,1,0,0:0:0:0:
288,160,50979,1,8,0:0:0:0:
288,160,51179,1,8,0:0:0:0:
224,160,51379,1,0,0:0:0:0:
288,160,51779,1,8,0:0:0:0:
224,160,51879,1,0,0:0:0:0:
288,160,51979,1,8,0:0:0:0:
224,160,52179,1,0,0:0:0:0:
288,160,52279,1,8,0:0:0:0:
224,160,52379,1,0,0:0:0:0:
288,160,52579,1,8,0:0:0:0:
224,160,52779,1,0,0:0:0:0:
288,160,52979,1,8,0:0:0:0:
288,160,53379,1,8,0:0:0:0:
224,160,53579,1,0,0:0:0:0:
288,160,53679,1,8,0:0:0:0:
288,160,53779,1,8,0:0:0:0:
224,160,53979,1,0,0:0:0:0:
288,160,54079,1,8,0:0:0:0:
288,160,54179,1,8,0:0:0:0:
288,160,54379,1,8,0:0:0:0:
224,160,54579,1,0,0:0:0:0:
288,160,55079,1,8,0:0:0:0:
224,160,55179,1,0,0:0:0:0:
224,160,55379,1,0,0:0:0:0:
224,160,55479,1,0,0:0:0:0:
288,160,55579,1,8,0:0:0:0:
224,160,55879,1,0,0:0:0:0:
288,160,56179,1,8,0:0:0:0:
224,224,56379,1,4,0:0:0:0:
288,160,56579,1,8,0:0:0:0:
224,160,56779,1,0,0:0:0:0:
224,160,56879,1,0,0:0:0:0:
288,160,56979,1,8,0:0:0:0:
224,160,57179,1,0,0:0:0:0:
224,160,57279,1,0,0:0:0:0:
288,160,57379,1,8,0:0:0:0:
288,160,57579,1,8,0:0:0:0:
224,160,57779,1,0,0:0:0:0:
224,160,57979,1,0,0:0:0:0:
288,160,58179,1,8,0:0:0:0:
224,160,58279,1,0,0:0:0:0:
288,160,58379,1,8,0:0:0:0:
224,160,58579,1,0,0:0:0:0:
288,160,58679,1,8,0:0:0:0:
224,160,58779,1,0,0:0:0:0:
288,160,58979,1,8,0:0:0:0:
224,160,59179,1,0,0:0:0:0:
224,160,59379,1,0,0:0:0:0:
224,160,59779,1,0,0:0:0:0:
288,160,59979,1,8,0:0:0:0:
224,160,60079,1,0,0:0:0:0:
224,160,60179,1,0,0:0:0:0:
288,160,60379,1,8,0:0:0:0:
224,160,60479,1,0,0:0:0:0:
224,160,60579,1,0,0:0:0:0:
224,160,60779,1,0,0:0:0:0:
288,160,60979,1,8,0:0:0:0:
288,160,61479,1,8,0:0:0:0:
288,160,61779,1,8,0:0:0:0:
224,160,61979,1,0,0:0:0:0:
224,160,62279,1,0,0:0:0:0:
288,160,62579,1,8,0:0:0:0:
288,160,62979,1,8,0:0:0:0:
224,160,63179,1,0,0:0:0:0:
224,160,63279,1,0,0:0:0:0:
288,160,63379,1,8,0:0:0:0:
224,160,63579,1,0,0:0:0:0:
224,160,63679,1,0,0:0:0:0:
288,160,63779,1,8,0:0:0:0:
288,160,63979,1,8,0:0:0:0:
224,160,64179,1,0,0:0:0:0:
224,160,64379,1,0,0:0:0:0:
288,160,64579,1,8,0:0:0:0:
224,160,64679,1,0,0:0:0:0:
288,160,64779,1,8,0:0:0:0:
224,160,64979,1,0,0:0:0:0:
288,160,65079,1,8,0:0:0:0:
224,160,65179,1,0,0:0:0:0:
288,160,65379,1,8,0:0:0:0:
224,160,65579,1,0,0:0:0:0:
288,160,65779,1,8,0:0:0:0:
288,160,66179,1,8,0:0:0:0:
224,160,66379,1,0,0:0:0:0:
288,160,66479,1,8,0:0:0:0:
288,160,66579,1,8,0:0:0:0:
224,160,66779,1,0,0:0:0:0:
288,160,66879,1,8,0:0:0:0:
288,160,66979,1,8,0:0:0:0:
288,160,67179,1,8,0:0:0:0:
224,160,67379,1,0,0:0:0:0:
288,160,67979,1,8,0:0:0:0:
224,160,68179,1,0,0:0:0:0:
224,160,68279,1,0,0:0:0:0:
288,160,68379,1,8,0:0:0:0:
288,224,68779,1,12,0:0:0:0:
224,224,69179,1,4,0:0:0:0:
224,160,69579,1,0,0:0:0:0:
224,160,69979,1,0,0:0:0:0:
224,160,70379,1,0,0:0:0:0:
224,160,70579,1,0,0:0:0:0:
224,160,70679,1,0,0:0:0:0:
224,160,70779,1,0,0:0:0:0:
224,160,71179,1,0,0:0:0:0:
224,160,71579,1,0,0:0:0:0:
288,160,71779,1,8,0:0:0:0:
288,160,71879,1,8,0:0:0:0:
224,160,71979,1,0,0:0:0:0:
224,160,72179,1,0,0:0:0:0:
288,160,72279,1,8,0:0:0:0:
224,160,72379,1,0,0:0:0:0:
224,160,72779,1,0,0:0:0:0:
224,160,73179,1,0,0:0:0:0:
224,160,73579,1,0,0:0:0:0:
224,160,73779,1,0,0:0:0:0:
224,160,73879,1,0,0:0:0:0:
224,160,73979,1,0,0:0:0:0:
288,160,74179,1,8,0:0:0:0:
224,160,74379,1,0,0:0:0:0:
288,160,74579,1,8,0:0:0:0:
224,160,74779,1,0,0:0:0:0:
224,160,74979,1,0,0:0:0:0:
288,160,75179,1,8,0:0:0:0:
288,160,75579,1,8,0:0:0:0:
224,160,75779,1,0,0:0:0:0:
288,160,75979,1,8,0:0:0:0:
288,160,76179,1,8,0:0:0:0:
224,160,76379,1,0,0:0:0:0:
224,160,76579,1,0,0:0:0:0:
288,160,76779,1,8,0:0:0:0:
224,160,76979,1,0,0:0:0:0:
224,160,77079,1,0,0:0:0:0:
224,160,77179,1,0,0:0:0:0:
224,160,77379,1,0,0:0:0:0:
288,160,77579,1,8,0:0:0:0:
288,160,77779,1,8,0:0:0:0:
224,160,77979,1,0,0:0:0:0:
288,160,78179,1,8,0:0:0:0:
224,160,78379,1,0,0:0:0:0:
224,160,78479,1,0,0:0:0:0:
288,160,78579,1,8,0:0:0:0:
224,160,78679,1,0,0:0:0:0:
288,160,78779,1,8,0:0:0:0:
224,160,78979,1,0,0:0:0:0:
224,160,79079,1,0,0:0:0:0:
224,160,79179,1,0,0:0:0:0:
288,160,79379,1,8,0:0:0:0:
224,160,79579,1,0,0:0:0:0:
224,160,79679,1,0,0:0:0:0:
288,160,79779,1,8,0:0:0:0:
288,160,79879,1,8,0:0:0:0:
224,160,79979,1,0,0:0:0:0:
288,160,80179,1,8,0:0:0:0:
288,160,80279,1,8,0:0:0:0:
224,160,80379,1,0,0:0:0:0:
288,224,81579,1,12,0:0:0:0:
224,224,81979,1,4,0:0:0:0:
288,160,82179,1,8,0:0:0:0:
224,160,82379,1,0,0:0:0:0:
224,160,82479,1,0,0:0:0:0:
288,160,82579,1,8,0:0:0:0:
224,160,82779,1,0,0:0:0:0:
224,160,82879,1,0,0:0:0:0:
288,160,82979,1,8,0:0:0:0:
288,160,83179,1,8,0:0:0:0:
224,160,83379,1,0,0:0:0:0:
224,160,83479,1,0,0:0:0:0:
224,160,83579,1,0,0:0:0:0:
288,160,83779,1,8,0:0:0:0:
224,160,83879,1,0,0:0:0:0:
288,160,83979,1,8,0:0:0:0:
224,160,84179,1,0,0:0:0:0:
288,160,84279,1,8,0:0:0:0:
224,160,84379,1,0,0:0:0:0:
288,160,84579,1,8,0:0:0:0:
224,160,84779,1,0,0:0:0:0:
288,160,84979,1,8,0:0:0:0:
224,160,85379,1,0,0:0:0:0:
288,160,85579,1,8,0:0:0:0:
224,160,85679,1,0,0:0:0:0:
224,160,85779,1,0,0:0:0:0:
288,160,85979,1,8,0:0:0:0:
224,160,86079,1,0,0:0:0:0:
224,160,86179,1,0,0:0:0:0:
224,160,86379,1,0,0:0:0:0:
288,160,86579,1,8,0:0:0:0:
288,160,87079,1,8,0:0:0:0:
288,160,87379,1,8,0:0:0:0:
224,224,87579,1,4,0:0:0:0:
224,224,87879,1,4,0:0:0:0:
224,224,88179,1,4,0:0:0:0:
288,160,88579,1,8,0:0:0:0:
224,160,88779,1,0,0:0:0:0:
224,160,88879,1,0,0:0:0:0:
288,160,88979,1,8,0:0:0:0:
224,160,89179,1,0,0:0:0:0:
224,160,89279,1,0,0:0:0:0:
288,160,89379,1,8,0:0:0:0:
288,160,89579,1,8,0:0:0:0:
224,160,89779,1,0,0:0:0:0:
224,160,89879,1,0,0:0:0:0:
224,160,89979,1,0,0:0:0:0:
288,160,90179,1,8,0:0:0:0:
224,160,90279,1,0,0:0:0:0:
288,160,90379,1,8,0:0:0:0:
224,160,90579,1,0,0:0:0:0:
288,160,90679,1,8,0:0:0:0:
224,160,90779,1,0,0:0:0:0:
288,160,90979,1,8,0:0:0:0:
224,160,91179,1,0,0:0:0:0:
288,160,91379,1,8,0:0:0:0:
288,160,91779,1,8,0:0:0:0:
224,160,91979,1,0,0:0:0:0:
288,160,92079,1,8,0:0:0:0:
288,160,92179,1,8,0:0:0:0:
224,160,92379,1,0,0:0:0:0:
288,160,92479,1,8,0:0:0:0:
288,160,92579,1,8,0:0:0:0:
288,160,92779,1,8,0:0:0:0:
224,160,92979,1,0,0:0:0:0:
288,160,93479,1,8,0:0:0:0:
224,160,93579,1,0,0:0:0:0:
288,160,93779,1,8,0:0:0:0:
224,224,93979,1,4,0:0:0:0:
224,160,94179,1,0,0:0:0:0:
288,224,94279,1,12,0:0:0:0:
224,224,94779,1,4,0:0:0:0:
288,160,94979,1,8,0:0:0:0:
224,160,95179,1,0,0:0:0:0:
224,160,95279,1,0,0:0:0:0:
288,160,95379,1,8,0:0:0:0:
224,160,95579,1,0,0:0:0:0:
224,160,95679,1,0,0:0:0:0:
288,160,95779,1,8,0:0:0:0:
288,160,95979,1,8,0:0:0:0:
224,160,96179,1,0,0:0:0:0:
224,160,96279,1,0,0:0:0:0:
224,160,96379,1,0,0:0:0:0:
288,160,96579,1,8,0:0:0:0:
224,160,96679,1,0,0:0:0:0:
288,160,96779,1,8,0:0:0:0:
224,160,96979,1,0,0:0:0:0:
288,160,97079,1,8,0:0:0:0:
224,160,97179,1,0,0:0:0:0:
288,160,97379,1,8,0:0:0:0:
224,160,97579,1,0,0:0:0:0:
224,224,97979,1,4,0:0:0:0:
224,160,98179,1,0,0:0:0:0:
288,160,98379,1,8,0:0:0:0:
224,160,98479,1,0,0:0:0:0:
224,160,98579,1,0,0:0:0:0:
288,160,98779,1,8,0:0:0:0:
224,160,98879,1,0,0:0:0:0:
224,160,98979,1,0,0:0:0:0:
224,160,99179,1,0,0:0:0:0:
288,160,99379,1,8,0:0:0:0:
224,160,99779,1,0,0:0:0:0:
288,160,99879,1,8,0:0:0:0:
224,160,99979,1,0,0:0:0:0:
288,160,100179,1,8,0:0:0:0:
224,160,100379,1,0,0:0:0:0:
288,160,100579,1,8,0:0:0:0:
224,160,100679,1,0,0:0:0:0:
288,160,100979,1,8,0:0:0:0:
224,224,101179,1,4,0:0:0:0:
288,160,101379,1,8,0:0:0:0:
224,160,101479,1,0,0:0:0:0:
288,160,101679,1,8,0:0:0:0:
224,160,101779,1,0,0:0:0:0:
288,160,101979,1,8,0:0:0:0:
224,160,102079,1,0,0:0:0:0:
288,160,102179,1,8,0:0:0:0:
288,160,102379,1,8,0:0:0:0:
224,224,102779,1,4,0:0:0:0:
288,160,102979,1,8,0:0:0:0:
224,160,103079,1,0,0:0:0:0:
288,160,103279,1,8,0:0:0:0:
224,160,103379,1,0,0:0:0:0:
224,160,103479,1,0,0:0:0:0:
288,160,103579,1,8,0:0:0:0:
288,160,103779,1,8,0:0:0:0:
288,160,103879,1,8,0:0:0:0:
224,160,103979,1,0,0:0:0:0:
224,224,104379,1,4,0:0:0:0:
288,160,104579,1,8,0:0:0:0:
288,160,104679,1,8,0:0:0:0:
224,160,104779,1,0,0:0:0:0:
224,160,104879,1,0,0:0:0:0:
288,160,104979,1,8,0:0:0:0:
224,224,105179,1,4,0:0:0:0:
288,160,105379,1,8,0:0:0:0:
288,160,105479,1,8,0:0:0:0:
224,160,105579,1,0,0:0:0:0:
288,160,105779,1,8,0:0:0:0:
224,224,105979,1,4,0:0:0:0:
288,224,107179,1,12,0:0:0:0:
224,224,107579,1,4,0:0:0:0:
288,160,107779,1,8,0:0:0:0:
224,160,107979,1,0,0:0:0:0:
224,160,108079,1,0,0:0:0:0:
288,160,108179,1,8,0:0:0:0:
224,160,108379,1,0,0:0:0:0:
224,160,108479,1,0,0:0:0:0:
288,160,108579,1,8,0:0:0:0:
288,160,108779,1,8,0:0:0:0:
224,160,108979,1,0,0:0:0:0:
224,160,109079,1,0,0:0:0:0:
224,160,109179,1,0,0:0:0:0:
288,160,109379,1,8,0:0:0:0:
224,160,109479,1,0,0:0:0:0:
288,160,109579,1,8,0:0:0:0:
224,160,109779,1,0,0:0:0:0:
288,160,109879,1,8,0:0:0:0:
224,160,109979,1,0,0:0:0:0:
288,160,110279,1,8,0:0:0:0:
224,160,110379,1,0,0:0:0:0:
288,160,110579,1,8,0:0:0:0:
224,160,110779,1,0,0:0:0:0:
288,160,110979,1,8,0:0:0:0:
224,160,111179,1,0,0:0:0:0:
224,160,111279,1,0,0:0:0:0:
288,160,111379,1,8,0:0:0:0:
288,160,111479,1,8,0:0:0:0:
288,160,111579,1,8,0:0:0:0:
288,160,111679,1,8,0:0:0:0:
224,160,111779,1,0,0:0:0:0:
224,160,111979,1,0,0:0:0:0:
288,160,112179,1,8,0:0:0:0:
224,160,112379,1,0,0:0:0:0:
288,160,112679,1,8,0:0:0:0:
224,160,112779,1,0,0:0:0:0:
288,160,112979,1,8,0:0:0:0:
224,224,113179,1,4,0:0:0:0:
288,160,113379,1,8,0:0:0:0:
224,224,113479,1,4,0:0:0:0:
224,160,113679,1,0,0:0:0:0:
288,224,113779,1,12,0:0:0:0:
224,224,114379,1,4,0:0:0:0:
288,160,114579,1,8,0:0:0:0:
224,160,114779,1,0,0:0:0:0:
224,160,114879,1,0,0:0:0:0:
288,160,115079,1,8,0:0:0:0:
288,160,115179,1,8,0:0:0:0:
288,160,115279,1,8,0:0:0:0:
224,160,115379,1,0,0:0:0:0:
224,160,115579,1,0,0:0:0:0:
288,160,115779,1,8,0:0:0:0:
224,160,115879,1,0,0:0:0:0:
288,160,115979,1,8,0:0:0:0:
224,160,116179,1,0,0:0:0:0:
288,160,116279,1,8,0:0:0:0:
224,160,116379,1,0,0:0:0:0:
288,160,116579,1,8,0:0:0:0:
224,160,116679,1,0,0:0:0:0:
224,160,116879,1,0,0:0:0:0:
288,160,116979,1,8,0:0:0:0:
224,160,117179,1,0,0:0:0:0:
288,160,117379,1,8,0:0:0:0:
288,160,117779,1,8,0:0:0:0:
224,160,117979,1,0,0:0:0:0:
224,160,118079,1,0,0:0:0:0:
288,160,118179,1,8,0:0:0:0:
288,160,118279,1,8,0:0:0:0:
224,160,118379,1,0,0:0:0:0:
288,160,118579,1,8,0:0:0:0:
224,160,118779,1,0,0:0:0:0:
224,160,118979,1,0,0:0:0:0:
224,160,119179,1,0,0:0:0:0:
224,160,119379,1,0,0:0:0:0:
224,160,119479,1,0,0:0:0:0:
288,224,119579,1,12,0:0:0:0:
288,224,119879,1,12,0:0:0:0:
224,224,120379,1,4,0:0:0:0:
288,160,120579,1,8,0:0:0:0:
224,160,120779,1,0,0:0:0:0:
224,160,120879,1,0,0:0:0:0:
288,160,120979,1,8,0:0:0:0:
224,160,121179,1,0,0:0:0:0:
224,160,121279,1,0,0:0:0:0:
288,160,121379,1,8,0:0:0:0:
288,160,121579,1,8,0:0:0:0:
224,160,121779,1,0,0:0:0:0:
224,160,121879,1,0,0:0:0:0:
224,160,121979,1,0,0:0:0:0:
288,160,122179,1,8,0:0:0:0:
224,160,122279,1,0,0:0:0:0:
288,160,122379,1,8,0:0:0:0:
224,160,122579,1,0,0:0:0:0:
288,160,122679,1,8,0:0:0:0:
224,160,122779,1,0,0:0:0:0:
288,160,122979,1,8,0:0:0:0:
224,224,123179,1,4,0:0:0:0:
288,224,123379,1,12,0:0:0:0:
288,160,123979,1,8,0:0:0:0:
224,160,124079,1,0,0:0:0:0:
224,160,124179,1,0,0:0:0:0:
288,160,124379,1,8,0:0:0:0:
224,160,124479,1,0,0:0:0:0:
224,160,124579,1,0,0:0:0:0:
224,160,124779,1,0,0:0:0:0:
288,160,124979,1,8,0:0:0:0:
288,160,125079,1,8,0:0:0:0:
224,160,125179,1,0,0:0:0:0:
288,160,125479,1,8,0:0:0:0:
288,160,125779,1,8,0:0:0:0:
224,160,125979,1,0,0:0:0:0:
224,160,126279,1,0,0:0:0:0:
288,160,126579,1,8,0:0:0:0:
224,224,126779,1,4,0:0:0:0:
288,160,126979,1,8,0:0:0:0:
224,160,127179,1,0,0:0:0:0:
288,160,127279,1,8,0:0:0:0:
224,160,127379,1,0,0:0:0:0:
288,160,127579,1,8,0:0:0:0:
288,160,127779,1,8,0:0:0:0:
224,160,127879,1,0,0:0:0:0:
224,160,127979,1,0,0:0:0:0:
288,160,128179,1,8,0:0:0:0:
224,160,128379,1,0,0:0:0:0:
288,160,128579,1,8,0:0:0:0:
288,160,128679,1,8,0:0:0:0:
224,160,128779,1,0,0:0:0:0:
224,160,128979,1,0,0:0:0:0:
224,160,129079,1,0,0:0:0:0:
288,160,129179,1,8,0:0:0:0:
224,160,129379,1,0,0:0:0:0:
288,160,129579,1,8,0:0:0:0:
224,160,129679,1,0,0:0:0:0:
288,160,129779,1,8,0:0:0:0:
288,160,129879,1,8,0:0:0:0:
224,160,129979,1,0,0:0:0:0:
288,160,130179,1,8,0:0:0:0:
288,160,130279,1,8,0:0:0:0:
224,160,130379,1,0,0:0:0:0:
288,160,130579,1,8,0:0:0:0:
288,160,130679,1,8,0:0:0:0:
224,160,130779,1,0,0:0:0:0:
224,160,130879,1,0,0:0:0:0:
288,160,130979,1,8,0:0:0:0:
224,160,131179,1,0,0:0:0:0:
224,160,131279,1,0,0:0:0:0:
288,160,131379,1,8,0:0:0:0:
288,160,131479,1,8,0:0:0:0:
224,160,131579,1,0,0:0:0:0:
288,224,132779,1,12,0:0:0:0:
224,224,133179,1,4,0:0:0:0:
288,160,136379,1,8,0:0:0:0:
224,160,137979,1,0,0:0:0:0:
224,160,138779,1,0,0:0:0:0:
224,160,138979,1,0,0:0:0:0:
288,160,139179,1,8,0:0:0:0:
224,160,139379,1,0,0:0:0:0:
288,160,139579,1,8,0:0:0:0:
288,160,141179,1,8,0:0:0:0:
288,160,141979,1,8,0:0:0:0:
288,160,142579,1,8,0:0:0:0:
288,160,142679,1,8,0:0:0:0:
224,160,142779,1,0,0:0:0:0:
224,160,144379,1,0,0:0:0:0:
288,160,144579,1,8,0:0:0:0:
288,160,144979,1,8,0:0:0:0:
224,160,145179,1,0,0:0:0:0:
224,160,145579,1,0,0:0:0:0:
288,160,145979,1,8,0:0:0:0:
288,160,146379,1,8,0:0:0:0:
224,160,146579,1,0,0:0:0:0:
288,160,146779,1,8,0:0:0:0:
288,160,147179,1,8,0:0:0:0:
224,160,148179,1,0,0:0:0:0:
224,160,148279,1,0,0:0:0:0:
288,160,148379,1,8,0:0:0:0:
224,160,148579,1,0,0:0:0:0:
224,160,148779,1,0,0:0:0:0:
288,160,148979,1,8,0:0:0:0:
224,160,149179,1,0,0:0:0:0:
288,160,149779,1,8,0:0:0:0:
224,160,149979,1,0,0:0:0:0:
224,160,150279,1,0,0:0:0:0:
224,160,150579,1,0,0:0:0:0:
288,160,150779,1,8,0:0:0:0:
288,160,151379,1,8,0:0:0:0:
224,160,151579,1,0,0:0:0:0:
224,160,151879,1,0,0:0:0:0:
288,160,152179,1,8,0:0:0:0:
224,160,152379,1,0,0:0:0:0:
224,160,153779,1,0,0:0:0:0:
288,160,153979,1,8,0:0:0:0:
288,160,154179,1,8,0:0:0:0:
224,160,154379,1,0,0:0:0:0:
224,160,154579,1,0,0:0:0:0:
224,160,155179,1,0,0:0:0:0:
224,160,155379,1,0,0:0:0:0:
224,160,155479,1,0,0:0:0:0:
288,160,155579,1,8,0:0:0:0:
256,192,157179,12,0,157979,0:0:0:0:
288,224,158379,5,12,0:0:0:0:
224,224,158779,1,4,0:0:0:0:
224,160,159179,1,0,0:0:0:0:
224,160,159579,1,0,0:0:0:0:
224,160,159979,1,0,0:0:0:0:
224,160,160379,1,0,0:0:0:0:
224,160,160779,1,0,0:0:0:0:
224,160,161179,1,0,0:0:0:0:
224,160,161579,1,0,0:0:0:0:
288,160,161779,1,8,0:0:0:0:
224,160,161979,1,0,0:0:0:0:
224,160,162379,1,0,0:0:0:0:
288,160,162779,1,8,0:0:0:0:
288,160,163179,1,8,0:0:0:0:
224,160,163579,1,0,0:0:0:0:
288,160,163979,1,8,0:0:0:0:
224,160,164379,1,0,0:0:0:0:
288,160,164779,1,8,0:0:0:0:
288,160,164979,1,8,0:0:0:0:
224,160,165179,1,0,0:0:0:0:
224,160,165579,1,0,0:0:0:0:
224,160,165979,1,0,0:0:0:0:
224,160,166379,1,0,0:0:0:0:
288,160,166579,1,8,0:0:0:0:
224,160,166779,1,0,0:0:0:0:
224,160,167179,1,0,0:0:0:0:
288,160,167579,1,8,0:0:0:0:
288,160,167979,1,8,0:0:0:0:
288,160,168179,1,8,0:0:0:0:
224,160,168379,1,0,0:0:0:0:
224,160,168779,1,0,0:0:0:0:
224,160,169179,1,0,0:0:0:0:
224,160,169579,1,0,0:0:0:0:
288,160,169979,1,8,0:0:0:0:
224,160,170379,1,0,0:0:0:0:
288,160,170779,1,8,0:0:0:0:
288,160,171079,1,8,0:0:0:0:
224,160,171179,1,0,0:0:0:0:
288,160,171379,1,8,0:0:0:0:
224,224,171579,1,4,0:0:0:0:
288,160,171779,1,8,0:0:0:0:
224,160,171879,1,0,0:0:0:0:
288,160,171979,1,8,0:0:0:0:
224,160,172179,1,0,0:0:0:0:
288,160,172679,1,8,0:0:0:0:
224,160,172779,1,0,0:0:0:0:
288,160,172979,1,8,0:0:0:0:
224,160,173179,1,0,0:0:0:0:
288,160,173379,1,8,0:0:0:0:
224,160,173479,1,0,0:0:0:0:
288,160,173579,1,8,0:0:0:0:
224,160,173779,1,0,0:0:0:0:
288,160,173979,1,8,0:0:0:0:
224,160,174179,1,0,0:0:0:0:
288,160,174379,1,8,0:0:0:0:
288,160,174579,1,8,0:0:0:0:
224,160,174779,1,0,0:0:0:0:
288,160,174979,1,8,0:0:0:0:
224,160,175079,1,0,0:0:0:0:
288,160,175179,1,8,0:0:0:0:
224,160,175379,1,0,0:0:0:0:
288,160,175579,1,8,0:0:0:0:
224,160,175879,1,0,0:0:0:0:
288,160,175979,1,8,0:0:0:0:
224,160,176179,1,0,0:0:0:0:
288,160,176379,1,8,0:0:0:0:
224,160,176579,1,0,0:0:0:0:
288,160,176679,1,8,0:0:0:0:
224,160,176779,1,0,0:0:0:0:
224,160,176979,1,0,0:0:0:0:
288,160,177179,1,8,0:0:0:0:
288,160,177579,1,8,0:0:0:0:
288,160,177779,1,8,0:0:0:0:
224,160,177979,1,0,0:0:0:0:
288,160,178379,1,8,0:0:0:0:
224,160,178579,1,0,0:0:0:0:
288,160,178779,1,8,0:0:0:0:
224,160,179079,1,0,0:0:0:0:
288,160,179179,1,8,0:0:0:0:
224,160,179379,1,0,0:0:0:0:
288,160,179479,1,8,0:0:0:0:
224,160,179579,1,0,0:0:0:0:
288,160,179779,1,8,0:0:0:0:
224,160,179979,1,0,0:0:0:0:
288,160,180179,1,8,0:0:0:0:
224,160,180579,1,0,0:0:0:0:
288,160,180779,1,8,0:0:0:0:
224,160,180879,1,0,0:0:0:0:
288,160,180979,1,8,0:0:0:0:
288,160,181079,1,8,0:0:0:0:
224,160,181179,1,0,0:0:0:0:
288,160,181379,1,8,0:0:0:0:
288,160,181479,1,8,0:0:0:0:
224,160,181579,1,0,0:0:0:0:
288,160,181779,1,8,0:0:0:0:
224,160,181979,1,0,0:0:0:0:
224,160,182079,1,0,0:0:0:0:
288,160,182179,1,8,0:0:0:0:
224,160,182379,1,0,0:0:0:0:
288,160,182579,1,8,0:0:0:0:
288,160,182679,1,8,0:0:0:0:
224,160,182779,1,0,0:0:0:0:
224,160,182979,1,0,0:0:0:0:
224,160,183079,1,0,0:0:0:0:
288,160,183179,1,8,0:0:0:0:
288,160,183279,1,8,0:0:0:0:
224,160,183379,1,0,0:0:0:0:
224,160,183479,1,0,0:0:0:0:
288,160,183579,1,8,0:0:0:0:
224,160,184179,1,0,0:0:0:0:
288,224,196779,5,12,0:0:0:0:
224,224,197179,1,4,0:0:0:0:
288,160,197379,1,8,0:0:0:0:
224,160,197579,1,0,0:0:0:0:
224,160,197679,1,0,0:0:0:0:
288,160,197779,1,8,0:0:0:0:
224,160,197979,1,0,0:0:0:0:
224,160,198079,1,0,0:0:0:0:
288,160,198179,1,8,0:0:0:0:
288,160,198379,1,8,0:0:0:0:
224,160,198579,1,0,0:0:0:0:
288,160,198979,1,8,0:0:0:0:
224,160,199079,1,0,0:0:0:0:
288,160,199179,1,8,0:0:0:0:
224,160,199379,1,0,0:0:0:0:
288,160,199479,1,8,0:0:0:0:
224,160,199579,1,0,0:0:0:0:
288,160,199779,1,8,0:0:0:0:
224,160,199979,1,0,0:0:0:0:
288,160,200179,1,8,0:0:0:0:
224,160,200579,1,0,0:0:0:0:
288,160,200779,1,8,0:0:0:0:
224,160,200879,1,0,0:0:0:0:
224,160,200979,1,0,0:0:0:0:
288,160,201179,1,8,0:0:0:0:
224,160,201279,1,0,0:0:0:0:
224,160,201379,1,0,0:0:0:0:
224,160,201579,1,0,0:0:0:0:
288,160,201779,1,8,0:0:0:0:
288,160,202279,1,8,0:0:0:0:
288,160,202579,1,8,0:0:0:0:
224,160,202779,1,0,0:0:0:0:
224,160,203079,1,0,0:0:0:0:
288,160,203379,1,8,0:0:0:0:
288,160,203779,1,8,0:0:0:0:
224,160,203979,1,0,0:0:0:0:
224,160,204079,1,0,0:0:0:0:
288,160,204179,1,8,0:0:0:0:
224,160,204379,1,0,0:0:0:0:
224,160,204479,1,0,0:0:0:0:
288,160,204579,1,8,0:0:0:0:
288,160,204779,1,8,0:0:0:0:
224,160,204979,1,0,0:0:0:0:
288,160,205379,1,8,0:0:0:0:
224,160,205479,1,0,0:0:0:0:
288,160,205579,1,8,0:0:0:0:
224,160,205779,1,0,0:0:0:0:
288,160,205879,1,8,0:0:0:0:
224,160,205979,1,0,0:0:0:0:
288,160,206179,1,8,0:0:0:0:
224,160,206379,1,0,0:0:0:0:
288,160,206579,1,8,0:0:0:0:
288,160,206979,1,8,0:0:0:0:
224,160,207179,1,0,0:0:0:0:
288,160,207279,1,8,0:0:0:0:
288,160,207379,1,8,0:0:0:0:
224,160,207579,1,0,0:0:0:0:
288,160,207679,1,8,0:0:0:0:
288,160,207779,1,8,0:0:0:0:
288,160,207979,1,8,0:0:0:0:
224,160,208179,1,0,0:0:0:0:
288,160,208679,1,8,0:0:0:0:
224,160,208779,1,0,0:0:0:0:
224,160,208979,1,0,0:0:0:0:
224,160,209079,1,0,0:0:0:0:
288,160,209179,1,8,0:0:0:0:
224,160,209479,1,0,0:0:0:0:
288,160,209779,1,8,0:0:0:0:
224,224,209979,1,4,0:0:0:0:
224,160,210379,1,0,0:0:0:0:
224,160,210479,1,0,0:0:0:0:
288,160,210579,1,8,0:0:0:0:
224,160,210779,1,0,0:0:0:0:
224,160,210879,1,0,0:0:0:0:
288,160,210979,1,8,0:0:0:0:
288,160,211179,1,8,0:0:0:0:
224,160,211379,1,0,0:0:0:0:
224,160,211479,1,0,0:0:0:0:
224,160,211579,1,0,0:0:0:0:
288,160,211779,1,8,0:0:0:0:
224,160,211879,1,0,0:0:0:0:
288,160,211979,1,8,0:0:0:0:
224,160,212179,1,0,0:0:0:0:
288,160,212279,1,8,0:0:0:0:
224,160,212379,1,0,0:0:0:0:
288,160,212579,1,8,0:0:0:0:
224,160,212779,1,0,0:0:0:0:
224,160,212979,1,0,0:0:0:0:
224,160,213379,1,0,0:0:0:0:
288,160,213579,1,8,0:0:0:0:
224,160,213679,1,0,0:0:0:0:
224,160,213779,1,0,0:0:0:0:
288,160,213979,1,8,0:0:0:0:
224,160,214079,1,0,0:0:0:0:
224,160,214179,1,0,0:0:0:0:
224,160,214379,1,0,0:0:0:0:
288,160,214579,1,8,0:0:0:0:
288,160,214679,1,8,0:0:0:0:
224,160,214779,1,0,0:0:0:0:
288,160,215079,1,8,0:0:0:0:
224,160,215179,1,0,0:0:0:0:
288,160,215379,1,8,0:0:0:0:
224,160,215579,1,0,0:0:0:0:
224,160,215779,1,0,0:0:0:0:
288,160,215879,1,8,0:0:0:0:
224,160,215979,1,0,0:0:0:0:
224,160,216179,1,0,0:0:0:0:
224,160,216279,1,0,0:0:0:0:
224,160,216379,1,0,0:0:0:0:
224,160,216579,1,0,0:0:0:0:
288,160,216779,1,8,0:0:0:0:
224,160,216979,1,0,0:0:0:0:
224,160,217179,1,0,0:0:0:0:
224,160,217379,1,0,0:0:0:0:
288,160,217579,1,8,0:0:0:0:
224,160,217779,1,0,0:0:0:0:
224,160,217979,1,0,0:0:0:0:
224,160,218179,1,0,0:0:0:0:
288,160,218379,1,8,0:0:0:0:
224,160,218579,1,0,0:0:0:0:
224,160,218779,1,0,0:0:0:0:
224,160,218979,1,0,0:0:0:0:
288,160,219179,1,8,0:0:0:0:
224,160,219279,1,0,0:0:0:0:
224,160,219379,1,0,0:0:0:0:
224,160,219479,1,0,0:0:0:0:
288,160,219579,1,8,0:0:0:0:
224,160,219779,1,0,0:0:0:0:
224,160,219879,1,0,0:0:0:0:
224,160,219979,1,0,0:0:0:0:
288,160,220179,1,8,0:0:0:0:
288,160,220379,1,8,0:0:0:0:
288,160,220479,1,8,0:0:0:0:
224,160,220579,1,0,0:0:0:0:
224,160,220679,1,0,0:0:0:0:
288,160,220779,1,8,0:0:0:0:
288,160,220979,1,8,0:0:0:0:
288,160,221079,1,8,0:0:0:0:
224,160,221179,1,0,0:0:0:0:
288,224,222379,1,12,0:0:0:0:
224,224,222779,1,4,0:0:0:0:
288,160,222979,1,8,0:0:0:0:
224,160,223179,1,0,0:0:0:0:
224,160,223279,1,0,0:0:0:0:
288,160,223379,1,8,0:0:0:0:
224,160,223579,1,0,0:0:0:0:
224,160,223679,1,0,0:0:0:0:
288,160,223779,1,8,0:0:0:0:
288,160,223979,1,8,0:0:0:0:
224,160,224179,1,0,0:0:0:0:
224,160,224279,1,0,0:0:0:0:
224,160,224379,1,0,0:0:0:0:
288,160,224579,1,8,0:0:0:0:
224,160,224679,1,0,0:0:0:0:
288,160,224779,1,8,0:0:0:0:
224,160,224979,1,0,0:0:0:0:
288,160,225079,1,8,0:0:0:0:
224,160,225179,1,0,0:0:0:0:
288,160,225379,1,8,0:0:0:0:
224,160,225579,1,0,0:0:0:0:
288,160,225779,1,8,0:0:0:0:
224,160,226179,1,0,0:0:0:0:
288,160,226379,1,8,0:0:0:0:
224,160,226479,1,0,0:0:0:0:
224,160,226579,1,0,0:0:0:0:
288,160,226779,1,8,0:0:0:0:
224,160,226879,1,0,0:0:0:0:
224,160,226979,1,0,0:0:0:0:
224,160,227179,1,0,0:0:0:0:
288,160,227379,1,8,0:0:0:0:
288,160,227879,1,8,0:0:0:0:
288,160,228179,1,8,0:0:0:0:
224,224,228379,1,4,0:0:0:0:
224,224,228679,1,4,0:0:0:0:
224,224,228979,1,4,0:0:0:0:
288,160,229379,1,8,0:0:0:0:
224,160,229579,1,0,0:0:0:0:
224,160,229679,1,0,0:0:0:0:
288,160,229779,1,8,0:0:0:0:
224,160,229979,1,0,0:0:0:0:
224,160,230079,1,0,0:0:0:0:
288,160,230179,1,8,0:0:0:0:
288,160,230379,1,8,0:0:0:0:
224,160,230579,1,0,0:0:0:0:
224,160,230679,1,0,0:0:0:0:
224,160,230779,1,0,0:0:0:0:
288,160,230979,1,8,0:0:0:0:
224,160,231079,1,0,0:0:0:0:
288,160,231179,1,8,0:0:0:0:
224,160,231379,1,0,0:0:0:0:
288,160,231479,1,8,0:0:0:0:
224,160,231579,1,0,0:0:0:0:
288,160,231779,1,8,0:0:0:0:
224,160,231979,1,0,0:0:0:0:
288,160,232179,1,8,0:0:0:0:
288,160,232579,1,8,0:0:0:0:
224,160,232779,1,0,0:0:0:0:
288,160,232879,1,8,0:0:0:0:
288,160,232979,1,8,0:0:0:0:
224,160,233179,1,0,0:0:0:0:
288,160,233279,1,8,0:0:0:0:
288,160,233379,1,8,0:0:0:0:
288,160,233579,1,8,0:0:0:0:
224,160,233779,1,0,0:0:0:0:
288,160,234279,1,8,0:0:0:0:
224,160,234379,1,0,0:0:0:0:
288,160,234579,1,8,0:0:0:0:
224,224,234779,1,4,0:0:0:0:
224,160,234979,1,0,0:0:0:0:
288,224,235079,1,12,0:0:0:0:
224,224,235579,1,4,0:0:0:0:
288,160,235779,1,8,0:0:0:0:
224,160,235979,1,0,0:0:0:0:
224,160,236079,1,0,0:0:0:0:
288,160,236179,1,8,0:0:0:0:
224,160,236379,1,0,0:0:0:0:
224,160,236479,1,0,0:0:0:0:
288,160,236579,1,8,0:0:0:0:
288,160,236779,1,8,0:0:0:0:
224,160,236979,1,0,0:0:0:0:
224,160,237079,1,0,0:0:0:0:
224,160,237179,1,0,0:0:0:0:
288,160,237379,1,8,0:0:0:0:
224,160,237479,1,0,0:0:0:0:
288,160,237579,1,8,0:0:0:0:
224,160,237779,1,0,0:0:0:0:
288,160,237879,1,8,0:0:0:0:
224,160,237979,1,0,0:0:0:0:
288,160,238179,1,8,0:0:0:0:
224,160,238379,1,0,0:0:0:0:
288,224,238779,1,12,0:0:0:0:
224,160,238979,1,0,0:0:0:0:
288,160,239179,1,8,0:0:0:0:
224,160,239279,1,0,0:0:0:0:
224,160,239379,1,0,0:0:0:0:
288,160,239579,1,8,0:0:0:0:
224,160,239679,1,0,0:0:0:0:
224,160,239779,1,0,0:0:0:0:
224,160,239979,1,0,0:0:0:0:
288,160,240179,1,8,0:0:0:0:
224,160,240579,1,0,0:0:0:0:
288,160,240679,1,8,0:0:0:0:
224,160,240779,1,0,0:0:0:0:
288,160,240979,1,8,0:0:0:0:
224,160,241179,1,0,0:0:0:0:
288,160,241379,1,8,0:0:0:0:
224,160,241479,1,0,0:0:0:0:
288,160,241779,1,8,0:0:0:0:
224,224,241979,1,4,0:0:0:0:
288,160,242179,1,8,0:0:0:0:
224,160,242279,1,0,0:0:0:0:
288,160,242479,1,8,0:0:0:0:
224,160,242579,1,0,0:0:0:0:
288,160,242779,1,8,0:0:0:0:
224,160,242879,1,0,0:0:0:0:
288,160,242979,1,8,0:0:0:0:
288,160,243179,1,8,0:0:0:0:
224,224,243579,1,4,0:0:0:0:
288,160,243779,1,8,0:0:0:0:
224,160,243879,1,0,0:0:0:0:
288,160,244079,1,8,0:0:0:0:
224,160,244179,1,0,0:0:0:0:
224,160,244279,1,0,0:0:0:0:
288,160,244379,1,8,0:0:0:0:
288,160,244579,1,8,0:0:0:0:
288,160,244679,1,8,0:0:0:0:
224,160,244779,1,0,0:0:0:0:
224,224,245179,1,4,0:0:0:0:
288,160,245379,1,8,0:0:0:0:
288,160,245479,1,8,0:0:0:0:
224,160,245579,1,0,0:0:0:0:
224,160,245679,1,0,0:0:0:0:
288,160,245779,1,8,0:0:0:0:
224,224,245979,1,4,0:0:0:0:
288,160,246179,1,8,0:0:0:0:
288,160,246279,1,8,0:0:0:0:
224,160,246379,1,0,0:0:0:0:
288,160,246579,1,8,0:0:0:0:
224,224,246779,1,4,0:0:0:0:
256,192,246879,12,0,247779,0:0:0:0:
288,224,247979,5,12,0:0:0:0:
224,224,248379,1,4,0:0:0:0:
288,160,248579,1,8,0:0:0:0:
224,160,248779,1,0,0:0:0:0:
224,160,248879,1,0,0:0:0:0:
288,160,248979,1,8,0:0:0:0:
224,160,249179,1,0,0:0:0:0:
224,160,249279,1,0,0:0:0:0:
288,160,249379,1,8,0:0:0:0:
288,160,249579,1,8,0:0:0:0:
224,160,249779,1,0,0:0:0:0:
288,160,250179,1,8,0:0:0:0:
224,160,250279,1,0,0:0:0:0:
288,160,250379,1,8,0:0:0:0:
224,160,250579,1,0,0:0:0:0:
288,160,250679,1,8,0:0:0:0:
224,224,250779,1,4,0:0:0:0:
288,224,251079,1,12,0:0:0:0:
288,224,251379,1,12,0:0:0:0:
224,224,251579,1,4,0:0:0:0:
288,160,251779,1,8,0:0:0:0:
224,160,251979,1,0,0:0:0:0:
224,160,252079,1,0,0:0:0:0:
288,160,252179,1,8,0:0:0:0:
288,160,252279,1,8,0:0:0:0:
224,160,252379,1,0,0:0:0:0:
224,160,252479,1,0,0:0:0:0:
288,160,252579,1,8,0:0:0:0:
224,160,252779,1,0,0:0:0:0:
288,160,252979,1,8,0:0:0:0:
288,160,253479,1,8,0:0:0:0:
224,160,253579,1,0,0:0:0:0:
288,160,253779,1,8,0:0:0:0:
224,224,253979,1,4,0:0:0:0:
288,160,254179,1,8,0:0:0:0:
224,224,254279,1,4,0:0:0:0:
224,160,254479,1,0,0:0:0:0:
288,224,254579,1,12,0:0:0:0:
224,224,255179,1,4,0:0:0:0:
288,160,255379,1,8,0:0:0:0:
224,160,255579,1,0,0:0:0:0:
288,160,255679,1,8,0:0:0:0:
224,160,255779,1,0,0:0:0:0:
224,160,255879,1,0,0:0:0:0:
288,160,255979,1,8,0:0:0:0:
288,160,256079,1,8,0:0:0:0:
224,160,256179,1,0,0:0:0:0:
224,160,256379,1,0,0:0:0:0:
288,160,256579,1,8,0:0:0:0:
224,160,256679,1,0,0:0:0:0:
288,160,256779,1,8,0:0:0:0:
224,160,256979,1,0,0:0:0:0:
288,160,257079,1,8,0:0:0:0:
224,160,257179,1,0,0:0:0:0:
288,160,257379,1,8,0:0:0:0:
224,160,257479,1,0,0:0:0:0:
224,160,257679,1,0,0:0:0:0:
288,160,257779,1,8,0:0:0:0:
224,224,257979,1,4,0:0:0:0:
288,160,258179,1,8,0:0:0:0:
224,160,258379,1,0,0:0:0:0:
224,160,258479,1,0,0:0:0:0:
288,160,258579,1,8,0:0:0:0:
224,224,258779,1,4,0:0:0:0:
288,160,258979,1,8,0:0:0:0:
288,160,259079,1,8,0:0:0:0:
224,160,259179,1,0,0:0:0:0:
288,160,259379,1,8,0:0:0:0:
224,160,259579,1,0,0:0:0:0:
224,160,260179,1,0,0:0:0:0:
224,160,260279,1,0,0:0:0:0:
288,224,260379,1,12,0:0:0:0:
288,224,260679,1,12,0:0:0:0:
224,224,261179,1,4,0:0:0:0:
288,160,261379,1,8,0:0:0:0:
288,160,261479,1,8,0:0:0:0:
224,160,261579,1,0,0:0:0:0:
224,160,261679,1,0,0:0:0:0:
288,160,261779,1,8,0:0:0:0:
224,160,261979,1,0,0:0:0:0:
224,160,262079,1,0,0:0:0:0:
288,160,262179,1,8,0:0:0:0:
288,160,262379,1,8,0:0:0:0:
224,160,262579,1,0,0:0:0:0:
288,160,262979,1,8,0:0:0:0:
224,160,263079,1,0,0:0:0:0:
288,160,263179,1,8,0:0:0:0:
224,160,263379,1,0,0:0:0:0:
288,160,263479,1,8,0:0:0:0:
224,160,263579,1,0,0:0:0:0:
288,160,263779,1,8,0:0:0:0:
288,160,263879,1,8,0:0:0:0:
224,224,263979,1,4,0:0:0:0:
288,224,264179,1,12,0:0:0:0:
288,160,264779,1,8,0:0:0:0:
224,160,264879,1,0,0:0:0:0:
224,160,264979,1,0,0:0:0:0:
288,160,265179,1,8,0:0:0:0:
224,160,265279,1,0,0:0:0:0:
224,160,265379,1,0,0:0:0:0:
224,160,265579,1,0,0:0:0:0:
288,160,265779,1,8,0:0:0:0:
288,160,265879,1,8,0:0:0:0:
224,160,265979,1,0,0:0:0:0:
288,160,266279,1,8,0:0:0:0:
288,160,266579,1,8,0:0:0:0:
224,160,266779,1,0,0:0:0:0:
224,160,267079,1,0,0:0:0:0:
288,160,267379,1,8,0:0:0:0:
224,224,267579,1,4,0:0:0:0:
288,160,267779,1,8,0:0:0:0:
224,160,267979,1,0,0:0:0:0:
288,160,268079,1,8,0:0:0:0:
224,160,268179,1,0,0:0:0:0:
288,160,268379,1,8,0:0:0:0:
288,160,268579,1,8,0:0:0:0:
224,160,268679,1,0,0:0:0:0:
224,160,268779,1,0,0:0:0:0:
288,160,268979,1,8,0:0:0:0:
288,160,269379,1,8,0:0:0:0:
288,160,269479,1,8,0:0:0:0:
224,160,269579,1,0,0:0:0:0:
224,160,269779,1,0,0:0:0:0:
288,160,269979,1,8,0:0:0:0:
224,160,270179,1,0,0:0:0:0:
224,160,270379,1,0,0:0:0:0:
224,160,270479,1,0,0:0:0:0:
288,160,270579,1,8,0:0:0:0:
288,160,270679,1,8,0:0:0:0:
224,160,270779,1,0,0:0:0:0:
288,160,270979,1,8,0:0:0:0:
288,160,271079,1,8,0:0:0:0:
224,160,271179,1,0,0:0:0:0:
288,160,271379,1,8,0:0:0:0:
288,160,271479,1,8,0:0:0:0:
224,160,271579,1,0,0:0:0:0:
224,160,271679,1,0,0:0:0:0:
288,160,271779,1,8,0:0:0:0:
224,160,271979,1,0,0:0:0:0:
224,160,272079,1,0,0:0:0:0:
288,160,272179,1,8,0:0:0:0:
288,160,272279,1,8,0:0:0:0:
224,160,272379,1,0,0:0:0:0:
288,224,273579,1,12,0:0:0:0:
224,224,273979,1,4,0:0:0:0:
224,160,277179,1,0,0:0:0:0:
224,160,278779,1,0,0:0:0:0:
224,160,279579,1,0,0:0:0:0:
288,160,280379,1,8,0:0:0:0:
288,160,281979,1,8,0:0:0:0:
288,160,282779,1,8,0:0:0:0:
224,160,283579,1,0,0:0:0:0:
224,160,284579,1,0,0:0:0:0:
224,160,284806,1,0,0:0:0:0:
224,160,285042,1,0,0:0:0:0:
288,160,285278,1,8,0:0:0:0:
224,160,285545,1,0,0:0:0:0:
288,160,285775,1,8,0:0:0:0:
288,160,286075,1,8,0:0:0:0:
224,160,286369,1,0,0:0:0:0:
224,160,286730,1,0,0:0:0:0:
288,160,287275,1,8,0:0:0:0:
