osu file format v14

[General]
AudioFilename: audio.mp3
AudioLeadIn: 0
PreviewTime: 107579
Countdown: 0
SampleSet: Soft
StackLeniency: 0.7
Mode: 2
LetterboxInBreaks: 0
WidescreenStoryboard: 1

[Editor]
Bookmarks: 17179,43579,69179,81979,82379,82779,83179,83579,83979,84379,84779,85179,85579,85979,86379,86779,87179,87579,87879,88179,88579,88779,89179,89579,89979,90379,90779,91179,91579,91979,92379,92779,93179,93579,93979,94279,94779,94879,95179,95579,95979,96179,96379,96779,97079,97179,97379,97979,98379,98779,99179,99579,99779,99845,99912,99979,100179,100379,100579,101179,101379,101479,101679,101779,101979,102179,102779,102979,103079,103279,103379,103445,103512,103579,103779,103845,103912,104379,104579,104629,104679,104729,105179,105379,105429,105479,105529,105979,107579,107979,108379,108779,109179,109579,109979,110279,110579,110779,111179,111579,111679,111779,111979,112179,112379,112779,112979,113179,113479,113779,114379,114779,114879,115079,115179,115379,115579,115979,116379,116679,116979,117179,117379,117579,117604,117629,117654,117679,117704,117729,117754,117779,117804,117829,117854,117879,117904,117929,117954,117979,118179,118229,118279,118329,118379,118779,119379,119429,119479,119529,119579,119879,120379,120479,120679,120779,120979,121179,121579,121779,121979,122379,122679,122779,123079,123379,123979,124379,124779,124979,125179,126779,127179,127579,127879,127979,128179,128379,128779,129079,129179,129579,129979,130179,130379,130579,130779,130879,130979,131079,131179,131379,131579,133179,157979,172579,176179,184379,197179,199379,199979,200179,200779,200979,201579,201779,202779,203079,203379,203579,206379,206579,207179,207379,207979,208179,209979,216379,220879,222779,223179,223579,223979,224379,224779,225179,225579,225979,226379,226779,227179,227579,227979,228379,228679,228979,229379,229579,229979,230379,230779,231179,231579,231979,232379,232779,233179,233579,233979,234379,234779,235079,235579,235679,235979,236379,236779,236979,237179,237579,237879,237979,238179,238379,238779,239179,239579,239979,240379,240579,240629,240679,240729,240779,240979,241179,241379,241979,242179,242279,242479,242579,242779,242979,243579,243779,243879,244079,244179,244229,244279,244329,244379,244579,244629,244679,244729,245179,245379,245429,245479,245529,245979,246179,246229,246279,246329,246779,248379,250579,250679,250779,251079,251379,251579,251979,252379,252479,252579,252779,252979,253179,253579,253779,253979,254279,254579,255179,255579,255679,255879,255979,256179,256379,256779,257179,257479,257779,257979,258179,258379,258404,258429,258454,258479,258504,258529,258554,258579,258604,258629,258654,258679,258704,258729,258754,258779,258979,259029,259079,259129,259179,259379,259404,259429,259454,259479,259504,259529,259554,259579,260179,260229,260279,260329,260379,260679,261179,261279,261479,261579,261779,261979,262379,262579,262779,263179,263479,263579,263879,264179,264779,265179,265579,265779,265979,267579,267979,268379,268679,268779,268979,269179,269579,269879,269979,270179,270379,270579,270779,270979,271179,271379,271429,271479,271529,271579,271679,271779,271879,271979,272179,272379,273579,273979
DistanceSpacing: 2.9
BeatDivisor: 4
GridSize: 4
TimelineZoom: 2.4

[Metadata]
Title:S.A.T.E.L.L.I.T.E.
TitleUnicode:S.A.T.E.L.L.I.T.E.
Artist:Camellia
ArtistUnicode:かめりあ
Creator:Eways
Version:W.I.S.H.E.S.
Source:
Tags:Masaya Oya 大箭将也 cametek kamelcamellia かめるかめりあ heart of android fa featured artist electronic english japanese satellite hardstyle techno CTCD-018 hardcore euphoric bass edm instrumental wishes phigros video game mappers' guild mg mpg
BeatmapID:4360713
BeatmapSetID:2082231

[Difficulty]
HPDrainRate:6
CircleSize:4
OverallDifficulty:9.4
ApproachRate:9.4
SliderMultiplier:2.42
SliderTickRate:2

[Events]
//Background and Video events
0,0,"satellite.jpg",0,0
//Break Periods
//Storyboard Layer 0 (Background)
//Storyboard Layer 1 (Fail)
//Storyboard Layer 2 (Pass)
//Storyboard Layer 3 (Foreground)
//Storyboard Layer 4 (Overlay)
//Storyboard Sound Samples

[TimingPoints]
379,400,4,2,7,40,1,0
2579,-111.111111111111,4,2,7,40,0,0
2629,-111.111111111111,4,2,7,5,0,0
4079,-100,4,2,7,5,0,0
4179,-100,4,2,7,40,0,0
4229,-100,4,2,7,5,0,0
5079,-100,4,2,7,5,0,0
5179,-100,4,2,7,40,0,0
5779,-111.111111111111,4,2,7,40,0,0
5829,-100,4,2,7,5,0,0
7279,-100,4,2,7,5,0,0
7379,-100,4,2,7,40,0,0
7429,-100,4,2,7,5,0,0
8279,-100,4,2,7,5,0,0
8379,-100,4,2,7,40,0,0
8979,-100,4,2,7,40,0,0
9029,-100,4,2,7,5,0,0
9879,-100,4,2,7,5,0,0
9979,-100,4,2,7,40,0,0
10829,-100,4,2,7,5,0,0
11479,-100,4,2,7,5,0,0
11579,-100,4,2,7,40,0,0
12229,-100,4,2,7,5,0,0
13079,-100,4,2,7,5,0,0
13179,-100,4,2,7,40,0,0
14029,-100,4,2,7,5,0,0
14679,-100,4,2,7,5,0,0
14779,-100,4,2,7,40,0,0
17179,-100,4,2,7,45,0,0
17779,-100,4,2,7,45,0,0
42779,-100,4,2,10,55,0,0
43479,-100,4,2,10,5,0,0
43579,-100,4,2,1,55,0,0
48579,-100,4,2,1,5,0,0
48679,-100,4,2,1,55,0,0
48879,-100,4,2,1,5,0,0
48979,-100,4,2,1,55,0,0
49079,-100,4,2,1,5,0,0
49179,-100,4,2,1,55,0,0
49379,-100,4,2,1,5,0,0
49479,-100,4,2,1,55,0,0
49679,-100,4,2,1,5,0,0
49779,-100,4,2,1,55,0,0
54979,-100,4,2,1,5,0,0
55079,-100,4,2,1,55,0,0
55279,-100,4,2,1,5,0,0
55379,-100,4,2,1,55,0,0
55479,-100,4,2,1,5,0,0
55579,-100,4,2,1,55,0,0
55779,-100,4,2,1,5,0,0
55879,-100,4,2,1,55,0,0
56079,-100,4,2,1,5,0,0
56179,-100,4,2,1,55,0,0
56279,-100,4,2,1,5,0,0
56379,-100,4,2,1,55,0,0
61379,-100,4,2,1,5,0,0
61479,-100,4,2,1,55,0,0
61679,-100,4,2,1,5,0,0
61779,-100,4,2,1,55,0,0
61879,-100,4,2,1,5,0,0
61979,-100,4,2,1,55,0,0
62179,-100,4,2,1,5,0,0
62279,-100,4,2,1,55,0,0
62379,-100,4,2,10,55,0,0
62479,-100,4,2,1,5,0,0
62579,-100,4,2,1,55,0,0
68679,-100,4,2,1,5,0,0
68779,-100,4,2,10,45,0,0
69179,-100,4,2,11,50,0,0
74179,-100,4,2,11,50,0,0
75579,-100,4,2,11,60,0,0
78779,-100,4,2,11,65,0,0
79579,-100,4,2,11,70,0,0
80379,-100,4,2,2,60,0,0
80979,-100,4,2,1,60,0,0
81479,-100,4,2,1,5,0,0
81579,-100,4,2,5,70,0,0
81979,-100,4,2,1,75,0,1
93979,-100,4,2,1,80,0,1
94179,-100,4,2,1,75,0,1
94279,-100,4,2,1,80,0,1
94479,-100,4,2,1,75,0,1
97579,-100,4,2,4,75,0,1
97679,-100,4,2,4,5,0,1
97779,-100,4,2,4,75,0,1
97879,-100,4,2,4,5,0,1
97979,-100,4,2,1,75,0,1
102379,-100,4,2,4,75,0,1
102479,-100,4,2,4,5,0,1
102579,-100,4,2,4,75,0,1
102679,-100,4,2,4,5,0,1
102779,-100,4,2,1,75,0,1
103979,-100,4,2,4,75,0,1
104379,-100,4,2,1,75,0,1
105979,-133.333333333333,4,2,1,65,0,0
107079,-100,4,2,1,5,0,0
107179,-100,4,2,5,70,0,0
107579,-100,4,2,1,75,0,1
119579,-100,4,2,1,80,0,1
119779,-100,4,2,1,5,0,1
119879,-100,4,2,1,80,0,1
120079,-100,4,2,1,5,0,1
120379,-100,4,2,1,75,0,1
131579,-133.333333333333,4,2,1,75,0,1
131779,-100,4,2,8,65,0,1
131829,-100,4,2,1,65,0,1
131979,-100,4,2,8,60,0,1
132029,-100,4,2,1,60,0,1
132179,-100,4,2,8,55,0,1
132229,-100,4,2,1,55,0,1
132379,-100,4,2,8,50,0,1
132429,-100,4,2,1,50,0,1
132579,-100,4,2,8,5,0,1
132629,-100,4,2,1,50,0,1
132679,-100,4,2,1,5,0,1
132779,-100,4,2,5,70,0,1
133179,-100,4,2,1,45,0,0
133979,-100,4,2,1,43,0,0
134779,-100,4,2,1,41,0,0
135579,-100,4,2,1,40,0,0
136379,-100,4,2,7,40,0,0
137029,-100,4,2,7,5,0,0
137879,-100,4,2,7,5,0,0
137979,-100,4,2,7,40,0,0
140229,-100,4,2,7,5,0,0
141079,-100,4,2,7,5,0,0
141179,-100,4,2,7,40,0,0
142029,-100,4,2,7,5,0,0
142479,-100,4,2,7,5,0,0
142579,-100,4,2,7,40,0,0
143429,-100,4,2,7,5,0,0
144279,-100,4,2,7,5,0,0
144379,-100,4,2,7,40,0,0
145979,-100,4,2,7,40,0,0
147229,-100,4,2,7,5,0,0
148179,-100,4,2,7,40,0,0
150179,-100,4,2,7,5,0,0
150279,-100,4,2,7,40,0,0
150479,-100,4,2,7,5,0,0
150579,-100,4,2,7,40,0,0
150679,-100,4,2,7,5,0,0
150779,-100,4,2,7,40,0,0
151779,-100,4,2,7,5,0,0
151879,-100,4,2,7,40,0,0
152079,-100,4,2,7,5,0,0
152179,-100,4,2,7,40,0,0
152279,-100,4,2,7,5,0,0
152379,-100,4,2,7,40,0,0
153029,-100,4,2,7,5,0,0
153879,-100,4,2,7,5,0,0
153979,-100,4,2,7,45,0,0
154829,-100,4,2,7,5,0,0
155379,-100,4,2,7,45,0,0
155629,-100,4,2,7,5,0,0
156579,-100,4,2,7,45,0,0
158779,-100,4,2,1,45,0,0
164779,-100,4,2,10,45,0,0
164979,-100,4,2,1,45,0,0
177579,-100,4,2,10,45,0,0
177779,-100,4,2,1,45,0,0
177979,-100,4,2,1,55,0,0
181179,-100,4,2,1,60,0,0
182779,-100,4,2,1,65,0,0
183579,-100,4,2,6,60,0,0
184079,-100,4,2,6,5,0,0
184179,-100,4,2,6,60,0,0
184479,-100,4,2,6,5,0,0
184579,-100,4,2,6,45,0,0
186079,-100,4,2,6,5,0,0
186179,-100,4,2,6,45,0,0
188879,-100,4,2,6,5,0,0
188979,-100,4,2,6,45,0,0
189379,-100,4,2,6,5,0,0
189479,-100,4,2,6,45,0,0
189679,-100,4,2,6,5,0,0
189779,-100,4,2,6,45,0,0
189879,-100,4,2,6,5,0,0
189979,-100,4,2,6,45,0,0
190179,-100,4,2,6,5,0,0
190279,-100,4,2,6,45,0,0
190479,-100,4,2,6,5,0,0
190579,-100,4,2,6,45,0,0
190879,-100,4,2,6,5,0,0
190979,-100,4,2,6,45,0,0
192479,-100,4,2,6,5,0,0
192579,-100,4,2,6,45,0,0
195279,-100,4,2,6,5,0,0
195379,-100,4,2,6,45,0,0
195779,-100,4,2,6,5,0,0
195879,-100,4,2,6,45,0,0
196079,-100,4,2,6,5,0,0
196179,-100,4,2,6,45,0,0
196279,-100,4,2,6,5,0,0
196379,-100,4,2,1,55,0,0
196779,-100,4,2,10,60,0,0
196829,-100,4,2,1,60,0,0
197179,-100,4,2,11,60,0,0
200379,-100,4,2,12,65,0,0
200429,-100,4,2,11,65,0,0
201979,-100,4,2,12,65,0,0
202029,-100,4,2,11,65,0,0
202179,-100,4,2,11,5,0,0
202279,-100,4,2,11,60,0,0
202479,-100,4,2,11,5,0,0
202579,-100,4,2,11,60,0,0
202679,-100,4,2,11,5,0,0
202779,-100,4,2,11,60,0,0
202979,-100,4,2,11,5,0,0
203079,-100,4,2,11,60,0,0
203179,-100,4,2,10,60,0,0
203279,-100,4,2,11,5,0,0
203379,-100,4,2,11,60,0,0
203479,-100,4,2,11,5,0,0
203579,-100,4,2,11,60,0,0
206779,-100,4,2,12,65,0,0
206829,-100,4,2,11,65,0,0
208379,-100,4,2,12,65,0,0
208429,-100,4,2,11,65,0,0
208579,-100,4,2,11,5,0,0
208679,-100,4,2,11,60,0,0
208879,-100,4,2,11,5,0,0
208979,-100,4,2,11,60,0,0
209079,-100,4,2,11,5,0,0
209179,-100,4,2,11,60,0,0
209379,-100,4,2,11,5,0,0
209479,-100,4,2,11,60,0,0
209679,-100,4,2,11,5,0,0
209779,-100,4,2,11,60,0,0
209879,-100,4,2,11,5,0,0
209979,-100,4,2,11,60,0,0
214979,-100,4,2,11,5,0,0
215079,-100,4,2,11,60,0,0
215279,-100,4,2,11,5,0,0
215379,-100,4,2,11,60,0,0
215479,-100,4,2,11,5,0,0
215579,-100,4,2,11,60,0,0
215779,-100,4,2,11,5,0,0
215879,-100,4,2,11,60,0,0
216079,-100,4,2,11,5,0,0
216179,-100,4,2,11,60,0,0
216379,-100,4,2,11,65,0,0
219579,-100,4,2,2,70,0,0
221179,-100,4,2,2,60,0,0
221779,-100,4,2,1,65,0,0
222279,-100,4,2,1,5,0,0
222379,-100,4,2,5,70,0,0
222779,-100,4,2,1,75,0,1
234779,-100,4,2,1,80,0,1
234979,-100,4,2,1,75,0,1
235079,-100,4,2,1,80,0,1
235279,-100,4,2,1,75,0,1
238379,-100,4,2,4,75,0,1
238479,-100,4,2,4,5,0,1
238579,-100,4,2,4,75,0,1
238679,-100,4,2,4,5,0,1
238779,-100,4,2,1,75,0,1
243179,-100,4,2,4,75,0,1
243279,-100,4,2,4,5,0,1
243379,-100,4,2,4,75,0,1
243479,-100,4,2,4,5,0,1
243579,-100,4,2,1,75,0,1
244779,-100,4,2,4,75,0,1
245179,-100,4,2,1,75,0,1
246779,-133.333333333333,4,2,1,65,0,0
247879,-100,4,2,1,5,0,0
247979,-40,4,2,5,70,0,0
248379,-100,4,2,3,65,0,0
249179,-100,4,2,3,70,0,0
249679,-100,4,2,3,5,0,0
249779,-100,4,2,3,70,0,0
250579,-100,4,2,1,75,0,0
250779,-100,4,2,1,80,0,0
251579,-100,4,2,1,75,0,1
260579,-100,4,2,1,5,0,1
260679,-100,4,2,1,75,0,1
260879,-100,4,2,1,5,0,1
260979,-100,4,2,1,75,0,1
261179,-100,4,2,1,75,0,1
265779,-100,4,2,1,70,0,1
266179,-100,4,2,1,5,0,1
266279,-100,4,2,1,70,0,1
266479,-100,4,2,1,5,0,1
266579,-100,4,2,1,70,0,1
266679,-100,4,2,1,5,0,1
266779,-100,4,2,1,70,0,1
266979,-100,4,2,1,5,0,1
267079,-100,4,2,1,70,0,1
267279,-100,4,2,1,5,0,1
267379,-100,4,2,1,70,0,1
267479,-100,4,2,1,5,0,1
267579,-100,4,2,1,75,0,1
271579,-100,4,2,1,80,0,1
272579,-100,4,2,8,65,0,1
272629,-100,4,2,1,65,0,1
272779,-100,4,2,8,60,0,1
272829,-100,4,2,1,60,0,1
272979,-100,4,2,8,55,0,1
273029,-100,4,2,1,55,0,1
273179,-100,4,2,8,50,0,1
273229,-100,4,2,1,50,0,1
273379,-100,4,2,8,5,0,1
273429,-100,4,2,1,50,0,1
273479,-100,4,2,1,5,0,1
273579,-33.3333333333333,4,2,5,70,0,1
273979,-100,4,2,1,65,0,0
274179,-100,4,2,1,60,0,0
274779,-100,4,2,1,55,0,0
275379,-100,4,2,1,50,0,0
275979,-100,4,2,1,45,0,0
276579,-100,4,2,1,40,0,0
277179,-100,4,2,7,40,0,0
277829,-100,4,2,7,5,0,0
278679,-100,4,2,7,5,0,0
278779,-100,4,2,7,40,0,0
279629,-100,4,2,7,5,0,0
280279,-100,4,2,7,5,0,0
280379,-100,4,2,7,40,0,0
281029,-100,4,2,7,5,0,0
281879,-100,4,2,7,5,0,0
281979,-100,4,2,7,40,0,0
282829,-100,4,2,7,5,0,0
283479,-100,4,2,7,5,0,0
283579,-100,4,2,7,40,0,0
284579,454.545454545455,4,2,7,40,1,0
284806,472.44094488189,4,2,7,40,1,0
285278,535.714285714286,4,2,7,40,1,0
285545,461.538461538462,4,2,7,40,1,0
285775,600,4,2,7,40,1,0
286075,588.235294117647,4,2,7,40,1,0
286369,722.89156626506,4,2,7,40,1,0
286730,1090.90909090909,4,2,7,40,1,0
287275,-100,4,2,7,35,0,0
287820,-100,4,2,7,30,0,0
288366,-100,4,2,7,25,0,0
288911,-100,4,2,7,20,0,0
289457,-100,4,2,7,15,0,0
290002,-100,4,2,7,10,0,0
290548,-100,4,2,7,5,0,0
291093,-100,4,2,7,5,0,0

[Colours]
Combo1 : 128,157,183
Combo2 : 69,78,95
Combo3 : 188,198,210
Combo4 : 147,189,204
Combo5 : 141,138,147

[HitObjects]
76,300,2579,6,0,P|472:176|344:40,1,816.749975074769,2|0,0:0|0:0,0:0:0:0:
304,56,4179,6,0,P|352:256|400:56,1,544.5,2|0,0:0|0:0,0:0:0:0:
312,56,5179,5,2,0:0:0:0:
472,188,5779,2,0,P|197:362|236:2,1,816.749975074769,2|0,0:0|0:0,0:0:0:0:
256,80,7379,6,0,P|152:256|128:48,1,544.5,2|0,0:0|0:0,0:0:0:0:
232,48,8379,5,2,0:0:0:0:
416,64,8979,2,0,P|464:152|160:304,1,544.5,2|0,0:0|0:0,0:0:0:0:
72,288,9979,5,2,0:0:0:0:
72,288,10579,1,2,0:0:0:0:
192,288,10779,2,0,L|480:-40,1,423.5,2|0,0:0|0:0,0:0:0:0:
360,128,11579,5,2,0:0:0:0:
360,128,12179,2,0,P|216:112|368:312,1,544.5,2|0,0:0|0:0,0:0:0:0:
440,336,13179,5,2,0:0:0:0:
440,336,13779,1,2,0:0:0:0:
320,336,13979,2,0,L|96:-24,1,423.5,2|0,0:0|0:0,0:0:0:0:
208,208,14779,5,2,0:0:0:0:
208,208,15379,2,0,L|72:208,1,121,2|0,0:0|0:0,0:0:0:0:
208,208,15779,1,2,0:0:0:0:
328,208,15979,1,2,0:0:0:0:
448,212,16179,1,2,0:0:0:0:
280,208,16379,5,2,0:0:0:0:
216,104,16579,1,2,0:0:0:0:
284,36,16779,1,2,0:0:0:0:
408,32,16979,1,2,0:0:0:0:
228,40,17179,1,2,0:0:0:0:
108,40,17379,1,2,0:0:0:0:
228,40,17579,1,2,0:0:0:0:
409,44,17779,6,0,L|401:196,1,121,2|0,0:0|0:0,0:0:0:0:
280,160,18179,2,0,L|280:32,1,121,2|0,0:0|0:0,0:0:0:0:
160,56,18579,2,0,L|304:40,1,121,2|0,0:0|0:0,0:0:0:0:
159,56,18979,2,0,L|15:72,1,121,2|0,0:0|0:0,0:0:0:0:
160,56,19379,2,0,L|168:192,1,121,2|0,0:0|0:0,0:0:0:0:
348,184,19779,6,0,P|440:256|280:352,1,363,2|2,0:0|0:0,0:0:0:0:
168,312,20579,1,2,0:0:0:0:
48,304,20779,1,2,0:0:0:0:
232,312,20979,6,0,L|360:304,1,121,2|0,0:0|0:0,0:0:0:0:
472,296,21379,2,0,L|344:304,1,121,2|0,0:0|0:0,0:0:0:0:
233,321,21779,2,0,L|233:185,1,121,2|0,0:0|0:0,0:0:0:0:
353,199,22179,2,0,L|353:343,1,121,2|0,0:0|0:0,0:0:0:0:
233,321,22579,2,0,L|361:321,1,121,2|0,0:0|0:0,0:0:0:0:
172,320,22979,6,0,P|58:226|220:181,1,363,2|2,0:0|0:0,0:0:0:0:
320,176,23779,1,2,0:0:0:0:
440,176,23979,1,2,0:0:0:0:
260,176,24179,6,0,L|132:160,1,121,2|0,0:0|0:0,0:0:0:0:
268,176,24579,2,0,L|396:192,1,121,2|0,0:0|0:0,0:0:0:0:
268,200,24979,2,0,L|268:48,1,121,2|0,0:0|0:0,0:0:0:0:
148,80,25379,2,0,L|148:232,1,121,2|0,0:0|0:0,0:0:0:0:
268,200,25779,2,0,L|116:216,1,121,2|0,0:0|0:0,0:0:0:0:
328,208,26179,6,0,P|432:288|272:320,1,363,2|2,0:0|0:0,0:0:0:0:
152,320,26979,1,2,0:0:0:0:
32,320,27179,1,2,0:0:0:0:
212,320,27379,6,0,P|412:224|256:68,1,484,2|2,0:0|0:0,0:0:0:0:
168,96,28379,2,0,P|80:160|88:296,1,242,2|2,0:0|0:0,0:0:0:0:
261,280,28979,6,0,P|440:296|284:71,1,605,2|2,0:0|0:0,0:0:0:0:
176,104,30179,1,2,0:0:0:0:
56,104,30379,1,2,0:0:0:0:
236,104,30579,6,0,L|364:88,1,121,2|0,0:0|0:0,0:0:0:0:
236,104,30979,2,0,L|108:120,1,121,2|0,0:0|0:0,0:0:0:0:
236,104,31379,2,0,L|236:272,1,121,2|0,0:0|0:0,0:0:0:0:
116,224,31779,2,0,L|116:96,1,121,2|0,0:0|0:0,0:0:0:0:
236,96,32179,2,0,L|388:88,1,121,2|0,0:0|0:0,0:0:0:0:
176,104,32579,6,0,P|64:160|224:256,1,363,2|2,0:0|0:0,0:0:0:0:
312,280,33379,1,2,0:0:0:0:
192,272,33579,1,2,0:0:0:0:
372,280,33779,6,0,L|372:160,1,121,2|0,0:0|0:0,0:0:0:0:
252,160,34179,2,0,L|252:296,1,121,2|0,0:0|0:0,0:0:0:0:
372,288,34579,2,0,L|228:280,1,121,2|0,0:0|0:0,0:0:0:0:
131,274,34979,2,0,L|275:282,1,121,2|0,0:0|0:0,0:0:0:0:
372,280,35379,2,0,L|372:152,1,121,2|0,0:0|0:0,0:0:0:0:
192,160,35779,6,0,P|128:128|136:320,1,363,2|2,0:0|0:0,0:0:0:0:
218,326,36579,1,2,0:0:0:0:
338,326,36779,1,2,0:0:0:0:
156,328,36979,6,0,B|156:184,1,121,2|0,0:0|0:0,0:0:0:0:
276,208,37379,2,0,B|276:352,1,121,2|0,0:0|0:0,0:0:0:0:
396,328,37779,2,0,L|252:312,1,121,2|0,0:0|0:0,0:0:0:0:
156,304,38179,2,0,L|300:320,1,121,2|0,0:0|0:0,0:0:0:0:
458,320,38579,6,0,P|434:144|370:96,1,242,2|2,0:0|0:0,0:0:0:0:
272,112,39179,1,2,0:0:0:0:
453,107,39379,2,0,P|474:202|367:308,1,242,2|2,0:0|0:0,0:0:0:0:
264,304,39979,1,2,0:0:0:0:
82,298,40179,6,0,P|81:161|178:82,1,242,2|2,0:0|0:0,0:0:0:0:
272,88,40779,1,2,0:0:0:0:
90,94,40979,2,0,P|79:234|178:278,1,242,2|0,0:0|0:0,0:0:0:0:
276,280,41579,2,0,P|336:252|330:189,1,121,2|0,0:0|0:0,0:0:0:0:
156,264,41979,5,2,0:0:0:0:
92,160,42179,1,2,0:0:0:0:
164,64,42379,1,2,0:0:0:0:
284,64,42579,1,2,0:0:0:0:
100,60,42779,2,0,L|224:64,1,121,10|0,0:0|0:0,0:0:0:0:
40,76,43179,2,0,L|240:80,1,181.5,8|0,0:0|0:0,0:0:0:0:
404,80,43579,6,0,L|271:82,1,121,6|2,1:2|0:0,0:0:0:0:
452,312,43979,2,0,L|500:268,2,60.5,2|2|2,0:0|0:0|0:0,0:0:0:0:
271,294,44379,2,0,L|199:294,1,60.5,2|2,0:0|0:0,0:0:0:0:
184,236,44579,1,2,0:0:0:0:
496,228,44779,1,2,0:0:0:0:
185,280,44979,6,0,P|112:198|198:112,1,242,2|2,0:0|0:0,0:0:0:0:
245,114,45479,1,2,0:0:0:0:
308,113,45579,1,2,0:0:0:0:
489,113,45779,2,0,L|417:111,2,60.5,2|2|2,0:0|0:0|0:0,0:0:0:0:
174,106,46179,1,2,0:0:0:0:
355,106,46379,1,2,0:0:0:0:
39,110,46579,6,0,P|26:210|148:312,1,242,2|2,0:0|0:0,0:0:0:0:
432,52,47179,2,0,L|496:68,2,60.5,2|2|2,0:0|0:0|0:0,0:0:0:0:
250,54,47579,2,0,L|182:54,1,60.5,2|2,0:0|0:0,0:0:0:0:
176,112,47779,1,2,0:0:0:0:
488,92,47979,1,2,0:0:0:0:
176,136,48179,6,0,P|95:168|144:300,1,242,2|0,0:0|0:0,0:0:0:0:
292,236,48679,2,0,L|164:228,1,121,2|0,0:0|0:0,0:0:0:0:
336,236,48979,2,0,L|336:156,1,60.5,2|0,0:0|0:0,0:0:0:0:
232,180,49179,2,0,L|352:164,1,121,2|0,0:0|0:0,0:0:0:0:
248,152,49479,2,0,L|368:136,1,121,2|0,0:0|0:0,0:0:0:0:
196,136,49779,6,0,P|116:168|164:288,1,242,2|2,0:0|0:0,0:0:0:0:
476,160,50379,2,0,L|476:80,1,60.5,2|2,0:0|0:0,0:0:0:0:
412,96,50579,1,2,0:0:0:0:
230,96,50779,1,2,0:0:0:0:
168,96,50879,1,2,0:0:0:0:
108,96,50979,1,2,0:0:0:0:
422,102,51179,1,2,0:0:0:0:
107,114,51379,6,0,P|128:174|199:197,1,121,2|0,0:0|0:0,0:0:0:0:
359,192,51779,2,0,L|415:168,2,60.5,2|2|2,0:0|0:0|0:0,0:0:0:0:
177,184,52179,2,0,L|121:160,2,60.5,2|2|2,0:0|0:0|0:0,0:0:0:0:
493,192,52579,1,2,0:0:0:0:
311,190,52779,1,2,0:0:0:0:
16,119,52979,6,0,P|23:213|159:263,1,242,2|2,0:0|0:0,0:0:0:0:
461,268,53579,1,2,0:0:0:0:
401,260,53679,1,2,0:0:0:0:
461,260,53779,1,2,0:0:0:0:
146,267,53979,1,2,0:0:0:0:
85,263,54079,1,2,0:0:0:0:
24,256,54179,1,2,0:0:0:0:
145,201,54379,1,2,0:0:0:0:
472,200,54579,6,0,P|476:108|340:47,1,242,2|0,0:0|0:0,0:0:0:0:
192,56,55079,2,0,L|336:48,1,121,2|0,0:0|0:0,0:0:0:0:
476,48,55379,2,0,L|400:68,1,60.5,2|0,0:0|0:0,0:0:0:0:
313,56,55579,2,0,L|449:80,1,121,2|0,0:0|0:0,0:0:0:0:
273,96,55879,2,0,L|409:120,1,121,2|0,0:0|0:0,0:0:0:0:
288,120,56179,2,0,L|228:128,1,60.5,2|0,0:0|0:0,0:0:0:0:
52,140,56379,6,0,L|60:268,1,121,6|2,1:2|0:0,0:0:0:0:
348,252,56779,2,0,L|428:268,2,60.5,2|2|2,0:0|0:0|0:0,0:0:0:0:
60,232,57179,1,2,0:0:0:0:
120,228,57279,1,2,0:0:0:0:
180,224,57379,1,2,0:0:0:0:
494,221,57579,1,2,0:0:0:0:
180,191,57779,6,0,P|164:264|300:280,1,242,2|2,0:0|0:0,0:0:0:0:
356,284,58279,1,2,0:0:0:0:
416,284,58379,1,2,0:0:0:0:
112,336,58579,2,0,L|48:352,2,60.5,2|2|2,0:0|0:0|0:0,0:0:0:0:
424,328,58979,1,2,0:0:0:0:
96,320,59179,1,2,0:0:0:0:
432,320,59379,6,0,L|296:320,1,121,2|0,0:0|0:0,0:0:0:0:
190,315,59779,1,2,0:0:0:0:
492,312,59979,2,0,L|493:238,1,60.5,2|2,0:0|0:0,0:0:0:0:
432,248,60179,1,2,0:0:0:0:
128,256,60379,2,0,L|56:240,2,60.5,2|2|2,0:0|0:0|0:0,0:0:0:0:
444,263,60779,1,2,0:0:0:0:
117,249,60979,6,0,P|39:189|118:80,1,242,2|0,0:0|0:0,0:0:0:0:
264,72,61479,2,0,L|138:58,1,121,2|0,0:0|0:0,0:0:0:0:
312,72,61779,2,0,L|312:140,1,60.5,2|0,0:0|0:0,0:0:0:0:
200,88,61979,2,0,L|328:104,1,121,2|0,0:0|0:0,0:0:0:0:
148,112,62279,2,0,L|276:128,1,121,2|0,0:0|0:0,0:0:0:0:
96,140,62579,6,0,P|20:220|144:260,1,242,2|2,0:0|0:0,0:0:0:0:
419,285,63179,2,0,L|483:293,2,60.5,2|2|2,0:0|0:0|0:0,0:0:0:0:
102,276,63579,2,0,L|102:204,1,60.5,2|2,0:0|0:0,0:0:0:0:
158,204,63779,1,2,0:0:0:0:
472,207,63979,1,2,0:0:0:0:
145,197,64179,6,0,P|101:152|125:82,1,121,2|0,0:0|0:0,0:0:0:0:
424,56,64579,2,0,L|496:40,2,60.5,2|2|2,0:0|0:0|0:0,0:0:0:0:
109,72,64979,2,0,L|37:56,2,60.5,2|2|2,0:0|0:0|0:0,0:0:0:0:
440,72,65379,1,2,0:0:0:0:
112,80,65579,1,2,0:0:0:0:
293,86,65779,6,0,L|431:90,1,121,2|0,0:0|0:0,0:0:0:0:
440,208,66179,1,2,0:0:0:0:
125,204,66379,2,0,L|61:220,2,60.5,2|2|2,0:0|0:0|0:0,0:0:0:0:
440,208,66779,2,0,L|504:224,2,60.5,2|2|2,0:0|0:0|0:0,0:0:0:0:
128,224,67179,1,2,0:0:0:0:
456,224,67379,1,2,0:0:0:0:
336,224,67579,5,0,0:0:0:0:
444,230,67779,1,2,0:0:0:0:
347,234,67979,1,2,0:0:0:0:
431,237,68179,1,2,0:0:0:0:
249,242,68379,2,0,P|181:178|225:115,1,181.5,2|0,0:0|0:0,0:0:0:0:
392,128,68779,1,8,0:0:0:0:
420,112,68829,1,0,0:0:0:0:
424,84,68879,1,0,0:0:0:0:
404,60,68929,1,0,0:0:0:0:
372,56,68979,1,0,0:0:0:0:
69,65,69179,6,0,P|59:129|96:174,1,121,14|2,1:2|0:0,0:0:0:0:
272,176,69579,2,0,L|344:192,2,60.5,10|2|2,1:2|0:0|0:0,0:0:0:0:
90,179,69979,2,0,L|18:195,2,60.5,10|2|2,1:2|0:0|0:0,0:0:0:0:
271,186,70379,1,10,1:2:0:0:
392,186,70579,1,10,1:2:0:0:
452,186,70679,1,8,1:2:0:0:
288,186,70779,5,8,1:2:0:0:
106,188,70979,2,0,L|34:188,1,60.5,2|2,0:0|0:0,0:0:0:0:
42,124,71179,1,10,1:2:0:0:
223,116,71379,2,0,L|287:116,1,60.5,2|2,0:0|0:0,0:0:0:0:
287,52,71579,1,10,1:2:0:0:
105,56,71779,1,10,1:2:0:0:
286,64,71979,1,10,1:2:0:0:
166,72,72179,1,10,1:2:0:0:
226,72,72279,1,8,1:2:0:0:
62,72,72379,5,8,1:2:0:0:
182,96,72579,1,2,0:0:0:0:
363,101,72779,2,0,L|435:125,2,60.5,10|2|2,1:2|0:0|0:0,0:0:0:0:
180,106,73179,2,0,L|108:130,2,60.5,10|2|2,1:2|0:0|0:0,0:0:0:0:
359,131,73579,1,10,1:2:0:0:
239,139,73779,1,10,1:2:0:0:
179,139,73879,1,8,1:2:0:0:
343,139,73979,5,8,1:2:0:0:
161,143,74179,2,0,L|177:111,1,30.25,2|2,0:0|0:0,0:0:0:0:
321,127,74379,2,0,L|353:97,1,30.25,10|2,1:2|0:0,0:0:0:0:
197,108,74579,2,0,L|165:92,1,30.25,2|2,0:0|0:0,0:0:0:0:
315,91,74779,2,0,L|347:75,1,30.25,10|2,1:2|0:0,0:0:0:0:
196,75,74979,2,0,L|165:75,1,30.25,2|2,1:2|0:0,0:0:0:0:
20,72,75179,2,0,L|60:72,1,30.25,10|2,1:2|0:0,0:0:0:0:
196,75,75379,1,8,1:2:0:0:
268,75,75479,1,8,1:2:0:0:
98,84,75579,6,0,P|102:137|166:189,1,121,14|10,1:2|1:2,0:0:0:0:
451,200,75979,1,10,1:2:0:0:
387,200,76079,1,2,0:0:0:0:
323,200,76179,1,10,1:2:0:0:
21,202,76379,1,10,1:2:0:0:
85,202,76479,1,2,0:0:0:0:
149,202,76579,1,10,1:2:0:0:
463,215,76779,1,10,1:2:0:0:
148,221,76979,1,10,1:2:0:0:
84,221,77079,1,8,1:2:0:0:
196,221,77179,6,0,L|65:216,1,121,8|10,1:2|1:2,0:0:0:0:
389,219,77579,2,0,L|389:91,1,121,10|10,1:2|1:2,0:0:0:0:
72,104,77979,2,0,L|72:232,1,121,10|10,1:2|1:2,0:0:0:0:
400,200,78379,1,10,1:2:0:0:
336,200,78479,1,8,1:2:0:0:
272,200,78579,1,10,1:2:0:0:
208,200,78679,1,8,1:2:0:0:
376,200,78779,5,12,1:2:0:0:
424,168,78879,1,8,1:2:0:0:
424,104,78979,1,8,1:2:0:0:
368,72,79079,1,8,1:2:0:0:
192,72,79179,1,10,1:2:0:0:
256,72,79279,1,10,1:2:0:0:
432,80,79379,1,10,1:2:0:0:
448,104,79429,1,8,1:2:0:0:
448,136,79479,1,8,1:2:0:0:
424,160,79529,1,8,1:2:0:0:
304,168,79579,6,0,L|236:164,1,60.5,14|10,1:2|1:2,0:0:0:0:
64,168,79779,2,0,L|128:152,1,60.5,10|8,1:2|1:2,0:0:0:0:
304,140,79979,2,0,L|244:112,1,60.5,10|8,1:2|1:2,0:0:0:0:
68,104,80179,1,10,1:2:0:0:
40,96,80229,1,8,1:2:0:0:
40,64,80279,1,8,1:2:0:0:
68,60,80329,1,8,1:2:0:0:
196,64,80379,6,0,P|340:160|252:292,1,363,2|2,0:0|0:0,0:0:0:0:
216,240,81045,1,2,0:0:0:0:
176,240,81112,1,2,0:0:0:0:
136,240,81179,2,0,P|72:204|140:140,1,181.5,2|0,0:0|0:0,0:0:0:0:
320,136,81579,6,0,P|312:232|228:248,1,181.5,8|0,0:0|0:0,0:0:0:0:
64,112,81979,2,0,P|64:176|100:220,1,121,12|2,1:2|0:0,0:0:0:0:
280,232,82379,2,0,L|200:240,1,60.5,10|2,1:2|0:0,0:0:0:0:
48,248,82579,1,2,0:0:0:0:
362,254,82779,2,0,L|282:262,1,60.5,10|2,1:2|0:0,0:0:0:0:
130,270,82979,1,2,0:0:0:0:
444,271,83179,2,0,L|468:208,1,60.5,10|0,1:2|0:0,0:0:0:0:
296,204,83379,2,0,L|300:136,1,60.5,2|0,0:0|0:0,0:0:0:0:
129,141,83579,5,8,1:2:0:0:
311,140,83779,2,0,L|243:143,1,60.5,2|2,0:0|0:0,0:0:0:0:
81,144,83979,1,10,1:2:0:0:
397,140,84179,2,0,L|328:139,1,60.5,2|2,0:0|0:0,0:0:0:0:
167,135,84379,1,10,1:2:0:0:
445,134,84579,2,0,L|368:136,1,60.5,2|0,0:0|0:0,0:0:0:0:
216,132,84779,2,0,L|292:132,1,60.5,10|0,1:2|0:0,0:0:0:0:
445,134,84979,1,2,0:0:0:0:
167,135,85179,6,0,L|30:138,1,121,8|2,1:2|0:0,0:0:0:0:
348,123,85579,2,0,L|276:139,1,60.5,10|2,1:2|0:0,0:0:0:0:
119,133,85779,1,2,0:0:0:0:
431,128,85979,2,0,L|359:144,1,60.5,10|2,1:2|0:0,0:0:0:0:
203,144,86179,1,2,0:0:0:0:
481,147,86379,2,0,L|412:148,1,60.5,10|0,1:2|0:0,0:0:0:0:
252,152,86579,2,0,L|316:152,1,60.5,2|0,0:0|0:0,0:0:0:0:
480,157,86779,6,0,L|472:30,1,121,8|0,1:2|0:0,0:0:0:0:
288,128,87079,2,0,L|220:132,2,60.5,2|8|0,0:0|1:2|0:0,0:0:0:0:
108,108,87379,2,0,L|200:116,1,60.5,2|0,0:0|0:0,0:0:0:0:
348,84,87579,2,0,L|212:100,1,121,10|0,1:2|0:0,0:0:0:0:
404,100,87879,2,0,L|268:116,1,121,10|0,1:2|0:0,0:0:0:0:
108,116,88179,2,0,P|132:180|244:192,1,181.5,10|0,1:2|0:0,0:0:0:0:
416,168,88579,5,10,1:2:0:0:
234,160,88779,2,0,L|304:160,1,60.5,10|2,1:2|0:0,0:0:0:0:
123,220,88979,1,2,0:0:0:0:
437,216,89179,2,0,L|505:260,1,60.5,10|2,1:2|0:0,0:0:0:0:
317,264,89379,1,2,0:0:0:0:
16,264,89579,2,0,L|56:212,1,60.5,10|0,1:2|0:0,0:0:0:0:
224,208,89779,2,0,L|128:212,1,60.5,2|0,0:0|0:0,0:0:0:0:
336,123,89980,5,8,1:2:0:0:
154,123,90179,2,0,L|214:135,1,60.5,2|2,0:0|0:0,0:0:0:0:
382,141,90379,1,10,1:2:0:0:
79,137,90579,2,0,L|147:152,1,60.5,2|2,0:0|0:0,0:0:0:0:
307,157,90779,1,10,1:2:0:0:
28,159,90979,2,0,L|104:160,1,60.5,2|0,0:0|0:0,0:0:0:0:
256,156,91179,2,0,L|189:155,1,60.5,10|0,1:2|0:0,0:0:0:0:
28,159,91379,1,2,0:0:0:0:
306,163,91579,1,8,1:2:0:0:
28,159,91779,5,2,0:0:0:0:
210,158,91979,2,0,L|287:166,1,60.5,10|2,1:2|0:0,0:0:0:0:
441,169,92179,1,2,0:0:0:0:
126,185,92379,2,0,L|186:222,1,60.5,10|2,1:2|0:0,0:0:0:0:
348,219,92579,1,2,0:0:0:0:
45,215,92779,2,0,L|120:216,1,60.5,10|0,1:2|0:0,0:0:0:0:
276,212,92979,2,0,L|216:209,1,60.5,2|0,0:0|0:0,0:0:0:0:
48,224,93179,6,0,L|173:273,1,121,8|0,1:2|0:0,0:0:0:0:
332,232,93479,2,0,L|416:240,2,60.5,2|8|0,0:0|1:2|0:0,0:0:0:0:
152,236,93779,2,0,L|212:240,1,60.5,2|0,0:0|0:0,0:0:0:0:
28,240,93979,2,0,P|45:172|95:138,1,121,14|0,1:2|0:0,0:0:0:0:
271,144,94279,2,0,L|147:144,1,121,14|0,1:2|0:0,0:0:0:0:
91,144,94579,2,0,L|159:144,1,60.5,0|0,0:0|0:0,0:0:0:0:
335,320,94779,5,12,1:2:0:0:
159,320,94879,2,0,L|83:320,1,60.5,0|2,1:2|0:0,0:0:0:0:
280,328,95179,2,0,L|200:304,1,60.5,10|2,1:2|0:0,0:0:0:0:
48,296,95379,1,2,0:0:0:0:
352,296,95579,2,0,L|272:272,1,60.5,10|2,1:2|0:0,0:0:0:0:
120,264,95779,1,2,0:0:0:0:
398,260,95979,2,0,L|320:260,1,60.5,10|0,1:2|0:0,0:0:0:0:
168,264,96179,2,0,L|232:264,1,60.5,10|0,1:2|0:0,0:0:0:0:
397,244,96379,5,8,1:2:0:0:
215,140,96579,2,0,L|135:156,1,60.5,2|2,0:0|0:0,0:0:0:0:
335,156,96779,1,10,1:2:0:0:
31,180,96979,1,2,0:0:0:0:
194,189,97079,1,2,1:2:0:0:
31,196,97179,1,10,1:2:0:0:
309,203,97379,1,10,1:2:0:0:
127,212,97579,2,0,L|127:300,1,60.5,2|0,0:0|0:0,0:0:0:0:
231,268,97779,2,0,L|307:260,1,60.5,2|0,0:0|0:0,0:0:0:0:
107,276,97979,6,0,P|68:224|120:184,1,121,12|2,1:2|0:0,0:0:0:0:
284,256,98379,2,0,L|228:280,1,60.5,10|2,1:2|0:0,0:0:0:0:
52,288,98579,1,2,0:0:0:0:
356,288,98779,2,0,L|300:312,1,60.5,10|2,1:2|0:0,0:0:0:0:
124,320,98979,1,2,0:0:0:0:
402,320,99179,2,0,L|320:320,1,60.5,10|0,1:2|0:0,0:0:0:0:
172,312,99379,2,0,L|232:312,1,60.5,2|0,0:0|0:0,0:0:0:0:
402,308,99579,6,0,L|465:260,1,60.5,8|0,1:2|0:0,0:0:0:0:
268,284,99779,1,8,1:2:0:0:
216,280,99845,1,8,1:2:0:0:
268,272,99912,1,8,1:2:0:0:
420,264,99979,2,0,L|356:264,1,60.5,12|0,1:2|0:0,0:0:0:0:
180,256,100179,2,0,L|252:256,1,60.5,14|0,1:2|0:0,0:0:0:0:
420,252,100379,2,0,L|420:184,1,60.5,14|0,1:2|0:0,0:0:0:0:
240,192,100579,1,12,1:2:0:0:
180,196,100679,2,0,L|308:196,1,121,2|0,0:0|0:0,0:0:0:0:
344,124,100979,1,2,0:0:0:0:
41,128,101179,5,12,1:2:0:0:
356,200,101379,1,14,1:2:0:0:
192,184,101479,1,12,1:2:0:0:
356,184,101579,2,0,L|284:200,1,60.5,2|14,0:0|1:2,0:0:0:0:
116,192,101779,2,0,L|180:208,1,60.5,14|0,1:2|0:0,0:0:0:0:
356,216,101979,2,0,L|356:296,1,60.5,14|2,1:2|0:0,0:0:0:0:
180,240,102179,1,14,1:2:0:0:
348,240,102379,2,0,L|408:240,1,60.5,2|0,0:0|0:0,0:0:0:0:
348,120,102579,2,0,L|288:120,1,60.5,2|0,0:0|0:0,0:0:0:0:
112,128,102779,5,12,1:2:0:0:
424,128,102979,1,14,1:2:0:0:
260,128,103079,1,14,1:2:0:0:
424,128,103179,2,0,L|424:192,1,60.5,2|12,0:0|1:2,0:0:0:0:
256,176,103379,1,14,1:2:0:0:
204,180,103445,1,8,1:2:0:0:
260,184,103512,1,8,1:2:0:0:
416,188,103579,6,0,L|416:264,1,60.5,14|0,1:2|0:0,0:0:0:0:
236,248,103779,1,14,1:2:0:0:
184,252,103845,1,8,1:2:0:0:
236,252,103912,1,8,1:2:0:0:
276,252,103979,2,0,P|308:308|252:332,1,121,0|2,0:0|0:0,0:0:0:0:
212,320,104279,1,0,0:0:0:0:
392,344,104379,5,12,1:2:0:0:
80,344,104579,1,10,1:2:0:0:
116,344,104629,1,8,1:2:0:0:
232,340,104679,1,8,1:2:0:0:
268,340,104729,1,8,1:2:0:0:
384,344,104779,2,0,L|384:272,1,60.5,2|2,0:0|0:0,0:0:0:0:
192,340,104979,1,2,0:0:0:0:
496,336,105179,6,0,L|428:332,1,60.5,14|2,1:2|0:0,0:0:0:0:
204,336,105379,1,10,1:2:0:0:
240,336,105429,1,8,1:2:0:0:
356,336,105479,1,8,1:2:0:0:
392,336,105529,1,8,1:2:0:0:
276,332,105579,2,0,L|188:332,1,60.5,2|0,0:0|0:0,0:0:0:0:
408,332,105779,2,0,L|484:332,1,60.5,2|0,0:0|0:0,0:0:0:0:
276,348,105979,6,0,P|100:192|248:28,1,499.125019040108,12|0,1:2|0:0,0:0:0:0:
424,48,107179,2,0,L|232:72,1,181.5,8|0,0:0|0:0,0:0:0:0:
420,76,107579,6,0,P|461:119|454:195,1,121,12|2,1:2|0:0,0:0:0:0:
160,72,107979,2,0,L|232:104,1,60.5,10|2,1:2|0:0,0:0:0:0:
384,104,108179,1,2,0:0:0:0:
96,96,108379,2,0,L|168:128,1,60.5,10|2,1:2|0:0,0:0:0:0:
320,128,108579,1,2,0:0:0:0:
17,132,108779,2,0,L|24:204,1,60.5,10|0,1:2|0:0,0:0:0:0:
192,192,108979,1,2,0:0:0:0:
264,192,109079,1,0,0:0:0:0:
440,142,109179,5,8,1:2:0:0:
257,136,109379,2,0,L|251:64,1,60.5,2|2,0:0|0:0,0:0:0:0:
79,264,109579,1,10,1:2:0:0:
369,270,109779,2,0,L|369:209,1,60.5,2|2,0:0|0:0,0:0:0:0:
193,206,109979,1,10,1:2:0:0:
495,216,110179,1,2,0:0:0:0:
319,208,110279,1,8,1:2:0:0:
259,200,110379,2,0,L|277:124,1,60.5,2|0,0:0|0:0,0:0:0:0:
455,152,110579,1,10,1:2:0:0:
143,72,110779,6,0,L|156:195,1,121,8|2,1:2|0:0,0:0:0:0:
337,190,111179,2,0,L|290:226,1,60.5,10|2,1:2|0:0,0:0:0:0:
120,208,111379,1,2,0:0:0:0:
408,232,111579,1,10,1:2:0:0:
244,240,111679,1,10,1:2:0:0:
408,240,111779,1,10,1:2:0:0:
140,236,111979,2,0,L|212:240,1,60.5,10|0,1:2|0:0,0:0:0:0:
376,240,112179,2,0,L|300:236,1,60.5,10|0,1:2|0:0,0:0:0:0:
144,187,112379,6,0,L|284:188,1,121,8|0,1:2|0:0,0:0:0:0:
100,184,112679,2,0,L|24:176,2,60.5,2|8|0,0:0|1:2|0:0,0:0:0:0:
264,184,112979,2,0,L|340:184,1,60.5,10|0,1:2|0:0,0:0:0:0:
148,120,113179,2,0,L|300:128,1,121,10|0,1:2|0:0,0:0:0:0:
92,136,113479,2,0,L|244:144,1,121,10|0,1:2|0:0,0:0:0:0:
388,136,113779,6,0,P|448:184|488:356,1,242,10|0,1:2|0:0,0:0:0:0:
192,280,114379,2,0,L|264:264,1,60.5,14|2,1:2|0:0,0:0:0:0:
424,264,114579,1,2,0:0:0:0:
136,264,114779,1,10,1:2:0:0:
304,256,114879,2,0,L|376:248,1,60.5,10|2,1:2|0:0,0:0:0:0:
192,248,115079,1,8,1:2:0:0:
360,240,115179,2,0,L|440:232,1,60.5,10|0,1:2|0:0,0:0:0:0:
248,192,115379,2,0,L|248:120,1,60.5,10|0,1:2|0:0,0:0:0:0:
80,120,115579,5,8,1:2:0:0:
261,123,115779,2,0,L|249:60,1,60.5,2|2,0:0|0:0,0:0:0:0:
80,56,115979,1,10,1:2:0:0:
368,64,116179,2,0,L|340:136,1,60.5,2|2,0:0|0:0,0:0:0:0:
172,136,116379,1,10,1:2:0:0:
476,128,116579,1,2,0:0:0:0:
300,136,116679,2,0,L|236:144,2,60.5,8|2|0,1:2|0:0|0:0,0:0:0:0:
484,200,116979,1,10,1:2:0:0:
192,208,117179,5,12,1:2:0:0:
20,216,117379,1,10,1:2:0:0:
292,216,117579,1,10,1:2:0:0:
321,220,117629,1,0,0:0:0:0:
351,215,117679,1,2,0:0:0:0:
378,203,117729,1,0,0:0:0:0:
401,183,117779,1,2,0:0:0:0:
417,157,117829,1,0,0:0:0:0:
424,128,117879,1,0,0:0:0:0:
423,98,117929,1,0,0:0:0:0:
312,96,117979,5,14,1:2:0:0:
240,96,118079,1,2,0:0:0:0:
76,100,118179,1,10,1:2:0:0:
128,104,118245,1,8,1:2:0:0:
180,104,118312,1,8,1:2:0:0:
332,112,118379,2,0,L|408:120,1,60.5,10|0,1:2|0:0,0:0:0:0:
220,112,118579,2,0,L|288:120,1,60.5,2|0,0:0|0:0,0:0:0:0:
108,120,118779,5,10,1:2:0:0:
292,88,118979,2,0,L|263:94,1,30.25,0|0,0:0|0:0,0:0:0:0:
124,96,119179,2,0,L|150:112,1,30.25,0|0,0:0|0:0,0:0:0:0:
316,128,119379,1,0,1:2:0:0:
280,128,119429,1,8,1:2:0:0:
164,128,119479,1,8,1:2:0:0:
128,128,119529,1,8,1:2:0:0:
244,128,119579,2,0,P|310:173|312:228,1,121,14|0,1:2|0:0,0:0:0:0:
135,224,119879,2,0,L|275:224,1,121,14|0,1:2|0:0,0:0:0:0:
438,200,120379,5,14,1:2:0:0:
262,200,120479,1,8,1:2:0:0:
202,192,120579,1,2,0:0:0:0:
370,192,120679,1,2,1:2:0:0:
194,192,120779,2,0,L|262:156,1,60.5,10|2,1:2|0:0,0:0:0:0:
422,160,120979,1,2,1:2:0:0:
118,152,121179,2,0,L|174:104,1,60.5,10|2,1:2|0:0,0:0:0:0:
338,108,121379,1,2,0:0:0:0:
59,101,121579,2,0,L|128:104,1,60.5,10|0,1:2|0:0,0:0:0:0:
288,112,121779,2,0,L|220:108,1,60.5,10|0,1:2|0:0,0:0:0:0:
59,114,121979,5,8,1:2:0:0:
240,336,122179,2,0,L|311:324,1,60.5,2|2,0:0|0:0,0:0:0:0:
476,304,122379,1,10,1:2:0:0:
188,304,122579,2,0,L|200:236,1,60.5,2|10,0:0|1:2,0:0:0:0:
368,256,122779,1,10,1:2:0:0:
80,256,122979,1,2,0:0:0:0:
264,256,123079,1,8,1:2:0:0:
204,248,123179,2,0,L|144:232,1,60.5,2|0,0:0|0:0,0:0:0:0:
327,231,123379,6,0,P|440:212|472:80,1,242,14|0,1:2|0:0,0:0:0:0:
172,64,123979,2,0,L|224:112,1,60.5,14|2,1:2|0:0,0:0:0:0:
40,136,124179,1,2,0:0:0:0:
328,120,124379,2,0,L|384:176,1,60.5,10|2,1:2|0:0,0:0:0:0:
200,168,124579,1,2,0:0:0:0:
478,179,124779,2,0,L|412:176,1,60.5,10|0,1:2|0:0,0:0:0:0:
247,168,124979,2,0,L|316:168,1,60.5,10|0,1:2|0:0,0:0:0:0:
477,185,125179,6,0,L|345:181,1,121,0|0,1:2|0:0,0:0:0:0:
247,168,125479,2,0,L|384:169,1,121,2|0,0:0|0:0,0:0:0:0:
477,164,125779,2,0,L|409:160,1,60.5,2|0,0:0|0:0,0:0:0:0:
307,162,125979,2,0,L|171:194,1,121,2|0,0:0|0:0,0:0:0:0:
291,186,126279,2,0,L|155:218,1,121,2|0,0:0|0:0,0:0:0:0:
64,220,126579,2,0,L|61:306,1,60.5,2|0,0:0|0:0,0:0:0:0:
231,275,126779,6,0,L|107:285,1,121,12|2,1:2|0:0,0:0:0:0:
292,280,127179,2,0,L|252:228,1,60.5,10|2,1:2|0:0,0:0:0:0:
80,228,127379,1,2,0:0:0:0:
396,228,127579,2,0,L|332:208,1,60.5,10|2,1:2|0:0,0:0:0:0:
276,216,127779,1,2,0:0:0:0:
452,160,127879,1,8,1:2:0:0:
284,160,127979,2,0,L|196:152,1,60.5,10|0,1:2|0:0,0:0:0:0:
52,152,128179,1,10,1:2:0:0:
234,160,128379,5,8,1:2:0:0:
52,176,128579,2,0,L|124:192,1,60.5,2|0,0:0|0:0,0:0:0:0:
284,192,128779,2,0,L|268:128,1,60.5,10|0,1:2|0:0,0:0:0:0:
439,118,128979,2,0,L|423:54,1,60.5,2|8,0:0|1:2,0:0:0:0:
246,56,129179,2,0,L|106:68,1,121,10|0,1:2|0:0,0:0:0:0:
434,232,129579,2,0,L|346:232,1,60.5,8|0,1:2|0:0,0:0:0:0:
202,232,129779,2,0,L|122:232,1,60.5,2|0,0:0|0:0,0:0:0:0:
314,232,129979,5,12,1:2:0:0:
144,233,130179,1,10,1:2:0:0:
422,234,130379,2,0,L|502:234,1,60.5,10|2,1:2|0:0,0:0:0:0:
300,232,130579,1,10,1:2:0:0:
250,236,130645,1,8,1:2:0:0:
302,240,130712,1,8,1:2:0:0:
458,236,130779,1,14,1:2:0:0:
294,232,130879,1,10,1:2:0:0:
130,236,130979,1,10,1:2:0:0:
298,236,131079,1,8,1:2:0:0:
466,232,131179,2,0,L|456:168,1,60.5,10|0,1:2|0:0,0:0:0:0:
284,168,131379,1,10,1:2:0:0:
210,168,131479,1,0,0:0:0:0:
36,172,131579,6,0,P|106:326|216:128,1,499.125019040108,12|0,1:2|0:0,0:0:0:0:
24,348,132779,1,8,0:0:0:0:
484,348,133179,5,14,1:2:0:0:
256,192,133379,12,2,136379,0:0:0:0:
368,104,136979,6,0,P|331:301|287:111,1,544.5,2|0,0:0|0:0,0:0:0:0:
384,112,137979,5,2,0:0:0:0:
384,112,138579,1,2,0:0:0:0:
264,120,138779,1,2,0:0:0:0:
144,136,138979,1,2,0:0:0:0:
264,128,139179,1,2,0:0:0:0:
384,128,139379,1,2,0:0:0:0:
202,125,139579,5,2,0:0:0:0:
192,128,140179,2,0,P|104:176|328:296,1,544.5,2|0,0:0|0:0,0:0:0:0:
224,288,141179,5,2,0:0:0:0:
224,288,141779,1,2,0:0:0:0:
104,288,141979,2,0,P|66:139|215:87,1,302.5,2|0,0:0|0:0,0:0:0:0:
288,80,142579,1,2,0:0:0:0:
248,80,142645,1,2,0:0:0:0:
208,80,142712,1,2,0:0:0:0:
148,80,142779,5,2,0:0:0:0:
148,80,143379,2,0,P|32:276|280:312,1,544.5,2|0,0:0|0:0,0:0:0:0:
324,312,144379,5,2,0:0:0:0:
143,326,144579,1,2,0:0:0:0:
384,344,144979,1,2,0:0:0:0:
432,232,145179,1,2,0:0:0:0:
320,88,145479,1,2,0:0:0:0:
136,88,145779,1,2,0:0:0:0:
320,88,145979,5,2,0:0:0:0:
328,88,146579,1,2,0:0:0:0:
146,90,146779,1,2,0:0:0:0:
387,91,147179,6,0,P|400:272|72:224,1,605,2|2,0:0|0:0,0:0:0:0:
168,248,148329,1,2,0:0:0:0:
280,248,149179,5,2,0:0:0:0:
280,248,149779,1,2,0:0:0:0:
160,248,149979,2,0,L|320:232,1,121,2|0,0:0|0:0,0:0:0:0:
344,232,150279,2,0,L|344:112,1,121,2|0,0:0|0:0,0:0:0:0:
280,112,150579,2,0,L|200:112,1,60.5,2|0,0:0|0:0,0:0:0:0:
320,112,150779,5,2,0:0:0:0:
320,112,151379,1,2,0:0:0:0:
440,99,151579,2,0,L|280:115,1,121,2|0,0:0|0:0,0:0:0:0:
256,115,151879,2,0,L|256:235,1,121,2|0,0:0|0:0,0:0:0:0:
320,235,152179,2,0,L|400:235,1,60.5,2|0,0:0|0:0,0:0:0:0:
280,235,152379,5,2,0:0:0:0:
280,235,152979,2,0,P|92:124|304:12,1,544.5,2|0,0:0|0:0,0:0:0:0:
200,75,153979,5,2,0:0:0:0:
200,75,154579,1,2,0:0:0:0:
324,76,154779,2,0,P|340:212|136:204,1,363,2|2,0:0|0:0,0:0:0:0:
196,108,155445,1,2,0:0:0:0:
236,108,155512,1,2,0:0:0:0:
312,108,155579,6,0,P|444:224|164:352,1,605,2|2,0:0|0:0,0:0:0:0:
96,212,156779,1,2,0:0:0:0:
175,121,156979,1,2,0:0:0:0:
356,126,157179,5,2,0:0:0:0:
476,121,157379,1,2,0:0:0:0:
355,117,157579,1,2,0:0:0:0:
234,119,157779,1,2,0:0:0:0:
415,120,157979,1,2,0:0:0:0:
294,121,158179,1,2,0:0:0:0:
476,128,158379,2,0,L|476:256,1,121,10|0,0:0|0:0,0:0:0:0:
208,128,158779,5,6,0:0:0:0:
389,125,158979,2,0,L|389:245,1,121,2|0,0:0|0:0,0:0:0:0:
269,245,159379,2,0,L|269:117,1,121,2|0,0:0|0:0,0:0:0:0:
389,125,159779,2,0,L|253:157,1,121,2|0,0:0|0:0,0:0:0:0:
149,157,160179,2,0,L|285:189,1,121,2|0,0:0|0:0,0:0:0:0:
86,256,160579,6,0,P|45:146|230:64,1,363,2|2,0:0|0:0,0:0:0:0:
352,72,161379,1,2,0:0:0:0:
472,72,161579,1,2,0:0:0:0:
290,71,161779,6,0,L|138:111,1,121,2|0,0:0|0:0,0:0:0:0:
50,103,162179,2,0,L|202:143,1,121,2|0,0:0|0:0,0:0:0:0:
290,135,162579,2,0,L|290:279,1,121,2|0,0:0|0:0,0:0:0:0:
170,263,162979,2,0,L|170:119,1,121,2|0,0:0|0:0,0:0:0:0:
290,135,163379,2,0,L|170:119,1,121,2|0,0:0|0:0,0:0:0:0:
352,112,163779,6,0,P|488:216|344:308,1,363,2|2,0:0|0:0,0:0:0:0:
260,296,164579,1,2,0:0:0:0:
444,292,164779,1,10,0:0:0:0:
274,291,164979,6,0,L|274:147,1,121,2|0,0:0|0:0,0:0:0:0:
154,175,165379,2,0,L|154:319,1,121,2|0,0:0|0:0,0:0:0:0:
274,291,165779,2,0,L|138:235,1,121,2|0,0:0|0:0,0:0:0:0:
42,243,166179,2,0,L|178:187,1,121,2|0,0:0|0:0,0:0:0:0:
274,195,166579,2,0,L|274:71,1,121,2|0,0:0|0:0,0:0:0:0:
456,200,166979,6,0,P|454:330|252:348,1,363,2|2,0:0|0:0,0:0:0:0:
136,344,167779,1,2,0:0:0:0:
256,344,167979,1,2,0:0:0:0:
437,337,168179,6,0,P|469:217|210:32,1,484,2|2,0:0|0:0,0:0:0:0:
96,72,169179,2,0,P|48:136|117:208,1,181.5,2|2,0:0|0:0,0:0:0:0:
162,209,169579,1,0,0:0:0:0:
284,200,169779,6,0,P|388:84|96:46,1,605,2|2,0:0|0:0,0:0:0:0:
224,56,170979,1,2,0:0:0:0:
344,58,171179,1,2,0:0:0:0:
163,60,171379,1,2,0:0:0:0:
441,63,171579,5,6,0:0:0:0:
260,184,171779,2,0,L|181:185,2,60.5,2|0|0,0:0|0:0|0:0,0:0:0:0:
381,175,172179,2,0,L|254:178,1,121,2|0,0:0|0:0,0:0:0:0:
144,96,172579,1,2,0:0:0:0:
83,96,172679,1,0,0:0:0:0:
22,94,172779,1,0,0:0:0:0:
142,89,172979,2,0,L|142:233,1,121,2|0,0:0|0:0,0:0:0:0:
344,176,173379,6,0,P|440:272|256:312,1,363,2|2,0:0|0:0,0:0:0:0:
167,352,174179,1,2,0:0:0:0:
227,352,174279,1,0,0:0:0:0:
287,352,174379,1,2,0:0:0:0:
105,343,174579,6,0,P|31:237|113:119,1,242,2|2,0:0|0:0,0:0:0:0:
192,128,175179,2,0,L|53:127,1,121,2|0,0:0|0:0,0:0:0:0:
253,128,175579,2,0,P|344:207|253:304,1,242,2|2,0:0|0:0,0:0:0:0:
112,254,176179,6,0,L|112:128,1,121,2|0,0:0|0:0,0:0:0:0:
293,133,176579,2,0,P|358:255|183:348,1,363,2|2,0:0|0:0,0:0:0:0:
76,348,177379,1,2,0:0:0:0:
136,348,177479,1,0,0:0:0:0:
300,348,177579,1,10,0:0:0:0:
157,348,177779,1,2,0:0:0:0:
435,350,177979,5,4,0:0:0:0:
312,232,178179,2,0,L|312:360,1,121,2|0,0:0|0:0,0:0:0:0:
192,344,178579,2,0,L|68:296,1,121,2|0,0:0|0:0,0:0:0:0:
204,344,178979,2,0,L|328:296,1,121,2|0,0:0|0:0,0:0:0:0:
135,314,179379,6,0,P|68:229|164:157,1,242,2|2,0:0|0:0,0:0:0:0:
272,176,179979,1,2,0:0:0:0:
90,176,180179,2,0,P|40:271|155:336,1,242,2|2,0:0|0:0,0:0:0:0:
192,336,180679,1,0,0:0:0:0:
252,336,180779,1,2,0:0:0:0:
192,332,180879,1,0,0:0:0:0:
132,328,180979,1,2,0:0:0:0:
192,320,181079,1,0,0:0:0:0:
352,336,181179,5,2,0:0:0:0:
288,328,181279,1,0,0:0:0:0:
224,320,181379,1,2,0:0:0:0:
160,312,181479,1,0,0:0:0:0:
320,304,181579,1,0,0:0:0:0:
384,296,181679,1,0,0:0:0:0:
224,296,181779,1,2,0:0:0:0:
196,288,181829,1,0,0:0:0:0:
196,256,181879,1,0,0:0:0:0:
224,252,181929,1,0,0:0:0:0:
332,244,181979,5,0,0:0:0:0:
388,212,182079,1,0,0:0:0:0:
388,148,182179,1,0,0:0:0:0:
332,124,182279,1,0,0:0:0:0:
164,124,182379,2,0,L|92:124,1,60.5,2|0,0:0|0:0,0:0:0:0:
272,124,182579,1,0,0:0:0:0:
304,124,182629,1,0,0:0:0:0:
336,124,182679,1,0,0:0:0:0:
368,124,182729,1,0,0:0:0:0:
248,132,182779,1,2,0:0:0:0:
220,144,182829,1,0,0:0:0:0:
220,176,182879,1,0,0:0:0:0:
248,188,182929,1,0,0:0:0:0:
368,200,182979,5,2,0:0:0:0:
396,212,183029,1,0,0:0:0:0:
396,244,183079,1,0,0:0:0:0:
368,256,183129,1,0,0:0:0:0:
248,260,183179,1,2,0:0:0:0:
216,260,183229,1,0,0:0:0:0:
184,260,183279,1,0,0:0:0:0:
152,260,183329,1,0,0:0:0:0:
272,264,183379,2,0,L|301:269,1,30.25,2|0,0:0|0:0,0:0:0:0:
420,280,183479,2,0,L|450:283,1,30.25,0|0,0:0|0:0,0:0:0:0:
328,276,183580,6,0,P|206:230|272:104,1,302.5,2|0,0:0|0:0,0:0:0:0:
368,320,184179,2,0,P|418:254|327:203,1,181.5,2|0,0:0|0:0,0:0:0:0:
256,256,184579,5,2,0:0:0:0:
74,250,184779,1,2,0:0:0:0:
138,250,184879,1,2,0:0:0:0:
202,250,184979,1,2,0:0:0:0:
384,248,185179,1,2,0:0:0:0:
320,248,185279,1,2,0:0:0:0:
256,248,185379,1,2,0:0:0:0:
74,188,185579,1,2,0:0:0:0:
255,183,185779,6,0,L|255:371,1,181.5,2|0,0:0|0:0,0:0:0:0:
345,365,186179,1,2,0:0:0:0:
409,365,186279,1,2,0:0:0:0:
473,365,186379,1,2,0:0:0:0:
291,365,186579,1,2,0:0:0:0:
227,365,186679,1,2,0:0:0:0:
163,365,186779,1,2,0:0:0:0:
345,365,186979,2,0,L|487:360,1,121,2|2,0:0|0:0,0:0:0:0:
283,358,187379,6,0,L|279:218,1,121,2|0,0:0|0:0,0:0:0:0:
158,237,187779,1,2,0:0:0:0:
339,231,187979,1,2,0:0:0:0:
403,231,188079,1,2,0:0:0:0:
339,231,188179,1,2,0:0:0:0:
157,230,188379,1,2,0:0:0:0:
93,230,188479,1,2,0:0:0:0:
157,230,188579,1,2,0:0:0:0:
339,231,188779,2,0,L|410:224,1,60.5,2|0,0:0|0:0,0:0:0:0:
289,215,188979,6,0,P|211:209|249:341,1,242,2|0,0:0|0:0,0:0:0:0:
336,288,189479,2,0,L|184:296,1,121,2|0,0:0|0:0,0:0:0:0:
100,296,189779,2,0,L|28:280,1,60.5,2|0,0:0|0:0,0:0:0:0:
148,268,189979,2,0,L|276:256,1,121,2|0,0:0|0:0,0:0:0:0:
160,244,190279,2,0,L|16:204,1,121,2|0,0:0|0:0,0:0:0:0:
156,196,190579,2,0,P|240:220|268:316,1,181.5,2|0,0:0|0:0,0:0:0:0:
160,216,190979,5,2,0:0:0:0:
341,216,191179,1,2,0:0:0:0:
277,216,191279,1,2,0:0:0:0:
213,216,191379,1,2,0:0:0:0:
32,216,191579,1,2,0:0:0:0:
96,216,191679,1,2,0:0:0:0:
160,216,191779,1,2,0:0:0:0:
352,216,191979,1,2,0:0:0:0:
168,152,192179,6,0,P|68:192|68:272,1,181.5,2|0,0:0|0:0,0:0:0:0:
164,336,192579,1,2,0:0:0:0:
224,336,192679,1,2,0:0:0:0:
164,336,192779,1,2,0:0:0:0:
345,336,192979,1,2,0:0:0:0:
405,336,193079,1,2,0:0:0:0:
345,336,193179,1,2,0:0:0:0:
163,325,193379,2,0,L|300:321,1,121,2|2,0:0|0:0,0:0:0:0:
102,323,193779,6,0,L|102:199,1,121,2|0,0:0|0:0,0:0:0:0:
224,168,194179,1,2,0:0:0:0:
405,169,194379,1,2,0:0:0:0:
341,169,194479,1,2,0:0:0:0:
277,169,194579,1,2,0:0:0:0:
96,168,194779,1,2,0:0:0:0:
160,168,194879,1,2,0:0:0:0:
224,168,194979,1,2,0:0:0:0:
405,169,195179,2,0,L|461:201,1,60.5,2|0,0:0|0:0,0:0:0:0:
349,209,195379,6,0,P|224:225|104:293,1,242,2|0,0:0|0:0,0:0:0:0:
232,272,195879,2,0,L|232:120,1,121,2|0,0:0|0:0,0:0:0:0:
168,152,196179,2,0,L|272:152,1,60.5,2|0,0:0|0:0,0:0:0:0:
328,152,196379,1,2,0:0:0:0:
368,156,196445,1,2,0:0:0:0:
400,128,196512,1,2,0:0:0:0:
412,92,196578,1,2,0:0:0:0:
396,56,196645,1,2,0:0:0:0:
356,44,196712,1,2,0:0:0:0:
220,44,196779,5,10,0:0:0:0:
250,44,196829,1,2,0:0:0:0:
282,44,196879,1,2,0:0:0:0:
314,44,196929,1,2,0:0:0:0:
346,44,196979,1,2,0:0:0:0:
378,44,197029,1,2,0:0:0:0:
410,44,197079,1,2,0:0:0:0:
441,46,197129,1,2,0:0:0:0:
316,46,197179,6,0,L|184:46,1,121,14|2,1:2|0:0,0:0:0:0:
364,66,197579,2,0,L|424:70,2,60.5,10|2|2,0:0|0:0|0:0,0:0:0:0:
184,78,197979,2,0,L|120:86,2,60.5,10|2|2,0:0|0:0|0:0,0:0:0:0:
491,69,198379,2,0,L|356:69,1,121,10|2,0:0|0:0,0:0:0:0:
92,194,198779,5,8,0:0:0:0:
274,184,198979,2,0,L|353:174,2,60.5,2|2|10,0:0|0:0|0:0,0:0:0:0:
456,182,199379,2,0,L|504:146,2,60.5,2|2|10,0:0|0:0|0:0,0:0:0:0:
163,217,199779,1,2,0:0:0:0:
442,217,199979,1,10,0:0:0:0:
151,223,200179,6,0,P|80:185|172:98,1,242,2|2,0:0|0:0,0:0:0:0:
344,116,200779,2,0,L|408:120,2,60.5,10|2|2,0:0|0:0|0:0,0:0:0:0:
164,133,201179,2,0,L|100:137,2,60.5,10|2|2,0:0|0:0|0:0,0:0:0:0:
444,131,201579,1,10,0:0:0:0:
164,133,201779,6,0,P|76:188|168:248,1,242,2|0,0:0|0:0,0:0:0:0:
320,252,202279,2,0,L|200:268,1,121,2|0,0:0|0:0,0:0:0:0:
304,48,202579,2,0,L|376:52,1,60.5,2|0,0:0|0:0,0:0:0:0:
196,120,202779,2,0,L|316:160,1,121,2|0,0:0|0:0,0:0:0:0:
208,164,203079,2,0,L|328:204,1,121,2|0,0:0|0:0,0:0:0:0:
492,220,203379,2,0,L|492:148,1,60.5,2|0,0:0|0:0,0:0:0:0:
324,156,203579,6,0,L|180:196,1,121,14|2,1:2|0:0,0:0:0:0:
389,189,203979,2,0,L|453:197,2,60.5,10|2|2,0:0|0:0|0:0,0:0:0:0:
207,188,204379,2,0,L|127:196,1,60.5,10|2,0:0|0:0,0:0:0:0:
147,256,204579,1,2,0:0:0:0:
425,256,204779,2,0,L|297:252,1,121,10|2,0:0|0:0,0:0:0:0:
25,252,205179,5,8,0:0:0:0:
206,251,205379,2,0,L|271:257,2,60.5,2|2|10,0:0|0:0|0:0,0:0:0:0:
387,256,205779,2,0,L|447:260,1,60.5,2|2,0:0|0:0,0:0:0:0:
452,199,205979,1,10,0:0:0:0:
172,203,206179,1,2,0:0:0:0:
452,199,206379,1,10,0:0:0:0:
172,203,206579,6,0,P|107:121|200:55,1,242,2|2,0:0|0:0,0:0:0:0:
380,112,207179,2,0,L|448:124,1,60.5,10|2,0:0|0:0,0:0:0:0:
444,184,207379,1,2,0:0:0:0:
165,173,207579,2,0,L|101:161,2,60.5,10|2|2,0:0|0:0|0:0,0:0:0:0:
444,172,207979,1,10,0:0:0:0:
165,173,208179,6,0,P|71:114|158:17,1,242,2|0,0:0|0:0,0:0:0:0:
296,160,208679,2,0,L|160:136,1,121,2|0,0:0|0:0,0:0:0:0:
72,136,208979,2,0,L|160:136,1,60.5,2|0,0:0|0:0,0:0:0:0:
304,136,209179,2,0,L|432:176,1,121,2|0,0:0|0:0,0:0:0:0:
248,168,209479,2,0,L|376:208,1,121,2|0,0:0|0:0,0:0:0:0:
192,208,209779,2,0,L|192:136,1,60.5,2|0,0:0|0:0,0:0:0:0:
24,136,209979,6,0,L|160:104,1,121,14|2,0:0|0:0,0:0:0:0:
323,112,210379,2,0,L|387:128,2,60.5,10|2|2,0:0|0:0|0:0,0:0:0:0:
141,122,210779,2,0,L|77:138,2,60.5,10|2|2,0:0|0:0|0:0,0:0:0:0:
323,119,211179,1,10,0:0:0:0:
443,119,211379,1,10,0:0:0:0:
452,176,211479,1,8,0:0:0:0:
284,172,211579,5,8,0:0:0:0:
102,174,211779,2,0,L|38:190,2,60.5,2|2|10,0:0|0:0|0:0,0:0:0:0:
284,172,212179,2,0,L|348:188,2,60.5,2|2|10,0:0|0:0|0:0,0:0:0:0:
102,174,212579,1,10,0:0:0:0:
284,172,212779,1,10,0:0:0:0:
160,172,212979,1,10,0:0:0:0:
220,172,213079,1,8,0:0:0:0:
384,164,213179,5,8,0:0:0:0:
202,172,213379,1,2,0:0:0:0:
383,172,213579,2,0,L|391:244,1,60.5,10|2,0:0|0:0,0:0:0:0:
327,244,213779,1,2,0:0:0:0:
145,241,213979,2,0,L|138:301,1,60.5,10|2,0:0|0:0,0:0:0:0:
201,313,214179,1,2,0:0:0:0:
381,330,214379,1,10,0:0:0:0:
261,338,214579,1,10,0:0:0:0:
197,338,214679,1,8,0:0:0:0:
21,338,214779,6,0,L|157:334,1,121,8|0,0:0|0:0,0:0:0:0:
244,336,215079,2,0,L|391:330,1,121,2|0,0:0|0:0,0:0:0:0:
262,326,215379,2,0,L|190:326,1,60.5,2|0,0:0|0:0,0:0:0:0:
364,72,215579,2,0,L|484:136,1,121,10|8,0:0|0:0,0:0:0:0:
300,132,215879,2,0,L|420:196,1,121,2|0,0:0|0:0,0:0:0:0:
240,80,216179,1,10,0:0:0:0:
176,80,216279,1,8,0:0:0:0:
344,80,216379,6,0,L|496:104,1,121,14|10,1:2|0:0,0:0:0:0:
184,92,216779,2,0,L|40:112,1,121,10|10,0:0|0:0,0:0:0:0:
356,104,217179,2,0,L|492:120,1,121,10|10,0:0|0:0,0:0:0:0:
172,108,217579,2,0,L|40:116,1,121,10|10,0:0|0:0,0:0:0:0:
20,112,217829,1,2,0:0:0:0:
12,84,217879,1,10,0:0:0:0:
24,56,217929,1,2,0:0:0:0:
152,264,217979,5,14,0:0:0:0:
208,240,218079,1,2,0:0:0:0:
208,176,218179,1,10,0:0:0:0:
152,152,218279,1,2,0:0:0:0:
320,152,218379,1,10,0:0:0:0:
384,152,218479,1,2,0:0:0:0:
440,184,218579,1,10,0:0:0:0:
448,248,218679,1,2,0:0:0:0:
272,256,218779,2,0,L|336:248,1,60.5,10|2,0:0|0:0,0:0:0:0:
152,256,218979,2,0,L|88:224,1,60.5,10|2,0:0|0:0,0:0:0:0:
272,224,219179,2,0,L|320:176,1,60.5,10|10,0:0|0:0,0:0:0:0:
144,216,219379,2,0,L|108:180,3,30.25,10|2|10|2,0:0|0:0|0:0|0:0,0:0:0:0:
236,216,219579,6,0,L|284:212,1,30.25,14|2,1:2|0:0,0:0:0:0:
296,212,219679,1,2,0:0:0:0:
328,204,219729,1,2,0:0:0:0:
352,180,219779,1,2,0:0:0:0:
360,148,219829,1,2,0:0:0:0:
344,124,219879,1,2,0:0:0:0:
320,108,219929,1,2,0:0:0:0:
204,100,219979,2,0,L|156:104,1,30.25,10|2,0:0|0:0,0:0:0:0:
142,106,220079,1,2,0:0:0:0:
110,114,220129,1,2,0:0:0:0:
86,138,220179,1,2,0:0:0:0:
78,170,220229,1,2,0:0:0:0:
94,194,220279,1,2,0:0:0:0:
118,210,220329,1,2,0:0:0:0:
236,216,220379,6,0,L|284:220,1,30.25,14|2,0:0|0:0,0:0:0:0:
296,220,220479,1,2,0:0:0:0:
328,228,220529,1,2,0:0:0:0:
352,252,220579,1,2,0:0:0:0:
360,284,220629,1,2,0:0:0:0:
348,312,220679,1,2,0:0:0:0:
324,332,220729,1,2,0:0:0:0:
208,328,220779,1,10,0:0:0:0:
172,328,220829,1,2,0:0:0:0:
52,328,220879,1,2,0:0:0:0:
16,328,220929,1,2,0:0:0:0:
140,324,220979,1,2,0:0:0:0:
176,324,221029,1,2,0:0:0:0:
304,332,221079,1,2,0:0:0:0:
340,332,221129,1,2,0:0:0:0:
184,264,221179,6,0,P|106:188|287:84,1,363,4|2,0:0|0:0,0:0:0:0:
295,79,221845,1,2,0:0:0:0:
295,119,221912,1,2,0:0:0:0:
258,136,221979,2,0,P|194:184|258:248,1,181.5,2|0,0:0|0:0,0:0:0:0:
424,244,222379,2,0,P|484:164|408:112,1,181.5,8|0,0:0|0:0,0:0:0:0:
241,147,222779,6,0,L|375:144,1,121,14|2,1:2|0:0,0:0:0:0:
179,224,223179,2,0,L|243:216,1,60.5,10|2,1:2|0:0,0:0:0:0:
411,216,223379,1,2,0:0:0:0:
107,216,223579,2,0,L|171:208,1,60.5,10|2,1:2|0:0,0:0:0:0:
339,208,223779,1,2,0:0:0:0:
35,208,223979,2,0,L|57:144,1,60.5,10|0,1:2|0:0,0:0:0:0:
231,165,224179,2,0,L|244:98,1,60.5,2|0,0:0|0:0,0:0:0:0:
419,106,224379,5,8,1:2:0:0:
238,110,224579,2,0,L|310:118,1,60.5,2|2,0:0|0:0,0:0:0:0:
470,118,224779,1,10,1:2:0:0:
179,131,224979,2,0,L|251:139,1,60.5,2|2,0:0|0:0,0:0:0:0:
411,139,225179,1,10,1:2:0:0:
120,144,225379,2,0,L|56:164,1,60.5,2|0,0:0|0:0,0:0:0:0:
236,176,225579,2,0,L|172:196,1,60.5,10|0,1:2|0:0,0:0:0:0:
352,208,225779,1,2,0:0:0:0:
40,264,225979,6,0,L|185:276,1,121,8|2,1:2|0:0,0:0:0:0:
342,280,226379,2,0,L|270:264,1,60.5,10|2,1:2|0:0,0:0:0:0:
110,264,226579,1,2,0:0:0:0:
400,269,226779,2,0,L|328:253,1,60.5,10|2,1:2|0:0,0:0:0:0:
168,253,226979,1,2,0:0:0:0:
468,312,227179,2,0,L|404:264,1,60.5,10|0,1:2|0:0,0:0:0:0:
244,272,227379,2,0,L|180:224,1,60.5,2|0,0:0|0:0,0:0:0:0:
20,232,227579,6,0,P|36:168|112:148,1,121,8|0,1:2|0:0,0:0:0:0:
252,136,227879,2,0,L|340:132,2,60.5,2|8|0,0:0|1:2|0:0,0:0:0:0:
80,132,228179,2,0,L|151:128,1,60.5,2|0,0:0|0:0,0:0:0:0:
312,133,228379,2,0,L|444:164,1,121,10|0,1:2|0:0,0:0:0:0:
260,168,228679,2,0,L|404:200,1,121,10|0,1:2|0:0,0:0:0:0:
208,208,228979,2,0,P|128:172|160:84,1,181.5,10|0,1:2|0:0,0:0:0:0:
316,176,229379,5,10,1:2:0:0:
134,182,229579,2,0,L|214:198,1,60.5,10|2,1:2|0:0,0:0:0:0:
366,198,229779,1,2,0:0:0:0:
75,201,229979,2,0,L|155:217,1,60.5,10|2,1:2|0:0,0:0:0:0:
307,217,230179,1,2,0:0:0:0:
16,214,230379,2,0,L|72:262,1,60.5,10|0,1:2|0:0,0:0:0:0:
240,254,230579,2,0,L|272:326,1,60.5,2|0,0:0|0:0,0:0:0:0:
88,318,230779,5,8,1:2:0:0:
269,312,230979,2,0,L|220:260,1,60.5,2|2,0:0|0:0,0:0:0:0:
58,272,231179,1,10,1:2:0:0:
346,264,231379,2,0,L|282:232,1,60.5,2|2,0:0|0:0,0:0:0:0:
122,232,231579,1,10,1:2:0:0:
410,232,231779,2,0,L|458:192,1,60.5,2|0,0:0|0:0,0:0:0:0:
282,172,231979,2,0,L|330:132,1,60.5,10|0,1:2|0:0,0:0:0:0:
150,132,232179,1,2,0:0:0:0:
466,132,232379,6,0,L|342:126,1,121,8|2,1:2|0:0,0:0:0:0:
164,132,232779,2,0,L|220:164,1,60.5,10|2,1:2|0:0,0:0:0:0:
388,164,232979,1,2,0:0:0:0:
100,172,233179,2,0,L|156:204,1,60.5,10|2,1:2|0:0,0:0:0:0:
324,204,233379,1,2,0:0:0:0:
32,208,233579,2,0,L|32:280,1,60.5,10|0,1:2|0:0,0:0:0:0:
208,280,233779,2,0,L|208:344,1,60.5,2|0,0:0|0:0,0:0:0:0:
32,344,233979,6,0,L|192:320,1,121,8|0,1:2|0:0,0:0:0:0:
316,320,234279,2,0,L|384:316,2,60.5,2|8|0,0:0|1:2|0:0,0:0:0:0:
148,308,234579,2,0,L|72:300,1,60.5,2|0,0:0|0:0,0:0:0:0:
256,304,234779,2,0,P|292:280|276:188,1,121,14|0,1:2|0:0,0:0:0:0:
108,132,235079,2,0,L|108:260,1,121,14|0,1:2|0:0,0:0:0:0:
168,256,235379,2,0,L|244:260,1,60.5,0|0,0:0|0:0,0:0:0:0:
400,272,235579,5,12,1:2:0:0:
224,272,235679,2,0,L|148:272,1,60.5,8|2,1:2|0:0,0:0:0:0:
345,264,235979,2,0,L|277:264,1,60.5,10|2,1:2|0:0,0:0:0:0:
117,260,236179,1,2,0:0:0:0:
406,230,236379,2,0,L|333:228,1,60.5,10|2,1:2|0:0,0:0:0:0:
173,224,236579,1,2,0:0:0:0:
465,228,236779,2,0,L|397:224,1,60.5,10|0,1:2|0:0,0:0:0:0:
229,220,236979,2,0,L|301:220,1,60.5,10|0,1:2|0:0,0:0:0:0:
465,212,237179,5,8,1:2:0:0:
284,116,237379,2,0,L|260:172,1,60.5,2|2,0:0|0:0,0:0:0:0:
92,172,237579,1,10,1:2:0:0:
382,175,237779,1,2,0:0:0:0:
218,175,237879,1,10,1:2:0:0:
382,175,237979,1,10,1:2:0:0:
99,176,238179,1,10,1:2:0:0:
280,175,238379,2,0,L|284:95,1,60.5,2|0,0:0|0:0,0:0:0:0:
396,112,238579,2,0,L|396:32,1,60.5,2|0,0:0|0:0,0:0:0:0:
228,48,238779,6,0,L|354:49,1,121,12|2,1:2|0:0,0:0:0:0:
166,74,239179,2,0,L|238:90,1,60.5,10|2,1:2|0:0,0:0:0:0:
398,98,239379,1,2,0:0:0:0:
108,115,239579,2,0,L|180:127,1,60.5,10|2,1:2|0:0,0:0:0:0:
340,143,239779,1,2,0:0:0:0:
49,136,239979,2,0,L|54:196,1,60.5,10|0,1:2|0:0,0:0:0:0:
224,200,240179,2,0,L|296:200,1,60.5,2|0,0:0|0:0,0:0:0:0:
452,212,240379,6,0,L|464:296,1,60.5,8|0,1:2|0:0,0:0:0:0:
292,312,240579,1,8,1:2:0:0:
240,312,240645,1,8,1:2:0:0:
292,312,240712,1,8,1:2:0:0:
448,312,240779,2,0,L|388:308,1,60.5,12|0,1:2|0:0,0:0:0:0:
216,304,240979,2,0,L|216:224,1,60.5,14|0,1:2|0:0,0:0:0:0:
386,300,241179,2,0,L|458:300,1,60.5,14|0,1:2|0:0,0:0:0:0:
278,296,241379,1,12,1:2:0:0:
338,295,241479,2,0,L|462:296,1,121,2|0,0:0|0:0,0:0:0:0:
398,100,241779,2,0,L|331:87,1,60.5,2|0,0:0|0:0,0:0:0:0:
168,96,241979,5,12,1:2:0:0:
456,96,242179,1,14,1:2:0:0:
288,104,242279,1,12,1:2:0:0:
120,104,242379,2,0,L|192:120,1,60.5,2|14,0:0|1:2,0:0:0:0:
352,104,242579,2,0,L|280:120,1,60.5,14|0,1:2|0:0,0:0:0:0:
128,144,242779,2,0,L|192:156,1,60.5,14|2,1:2|0:0,0:0:0:0:
360,200,242979,1,14,1:2:0:0:
166,208,243179,2,0,L|92:208,1,60.5,2|0,0:0|0:0,0:0:0:0:
168,344,243379,2,0,L|230:344,1,60.5,2|0,0:0|0:0,0:0:0:0:
58,336,243579,5,12,1:2:0:0:
356,344,243779,1,14,1:2:0:0:
188,336,243879,1,14,1:2:0:0:
20,344,243979,2,0,L|96:336,1,60.5,2|12,0:0|1:2,0:0:0:0:
312,336,244179,1,14,1:2:0:0:
364,336,244245,1,8,1:2:0:0:
312,336,244312,1,8,1:2:0:0:
156,324,244379,6,0,L|80:324,1,60.5,14|0,1:2|0:0,0:0:0:0:
324,324,244579,1,14,1:2:0:0:
376,324,244645,1,8,1:2:0:0:
324,320,244712,1,8,1:2:0:0:
284,320,244779,2,0,P|220:280|232:228,1,121,2|2,0:0|0:0,0:0:0:0:
284,244,245079,1,0,0:0:0:0:
464,248,245179,5,12,1:2:0:0:
160,244,245379,1,10,1:2:0:0:
196,244,245429,1,8,1:2:0:0:
312,240,245479,1,8,1:2:0:0:
348,240,245529,1,8,1:2:0:0:
232,196,245579,2,0,L|168:184,1,60.5,2|2,0:0|0:0,0:0:0:0:
352,176,245779,1,2,0:0:0:0:
48,168,245979,6,0,L|52:96,1,60.5,14|2,1:2|0:0,0:0:0:0:
232,112,246179,2,0,L|184:120,1,30.25,10|8,1:2|1:2,0:0:0:0:
80,120,246279,2,0,L|32:128,1,30.25,8|8,1:2|1:2,0:0:0:0:
172,132,246379,1,2,0:0:0:0:
244,132,246479,1,0,0:0:0:0:
424,128,246579,2,0,L|364:128,1,60.5,2|0,0:0|0:0,0:0:0:0:
196,364,246779,6,0,P|32:192|176:12,1,499.125019040108,12|0,1:2|0:0,0:0:0:0:
348,48,247979,2,0,B|348:352|348:352|28:352,1,605,8|4,0:0|1:2,0:0:0:0:
164,336,248579,1,2,0:0:0:0:
346,340,248779,1,2,0:0:0:0:
394,300,248879,1,2,0:0:0:0:
346,264,248979,1,2,0:0:0:0:
222,264,249179,1,2,0:0:0:0:
162,264,249279,2,0,L|162:196,1,60.5,2|2,0:0|0:0,0:0:0:0:
344,304,249579,2,0,L|416:288,1,60.5,2|0,0:0|0:0,0:0:0:0:
373,140,249779,1,2,0:0:0:0:
192,144,249979,5,0,0:0:0:0:
236,104,250079,1,0,0:0:0:0:
400,128,250179,2,0,L|392:216,1,60.5,2|2,0:0|0:0,0:0:0:0:
224,184,250379,1,2,0:0:0:0:
280,160,250479,1,0,0:0:0:0:
456,152,250579,1,14,1:2:0:0:
288,160,250679,1,14,1:2:0:0:
456,160,250779,2,0,L|432:192,1,30.25,14|0,1:2|0:0,0:0:0:0:
88,168,251079,2,0,L|121:189,1,30.25,14|0,1:2|0:0,0:0:0:0:
464,192,251379,2,0,L|425:201,1,30.25,14|0,1:2|0:0,0:0:0:0:
208,192,251579,6,0,L|72:192,1,121,12|2,1:2|0:0,0:0:0:0:
376,192,251979,2,0,L|304:232,1,60.5,10|2,1:2|0:0,0:0:0:0:
152,232,252179,1,2,0:0:0:0:
440,232,252379,1,10,1:2:0:0:
276,240,252479,1,10,1:2:0:0:
440,240,252579,1,10,1:2:0:0:
176,256,252779,2,0,L|176:184,1,60.5,10|0,1:2|0:0,0:0:0:0:
352,184,252979,2,0,L|352:112,1,60.5,10|0,1:2|0:0,0:0:0:0:
176,112,253179,6,0,L|40:144,1,121,8|0,1:2|0:0,0:0:0:0:
224,144,253479,2,0,L|292:148,2,60.5,2|8|0,0:0|1:2|0:0,0:0:0:0:
56,152,253779,2,0,L|132:164,1,60.5,10|0,1:2|0:0,0:0:0:0:
284,164,253979,2,0,L|164:204,1,121,10|0,1:2|0:0,0:0:0:0:
340,212,254279,2,0,L|220:252,1,121,10|0,1:2|0:0,0:0:0:0:
56,272,254579,2,0,P|24:172|28:16,1,242,10|0,1:2|0:0,0:0:0:0:
320,112,255179,6,0,L|232:144,1,60.5,14|2,1:2|0:0,0:0:0:0:
96,144,255379,1,2,0:0:0:0:
384,144,255579,1,10,1:2:0:0:
216,144,255679,2,0,L|304:176,1,60.5,10|2,1:2|0:0,0:0:0:0:
440,176,255879,1,8,1:2:0:0:
272,184,255979,2,0,L|336:184,1,60.5,10|0,1:2|0:0,0:0:0:0:
496,184,256179,2,0,L|496:264,1,60.5,10|0,1:2|0:0,0:0:0:0:
328,248,256379,5,8,1:2:0:0:
146,256,256579,2,0,L|210:248,1,60.5,2|2,0:0|0:0,0:0:0:0:
378,248,256779,1,10,1:2:0:0:
90,248,256979,2,0,L|162:248,1,60.5,2|2,0:0|0:0,0:0:0:0:
322,248,257179,1,10,1:2:0:0:
34,240,257379,1,2,0:0:0:0:
210,240,257479,1,8,1:2:0:0:
386,240,257579,2,0,L|296:240,1,60.5,2|0,0:0|0:0,0:0:0:0:
152,232,257779,2,0,L|232:232,1,60.5,10|0,1:2|0:0,0:0:0:0:
384,232,257979,5,12,1:2:0:0:
105,232,258179,1,10,1:2:0:0:
383,240,258379,1,10,1:2:0:0:
412,244,258429,1,0,0:0:0:0:
440,236,258479,1,2,0:0:0:0:
468,220,258529,1,0,0:0:0:0:
484,196,258579,1,2,0:0:0:0:
492,168,258629,1,0,0:0:0:0:
484,140,258679,1,0,0:0:0:0:
472,112,258729,1,0,0:0:0:0:
356,320,258779,5,14,1:2:0:0:
284,320,258879,1,2,0:0:0:0:
120,296,258979,1,10,1:2:0:0:
68,296,259045,1,8,1:2:0:0:
16,300,259112,1,8,1:2:0:0:
168,288,259179,2,0,L|236:284,1,60.5,10|0,1:2|0:0,0:0:0:0:
44,280,259379,1,2,0:0:0:0:
21,263,259429,1,0,0:0:0:0:
20,234,259479,1,0,0:0:0:0:
43,216,259529,1,0,0:0:0:0:
160,208,259579,5,10,1:2:0:0:
324,220,259779,2,0,L|360:204,1,30.25,2|0,0:0|0:0,0:0:0:0:
496,200,259979,2,0,L|444:192,1,30.25,2|0,0:0|0:0,0:0:0:0:
248,196,260179,1,10,1:2:0:0:
212,196,260229,1,8,1:2:0:0:
96,192,260279,1,8,1:2:0:0:
60,192,260329,1,8,1:2:0:0:
176,188,260379,2,0,L|328:184,1,121,14|0,1:2|0:0,0:0:0:0:
462,192,260679,2,0,P|480:244|436:296,1,121,14|0,1:2|0:0,0:0:0:0:
382,168,260979,1,0,0:0:0:0:
322,168,261079,1,0,0:0:0:0:
150,164,261179,5,12,1:2:0:0:
318,176,261279,2,0,L|262:204,1,60.5,8|2,1:2|0:0,0:0:0:0:
94,232,261479,1,8,1:2:0:0:
262,220,261579,2,0,L|222:288,1,60.5,10|2,1:2|0:0,0:0:0:0:
62,280,261779,1,10,1:2:0:0:
350,288,261979,2,0,L|286:336,1,60.5,10|2,1:2|0:0,0:0:0:0:
134,336,262179,1,2,0:0:0:0:
422,328,262379,2,0,L|350:336,1,60.5,10|0,1:2|0:0,0:0:0:0:
190,336,262579,2,0,L|118:344,1,60.5,10|0,1:2|0:0,0:0:0:0:
302,344,262779,5,8,1:2:0:0:
120,340,262979,2,0,L|184:308,1,60.5,2|2,0:0|0:0,0:0:0:0:
344,308,263179,1,10,1:2:0:0:
53,303,263379,1,2,0:0:0:0:
217,295,263479,1,10,1:2:0:0:
53,287,263579,1,10,1:2:0:0:
344,308,263779,1,2,0:0:0:0:
180,300,263879,1,8,1:2:0:0:
344,300,263979,2,0,L|344:236,1,60.5,2|0,0:0|0:0,0:0:0:0:
176,244,264179,6,0,P|102:159|194:83,1,242,14|0,1:2|0:0,0:0:0:0:
360,72,264779,2,0,L|280:88,1,60.5,14|2,1:2|0:0,0:0:0:0:
136,104,264979,1,2,0:0:0:0:
424,104,265179,2,0,L|360:144,1,60.5,10|2,1:2|0:0,0:0:0:0:
200,144,265379,1,2,0:0:0:0:
488,144,265579,2,0,L|464:200,1,60.5,10|0,1:2|0:0,0:0:0:0:
288,200,265779,2,0,L|272:264,1,60.5,10|0,1:2|0:0,0:0:0:0:
96,272,265979,6,0,L|232:288,1,121,0|0,1:2|0:0,0:0:0:0:
326,286,266279,2,0,L|206:286,1,121,2|0,0:0|0:0,0:0:0:0:
96,279,266579,2,0,L|184:247,1,60.5,2|0,0:0|0:0,0:0:0:0:
261,249,266779,2,0,L|117:225,1,121,2|0,0:0|0:0,0:0:0:0:
250,224,267079,2,0,L|106:200,1,121,2|0,0:0|0:0,0:0:0:0:
239,199,267379,2,0,L|315:191,1,60.5,2|0,0:0|0:0,0:0:0:0:
127,191,267579,6,0,P|80:136|128:86,1,121,12|2,1:2|0:0,0:0:0:0:
280,172,267979,2,0,L|200:184,1,60.5,10|2,1:2|0:0,0:0:0:0:
44,176,268179,1,2,0:0:0:0:
348,168,268379,2,0,L|316:232,1,60.5,10|2,1:2|0:0,0:0:0:0:
140,224,268579,1,2,0:0:0:0:
324,240,268679,1,8,1:2:0:0:
156,248,268779,2,0,L|84:264,1,60.5,10|0,1:2|0:0,0:0:0:0:
276,256,268979,2,0,L|348:272,1,60.5,10|0,1:2|0:0,0:0:0:0:
156,272,269179,6,0,L|180:208,1,60.5,8|0,1:2|0:0,0:0:0:0:
348,216,269379,2,0,L|300:176,1,60.5,2|0,0:0|0:0,0:0:0:0:
124,176,269579,2,0,L|148:120,1,60.5,10|0,1:2|0:0,0:0:0:0:
308,112,269779,1,2,0:0:0:0:
468,112,269879,1,8,1:2:0:0:
300,104,269979,2,0,L|160:144,1,121,10|8,1:2|1:2,0:0:0:0:
476,180,270379,2,0,L|472:248,1,60.5,8|0,1:2|0:0,0:0:0:0:
300,232,270579,1,10,1:2:0:0:
364,236,270679,1,0,0:0:0:0:
188,208,270779,5,12,1:2:0:0:
132,200,270879,1,0,0:0:0:0:
124,144,270979,1,10,1:2:0:0:
180,120,271079,1,0,0:0:0:0:
356,120,271179,2,0,L|428:88,1,60.5,10|2,1:2|0:0,0:0:0:0:
236,96,271379,1,10,1:2:0:0:
184,96,271445,1,8,1:2:0:0:
236,96,271512,1,8,1:2:0:0:
392,96,271579,5,14,1:2:0:0:
212,88,271679,1,10,1:2:0:0:
32,88,271779,1,10,1:2:0:0:
212,88,271879,1,8,1:2:0:0:
404,84,271979,2,0,L|488:80,1,60.5,10|0,1:2|0:0,0:0:0:0:
268,76,272179,2,0,L|336:68,1,60.5,10|0,1:2|0:0,0:0:0:0:
96,0,272379,6,0,P|19:273|328:407,1,665.5,12|0,1:2|0:0,0:0:0:0:
496,380,273579,6,0,B|496:21|496:21|127:21,1,726.000027694703,8|14,0:0|0:0,0:0:0:0:
256,192,274179,12,2,277179,0:0:0:0:
56,104,277779,6,0,P|112:256|464:288,1,544.5,2|0,0:0|0:0,0:0:0:0:
352,296,278779,5,2,0:0:0:0:
352,296,279379,1,2,0:0:0:0:
232,304,279579,2,0,P|72:144|192:48,1,423.5,2|0,0:0|0:0,0:0:0:0:
272,48,280379,5,2,0:0:0:0:
272,48,280979,2,0,P|347:185|192:64,1,544.5,2|0,0:0|0:0,0:0:0:0:
268,64,281979,5,2,0:0:0:0:
268,64,282579,1,2,0:0:0:0:
388,56,282779,2,0,P|444:192|224:216,1,423.5,2|0,0:0|0:0,0:0:0:0:
328,220,283579,5,2,0:0:0:0:
324,220,284179,1,2,0:0:0:0:
112,220,284579,1,2,0:0:0:0:
228,220,284806,1,2,0:0:0:0:
348,224,285042,1,2,0:0:0:0:
240,220,285278,5,2,0:0:0:0:
100,224,285545,1,2,0:0:0:0:
192,224,285775,1,2,0:0:0:0:
315,223,286075,1,2,0:0:0:0:
216,225,286369,1,2,0:0:0:0:
135,223,286730,1,2,0:0:0:0:
488,228,287275,5,2,0:0:0:0:
256,192,287548,12,0,291093,0:0:0:0:
