osu file format v14

[General]
AudioFilename: ryuseigun.mp3
AudioLeadIn: 0
PreviewTime: 22137
Countdown: 0
SampleSet: Normal
StackLeniency: 0.2
Mode: 0
LetterboxInBreaks: 0
WidescreenStoryboard: 1

[Editor]
Bookmarks: 22137,44080,66023,89337,134595,157909,179852,225109,247052
DistanceSpacing: 2.7
BeatDivisor: 4
GridSize: 8
TimelineZoom: 4.499999

[Metadata]
Title:Ryuuseigun
TitleUnicode:流星群
Artist:Camellia
ArtistUnicode:かめりあ
Creator:ak74
Version:Perseids
Source:osu!
Tags:mappers' guild mpg TtmnZk featured artist fa vocaloid hatsune miku 初音ミク cametak kamelcamellia meteor shower dnb drum and bass Celine taku VoiceCore electronic japanese
BeatmapID:3087146
BeatmapSetID:1188437

[Difficulty]
HPDrainRate:5
CircleSize:4.6
OverallDifficulty:8.5
ApproachRate:9.6
SliderMultiplier:2
SliderTickRate:1

[Events]
//Background and Video events
0,0,"ryuseigun.jpg",0,0
Video,-448,"ryuuseigun.mp4"
//Break Periods
2,203708,213572
//Storyboard Layer 0 (Background)
//Storyboard Layer 1 (Fail)
//Storyboard Layer 2 (Pass)
//Storyboard Layer 3 (Foreground)
//Storyboard Layer 4 (Overlay)
//Storyboard Sound Samples

[TimingPoints]
195,342.857142857143,4,2,2,60,1,0
195,-333.333333333333,4,2,2,60,0,0
15452,-125,4,1,2,60,0,0
15709,-74.0740740740741,4,1,2,60,0,0
15966,-100,4,1,2,60,0,0
16223,-100,4,1,2,5,0,0
16309,-333.333333333333,4,1,2,60,0,0
16395,-333.333333333333,4,1,2,5,0,0
16480,-58.8235294117647,4,1,2,60,0,0
16566,-50,4,1,2,5,0,0
16652,-100,4,2,5,60,0,0
19395,-100,4,2,5,61,0,0
19566,-100,4,2,5,63,0,0
19737,-100,4,2,5,66,0,0
19909,-100,4,2,5,70,0,0
20080,-100,4,2,5,75,0,0
20252,-100,4,2,5,81,0,0
20423,-100,4,2,5,88,0,0
20595,-100,4,2,5,97,0,0
20766,-66.6666666666667,4,3,2,60,0,0
20823,-66.6666666666667,4,3,2,62,0,0
20880,-66.6666666666667,4,3,2,64,0,0
20937,-66.6666666666667,4,3,2,66,0,0
20995,-66.6666666666667,4,3,2,68,0,0
21052,-66.6666666666667,4,3,2,70,0,0
21109,-83.3333333333333,4,3,2,72,0,0
21152,-83.3333333333333,4,3,2,36,0,0
21195,-83.3333333333333,4,3,2,74,0,0
21237,-83.3333333333333,4,3,2,37,0,0
21280,-66.6666666666667,4,3,2,80,0,0
21337,-66.6666666666667,4,3,2,83,0,0
21395,-66.6666666666667,4,3,2,86,0,0
21452,-41.6666666666667,4,3,2,90,0,0
22052,-41.6666666666667,4,3,2,5,0,0
22137,-66.6666666666667,4,1,2,80,0,0
22309,-66.6666666666667,4,1,2,40,0,0
22395,-57.1428571428571,4,1,2,80,0,0
22566,-57.1428571428571,4,1,2,40,0,0
22652,-66.6666666666667,4,1,2,80,0,0
22737,-57.1428571428571,4,1,2,40,0,0
22823,-57.1428571428571,4,1,2,80,0,0
23080,-57.1428571428571,4,1,2,40,0,0
23166,-100,4,1,2,80,0,0
23252,-100,4,1,2,40,0,0
23337,-100,4,1,2,80,0,0
23680,-100,4,1,2,70,0,0
24023,-100,4,1,2,60,0,0
24195,-200,4,2,2,60,0,0
24237,-200,4,2,2,30,0,0
24280,-200,4,2,2,65,0,0
24323,-200,4,2,2,32,0,0
24366,-200,4,2,2,70,0,0
24409,-200,4,2,2,35,0,0
24452,-200,4,2,2,75,0,0
24537,-100,4,2,2,80,0,0
24580,-100,4,2,2,40,0,0
24623,-100,4,2,2,85,0,0
24666,-100,4,2,2,42,0,0
24709,-100,4,2,2,90,0,0
24752,-100,4,2,2,45,0,0
24795,-100,4,2,2,95,0,0
24837,-100,4,2,2,47,0,0
24880,-52.6315789473684,4,2,2,100,0,0
25309,-52.6315789473684,4,1,2,5,0,0
25395,-125,4,1,2,80,0,0
25480,-125,4,1,2,40,0,0
25566,-200,4,1,2,80,0,0
25609,-200,4,1,2,40,0,0
25652,-200,4,1,2,80,0,0
25695,-200,4,1,2,40,0,0
25737,-200,4,1,2,80,0,0
25952,-200,4,1,2,40,0,0
25995,-200,4,1,2,80,0,0
26037,-200,4,1,2,40,0,0
26080,-200,4,1,2,80,0,0
26252,-333.333333333333,4,1,2,80,0,0
26337,-333.333333333333,4,1,2,40,0,0
26423,-333.333333333333,4,1,2,80,0,0
26509,-333.333333333333,4,1,2,40,0,0
26595,-55.5555555555556,4,1,2,80,0,0
26937,-100,4,1,2,80,0,0
27109,-66.6666666666667,4,1,2,80,0,0
27195,-66.6666666666667,4,1,2,40,0,0
27280,-66.6666666666667,4,1,2,80,0,0
27366,-66.6666666666667,4,1,2,40,0,0
27452,-83.3333333333333,4,1,2,80,0,0
27623,-55.5555555555556,4,1,2,80,0,0
27752,-55.5555555555556,4,1,2,5,0,0
27795,-250,4,1,2,80,0,0
27880,-250,4,1,2,40,0,0
27966,-55.5555555555556,4,1,2,80,0,0
28095,-55.5555555555556,4,1,2,5,0,0
28137,-250,4,1,2,80,0,0
28223,-250,4,1,2,40,0,0
28309,-250,4,1,2,80,0,0
28652,-100,4,1,2,80,0,0
28909,-100,4,1,2,40,0,0
28995,-133.333333333333,4,1,2,80,0,0
29337,-50,4,1,2,80,0,0
29595,-50,4,1,2,40,0,0
29680,-36.3636363636364,4,1,2,80,0,0
30280,-36.3636363636364,4,1,2,40,0,0
30366,-100,4,1,2,80,0,0
30537,-33.8983050847458,4,1,2,80,0,0
30795,-33.8983050847458,4,1,2,40,0,0
30880,-100,4,1,2,80,0,0
31223,-133.333333333333,4,1,2,80,0,0
31309,-133.333333333333,4,1,2,40,0,0
31395,-66.6666666666667,4,1,2,80,0,0
31480,-66.6666666666667,4,1,2,40,0,0
31566,-66.6666666666667,4,1,2,80,0,0
31652,-66.6666666666667,4,1,2,40,0,0
31737,-133.333333333333,4,1,2,80,0,0
32252,-200,4,1,2,80,0,0
32295,-200,4,1,2,40,0,0
32337,-200,4,1,2,80,0,0
32380,-200,4,1,2,40,0,0
32423,-83.3333333333333,4,1,2,80,0,0
32466,-83.3333333333333,4,1,2,40,0,0
32509,-83.3333333333333,4,1,2,80,0,0
32552,-83.3333333333333,4,1,2,40,0,0
32595,-50,4,1,2,80,0,0
32680,-50,4,1,2,40,0,0
32766,-45.4545454545455,4,1,2,80,0,0
33023,-45.4545454545455,4,1,2,40,0,0
33109,-57.1428571428571,4,1,2,80,0,0
33566,-100,4,1,2,80,0,0
33680,-100,4,1,2,40,0,0
33795,-57.1428571428571,4,1,2,80,0,0
34052,-57.1428571428571,4,1,2,40,0,0
34137,-100,4,1,2,80,0,0
34223,-100,4,1,2,40,0,0
34309,-100,4,1,2,80,0,0
34652,-100,4,1,2,70,0,0
34995,-100,4,1,2,60,0,0
35166,-200,4,2,2,60,0,0
35208,-200,4,2,2,30,0,0
35251,-200,4,2,2,65,0,0
35294,-200,4,2,2,32,0,0
35337,-200,4,2,2,70,0,0
35380,-200,4,2,2,35,0,0
35423,-200,4,2,2,75,0,0
35508,-100,4,2,2,80,0,0
35551,-100,4,2,2,40,0,0
35594,-100,4,2,2,85,0,0
35637,-100,4,2,2,42,0,0
35680,-100,4,2,2,90,0,0
35723,-100,4,2,2,45,0,0
35766,-100,4,2,2,95,0,0
35809,-100,4,2,2,47,0,0
35852,-52.6315789473684,4,1,2,100,0,0
36280,-52.6315789473684,4,1,2,5,0,0
36366,-125,4,1,2,80,0,0
36880,-100,4,1,2,80,0,0
36966,-100,4,1,2,40,0,0
37052,-100,4,1,2,80,0,0
37395,-66.6666666666667,4,1,2,80,0,0
37480,-66.6666666666667,4,1,2,40,0,0
37566,-66.6666666666667,4,1,2,80,0,0
37652,-66.6666666666667,4,1,2,40,0,0
37737,-250,4,1,2,80,0,0
37823,-250,4,1,2,40,0,0
37909,-40,4,1,2,80,0,0
38423,-100,4,1,2,80,0,0
38509,-100,4,1,2,40,0,0
38595,-100,4,1,2,80,0,0
39452,-50,4,1,2,80,0,0
39966,-66.6666666666667,4,1,2,80,0,0
40652,-200,4,1,2,80,0,0
40695,-200,4,1,2,40,0,0
40737,-142.857142857143,4,1,2,80,0,0
40780,-142.857142857143,4,1,2,40,0,0
40823,-111.111111111111,4,1,2,80,0,0
40866,-111.111111111111,4,1,2,40,0,0
40909,-90.9090909090909,4,1,2,80,0,0
40952,-90.9090909090909,4,1,2,40,0,0
40995,-100,4,1,2,80,0,0
41080,-100,4,1,2,40,0,0
41166,-100,4,1,2,80,0,0
41252,-100,4,1,2,40,0,0
41337,-35.7142857142857,4,1,2,80,0,0
41766,-35.7142857142857,4,1,2,40,0,0
41852,-100,4,1,2,80,0,0
42023,-66.6666666666667,4,1,2,80,0,0
42366,-80,4,1,2,80,0,0
42709,-41.6666666666667,4,1,2,80,0,0
42966,-41.6666666666667,4,1,2,40,0,0
43052,-100,4,1,2,80,0,0
43137,-100,4,1,2,40,0,0
43223,-32.7868852459016,4,1,2,80,0,0
43652,-32.7868852459016,4,1,2,40,0,0
43737,-68.9655172413793,4,1,2,80,0,0
43823,-68.9655172413793,4,1,2,40,0,0
43909,-68.9655172413793,4,1,2,80,0,0
43995,-68.9655172413793,4,1,2,40,0,0
44080,-50,4,1,2,60,0,0
44595,-66.6666666666667,4,1,2,60,0,0
44680,-66.6666666666667,4,1,2,30,0,0
44766,-57.1428571428571,4,1,2,60,0,0
44880,-57.1428571428571,4,1,2,30,0,0
44995,-57.1428571428571,4,1,2,60,0,0
45109,-57.1428571428571,4,1,2,30,0,0
45223,-57.1428571428571,4,1,2,60,0,0
45337,-57.1428571428571,4,1,2,30,0,0
45452,-57.1428571428571,4,1,2,60,0,0
45566,-57.1428571428571,4,1,2,30,0,0
45680,-50,4,1,2,60,0,0
45795,-50,4,1,2,30,0,0
45909,-44.4444444444445,4,1,2,60,0,0
46023,-44.4444444444445,4,1,2,30,0,0
46137,-200,4,2,2,60,0,0
46179,-200,4,2,2,30,0,0
46222,-200,4,2,2,65,0,0
46265,-200,4,2,2,32,0,0
46308,-200,4,2,2,70,0,0
46351,-200,4,2,2,35,0,0
46394,-200,4,2,2,75,0,0
46437,-200,4,2,2,37,0,0
46479,-66.6666666666667,4,2,2,80,0,0
46522,-66.6666666666667,4,2,2,40,0,0
46565,-66.6666666666667,4,2,2,85,0,0
46608,-66.6666666666667,4,2,2,42,0,0
46651,-66.6666666666667,4,2,2,90,0,0
46694,-66.6666666666667,4,2,2,45,0,0
46737,-66.6666666666667,4,2,2,95,0,0
46780,-66.6666666666667,4,2,2,47,0,0
46823,-45.4545454545455,4,1,2,60,0,0
47252,-45.4545454545455,4,1,2,30,0,0
47337,-58.8235294117647,4,1,2,60,0,0
47423,-58.8235294117647,4,1,2,30,0,0
47509,-41.6666666666667,4,1,2,60,0,0
48195,-58.8235294117647,4,1,2,60,0,0
48280,-58.8235294117647,4,1,2,30,0,0
48366,-58.8235294117647,4,1,2,60,0,0
48452,-58.8235294117647,4,1,2,30,0,0
48537,-66.6666666666667,4,1,2,60,0,0
48623,-66.6666666666667,4,1,2,30,0,0
48709,-66.6666666666667,4,1,2,60,0,0
48795,-66.6666666666667,4,1,2,30,0,0
48880,-52.6315789473684,4,1,2,60,0,0
48966,-52.6315789473684,4,1,2,30,0,0
49052,-52.6315789473684,4,1,2,60,0,0
49137,-52.6315789473684,4,1,2,30,0,0
49223,-50,4,1,2,60,0,0
49280,-50,4,1,2,30,0,0
49337,-50,4,1,2,60,0,0
49395,-50,4,1,2,30,0,0
49452,-50,4,1,2,60,0,0
49509,-50,4,1,2,30,0,0
49566,-66.6666666666667,4,1,2,60,0,0
49652,-66.6666666666667,4,1,2,30,0,0
49737,-66.6666666666667,4,1,2,60,0,0
49823,-66.6666666666667,4,1,2,30,0,0
49909,-47.6190476190476,4,1,2,60,0,0
50166,-47.6190476190476,4,1,2,30,0,0
50252,-100,4,1,2,60,0,0
50337,-100,4,1,2,30,0,0
50423,-100,4,1,2,60,0,0
50595,-44.4444444444445,4,1,2,60,0,0
51623,-55.5555555555556,4,1,2,60,0,0
51709,-55.5555555555556,4,1,2,30,0,0
51795,-55.5555555555556,4,1,2,60,0,0
51880,-55.5555555555556,4,1,2,30,0,0
51966,-55.5555555555556,4,1,2,60,0,0
52052,-55.5555555555556,4,1,2,30,0,0
52137,-55.5555555555556,4,1,2,60,0,0
52223,-55.5555555555556,4,1,2,30,0,0
52309,-40.650406504065,4,1,2,60,0,0
52995,-55.5555555555556,4,1,2,60,0,0
53680,-55.5555555555556,4,1,2,60,0,0
53766,-55.5555555555556,4,1,2,30,0,0
53852,-55.5555555555556,4,1,2,60,0,0
53937,-55.5555555555556,4,1,2,30,0,0
54023,-55.5555555555556,4,1,2,60,0,0
54109,-55.5555555555556,4,1,2,30,0,0
54195,-55.5555555555556,4,1,2,60,0,0
54280,-55.5555555555556,4,1,2,30,0,0
54366,-125,4,1,2,60,0,0
54423,-125,4,1,2,30,0,0
54480,-125,4,1,2,60,0,0
54537,-125,4,1,2,30,0,0
54595,-125,4,1,2,60,0,0
54652,-125,4,1,2,30,0,0
54709,-76.9230769230769,4,1,2,60,0,0
54766,-76.9230769230769,4,1,2,30,0,0
54823,-76.9230769230769,4,1,2,60,0,0
54880,-76.9230769230769,4,1,2,30,0,0
54937,-76.9230769230769,4,1,2,60,0,0
54995,-76.9230769230769,4,1,2,30,0,0
55052,-50,4,1,2,60,0,0
55223,-50,4,1,2,30,0,0
55280,-50,4,1,2,60,0,0
55452,-50,4,1,2,30,0,0
55509,-100,4,1,2,60,0,0
55623,-100,4,1,2,30,0,0
55737,-57.1428571428571,4,1,2,60,0,0
55852,-57.1428571428571,4,1,2,30,0,0
55966,-57.1428571428571,4,1,2,60,0,0
56080,-57.1428571428571,4,1,2,30,0,0
56195,-57.1428571428571,4,1,2,60,0,0
56309,-57.1428571428571,4,1,2,30,0,0
56423,-45.4545454545455,4,1,2,60,0,0
56680,-45.4545454545455,4,1,2,30,0,0
56766,-100,4,2,2,50,0,0
57109,-100,4,2,2,60,0,0
57151,-100,4,2,2,30,0,0
57194,-100,4,2,2,65,0,0
57237,-100,4,2,2,32,0,0
57280,-100,4,2,2,70,0,0
57323,-100,4,2,2,35,0,0
57366,-100,4,2,2,75,0,0
57409,-100,4,2,2,37,0,0
57451,-100,4,2,2,80,0,0
57494,-100,4,2,2,40,0,0
57537,-100,4,2,2,85,0,0
57580,-100,4,2,2,42,0,0
57623,-100,4,2,2,90,0,0
57666,-100,4,2,2,45,0,0
57709,-100,4,2,2,95,0,0
57752,-100,4,2,2,47,0,0
57795,-38.4615384615385,4,1,2,60,0,0
58480,-66.6666666666667,4,1,2,60,0,0
58652,-66.6666666666667,4,1,2,30,0,0
58737,-66.6666666666667,4,1,2,60,0,0
58909,-66.6666666666667,4,1,2,30,0,0
58995,-66.6666666666667,4,1,2,60,0,0
59080,-166.666666666667,4,1,2,60,0,0
59337,-50,4,1,2,60,0,0
59595,-50,4,1,2,30,0,0
59680,-50,4,1,2,60,0,0
59852,-43.4782608695652,4,1,2,60,0,0
60366,-43.4782608695652,4,1,2,30,0,0
60537,-50,4,1,2,60,0,0
60709,-50,4,1,2,30,0,0
60795,-50,4,1,2,60,0,0
60966,-50,4,1,2,30,0,0
61052,-66.6666666666667,4,1,2,60,0,0
61137,-66.6666666666667,4,1,2,30,0,0
61223,-400,4,1,2,60,0,0
61480,-400,4,1,2,30,0,0
61566,-41.6666666666667,4,1,2,60,0,0
62252,-200,4,1,2,60,0,0
62295,-200,4,1,2,30,0,0
62337,-200,4,1,2,60,0,0
62380,-200,4,1,2,30,0,0
62423,-200,4,1,2,60,0,0
62466,-200,4,1,2,30,0,0
62509,-200,4,1,2,60,0,0
62552,-200,4,1,2,30,0,0
62595,-100,4,1,2,60,0,0
62680,-100,4,1,2,30,0,0
62766,-45.4545454545455,4,1,2,60,0,0
63280,-100,4,1,2,60,0,0
63366,-100,4,1,2,30,0,0
63452,-30.03003003003,4,1,2,60,0,0
63966,-66.6666666666667,4,1,2,60,0,0
64052,-66.6666666666667,4,1,2,30,0,0
64137,-100,4,1,2,60,0,0
64223,-100,4,1,2,30,0,0
64309,-66.6666666666667,4,1,2,60,0,0
64395,-66.6666666666667,4,1,2,30,0,0
64480,-100,4,1,2,60,0,0
64566,-100,4,1,2,30,0,0
64652,-133.333333333333,4,1,2,60,0,0
64737,-133.333333333333,4,1,2,30,0,0
64823,-133.333333333333,4,1,2,60,0,0
65680,-100,4,1,2,60,0,0
65766,-100,4,1,2,30,0,0
65852,-100,4,1,2,60,0,0
65937,-100,4,1,2,30,0,0
66023,-333.333333333333,4,2,10,50,0,0
66880,-333.333333333333,4,2,14,50,0,0
67395,-500,4,2,2,50,0,0
68766,-333.333333333333,4,2,11,50,0,0
69623,-333.333333333333,4,2,15,50,0,0
70137,-500,4,2,2,50,0,0
71509,-333.333333333333,4,2,12,50,0,0
71852,-333.333333333333,4,2,15,50,0,0
73566,-333.333333333333,4,2,10,50,0,0
74252,-142.857142857143,4,2,11,50,0,0
75109,-142.857142857143,4,2,15,50,0,0
75795,-200,4,1,2,65,0,0
76309,-45.4545454545455,4,1,2,65,0,0
76823,-100,4,1,2,65,0,0
76995,-50,4,1,2,65,0,0
77166,-50,4,1,2,32,0,0
77223,-50,4,1,2,65,0,0
77395,-50,4,1,2,32,0,0
77452,-100,4,1,2,65,0,0
77566,-100,4,1,2,32,0,0
77680,-100,4,1,2,65,0,0
77766,-100,4,1,2,32,0,0
77852,-80,4,1,2,65,0,0
78366,-66.6666666666667,4,1,2,65,0,0
78452,-66.6666666666667,4,1,2,32,0,0
78537,-80,4,1,2,65,0,0
78623,-80,4,1,2,32,0,0
78709,-100,4,1,2,65,0,0
78795,-100,4,1,2,32,0,0
78880,-133.333333333333,4,1,2,65,0,0
78966,-133.333333333333,4,1,2,32,0,0
79052,-71.4285714285714,4,1,2,65,0,0
79737,-41.6666666666667,4,1,2,65,0,0
80423,-100,4,1,2,65,0,0
80509,-100,4,1,2,32,0,0
80595,-66.6666666666667,4,1,2,65,0,0
81109,-100,4,1,2,65,0,0
81195,-100,4,1,2,32,0,0
81280,-100,4,1,2,65,0,0
81366,-100,4,1,2,32,0,0
81452,-100,4,1,2,65,0,0
81537,-100,4,1,2,32,0,0
81795,-125,4,1,2,65,0,0
81880,-125,4,1,2,32,0,0
81966,-125,4,1,2,65,0,0
82052,-125,4,1,2,32,0,0
82137,-58.8235294117647,4,1,2,65,0,0
82223,-58.8235294117647,4,1,2,32,0,0
82309,-58.8235294117647,4,1,2,65,0,0
82395,-58.8235294117647,4,1,2,32,0,0
82480,-45.4545454545455,4,1,2,65,0,0
83166,-100,4,1,2,65,0,0
83937,-100,4,1,2,32,0,0
84023,-80,4,1,2,65,0,0
84280,-80,4,1,2,32,0,0
84366,-200,4,1,2,65,0,0
85223,-133.333333333333,4,1,2,65,0,0
85309,-100,4,1,2,5,0,0
85395,-74.0740740740741,4,1,2,65,0,0
85566,-80,4,1,2,65,0,0
85737,-100,4,1,2,65,0,0
85852,-100,4,1,2,32,0,0
85909,-100,4,1,2,65,0,0
86080,-125,4,1,2,65,0,0
86166,-125,4,1,2,32,0,0
86252,-100,4,1,2,65,0,0
86337,-100,4,1,2,32,0,0
86423,-83.3333333333333,4,1,2,65,0,0
86509,-83.3333333333333,4,1,2,32,0,0
86595,-83.3333333333333,4,1,2,65,0,0
87966,-370.37037037037,4,1,2,65,0,0
88480,-370.37037037037,4,1,2,32,0,0
88652,-200,4,1,2,65,0,0
88952,-200,4,1,2,32,0,0
88995,-38.4615384615385,4,1,2,65,0,0
89252,-38.4615384615385,4,1,2,32,0,0
89337,-38.4615384615385,4,1,20,80,0,1
89595,-38.4615384615385,4,1,20,40,0,1
89680,-333.333333333333,4,1,2,80,0,1
89937,-333.333333333333,4,1,2,40,0,1
90023,-333.333333333333,4,1,2,60,0,1
90366,-100,4,1,2,80,0,1
90452,-100,4,1,2,40,0,1
90537,-41.6666666666667,4,1,21,80,0,1
91052,-55.5555555555556,4,1,2,80,0,1
91137,-55.5555555555556,4,1,2,40,0,1
91223,-100,4,1,2,80,0,1
91566,-50,4,1,2,80,0,1
91652,-50,4,1,2,40,0,1
91737,-50,4,1,2,80,0,1
91909,-50,4,1,2,40,0,1
91995,-200,4,1,2,80,0,1
92037,-200,4,1,2,40,0,1
92080,-38.4615384615385,4,1,22,80,0,1
92337,-38.4615384615385,4,1,22,40,0,1
92423,-83.3333333333333,4,1,2,80,0,1
92509,-83.3333333333333,4,1,2,40,0,1
92595,-83.3333333333333,4,1,2,80,0,1
92680,-83.3333333333333,4,1,2,40,0,1
92766,-83.3333333333333,4,1,2,80,0,1
93109,-66.6666666666667,4,1,2,80,0,1
93195,-66.6666666666667,4,1,2,40,0,1
93280,-100,4,1,2,80,0,1
93366,-100,4,1,2,40,0,1
93452,-57.1428571428571,4,1,2,80,0,1
93795,-100,4,1,2,80,0,1
94223,-100,4,1,2,40,0,1
94309,-80,4,1,2,80,0,1
94395,-80,4,1,2,40,0,1
94480,-55.5555555555556,4,1,2,80,0,1
94737,-55.5555555555556,4,1,2,40,0,1
94823,-142.857142857143,4,1,2,80,0,1
95080,-142.857142857143,4,1,2,40,0,1
95166,-37.037037037037,4,1,23,80,0,1
95423,-37.037037037037,4,1,23,40,0,1
95509,-37.037037037037,4,1,2,80,0,1
95852,-100,4,1,2,80,0,1
95937,-100,4,1,2,40,0,1
96023,-40,4,1,2,80,0,1
96280,-40,4,1,2,40,0,1
96366,-40,4,1,2,80,0,1
96537,-50,4,1,2,80,0,1
96880,-100,4,1,2,80,0,1
96966,-100,4,1,2,40,0,1
97052,-80,4,1,2,80,0,1
97137,-80,4,1,2,40,0,1
97223,-133.333333333333,4,1,2,80,0,1
97309,-133.333333333333,4,1,2,40,0,1
97395,-66.6666666666667,4,1,2,80,0,1
97480,-66.6666666666667,4,1,2,40,0,1
97566,-40,4,1,24,80,0,1
98166,-100,4,1,2,80,0,1
98680,-100,4,1,2,40,0,1
98766,-38.4615384615385,4,1,21,80,0,1
99023,-38.4615384615385,4,1,21,40,0,1
99109,-45.4545454545455,4,1,2,80,0,1
99366,-50,4,1,2,80,0,1
99709,-50,4,1,2,40,0,1
99795,-50,4,1,2,80,0,1
99880,-50,4,1,2,40,0,1
99966,-50,4,1,2,80,0,1
100223,-50,4,1,2,40,0,1
100309,-38.4615384615385,4,1,20,80,0,1
100566,-38.4615384615385,4,1,20,40,0,1
100652,-333.333333333333,4,1,2,80,0,1
100909,-333.333333333333,4,1,2,40,0,1
100995,-333.333333333333,4,1,2,80,0,1
101337,-100,4,1,2,80,0,1
101509,-41.6666666666667,4,1,21,80,0,1
102023,-55.5555555555556,4,1,2,80,0,1
102109,-55.5555555555556,4,1,2,40,0,1
102195,-100,4,1,2,80,0,1
102537,-50,4,1,2,80,0,1
102623,-50,4,1,2,40,0,1
102709,-50,4,1,2,80,0,1
102966,-200,4,1,2,80,0,1
103009,-200,4,1,2,40,0,1
103052,-38.4615384615385,4,1,22,80,0,1
103395,-83.3333333333333,4,1,2,80,0,1
103480,-83.3333333333333,4,1,2,40,0,1
103566,-83.3333333333333,4,1,2,80,0,1
103652,-83.3333333333333,4,1,2,40,0,1
103737,-83.3333333333333,4,1,2,80,0,1
104080,-66.6666666666667,4,1,2,80,0,1
104166,-66.6666666666667,4,1,2,40,0,1
104252,-100,4,1,2,80,0,1
104337,-100,4,1,2,40,0,1
104423,-57.1428571428571,4,1,2,80,0,1
104680,-57.1428571428571,4,1,2,40,0,1
104766,-100,4,1,2,80,0,1
105195,-100,4,1,2,40,0,1
105280,-80,4,1,2,80,0,1
105366,-80,4,1,2,40,0,1
105452,-55.5555555555556,4,1,2,80,0,1
105709,-55.5555555555556,4,1,2,40,0,1
105795,-142.857142857143,4,1,2,80,0,1
106052,-142.857142857143,4,1,2,40,0,1
106137,-37.037037037037,4,1,23,80,0,1
106395,-37.037037037037,4,1,23,40,0,1
106480,-37.037037037037,4,1,2,80,0,1
106823,-100,4,1,2,80,0,1
106909,-100,4,1,2,40,0,1
106995,-40,4,1,2,80,0,1
107509,-50,4,1,2,80,0,1
107852,-100,4,1,2,80,0,1
107937,-100,4,1,2,40,0,1
108023,-66.6666666666667,4,1,2,80,0,1
108109,-66.6666666666667,4,1,2,40,0,1
108195,-100,4,1,2,80,0,1
108280,-100,4,1,2,40,0,1
108366,-55.5555555555556,4,1,2,80,0,1
108452,-55.5555555555556,4,1,2,40,0,1
108537,-40,4,1,24,80,0,1
109052,-40,4,1,2,80,0,1
109223,-100,4,1,2,80,0,1
109652,-100,4,1,2,40,0,1
109737,-40,4,1,21,80,0,1
109995,-40,4,1,21,40,0,1
110080,-45.4545454545455,4,1,2,80,0,1
110337,-50,4,1,2,80,0,1
110680,-50,4,1,2,40,0,1
110766,-50,4,1,2,80,0,1
110852,-50,4,1,2,40,0,1
110937,-50,4,1,2,80,0,0
111195,-50,4,1,2,40,0,0
111280,-38.4615384615385,4,1,20,80,0,1
111537,-38.4615384615385,4,1,20,40,0,1
111623,-333.333333333333,4,1,2,80,0,1
111880,-333.333333333333,4,1,2,40,0,1
111966,-333.333333333333,4,1,2,80,0,1
112309,-100,4,1,2,80,0,1
112395,-100,4,1,2,40,0,1
112480,-41.6666666666667,4,1,21,80,0,1
112995,-55.5555555555556,4,1,2,80,0,1
113080,-55.5555555555556,4,1,2,40,0,1
113166,-100,4,1,2,80,0,1
113509,-50,4,1,2,80,0,1
113595,-50,4,1,2,40,0,1
113680,-50,4,1,2,80,0,1
113937,-200,4,1,2,80,0,1
113980,-200,4,1,2,40,0,1
114023,-38.4615384615385,4,1,22,80,0,1
114280,-38.4615384615385,4,1,22,40,0,1
114366,-83.3333333333333,4,1,2,80,0,1
114452,-83.3333333333333,4,1,2,40,0,1
114537,-83.3333333333333,4,1,2,80,0,1
114623,-83.3333333333333,4,1,2,40,0,1
114709,-83.3333333333333,4,1,2,80,0,1
114966,-83.3333333333333,4,1,2,40,0,1
115052,-66.6666666666667,4,1,2,80,0,1
115137,-66.6666666666667,4,1,2,40,0,1
115223,-100,4,1,2,80,0,1
115309,-100,4,1,2,40,0,1
115395,-100,4,1,2,80,0,1
115480,-100,4,1,2,40,0,1
115566,-38.4615384615385,4,1,2,80,0,1
116423,-37.037037037037,4,1,2,80,0,1
116680,-37.037037037037,4,1,2,40,0,1
116766,-142.857142857143,4,1,2,80,0,1
117023,-142.857142857143,4,1,2,40,0,1
117109,-35.7142857142857,4,1,23,80,0,1
117366,-35.7142857142857,4,1,23,40,0,1
117452,-100,4,1,2,80,0,1
117709,-100,4,1,2,40,0,1
117795,-100,4,1,2,80,0,1
117880,-100,4,1,2,40,0,1
117966,-40,4,1,2,80,0,1
118223,-40,4,1,2,40,0,1
118309,-50,4,1,2,80,0,1
118823,-100,4,1,2,80,0,1
118909,-100,4,1,2,40,0,1
118995,-66.6666666666667,4,1,2,80,0,1
119080,-66.6666666666667,4,1,2,40,0,1
119166,-66.6666666666667,4,1,2,80,0,1
119252,-66.6666666666667,4,1,2,40,0,1
119337,-66.6666666666667,4,1,2,80,0,1
119423,-66.6666666666667,4,1,2,40,0,1
119509,-40,4,1,24,80,0,1
120023,-40,4,1,2,80,0,1
120537,-100,4,1,2,80,0,1
120623,-100,4,1,2,40,0,1
120709,-40,4,1,21,80,0,1
120966,-40,4,1,21,40,0,1
121052,-40,4,1,21,80,0,1
121223,-40,4,1,2,80,0,1
121309,-50,4,1,2,80,0,1
121652,-50,4,1,2,40,0,1
121737,-50,4,1,2,80,0,1
121823,-50,4,1,2,40,0,1
121909,-50,4,1,2,80,0,1
122166,-50,4,1,2,40,0,1
122252,-38.4615384615385,4,1,20,80,0,1
122509,-38.4615384615385,4,1,20,40,0,1
122595,-333.333333333333,4,1,2,80,0,1
122852,-333.333333333333,4,1,2,40,0,1
122937,-333.333333333333,4,1,2,80,0,1
123280,-100,4,1,2,80,0,1
123366,-100,4,1,2,40,0,1
123452,-41.6666666666667,4,1,21,80,0,1
123966,-55.5555555555556,4,1,2,80,0,1
124052,-55.5555555555556,4,1,2,40,0,1
124137,-100,4,1,2,80,0,1
124480,-50,4,1,2,80,0,1
124566,-50,4,1,2,40,0,1
124652,-50,4,1,2,80,0,1
124909,-200,4,1,2,80,0,1
124952,-200,4,1,2,40,0,1
124995,-35.7142857142857,4,1,22,80,0,1
125252,-35.7142857142857,4,1,22,40,0,1
125337,-66.6666666666667,4,1,2,80,0,1
125423,-66.6666666666667,4,1,2,40,0,1
125509,-66.6666666666667,4,1,2,80,0,1
125595,-66.6666666666667,4,1,2,40,0,1
125680,-66.6666666666667,4,1,2,80,0,1
125852,-83.3333333333333,4,1,2,80,0,1
125937,-83.3333333333333,4,1,2,40,0,1
126023,-66.6666666666667,4,1,2,80,0,1
126109,-66.6666666666667,4,1,2,40,0,1
126195,-58.8235294117647,4,1,2,80,0,1
126280,-58.8235294117647,4,1,2,40,0,1
126366,-58.8235294117647,4,1,2,80,0,1
126452,-58.8235294117647,4,1,2,40,0,1
126537,-38.4615384615385,4,1,2,80,0,1
127395,-37.037037037037,4,1,2,80,0,1
127652,-37.037037037037,4,1,2,40,0,1
127737,-100,4,1,2,80,0,1
127823,-100,4,1,2,40,0,1
127909,-100,4,1,2,80,0,1
127995,-100,4,1,2,40,0,1
128080,-37.7358490566038,4,1,25,80,0,1
128337,-37.7358490566038,4,1,25,40,0,1
128423,-37.7358490566038,4,1,2,80,0,1
128766,-50,4,1,2,80,0,1
128852,-50,4,1,2,40,0,1
128937,-100,4,1,2,80,0,1
129023,-100,4,1,2,40,0,1
129109,-66.6666666666667,4,1,2,80,0,1
129195,-66.6666666666667,4,1,2,40,0,1
129280,-50,4,1,2,80,0,1
129366,-50,4,1,2,40,0,1
129452,-50,4,1,2,80,0,1
129537,-50,4,1,2,40,0,1
129623,-50,4,1,2,80,0,1
129795,-100,4,1,2,80,0,1
129880,-100,4,1,2,40,0,1
129966,-100,4,1,2,80,0,1
130052,-100,4,1,2,40,0,1
130137,-100,4,1,2,80,0,1
130309,-100,4,1,2,80,0,1
130395,-100,4,1,2,81,0,1
130480,-100,4,1,2,82,0,1
130566,-100,4,1,2,83,0,1
130652,-100,4,1,2,84,0,1
130737,-100,4,1,2,85,0,1
130823,-100,4,1,2,86,0,1
130909,-100,4,1,2,87,0,1
130995,-100,4,1,2,88,0,1
131080,-100,4,1,2,89,0,1
131166,-100,4,1,2,90,0,1
131252,-100,4,1,2,91,0,1
131337,-100,4,1,2,92,0,1
131423,-100,4,1,2,93,0,1
131509,-100,4,1,2,94,0,1
131595,-100,4,1,2,95,0,1
131680,-100,4,1,2,96,0,1
131766,-100,4,1,2,97,0,1
131852,-100,4,1,2,98,0,1
132023,-100,4,1,2,99,0,1
132109,-100,4,1,2,99,0,1
132195,-100,4,1,2,99,0,1
132280,-100,4,1,2,99,0,1
132366,-100,4,1,2,99,0,1
132452,-100,4,1,2,99,0,1
132537,-100,4,1,2,99,0,1
132623,-100,4,1,2,100,0,1
132709,-100,4,1,2,100,0,1
132795,-100,4,1,2,100,0,1
132880,-100,4,1,2,100,0,1
132966,-100,4,1,2,100,0,1
133052,-100,4,1,2,100,0,1
133137,-100,4,1,2,100,0,1
133223,-333.333333333333,4,2,2,75,0,0
133823,-333.333333333333,4,2,2,5,0,0
133909,-30.7692307692308,4,2,2,90,0,0
134595,-45.4545454545455,4,3,2,65,0,0
135109,-66.6666666666667,4,3,2,65,0,0
135195,-66.6666666666667,4,3,2,32,0,0
135280,-40,4,3,2,65,0,0
135537,-40,4,3,2,32,0,0
135623,-50,4,3,2,65,0,0
135709,-50,4,3,2,32,0,0
135795,-50,4,3,2,65,0,0
135880,-50,4,3,2,32,0,0
135966,-40,4,3,2,65,0,0
136223,-40,4,3,2,32,0,0
136309,-50,4,3,2,65,0,0
136395,-50,4,3,2,32,0,0
136480,-66.6666666666667,4,3,2,65,0,0
136523,-66.6666666666667,4,3,2,32,0,0
136566,-100,4,3,2,65,0,0
136609,-100,4,3,2,32,0,0
136652,-35.7142857142857,4,3,2,65,0,0
136737,-35.7142857142857,4,3,2,32,0,0
136823,-40,4,3,2,65,0,0
136909,-40,4,3,2,32,0,0
136995,-35.7142857142857,4,3,2,65,0,0
137080,-35.7142857142857,4,3,2,32,0,0
137166,-40,4,3,2,65,0,0
137252,-40,4,3,2,32,0,0
137337,-35.7142857142857,4,3,2,65,0,0
138109,-35.7142857142857,4,3,2,32,0,0
138195,-40,4,3,2,65,0,0
138280,-40,4,3,2,32,0,0
138366,-35.7142857142857,4,3,2,65,0,0
138452,-35.7142857142857,4,3,2,32,0,0
138537,-40,4,3,2,65,0,0
138623,-40,4,3,2,32,0,0
138709,-32.258064516129,4,3,2,65,0,0
139223,-100,4,3,2,65,0,0
139266,-100,4,3,2,32,0,0
139309,-100,4,3,2,65,0,0
139352,-100,4,3,2,32,0,0
139395,-100,4,3,2,65,0,0
139480,-100,4,3,2,32,0,0
139566,-66.6666666666667,4,3,2,70,0,0
139652,-66.6666666666667,4,3,2,35,0,0
139737,-50,4,3,2,75,0,0
139823,-50,4,3,2,37,0,0
139909,-40,4,3,2,80,0,0
139995,-40,4,3,2,40,0,0
140080,-35.7142857142857,4,3,2,65,0,0
140423,-32.258064516129,4,3,2,65,0,0
140723,-32.258064516129,4,3,2,5,0,0
140766,-40,4,3,2,65,0,0
141023,-40,4,3,2,32,0,0
141109,-50,4,3,2,65,0,0
141195,-50,4,3,2,32,0,0
141280,-50,4,3,2,65,0,0
141366,-50,4,3,2,32,0,0
141452,-40,4,3,2,65,0,0
141709,-40,4,3,2,32,0,0
141795,-50,4,3,2,65,0,0
141880,-50,4,3,2,32,0,0
141966,-66.6666666666667,4,3,2,65,0,0
142009,-66.6666666666667,4,3,2,32,0,0
142052,-100,4,3,2,65,0,0
142095,-100,4,3,2,32,0,0
142137,-31.25,4,3,2,65,0,0
142223,-31.25,4,3,2,32,0,0
142309,-31.25,4,3,2,65,0,0
142395,-31.25,4,3,2,32,0,0
142480,-31.25,4,3,2,65,0,0
142566,-31.25,4,3,2,32,0,0
142652,-31.25,4,3,2,65,0,0
142737,-31.25,4,3,2,32,0,0
142823,-35.7142857142857,4,3,2,65,0,0
143509,-100,4,3,2,65,0,0
143595,-100,4,3,2,32,0,0
143680,-55.5555555555556,4,3,2,70,0,0
143766,-55.5555555555556,4,3,2,35,0,0
143852,-38.4615384615385,4,3,2,75,0,0
143937,-38.4615384615385,4,3,2,37,0,0
144023,-31.25,4,3,2,80,0,0
144109,-31.25,4,3,2,40,0,0
144195,-277.777777777778,4,3,2,90,0,0
144623,-277.777777777778,4,3,2,45,0,0
144709,-133.333333333333,4,3,2,85,0,0
144795,-133.333333333333,4,3,2,42,0,0
144880,-33.3333333333333,4,3,2,100,0,0
145480,-33.3333333333333,4,3,2,50,0,0
145566,-60.6060606060606,4,3,2,65,0,0
145737,-60.6060606060606,4,3,2,32,0,0
145795,-40,4,3,2,65,0,0
145966,-40,4,3,2,32,0,0
146023,-100,4,3,2,65,0,0
146137,-100,4,3,2,32,0,0
146252,-40,4,3,2,65,0,0
146509,-40,4,3,2,32,0,0
146595,-50,4,3,2,65,0,0
146680,-50,4,3,2,32,0,0
146766,-50,4,3,2,65,0,0
146852,-50,4,3,2,32,0,0
146937,-40,4,3,2,65,0,0
147195,-40,4,3,2,32,0,0
147280,-50,4,3,2,65,0,0
147366,-50,4,3,2,32,0,0
147452,-66.6666666666667,4,3,2,65,0,0
147495,-66.6666666666667,4,3,2,32,0,0
147537,-100,4,3,2,65,0,0
147580,-100,4,3,2,32,0,0
147623,-35.7142857142857,4,3,2,65,0,0
147709,-35.7142857142857,4,3,2,32,0,0
147795,-40,4,3,2,65,0,0
147880,-40,4,3,2,32,0,0
147966,-40,4,3,2,65,0,0
148052,-40,4,3,2,32,0,0
148137,-66.6666666666667,4,3,2,65,0,0
148223,-66.6666666666667,4,3,2,32,0,0
148309,-35.7142857142857,4,3,2,65,0,0
149080,-35.7142857142857,4,3,2,32,0,0
149166,-35.7142857142857,4,3,2,65,0,0
149252,-35.7142857142857,4,3,2,32,0,0
149337,-35.7142857142857,4,3,2,65,0,0
149423,-35.7142857142857,4,3,2,32,0,0
149509,-35.7142857142857,4,3,2,65,0,0
149595,-35.7142857142857,4,3,2,32,0,0
149680,-32.258064516129,4,3,2,65,0,0
150195,-100,4,3,2,65,0,0
150237,-100,4,3,2,32,0,0
150280,-100,4,3,2,65,0,0
150323,-100,4,3,2,32,0,0
150366,-100,4,3,2,65,0,0
150452,-100,4,3,2,32,0,0
150537,-66.6666666666667,4,3,2,70,0,0
150623,-66.6666666666667,4,3,2,35,0,0
150709,-50,4,3,2,75,0,0
150795,-50,4,3,2,37,0,0
150880,-40,4,3,2,80,0,0
150966,-40,4,3,2,40,0,0
151052,-28.5714285714286,4,3,2,65,0,0
151737,-40,4,3,2,65,0,0
151995,-40,4,3,2,32,0,0
152080,-50,4,3,2,65,0,0
152166,-50,4,3,2,32,0,0
152252,-50,4,3,2,65,0,0
152337,-50,4,3,2,32,0,0
152423,-37.037037037037,4,3,2,65,0,0
152680,-37.037037037037,4,3,2,32,0,0
152766,-50,4,3,2,65,0,0
152852,-50,4,3,2,32,0,0
152937,-66.6666666666667,4,3,2,65,0,0
153509,-66.6666666666667,4,3,2,32,0,0
153566,-66.6666666666667,4,3,2,65,0,0
153623,-66.6666666666667,4,3,2,32,0,0
153680,-66.6666666666667,4,3,2,65,0,0
153737,-66.6666666666667,4,3,2,32,0,0
153795,-28.5714285714286,4,3,2,65,0,0
154480,-100,4,3,2,65,0,0
154566,-100,4,3,2,32,0,0
154652,-55.5555555555556,4,3,2,70,0,0
154737,-55.5555555555556,4,3,2,35,0,0
154823,-38.4615384615385,4,3,2,75,0,0
154909,-38.4615384615385,4,3,2,37,0,0
154995,-31.25,4,3,2,80,0,0
155080,-31.25,4,3,2,40,0,0
155166,-277.777777777778,4,3,2,90,0,0
155595,-277.777777777778,4,3,2,45,0,0
155680,-133.333333333333,4,3,2,85,0,0
155766,-133.333333333333,4,3,2,42,0,0
155852,-26.7379679144385,4,3,2,100,0,0
156452,-26.7379679144385,4,3,2,50,0,0
156537,-200,4,1,2,60,0,0
156595,-200,4,1,2,30,0,0
156652,-181.818181818182,4,1,2,65,0,0
156709,-181.818181818182,4,1,2,32,0,0
156766,-166.666666666667,4,1,2,70,0,0
156823,-166.666666666667,4,1,2,35,0,0
156880,-133.333333333333,4,1,2,75,0,0
156937,-133.333333333333,4,1,2,37,0,0
156995,-111.111111111111,4,1,2,80,0,0
157052,-111.111111111111,4,1,2,40,0,0
157109,-95.2380952380952,4,1,2,85,0,0
157166,-95.2380952380952,4,1,2,42,0,0
157223,-38.4615384615385,4,1,2,90,0,0
157280,-38.4615384615385,4,1,2,45,0,0
157337,-50,4,1,2,75,0,0
157395,-50,4,1,2,37,0,0
157452,-125,4,1,2,60,0,0
157509,-125,4,1,2,30,0,0
157566,-200,4,1,2,45,0,0
157623,-200,4,1,2,22,0,0
157680,-200,4,1,2,30,0,0
157909,-133.333333333333,4,2,10,50,0,0
158766,-333.333333333333,4,2,14,50,0,0
159109,-333.333333333333,4,2,14,50,0,0
160652,-100,4,2,11,50,0,0
161509,-333.333333333333,4,2,15,50,0,0
161852,-333.333333333333,4,2,15,50,0,0
163395,-200,4,2,12,50,0,0
163737,-100,4,2,15,50,0,0
164252,-200,4,2,15,50,0,0
164595,-133.333333333333,4,2,15,50,0,0
166137,-54.054054054054,4,2,12,50,0,0
166995,-200,4,2,15,50,0,0
167337,-100,4,2,14,50,0,0
167852,-133.333333333333,4,2,2,50,0,0
168880,-133.333333333333,4,2,10,50,0,0
169737,-133.333333333333,4,2,14,50,0,0
171623,-133.333333333333,4,2,11,50,0,0
172480,-133.333333333333,4,2,15,50,0,0
174366,-200,4,2,12,50,0,0
174709,-100,4,2,15,50,0,0
175223,-200,4,2,15,50,0,0
177109,-200,4,2,11,50,0,0
177195,-200,4,2,11,25,0,0
177280,-66.6666666666667,4,2,15,50,0,0
177795,-100,4,2,15,50,0,0
178480,-80,4,2,2,50,0,0
179166,-32.258064516129,4,2,2,90,0,0
179852,-50,4,1,2,60,0,0
180366,-66.6666666666667,4,1,2,60,0,0
180452,-66.6666666666667,4,1,2,30,0,0
180537,-100,4,1,2,60,0,0
180623,-100,4,1,2,30,0,0
180709,-80,4,1,2,60,0,0
181223,-66.6666666666667,4,1,2,60,0,0
181309,-66.6666666666667,4,1,2,30,0,0
181395,-80,4,1,2,60,0,0
181480,-80,4,1,2,30,0,0
181566,-100,4,1,2,60,0,0
181652,-100,4,1,2,30,0,0
181737,-133.333333333333,4,1,2,60,0,0
181823,-133.333333333333,4,1,2,30,0,0
181909,-71.4285714285714,4,1,2,60,0,0
182595,-41.6666666666667,4,1,2,60,0,0
183280,-100,4,1,2,60,0,0
183366,-100,4,1,2,30,0,0
183452,-66.6666666666667,4,1,2,60,0,0
183966,-100,4,1,2,60,0,0
184052,-100,4,1,2,30,0,0
184137,-100,4,1,2,60,0,0
184223,-100,4,1,2,30,0,0
184309,-100,4,1,2,60,0,0
184395,-100,4,1,2,30,0,0
184652,-125,4,1,2,60,0,0
184737,-125,4,1,2,30,0,0
184823,-125,4,1,2,60,0,0
185337,-66.6666666666667,4,1,2,60,0,0
185423,-66.6666666666667,4,1,2,30,0,0
185509,-100,4,1,2,60,0,0
185595,-100,4,1,2,30,0,0
185680,-66.6666666666667,4,1,2,60,0,0
186023,-200,4,1,2,60,0,0
186109,-200,4,1,2,30,0,0
186195,-200,4,1,2,60,0,0
186366,-111.111111111111,4,1,2,60,0,0
186452,-111.111111111111,4,1,2,30,0,0
186537,-200,4,1,2,60,0,0
186623,-200,4,1,2,30,0,0
186709,-66.6666666666667,4,1,2,60,0,0
187395,-200,4,1,2,60,0,0
187652,-200,4,1,2,30,0,0
187737,-80,4,1,2,60,0,0
187995,-80,4,1,2,30,0,0
188080,-41.6666666666667,4,1,2,60,0,0
188766,-100,4,1,2,60,0,0
188852,-100,4,1,2,30,0,0
188937,-66.6666666666667,4,1,2,60,0,0
189623,-80,4,1,2,60,0,0
190137,-45.4545454545455,4,1,2,60,0,0
190652,-50,4,1,2,60,0,0
190995,-50,4,1,2,30,0,0
191052,-50,4,1,2,60,0,0
191223,-50,4,1,2,30,0,0
191280,-100,4,1,2,60,0,0
191395,-100,4,1,2,30,0,0
191509,-100,4,1,2,60,0,0
191595,-100,4,1,2,30,0,0
191680,-80,4,1,2,60,0,0
192195,-62.5,4,1,2,60,0,0
192366,-62.5,4,1,2,30,0,0
192452,-50,4,1,2,60,0,0
192880,-66.6666666666667,4,1,2,60,0,0
193566,-41.6666666666667,4,1,2,60,0,0
194252,-100,4,1,2,60,0,0
194337,-100,4,1,2,30,0,0
194423,-66.6666666666667,4,1,2,60,0,0
194937,-125,4,1,2,60,0,0
194995,-125,4,1,2,30,0,0
195052,-111.111111111111,4,1,2,60,0,0
195109,-111.111111111111,4,1,2,30,0,0
195166,-100,4,1,2,60,0,0
195223,-100,4,1,2,30,0,0
195280,-71.4285714285714,4,1,2,60,0,0
195337,-71.4285714285714,4,1,2,30,0,0
195395,-66.6666666666667,4,1,2,60,0,0
195452,-66.6666666666667,4,1,2,30,0,0
195509,-62.5,4,1,2,60,0,0
195566,-62.5,4,1,2,30,0,0
195623,-50,4,1,2,60,0,0
195966,-100,4,1,2,60,0,0
196052,-100,4,1,2,30,0,0
196137,-250,4,1,2,60,0,0
196223,-250,4,1,2,30,0,0
196309,-222.222222222222,4,1,2,60,0,0
196566,-222.222222222222,4,1,2,30,0,0
196652,-222.222222222222,4,1,2,60,0,0
196909,-222.222222222222,4,1,2,30,0,0
196995,-100,4,1,2,60,0,0
197252,-100,4,1,2,30,0,0
197337,-80,4,1,2,60,0,0
197423,-80,4,1,2,30,0,0
197509,-80,4,1,2,60,0,0
197595,-80,4,1,2,30,0,0
197680,-58.8235294117647,4,1,2,60,0,0
199052,-133.333333333333,4,1,2,60,0,0
199137,-133.333333333333,4,1,2,30,0,0
199223,-111.111111111111,4,1,2,60,0,0
199309,-111.111111111111,4,1,2,30,0,0
199395,-95.2380952380952,4,1,2,60,0,0
199480,-95.2380952380952,4,1,2,30,0,0
199566,-83.3333333333333,4,1,2,60,0,0
199652,-83.3333333333333,4,1,2,30,0,0
199737,-66.6666666666667,4,1,2,60,0,0
199823,-66.6666666666667,4,1,2,30,0,0
199909,-100,4,1,2,60,0,0
199995,-100,4,1,2,30,0,0
200080,-80,4,1,2,60,0,0
200166,-80,4,1,2,30,0,0
200252,-66.6666666666667,4,1,2,60,0,0
200337,-66.6666666666667,4,1,2,30,0,0
200423,-66.6666666666667,4,1,2,60,0,0
201795,-200,4,1,2,60,0,0
202309,-200,4,1,2,30,0,0
202480,-200,4,1,2,60,0,0
202780,-200,4,1,2,30,0,0
202823,-38.4615384615385,4,1,2,60,0,0
203080,-38.4615384615385,4,1,2,30,0,0
203166,-38.4615384615385,4,1,2,80,0,0
203509,-38.4615384615385,4,1,2,40,0,0
214137,-38.4615384615385,4,3,2,60,0,0
218252,-100,4,3,2,60,0,0
218595,-80,4,3,2,60,0,0
219623,-133.333333333333,4,3,2,60,0,0
219709,-133.333333333333,4,3,2,30,0,0
219795,-80,4,3,2,60,0,0
219880,-80,4,3,2,30,0,0
219966,-133.333333333333,4,3,2,60,0,0
220052,-133.333333333333,4,3,2,30,0,0
220137,-80,4,3,2,60,0,0
220223,-80,4,3,2,30,0,0
220309,-133.333333333333,4,3,2,60,0,0
220395,-133.333333333333,4,3,2,30,0,0
220480,-80,4,3,2,60,0,0
220566,-80,4,3,2,30,0,0
220652,-133.333333333333,4,3,2,60,0,0
220737,-133.333333333333,4,3,2,30,0,0
220823,-80,4,3,2,60,0,0
220909,-80,4,3,2,30,0,0
220995,-200,4,3,2,60,0,0
221080,-200,4,3,2,30,0,0
221166,-133.333333333333,4,3,2,60,0,0
221252,-133.333333333333,4,3,2,30,0,0
221337,-133.333333333333,4,3,2,60,0,0
221423,-133.333333333333,4,3,2,30,0,0
221509,-100,4,3,2,60,0,0
221595,-100,4,3,2,30,0,0
221680,-100,4,3,2,60,0,0
221766,-100,4,3,2,30,0,0
221852,-80,4,3,2,60,0,0
221937,-80,4,3,2,30,0,0
222023,-66.6666666666667,4,3,2,60,0,0
222109,-66.6666666666667,4,3,2,30,0,0
222195,-100,4,3,2,60,0,0
222280,-100,4,3,2,30,0,0
222366,-100,4,1,2,60,0,0
222709,-100,4,1,2,62,0,0
223052,-100,4,1,2,66,0,0
223395,-100,4,1,2,72,0,0
223737,-100,4,1,2,85,0,0
223909,-100,4,1,2,87,0,0
224080,-100,4,1,2,91,0,0
224252,-100,4,1,2,95,0,0
224423,-100,4,1,2,99,0,0
225109,-38.4615384615385,4,1,20,80,0,1
225366,-38.4615384615385,4,1,20,40,0,1
225452,-333.333333333333,4,1,2,80,0,1
225709,-333.333333333333,4,1,2,40,0,1
225795,-333.333333333333,4,1,2,80,0,1
226137,-100,4,1,2,80,0,1
226223,-100,4,1,2,40,0,1
226309,-41.6666666666667,4,1,21,80,0,1
226823,-55.5555555555556,4,1,2,80,0,1
226909,-55.5555555555556,4,1,2,40,0,1
226995,-100,4,1,2,80,0,1
227337,-50,4,1,2,80,0,1
227423,-50,4,1,2,40,0,1
227509,-50,4,1,2,80,0,1
227766,-200,4,1,2,80,0,1
227809,-200,4,1,2,40,0,1
227852,-38.4615384615385,4,1,22,80,0,1
228109,-38.4615384615385,4,1,22,40,0,1
228195,-83.3333333333333,4,1,2,80,0,1
228280,-83.3333333333333,4,1,2,40,0,1
228366,-83.3333333333333,4,1,2,80,0,1
228452,-83.3333333333333,4,1,2,40,0,1
228537,-83.3333333333333,4,1,2,80,0,1
228795,-83.3333333333333,4,1,2,40,0,1
228880,-66.6666666666667,4,1,2,80,0,1
228966,-66.6666666666667,4,1,2,40,0,1
229052,-100,4,1,2,80,0,1
229137,-100,4,1,2,40,0,1
229223,-40,4,1,2,80,0,1
229309,-40,4,1,2,40,0,1
229395,-40,4,1,2,80,0,1
229909,-66.6666666666667,4,1,2,80,0,1
229995,-66.6666666666667,4,1,2,40,0,1
230080,-71.4285714285714,4,1,2,80,0,1
230166,-71.4285714285714,4,1,2,40,0,1
230252,-37.037037037037,4,1,2,80,0,1
230509,-37.037037037037,4,1,2,40,0,1
230595,-142.857142857143,4,1,2,80,0,1
230852,-142.857142857143,4,1,2,40,0,1
230937,-35.7142857142857,4,1,23,80,0,1
231195,-35.7142857142857,4,1,23,40,0,1
231280,-100,4,1,2,80,0,1
231537,-100,4,1,2,40,0,1
231623,-100,4,1,2,80,0,1
231709,-100,4,1,2,40,0,1
231795,-40,4,1,2,80,0,1
232052,-40,4,1,2,40,0,1
232137,-50,4,1,2,80,0,1
232652,-100,4,1,2,80,0,1
232737,-100,4,1,2,40,0,1
232823,-66.6666666666667,4,1,2,80,0,1
232909,-66.6666666666667,4,1,2,40,0,1
232995,-66.6666666666667,4,1,2,80,0,1
233080,-66.6666666666667,4,1,2,40,0,1
233166,-66.6666666666667,4,1,2,80,0,1
233252,-66.6666666666667,4,1,2,40,0,1
233337,-40,4,1,24,80,0,1
233852,-40,4,1,2,80,0,1
234366,-100,4,1,2,80,0,1
234452,-100,4,1,2,40,0,1
234537,-40,4,1,21,80,0,1
234795,-40,4,1,21,40,0,1
234880,-50,4,1,2,80,0,1
235480,-50,4,1,2,40,0,1
235566,-50,4,1,2,80,0,1
235652,-50,4,1,2,40,0,1
235737,-50,4,1,2,80,0,1
235995,-50,4,1,2,40,0,1
236080,-38.4615384615385,4,1,20,80,0,1
236337,-38.4615384615385,4,1,20,40,0,1
236423,-333.333333333333,4,1,2,80,0,1
236680,-333.333333333333,4,1,2,40,0,1
236766,-333.333333333333,4,1,2,80,0,1
237109,-100,4,1,2,80,0,1
237195,-100,4,1,2,40,0,1
237280,-41.6666666666667,4,1,21,80,0,1
237795,-55.5555555555556,4,1,2,80,0,1
237880,-55.5555555555556,4,1,2,40,0,1
237966,-100,4,1,2,80,0,1
238309,-50,4,1,2,80,0,1
238395,-50,4,1,2,40,0,1
238480,-50,4,1,2,80,0,1
238737,-200,4,1,2,80,0,1
238780,-200,4,1,2,40,0,1
238823,-35.7142857142857,4,1,22,80,0,1
239080,-35.7142857142857,4,1,22,40,0,1
239166,-66.6666666666667,4,1,2,80,0,1
239252,-66.6666666666667,4,1,2,40,0,1
239337,-66.6666666666667,4,1,2,80,0,1
239423,-66.6666666666667,4,1,2,40,0,1
239509,-66.6666666666667,4,1,2,80,0,1
239680,-83.3333333333333,4,1,2,80,0,1
239766,-83.3333333333333,4,1,2,40,0,1
239852,-66.6666666666667,4,1,2,80,0,1
239937,-66.6666666666667,4,1,2,40,0,1
240023,-100,4,1,2,80,0,1
240109,-100,4,1,2,40,0,1
240195,-40,4,1,2,80,0,1
240366,-40,4,1,2,80,0,1
240880,-66.6666666666667,4,1,2,80,0,1
240966,-66.6666666666667,4,1,2,40,0,1
241052,-66.6666666666667,4,1,2,80,0,1
241137,-66.6666666666667,4,1,2,40,0,1
241223,-37.037037037037,4,1,21,80,0,1
241480,-37.037037037037,4,1,21,40,0,1
241566,-66.6666666666667,4,1,2,80,0,1
241652,-66.6666666666667,4,1,2,40,0,1
241737,-66.6666666666667,4,1,2,80,0,1
241823,-66.6666666666667,4,1,2,40,0,1
241909,-37.7358490566038,4,1,25,80,0,1
242166,-37.7358490566038,4,1,25,40,0,1
242252,-37.7358490566038,4,1,2,80,0,1
242595,-50,4,1,2,80,0,1
242680,-50,4,1,2,40,0,1
242766,-100,4,1,2,80,0,1
242852,-100,4,1,2,40,0,1
242937,-66.6666666666667,4,1,2,80,0,1
243023,-66.6666666666667,4,1,2,40,0,1
243109,-50,4,1,2,80,0,1
243195,-50,4,1,2,40,0,1
243280,-50,4,1,2,80,0,1
243366,-50,4,1,2,40,0,1
243452,-100,4,1,2,80,0,1
243709,-100,4,1,2,40,0,1
243795,-100,4,1,2,80,0,1
243880,-100,4,1,2,40,0,1
243966,-100,4,1,2,80,0,1
244137,-100,4,1,2,80,0,1
244223,-100,4,1,2,81,0,1
244308,-100,4,1,2,82,0,1
244394,-100,4,1,2,83,0,1
244480,-100,4,1,2,84,0,1
244565,-100,4,1,2,85,0,1
244651,-100,4,1,2,86,0,1
244737,-100,4,1,2,87,0,1
244823,-100,4,1,2,88,0,1
244908,-100,4,1,2,89,0,1
244994,-100,4,1,2,90,0,1
245080,-100,4,1,2,91,0,1
245165,-100,4,1,2,92,0,1
245251,-100,4,1,2,93,0,1
245337,-100,4,1,2,94,0,1
245423,-100,4,1,2,95,0,1
245508,-100,4,1,2,96,0,1
245594,-100,4,1,2,97,0,1
245680,-100,4,1,2,98,0,1
245851,-100,4,1,2,99,0,1
245937,-100,4,1,2,99,0,1
246023,-100,4,1,2,99,0,1
246108,-100,4,1,2,99,0,1
246194,-100,4,1,2,99,0,1
246280,-100,4,1,2,99,0,1
246365,-100,4,1,2,99,0,1
246451,-100,4,1,2,100,0,1
246537,-100,4,1,2,100,0,1
246623,-100,4,1,2,100,0,1
246708,-100,4,1,2,100,0,1
246794,-100,4,1,2,100,0,1
246880,-100,4,1,2,100,0,1
246965,-100,4,1,2,100,0,1
247052,-111.111111111111,4,1,2,80,0,0
247737,-55.5555555555556,4,1,2,60,0,0
249109,-133.333333333333,4,2,2,60,0,0
249151,-133.333333333333,4,2,2,30,0,0
249194,-133.333333333333,4,2,2,65,0,0
249237,-133.333333333333,4,2,2,32,0,0
249280,-133.333333333333,4,2,2,70,0,0
249323,-133.333333333333,4,2,2,35,0,0
249366,-133.333333333333,4,2,2,75,0,0
249409,-133.333333333333,4,2,2,37,0,0
249452,-80,4,2,2,80,0,0
249494,-80,4,2,2,40,0,0
249537,-80,4,2,2,85,0,0
249580,-80,4,2,2,42,0,0
249623,-80,4,2,2,90,0,0
249666,-80,4,2,2,45,0,0
249709,-80,4,2,2,95,0,0
249752,-80,4,2,2,47,0,0
249795,-50,4,1,2,60,0,0
250480,-100,4,1,2,60,0,0
251852,-200,4,1,2,60,0,0
252537,-80,4,1,2,60,0,0
252623,-80,4,1,2,30,0,0
252709,-80,4,1,2,60,0,0
252795,-80,4,1,2,30,0,0
252880,-66.6666666666667,4,1,2,60,0,0
253395,-250,4,1,2,60,0,0
253480,-250,4,1,2,30,0,0
253566,-27.7777777777778,4,1,2,60,0,0
254252,-100,4,1,2,60,0,0
256137,-133.333333333333,4,1,2,60,0,0
257509,-200,4,1,2,60,0,0
257595,-200,4,1,2,30,0,0
257680,-200,4,1,2,60,0,0
257766,-200,4,1,2,30,0,0
257852,-200,4,1,2,60,0,0
257895,-200,4,1,2,30,0,0
257937,-200,4,1,2,60,0,0
257980,-200,4,1,2,30,0,0
258023,-153.846153846154,4,1,2,90,0,0
258366,-153.846153846154,4,1,2,85,0,0
258709,-153.846153846154,4,1,2,80,0,0
259052,-153.846153846154,4,1,2,75,0,0
259395,-153.846153846154,4,1,2,70,0,0
259737,-153.846153846154,4,1,2,65,0,0
260080,-153.846153846154,4,1,2,60,0,0
260423,-153.846153846154,4,1,2,55,0,0
260766,-153.846153846154,4,1,2,50,0,0
261109,-153.846153846154,4,1,2,45,0,0
261452,-153.846153846154,4,1,2,40,0,0
261795,-153.846153846154,4,1,2,35,0,0
262137,-153.846153846154,4,1,2,30,0,0
262309,-153.846153846154,4,1,2,60,0,0
262823,-200,4,1,2,60,0,0
263509,-133.333333333333,4,1,2,60,0,0
263766,-133.333333333333,4,1,2,30,0,0
263852,-133.333333333333,4,1,2,60,0,0
263937,-133.333333333333,4,1,2,30,0,0
264023,-133.333333333333,4,1,2,60,0,0
264109,-133.333333333333,4,1,2,30,0,0
264195,-100,4,1,2,60,0,0
264537,-50,4,1,2,60,0,0
264880,-55.5555555555556,4,1,2,60,0,0
264966,-55.5555555555556,4,1,2,30,0,0
265052,-83.3333333333333,4,1,2,60,0,0
265137,-83.3333333333333,4,1,2,30,0,0
265223,-166.666666666667,4,1,2,60,0,0
265309,-166.666666666667,4,1,2,30,0,0
265395,-166.666666666667,4,1,2,60,0,0
266252,-125,4,2,12,50,0,0
266766,-125,4,2,12,25,0,0
267109,-200,4,2,15,55,0,0
267280,-200,4,2,15,27,0,0
267452,-100,4,2,15,60,0,0
267623,-100,4,2,15,30,0,0

[Colours]
Combo1 : 192,192,192
Combo2 : 128,128,128
Combo3 : 0,208,208

[HitObjects]
183,108,195,6,0,L|176:150,1,29.9999990844727
27,321,537,5,2,0:3:0:0:
27,321,709,1,0,0:0:0:0:
95,353,880,5,2,0:3:0:0:
95,353,1052,1,0,0:0:0:0:
144,295,1223,5,0,0:0:0:0:
144,295,1395,1,2,0:3:0:0:
212,327,1566,5,0,0:0:0:0:
212,327,1737,1,0,0:0:0:0:
261,269,1909,5,0,0:0:0:0:
261,269,2080,1,2,0:3:0:0:
329,301,2252,5,0,0:0:0:0:
329,301,2423,1,0,0:0:0:0:
378,243,2595,5,0,0:0:0:0:
378,243,2766,1,2,0:3:0:0:
486,372,2937,6,0,L|444:365,1,29.9999990844727
341,177,3280,5,2,0:3:0:0:
346,176,3366,1,0,0:0:0:0:
353,174,3452,1,0,0:0:0:0:
360,173,3537,1,0,0:0:0:0:
367,171,3623,1,2,0:3:0:0:
379,101,3795,1,0,0:0:0:0:
355,36,3966,5,0,0:0:0:0:
386,99,4137,1,2,0:3:0:0:
444,138,4309,5,0,0:0:0:0:
381,105,4480,1,0,0:0:0:0:
312,108,4652,5,0,0:0:0:0:
382,98,4823,1,2,0:3:0:0:
437,54,4995,5,0,0:0:0:0:
386,104,5166,1,0,0:0:0:0:
367,171,5337,5,2,0:3:0:0:
379,101,5509,1,2,0:3:0:0:
231,30,5680,6,0,L|189:37,1,29.9999990844727,0|2,0:0|0:3,0:0:0:0:
112,284,6023,5,0,0:0:0:0:
183,268,6195,1,0,0:0:0:0:
53,239,6366,5,2,0:3:0:0:
114,277,6537,1,2,0:3:0:0:
37,169,6709,5,0,0:0:0:0:
53,239,6880,1,2,0:3:0:0:
82,109,7052,5,0,0:0:0:0:
44,170,7223,1,0,0:0:0:0:
152,93,7395,5,0,0:0:0:0:
82,109,7566,1,0,0:0:0:0:
212,138,7737,5,0,0:0:0:0:
151,100,7909,1,2,0:3:0:0:
228,208,8080,5,0,0:0:0:0:
212,138,8252,1,2,0:3:0:0:
384,352,8423,6,0,L|377:394,1,29.9999990844727
498,234,8766,5,0,0:0:0:0:
512,231,8937,1,0,0:0:0:0:
417,253,9109,5,0,0:0:0:0:
431,250,9280,1,2,0:3:0:0:
336,272,9452,5,2,0:3:0:0:
350,269,9623,1,2,0:3:0:0:
255,291,9795,5,0,0:0:0:0:
269,288,9966,1,2,0:3:0:0:
174,310,10137,5,0,0:0:0:0:
188,307,10309,1,0,0:0:0:0:
93,329,10480,5,0,0:0:0:0:
107,326,10652,1,2,0:3:0:0:
12,348,10823,5,0,0:0:0:0:
26,345,10995,1,2,0:3:0:0:
42,63,11166,6,0,L|46:33,1,29.9999990844727,2|0,0:3|0:0,0:0:0:0:
114,202,11509,5,2,0:3:0:0:
138,180,11680,1,0,0:0:0:0:
142,166,11852,5,2,0:3:0:0:
93,115,12023,1,0,0:0:0:0:
115,139,12195,5,0,0:0:0:0:
129,143,12366,1,2,0:3:0:0:
180,94,12537,5,0,0:0:0:0:
156,116,12709,1,0,0:0:0:0:
152,130,12880,5,0,0:0:0:0:
201,181,13052,1,2,0:3:0:0:
179,157,13223,5,0,0:0:0:0:
165,153,13395,1,0,0:0:0:0:
114,202,13566,5,0,0:0:0:0:
201,181,13737,1,2,0:3:0:0:
227,331,13909,6,0,L|220:373,1,29.9999990844727,0|2,0:0|0:3,0:0:0:0:
428,264,14252,5,2,0:3:0:0:
428,264,14337,1,0,0:0:0:0:
428,264,14423,1,0,0:0:0:0:
426,257,14509,1,0,0:0:0:0:
425,250,14595,1,0,0:0:0:0:
423,243,14680,1,0,0:0:0:0:
421,236,14766,1,0,0:0:0:0:
448,330,14937,5,0,0:0:0:0:
404,172,15109,5,0,0:0:0:0:
367,34,15280,5,0,0:0:0:0:
347,75,15366,1,0,0:0:0:0:
387,103,15452,6,0,L|293:93,1,80,0|0,0:0|0:0,0:0:0:0:
253,47,15709,6,0,B|170:72|207:6|104:36,1,135.000000514984
51,44,15966,6,0,L|57:8,2,33.3333333333333
44,56,16137,2,0,L|35:114,1,50,0|0,0:0|0:0,0:0:0:0:
38,240,16309,6,0,L|64:235,1,14.9999995422363
16,175,16480,6,0,B|19:186|19:186|7:258,1,85.0000016212464
0,341,16652,5,0,0:0:0:0:
59,384,16823,1,0,0:0:0:0:
132,384,16995,1,8,0:0:0:0:
192,341,17166,1,0,0:0:0:0:
215,271,17337,1,0,0:0:0:0:
238,201,17509,1,0,0:0:0:0:
298,158,17680,1,8,0:0:0:0:
371,158,17852,1,0,0:0:0:0:
430,201,18023,5,8,0:0:0:0:
298,158,18195,1,0,0:0:0:0:
278,83,18366,5,8,0:0:0:0:
334,315,18537,1,0,0:0:0:0:
286,371,18709,5,8,0:0:0:0:
479,143,18880,1,0,0:0:0:0:
384,259,19052,5,8,0:0:0:0:
103,322,19223,1,0,0:0:0:0:
19,145,19395,5,0,0:0:0:0:
88,103,19480,1,0,0:0:0:0:
153,119,19566,1,0,0:0:0:0:
180,159,19652,1,0,0:0:0:0:
178,190,19737,1,0,0:0:0:0:
167,209,19823,1,0,0:0:0:0:
154,218,19909,1,0,0:0:0:0:
143,217,19995,1,0,0:0:0:0:
134,209,20080,5,0,0:0:0:0:
153,204,20166,1,0,0:0:0:0:
173,206,20252,1,0,0:0:0:0:
191,214,20337,1,0,0:0:0:0:
207,226,20423,1,0,0:0:0:0:
224,236,20509,1,0,0:0:0:0:
244,240,20595,1,0,0:0:0:0:
263,238,20680,1,0,0:0:0:0:
314,211,20766,6,0,L|323:278,2,50.0000019073487
349,150,20937,6,0,L|358:83,2,50.0000019073487
396,208,21109,6,0,L|405:256,1,29.9999990844727
428,178,21195,2,0,L|437:226,1,29.9999990844727
437,134,21280,6,0,L|446:67,2,50.0000019073487
505,154,21452,6,0,B|344:222|374:1|150:94|150:94|311:72|342:254|282:326|131:299|169:187|264:150|323:233,1,839.999974365235,4|0,3:1|0:0,0:0:0:0:
328,365,22137,6,0,B|346:313|346:313|243:342,1,150.000005722046,4|0,0:0|0:0,0:0:0:0:
72,384,22395,2,0,B|95:268|95:268|104:231|152:228,1,175.00000166893
155,365,22652,6,0,B|174:357|174:357|180:322|180:322|163:307,1,75.0000028610231
6,315,22823,6,0,B|45:118|45:118|115:94,1,262.500002503395,8|0,0:0|0:0,0:0:0:0:
84,31,23166,2,0,L|36:46,1,50
312,101,23337,1,0,0:0:0:0:
112,197,23680,5,0,0:0:0:0:
338,268,24023,1,0,0:0:0:0:
111,363,24195,6,0,L|115:342,1,12.5,2|0,2:3|0:0,0:0:0:0:
147,307,24280,2,0,L|167:299,1,12.5,2|0,2:3|0:0,0:0:0:0:
213,310,24366,2,0,L|229:323,1,12.5,2|0,2:3|0:0,0:0:0:0:
177,369,24452,5,2,2:3:0:0:
244,358,24537,2,0,L|247:322,1,25,2|0,2:3|0:0,0:0:0:0:
311,347,24623,2,0,L|308:371,1,25,2|0,2:3|0:0,0:0:0:0:
378,336,24709,2,0,L|381:300,1,25,2|0,2:3|0:0,0:0:0:0:
445,325,24795,2,0,L|442:349,1,25,2|0,2:3|0:0,0:0:0:0:
512,314,24880,6,0,B|165:237|165:237|147:234|127:272|165:264|145:302|127:298|127:298|80:288,1,474.999987316132,2|0,2:3|0:0,0:0:0:0:
177,369,25395,2,0,L|218:379,1,40
332,337,25566,6,0,L|335:348,1,12.5,2|0,2:3|0:0,0:0:0:0:
367,284,25652,2,0,L|363:295,1,12.5,2|2,2:3|2:3,0:0:0:0:
322,228,25737,1,2,2:3:0:0:
155,75,25909,6,0,L|152:64,1,12.5,2|0,2:3|0:0,0:0:0:0:
120,128,25995,2,0,L|124:117,1,12.5,2|2,2:3|2:3,0:0:0:0:
165,184,26080,1,2,2:3:0:0:
322,228,26252,6,0,L|326:210,1,14.9999995422363
251,86,26423,2,0,L|247:100,1,14.9999995422363
437,75,26595,6,0,P|400:26|358:111,1,179.999994506836
417,153,26852,1,0,0:0:0:0:
428,151,26937,2,0,L|492:140,1,50,8|0,0:0|0:0,0:0:0:0:
234,7,27109,6,0,B|237:40|237:40|229:35|229:35|234:71,1,75.0000028610231
124,141,27280,2,0,B|107:138|107:138|102:121|102:121|159:132,1,75.0000028610231
215,144,27452,6,0,L|260:151,2,39.9999987792969
23,72,27623,6,0,B|30:123|30:123|25:136|25:136|39:218,1,134.999995880127
43,278,27795,2,0,L|62:274,1,20
154,367,27966,6,0,B|164:335|202:321|202:321|165:335|127:309,1,134.999995880127
76,349,28137,2,0,L|80:368,1,20
332,355,28309,5,8,1:1:0:0:
336,335,28395,1,2,1:3:0:0:
352,268,28480,5,2,1:3:0:0:
272,303,28566,1,2,1:3:0:0:
341,359,28652,6,0,B|441:343|441:343|413:335|394:314,1,150.000005722046
445,180,28995,6,0,L|429:263,1,75.0000028610231
456,112,29252,1,0,0:0:0:0:
512,278,29337,6,0,B|404:292|404:292|348:220|348:220|244:232,1,300
209,133,29680,6,0,B|179:332|179:332|178:358|205:380|235:373|248:348|248:348|302:143|302:143|233:88|233:88|228:17|228:17|288:-3|288:-3|331:39|331:39|301:102|301:102|197:127,1,962.500009179116,8|0,0:0|0:0,0:0:0:0:
48,114,30366,6,0,P|52:96|43:112,1,50,2|0,1:3|0:0,0:0:0:0:
0,162,30537,2,0,B|-32:139|-50:96|-52:-17|108:-36|155:57|145:140|85:171|85:171|64:187|54:207|61:239,1,442.500014348031
71,288,30880,6,0,L|62:347,1,50,2|0,1:3|0:0,0:0:0:0:
61,352,31052,1,8,0:0:0:0:
174,194,31223,6,0,L|210:186,1,37.5000014305115,2|0,1:3|0:0,0:0:0:0:
282,171,31395,6,0,L|266:244,1,75.0000028610231,2|0,1:3|0:0,0:0:0:0:
195,260,31566,2,0,L|210:186,1,75.0000028610231,2|0,1:3|0:0,0:0:0:0:
288,87,31737,6,0,B|332:84|317:110|368:107,1,75.0000028610231
369,109,31995,1,0,0:0:0:0:
412,56,32080,1,0,0:0:0:0:
468,312,32252,6,0,L|472:331,1,12.5,2|0,1:3|0:0,0:0:0:0:
465,340,32337,2,0,L|469:359,1,12.5,2|0,1:3|0:0,0:0:0:0:
427,358,32423,6,0,P|417:369|383:362,1,29.9999990844727,8|0,0:0|0:0,0:0:0:0:
397,335,32509,2,0,P|382:331|371:298,1,29.9999990844727
427,270,32595,6,0,B|459:252|493:276|493:276|515:263|497:238,1,100,8|0,0:0|0:0,0:0:0:0:
446,185,32766,6,0,B|282:211|282:211|259:215|224:190|251:173|215:147|187:151|187:151|128:159,1,330.000010070801
43,300,33109,6,0,B|105:307|105:307|74:179,1,175.00000166893,4|0,0:0|0:0,0:0:0:0:
156,76,33337,2,0,B|130:71|130:71|37:134|37:134|-1:128,1,175.00000166893
0,0,33566,6,0,B|6:20|6:20|70:33,1,66.6666666666667
220,101,33795,6,0,B|180:108|180:108|149:114|127:86|136:49|167:42|167:42|295:21,1,262.500002503395,8|0,0:0|0:0,0:0:0:0:
353,12,34137,2,0,L|402:3,1,50
187,189,34309,1,0,0:0:0:0:
407,163,34652,5,0,0:0:0:0:
241,340,34995,1,0,0:0:0:0:
455,316,35166,6,0,L|439:321,1,12.5,2|0,2:3|0:0,0:0:0:0:
390,338,35252,2,0,L|374:343,1,12.5,2|0,2:3|0:0,0:0:0:0:
325,360,35337,2,0,L|309:365,1,12.5,2|0,2:3|0:0,0:0:0:0:
338,290,35423,5,2,2:3:0:0:
358,222,35509,2,0,L|374:201,1,25,2|0,2:3|0:0,0:0:0:0:
309,170,35595,2,0,L|298:145,1,25,2|0,2:3|0:0,0:0:0:0:
239,186,35680,2,0,L|212:182,1,25,2|0,2:3|0:0,0:0:0:0:
217,254,35766,2,0,L|201:275,1,25,2|0,2:3|0:0,0:0:0:0:
264,306,35852,6,0,B|374:329|374:329|318:50|318:50|264:112,1,474.999987316132
214,182,36366,5,0,0:0:0:0:
217,194,36452,1,0,0:0:0:0:
172,249,36537,5,8,0:0:0:0:
175,261,36623,1,0,0:0:0:0:
101,228,36709,5,2,1:3:0:0:
104,240,36795,1,2,1:3:0:0:
59,295,36880,6,0,L|53:353,1,50,2|0,1:3|0:0,0:0:0:0:
0,158,37052,5,2,1:3:0:0:
0,158,37395,6,0,B|21:153|21:153|55:171|55:171|81:164,1,75.0000028610231
128,124,37566,2,0,B|123:103|123:103|141:69|141:69|134:43,1,75.0000028610231
69,6,37737,6,0,L|73:32,1,20
136,195,37909,6,0,B|179:204|179:204|264:136|264:136|317:147,2,187.5,8|0|0,0:0|0:0|0:0,0:0:0:0:
512,85,38423,2,0,L|503:35,1,50
434,3,38595,5,2,1:3:0:0:
422,9,38680,5,0,1:3:0:0:
408,27,38766,5,0,1:3:0:0:
399,61,38852,5,0,1:3:0:0:
416,101,38937,5,0,1:3:0:0:
453,150,39023,5,0,1:3:0:0:
472,216,39109,5,2,1:3:0:0:
447,294,39195,5,0,1:3:0:0:
360,325,39280,6,0,L|372:285,2,25,8|0|0,0:0|0:0|0:0,0:0:0:0:
496,349,39452,6,0,P|366:228|289:383,1,400,2|0,1:3|0:0,0:0:0:0:
412,360,39966,6,0,P|390:295|353:340,1,150.000005722046,2|0,1:3|0:0,0:0:0:0:
212,367,40223,1,2,1:3:0:0:
197,359,40309,6,0,B|159:322|194:269|194:269|259:288,1,150.000005722046,2|0,1:3|0:0,0:0:0:0:
341,229,40566,1,0,0:0:0:0:
411,213,40652,6,0,P|411:204|408:193,1,12.5,8|0,0:0|0:0,0:0:0:0:
419,191,40737,2,0,P|408:181|394:177,1,17.4999994659424,2|0,1:3|0:0,0:0:0:0:
415,169,40823,2,0,P|399:173|390:183,1,22.4999993133545,2|0,1:3|0:0,0:0:0:0:
392,149,40909,2,0,P|388:164|392:188,1,27.5000008392334,2|0,1:3|0:0,0:0:0:0:
341,229,40995,6,0,L|347:292,1,50,2|0,1:3|0:0,0:0:0:0:
491,161,41166,2,0,L|485:98,1,50
394,22,41337,6,0,B|288:2|288:2|181:131|181:131|231:211|231:211|316:164|316:164|287:43|287:43|170:17,1,699.999978637696
107,36,41852,6,0,L|112:85,1,50
28,122,42023,6,0,B|80:153|80:153|33:185|33:185|26:227,1,150.000005722046,8|0,0:0|0:0,0:0:0:0:
35,335,42280,1,2,1:3:0:0:
39,315,42366,6,0,L|44:285,2,31.25,2|0|0,1:3|0:0|0:0,0:0:0:0:
189,253,42537,2,0,L|194:223,2,31.25,2|0|0,1:3|0:0|0:0,0:0:0:0:
176,321,42709,6,0,B|189:374|268:397|310:341|329:271|261:312|282:236|318:183|429:189|437:283,1,359.999989013672,8|0,0:0|0:0,0:0:0:0:
470,308,43052,6,0,P|451:324|418:319,1,50,8|0,1:2|0:0,0:0:0:0:
176,321,43223,6,0,B|150:125|150:125|139:44|258:-57|360:43|357:111|346:145|346:145|242:182|242:182|237:216|237:216|267:239|267:239|258:300,1,762.5000218153,8|0,0:0|0:0,0:0:0:0:
278,364,43737,6,0,B|349:376,1,72.5000022125245
176,321,43909,2,0,B|105:309,1,72.5000022125245
2,375,44080,6,0,B|12:378|12:378|212:348,1,200,12|0,1:2|0:0,0:0:0:0:
278,364,44337,2,0,B|275:354|275:354|294:226|294:226|304:215|304:215|311:164,1,200,8|0,1:2|0:0,0:0:0:0:
277,104,44595,2,0,B|268:100|268:100|203:109,1,75.0000028610231,8|0,1:2|0:0,0:0:0:0:
21,213,44766,6,0,B|29:234|29:234|55:243|55:243|45:199|83:176,1,116.666667779287,8|0,0:0|0:0,0:0:0:0:
159,326,44995,2,0,B|173:308|173:308|167:281|167:281|134:312|95:290,1,116.666667779287
187,150,45223,6,0,B|164:146|164:146|144:164|144:164|187:177|188:222,1,116.666667779287
252,374,45452,2,0,B|237:356|237:356|243:329|243:329|276:360|315:338,1,116.666667779287
512,242,45680,6,0,B|502:271|502:271|516:284|516:284|514:293|514:293|500:294|500:294|471:377,1,133.333333333333
395,86,45909,6,0,B|347:74|347:74|336:23|336:23|380:0,1,150.000005722046
426,268,46137,6,0,L|420:289,1,12.5,2|0,2:3|0:0,0:0:0:0:
406,288,46223,2,0,L|400:309,1,12.5,2|0,2:3|0:0,0:0:0:0:
410,316,46309,2,0,L|404:337,1,12.5,2|0,2:3|0:0,0:0:0:0:
390,336,46395,2,0,L|384:357,1,12.5,2|0,2:3|0:0,0:0:0:0:
319,362,46480,6,0,B|312:335|312:335|333:331,1,37.5000014305115,2|0,2:3|0:0,0:0:0:0:
296,298,46566,6,0,B|269:304|269:304|265:284,1,37.5000014305115,2|0,2:3|0:0,0:0:0:0:
232,321,46652,6,0,B|205:314|205:314|201:335,1,37.5000014305115,2|0,2:3|0:0,0:0:0:0:
168,344,46737,6,0,B|141:350|141:350|137:330,1,37.5000014305115,2|0,2:3|0:0,0:0:0:0:
78,367,46823,6,0,B|114:353|114:353|160:115|160:115|17:182|17:182|1:264|1:264|23:298,1,550.000016784668
23,301,47337,6,0,B|74:287|63:328|118:311,1,85.0000016212464,8|0,1:2|0:0,0:0:0:0:
281,344,47509,6,0,B|261:377|199:364|165:318|188:254|249:226|296:268|296:268|353:308|428:302|450:189|452:115|274:11|208:175|272:262|328:265,1,719.999978027344,8|0,0:0|0:0,0:0:0:0:
494,358,48195,6,0,B|465:325|465:325|425:351,1,85.0000016212464
431,331,48366,2,0,B|465:308|465:308|494:341,1,85.0000016212464,8|0,1:2|0:0,0:0:0:0:
511,253,48537,6,0,L|500:177,1,75.0000028610231
441,139,48709,2,0,L|430:64,1,75.0000028610231
486,4,48880,6,0,B|506:7|513:-10|513:-10|474:-29|448:20,1,94.9999974632264,8|0,0:0|0:0,0:0:0:0:
301,85,49052,2,0,B|281:88|274:71|274:71|313:52|339:101,1,94.9999974632264
395,220,49223,6,0,P|395:245|359:244,1,66.6666666666667
346,248,49337,2,0,P|322:235|341:205,1,66.6666666666667,0|0,0:3|0:3,0:3:0:0:
345,191,49452,2,0,P|366:177|383:208,1,66.6666666666667,0|0,0:3|0:3,0:3:0:0:
271,304,49566,6,0,B|261:326|261:326|267:297|249:274,1,75.0000028610231,8|0,1:2|0:0,0:0:0:0:
177,224,49737,2,0,B|153:231|153:231|151:248|151:248|201:235,1,75.0000028610231,8|0,1:2|0:0,0:0:0:0:
370,350,49909,6,0,B|231:334|231:334|236:357|240:346|244:370|244:370|102:355,1,314.999990386963,8|0,1:2|0:0,0:0:0:0:
4,252,50252,6,0,B|12:250|12:250|5:214|5:214|-3:215,1,50,8|0,0:0|0:0,0:0:0:0:
27,317,50423,1,0,0:0:0:0:
170,77,50595,6,0,B|15:115|15:115|-8:85|7:47|32:39|32:39|161:7|161:7|215:-2|268:53|248:126|192:141|192:141|101:165,1,675.000025749207,0|8,0:0|1:2,0:0:0:0:
319,22,51280,5,0,0:0:0:0:
331,35,51366,1,0,0:0:0:0:
321,86,51452,1,8,1:2:0:0:
306,94,51537,1,0,0:0:0:0:
329,153,51623,6,0,B|370:165|370:165|386:155|379:139|366:136|356:145,1,89.9999972534181,8|0,0:0|0:0,0:0:0:0:
480,60,51795,2,0,B|492:18|492:18|482:2|466:9|463:22|472:32,1,89.9999972534181
463,175,51966,6,0,B|472:217|472:217|488:227|499:213|495:200|483:195,1,89.9999972534181
491,185,52137,2,0,B|481:142|481:142|465:132|454:146|458:159|470:164,1,89.9999972534181
189,244,52309,6,0,B|253:212|330:240|269:286|354:327|415:291|415:291|378:95|378:95|371:52|304:21|256:74|264:117|264:117|283:224,1,738.000011260986,0|8,0:0|1:2,0:0:0:0:
142,333,52995,6,0,B|120:345|112:365|112:365|24:349|24:349|0:344|-16:310|10:281|36:285|36:285|177:312,1,359.999989013672,8|0,0:0|0:0,0:0:0:0:
213,365,53509,1,0,0:0:0:0:
379,362,53680,6,0,B|451:351|451:351|455:326,1,89.9999972534181
508,257,53852,2,0,B|478:221|478:221|463:293,1,89.9999972534181,8|0,1:2|0:0,0:0:0:0:
327,240,54023,6,0,B|360:251|360:251|372:274|372:274|420:292,1,89.9999972534181
479,134,54195,2,0,B|446:145|446:145|434:168|434:168|386:186,1,89.9999972534181,8|0,1:2|0:0,0:0:0:0:
294,135,54366,6,0,L|287:93,1,26.6666666666667,8|0,0:0|0:0,0:0:0:0:
225,120,54480,2,0,L|218:78,1,26.6666666666667
156,105,54595,2,0,L|149:63,1,26.6666666666667
79,86,54709,6,0,L|88:35,1,43.3333313496908
151,78,54823,2,0,L|160:27,1,43.3333313496908
223,70,54937,6,0,L|232:19,1,43.3333313496908,8|8,0:0|0:0,0:0:0:0:
337,7,55052,6,0,B|304:16|304:16|274:183,1,200,12|0,1:2|0:0,0:0:0:0:
187,237,55280,2,0,B|220:230|220:230|340:305|340:305|386:297,1,200,8|0,1:2|0:0,0:0:0:0:
437,286,55509,2,0,B|458:283|458:283|472:221,1,66.6666666666667,8|0,1:2|0:0,0:0:0:0:
507,79,55737,6,0,B|498:52|460:49|460:49|433:77|445:102,1,116.666667779287,8|0,0:0|0:0,0:0:0:0:
354,202,55966,2,0,B|381:207|402:176|402:176|392:138|364:136,1,116.666667779287
324,7,56195,2,0,B|305:28|322:61|322:61|359:72|375:48,1,116.666667779287
149,46,56423,6,0,B|84:57|110:28|37:39|37:39|174:18|174:18|218:12|239:59,1,330.000010070801
248,123,56766,5,2,2:3:0:0:
235,125,56852,1,2,2:3:0:0:
223,124,56937,1,2,2:3:0:0:
211,120,57023,1,2,2:3:0:0:
200,114,57109,6,0,L|168:119,1,25,2|0,2:3|0:0,0:0:0:0:
196,129,57195,2,0,L|164:134,1,25,2|0,2:3|0:0,0:0:0:0:
214,194,57280,6,0,L|246:189,1,25,2|0,2:3|0:0,0:0:0:0:
210,209,57366,2,0,L|242:204,1,25,2|0,2:3|0:0,0:0:0:0:
164,257,57452,6,0,L|132:262,1,25,2|0,2:3|0:0,0:0:0:0:
160,272,57537,2,0,L|128:277,1,25,2|0,2:3|0:0,0:0:0:0:
178,337,57623,6,0,L|210:332,1,25,2|0,2:3|0:0,0:0:0:0:
174,352,57709,2,0,L|206:347,1,25,2|0,2:3|0:0,0:0:0:0:
113,384,57795,6,0,B|26:335|26:176|193:114|289:190|306:295|285:340|267:360|267:360|308:325|359:345|325:361|377:381|416:351|416:351|399:261|399:261|363:289,1,779.999964294435,0|8,0:0|1:2,0:0:0:0:
415,5,58480,6,0,P|412:63|345:120,1,150.000005722046,8|0,0:0|0:0,0:0:0:0:
449,140,58737,2,0,B|473:170|519:159|519:159|474:172|462:204,1,150.000005722046
445,268,58995,5,0,0:0:0:0:
441,287,59080,2,0,L|443:313,1,14.9999995422363
467,339,59166,5,0,0:0:0:0:
509,366,59252,1,0,0:0:0:0:
512,317,59337,6,0,B|468:342|424:300|424:300|384:256|327:283|327:283|268:311|223:257,1,300.000011444092,8|0,1:2|0:0,0:0:0:0:
148,167,59680,5,8,1:2:0:0:
179,227,59766,1,8,1:2:0:0:
161,291,59852,6,0,B|10:336|10:336|64:320|99:271|83:219|83:219|68:171|54:56|243:-1|309:120|296:203|253:243,1,690.000013160706,8|0,0:0|0:0,0:0:0:0:
314,381,60537,6,0,B|259:372|259:372|275:279|275:279|350:293,1,200,8|0,1:2|0:0,0:0:0:0:
475,230,60795,2,0,B|530:239|530:239|514:332|514:332|439:318,1,200,8|0,1:2|0:0,0:0:0:0:
389,262,61052,6,0,B|379:198|379:198|391:196,1,75.0000028610231,8|0,1:2|0:0,0:0:0:0:
509,26,61223,6,0,L|502:70,1,37.5,8|0,0:0|0:0,0:0:0:0:
491,133,61566,6,0,B|89:64|89:64|153:304|153:304|85:292,1,719.999978027344,0|8,0:0|1:2,0:0:0:0:
416,328,62252,6,0,L|430:317,1,12.5
365,296,62337,2,0,L|371:279,1,12.5
305,289,62423,2,0,L|302:271,1,12.5
252,317,62509,2,0,L|241:302,1,12.5
209,366,62595,6,0,L|221:308,1,50,8|0,0:0|0:0,0:0:0:0:
250,238,62766,6,0,B|277:196|277:196|299:12|299:12|233:185|233:185|238:222,1,440.000013427735
0,275,63280,6,0,L|48:286,1,50
250,238,63452,6,0,B|207:230|207:230|182:262|117:288|64:254|-25:145|122:46|185:90|214:123|226:165|226:165|317:182|317:182|332:185|350:222|321:251|310:250|310:250|253:240,1,666.000016259766,0|8,0:0|1:2,0:0:0:0:
439,54,63966,6,0,B|480:61|480:61|474:98,1,75.0000028610231,8|0,0:0|0:0,0:0:0:0:
505,160,64137,2,0,B|455:166,1,50
361,61,64309,6,0,B|354:20|354:20|317:26,1,75.0000028610231
265,65,64480,2,0,B|258:114,1,50,8|0,1:2|0:0,0:0:0:0:
191,16,64652,6,0,L|142:24,1,37.5000014305115,8|0,0:0|0:0,0:0:0:0:
32,249,64823,1,8,1:2:0:0:
32,249,65166,5,8,1:2:0:0:
47,181,65252,1,8,1:2:0:0:
62,113,65337,1,8,0:0:0:0:
272,223,65509,5,8,1:2:0:0:
257,291,65595,1,8,1:2:0:0:
242,359,65680,2,0,L|172:371,1,50,8|0,0:0|0:0,0:0:0:0:
373,327,65852,2,0,L|422:318,1,50,8|0,0:0|0:0,0:0:0:0:
201,172,66023,6,0,L|215:108,2,59.9999981689454,6|0|0,0:0|0:0|0:0,0:0:0:0:
512,23,66880,1,2,0:0:0:0:
375,45,67052,1,0,0:0:0:0:
443,34,67223,1,2,0:0:0:0:
423,126,67395,6,0,L|428:102,1,20
408,211,67737,2,0,L|400:187,1,20
275,40,68080,6,0,L|251:47,1,20
190,25,68423,2,0,L|166:20,1,20
0,137,68766,6,0,L|62:128,1,59.9999981689454,2|0,0:0|0:0,0:0:0:0:
139,93,69195,1,0,0:0:0:0:
138,104,69280,2,0,L|133:134,2,29.9999990844727,0|0|2,0:0|0:0|0:0,0:0:0:0:
84,27,69795,2,0,L|79:57,1,29.9999990844727,0|2,0:0|0:0,0:0:0:0:
3,223,70137,6,0,L|26:230,1,20
88,208,70480,2,0,L|112:203,1,20
277,275,70823,6,0,L|269:298,1,20
292,360,71166,2,0,L|297:384,1,20
100,337,71509,6,0,L|95:305,1,29.9999990844727,2|0,0:0|0:0,0:0:0:0:
194,266,71852,2,0,P|173:245|137:250,1,59.9999981689454,2|0,0:0|0:0,0:0:0:0:
23,159,72366,2,0,L|30:124,1,29.9999990844727,2|0,0:0|0:0,0:0:0:0:
74,79,72709,1,2,0:0:0:0:
53,15,72880,1,0,0:0:0:0:
270,189,73566,6,0,L|278:278,1,89.9999972534181,2|0,0:0|0:0,0:0:0:0:
395,125,74252,6,0,P|364:81|391:135,1,209.999993591309,2|0,0:0|0:0,0:0:0:0:
461,148,74937,5,0,0:0:0:0:
470,137,75109,1,2,0:0:0:0:
499,255,75280,5,0,0:0:0:0:
435,233,75452,1,2,0:0:0:0:
290,322,75623,1,0,0:0:0:0:
226,344,75795,6,0,L|330:335,1,100,8|8,1:2|1:2,0:0:0:0:
394,327,76223,1,8,1:2:0:0:
469,312,76309,6,0,B|340:302|340:302|327:292|327:292|250:285,2,220.000006713867,8|8|8,0:0|1:2|1:2,0:0:0:0:
176,258,76823,5,0,0:0:0:0:
166,254,76909,1,0,0:0:0:0:
156,250,76995,6,0,B|66:300|66:300|167:327,1,200,12|0,1:2|0:0,0:0:0:0:
253,361,77223,2,0,B|266:279|266:279|249:252|249:252|266:148,1,200,8|0,1:2|0:0,0:0:0:0:
289,80,77452,6,0,B|282:68|282:68|211:82,1,66.6666666666667,8|0,1:2|0:0,0:0:0:0:
152,103,77680,6,0,L|144:156,1,50,8|0,0:0|0:0,0:0:0:0:
0,46,77852,6,0,B|70:0|149:64|84:51|173:120|241:73,1,250
373,72,78366,6,0,P|364:29|381:0,1,75.0000028610231
445,91,78537,2,0,P|471:67|478:34,1,62.5,8|0,1:2|0:0,0:0:0:0:
315,157,78709,6,0,P|306:200|317:219,1,50
382,142,78880,2,0,P|400:150|408:169,1,37.5000014305115,8|0,1:2|0:0,0:0:0:0:
432,311,79052,6,0,B|467:333|443:423|358:399|312:353|306:256|397:181|474:203|535:279|507:353,1,419.999987182618,8|0,0:0|0:0,0:0:0:0:
204,134,79737,6,0,B|199:248|199:248|320:216|320:216|255:112|255:112|53:164|53:164|50:232|50:232|140:209,1,719.999978027344,0|8,0:0|1:2,0:0:0:0:
228,315,80423,6,0,P|200:319|185:335,1,50,8|0,0:0|0:0,0:0:0:0:
75,353,80595,6,0,L|431:375,1,300.000011444092
474,195,81109,6,0,P|459:212|434:219,1,50
418,220,81280,2,0,P|440:224|460:242,1,50,8|0,1:2|0:0,0:0:0:0:
467,257,81452,2,0,P|460:235|467:209,1,50
509,49,81623,5,8,1:2:0:0:
509,49,81709,1,8,1:2:0:0:
509,49,81795,2,0,L|502:109,1,40,8|0,0:0|0:0,0:0:0:0:
439,66,81966,2,0,L|435:106,1,40
293,37,82137,6,0,B|270:29|264:5|264:5|269:30|255:50,1,85.0000016212464
227,110,82309,2,0,B|238:125|233:150|233:150|239:126|262:118,1,85.0000016212464
176,34,82480,6,0,B|111:22|111:22|28:219|28:219|-24:211,2,330.000010070801,8|8|8,1:2|1:2|1:2,0:0:0:0:
227,110,83166,6,0,L|244:237,1,100,8|8,0:0|1:2,0:0:0:0:
102,370,83509,2,0,L|88:270,1,100,8|8,1:2|1:2,0:0:0:0:
227,110,83852,6,0,L|295:120,1,50
365,190,84023,6,0,B|386:143|341:85|341:85|359:133|330:167,1,187.5,8|0,1:2|0:0,0:0:0:0:
272,248,84366,6,0,L|276:268,1,12.5
241,273,84452,2,0,L|245:293,1,12.5
177,263,84537,5,8,1:2:0:0:
132,211,84652,1,8,1:2:0:0:
65,224,84766,1,8,1:2:0:0:
0,192,84880,5,0,0:0:0:0:
78,118,84995,1,8,0:0:0:0:
186,146,85109,1,8,0:0:0:0:
285,72,85223,6,0,L|293:19,1,37.5000014305115,8|0,1:2|0:0,0:0:0:0:
204,22,85395,6,0,B|264:12|243:42|298:34,1,90.0000003433228,8|0,1:2|0:0,0:0:0:0:
349,101,85566,6,0,L|361:16,1,83.3333333333333,8|0,1:2|0:0,0:0:0:0:
430,1,85737,2,0,L|421:67,1,66.6666666666667,8|0,1:2|0:0,0:0:0:0:
493,33,85909,5,8,0:0:0:0:
445,135,86080,6,0,B|453:162|453:162|474:171,1,40,8|0,1:2|0:0,0:0:0:0:
468,237,86252,2,0,B|495:234|495:234|516:215,1,50,8|0,1:2|0:0,0:0:0:0:
436,297,86423,2,0,B|453:321|453:321|443:350,1,59.9999981689454,8|0,1:2|0:0,0:0:0:0:
262,370,86595,5,8,0:0:0:0:
277,354,86680,5,0,0:0:0:0:
305,347,86766,5,0,0:0:0:0:
342,356,86852,5,0,0:0:0:0:
321,316,86937,1,0,0:0:0:0:
265,280,87023,1,0,0:0:0:0:
196,287,87109,5,0,0:0:0:0:
143,344,87195,1,0,0:0:0:0:
55,333,87280,1,8,0:0:0:0:
20,221,87452,5,0,0:0:0:0:
13,207,87537,1,0,0:0:0:0:
22,182,87623,5,8,0:0:0:0:
55,152,87709,1,8,0:0:0:0:
92,112,87795,5,0,0:0:0:0:
97,47,87880,1,8,0:0:0:0:
35,0,87966,6,0,L|22:88,1,81.0000019775391
65,273,88652,6,0,L|11:280,1,50,8|0,0:0|0:0,0:0:0:0:
119,229,88909,6,0,L|136:227,1,12.5
145,293,88995,2,0,B|132:278|132:278|172:83|172:83|212:72|212:72|245:98|245:98|226:186,1,389.999982147218
71,341,89337,6,0,B|193:325|193:325|199:330|199:330|389:307|389:307|393:302|393:302|462:293,1,389.999982147218,4|0,0:0|0:0,0:0:0:0:
267,295,89680,6,0,L|260:339,1,44.999998626709,8|0,0:0|0:0,0:0:0:0:
454,295,90023,5,2,1:3:0:0:
493,236,90109,1,2,1:3:0:0:
464,171,90195,1,2,1:3:0:0:
454,295,90366,6,0,L|446:345,1,50,8|0,0:0|0:0,0:0:0:0:
483,94,90537,6,0,B|506:56|490:-31|365:-60|309:38|338:120|411:100|411:100|359:137|391:204|457:208|477:146,1,479.999985351563,4|0,0:0|0:0,0:0:0:0:
358,247,91052,6,0,L|333:337,1,89.9999972534181,8|0,0:0|0:0,0:0:0:0:
216,314,91223,5,2,1:3:0:0:
216,314,91309,1,2,1:3:0:0:
216,314,91395,2,0,L|290:301,1,50,2|0,1:3|0:0,0:0:0:0:
402,360,91566,6,0,P|357:374|334:334,1,100
104,279,91737,6,0,B|112:259|112:259|302:226,1,200,8|0,0:0|0:0,0:0:0:0:
430,198,91995,6,0,L|427:209,1,12.5
345,155,92080,6,0,B|332:173|352:194|377:184|382:153|357:142|357:142|330:129|290:57|345:-46|485:-35|497:80|491:97,1,389.999982147218,4|0,0:0|0:0,0:0:0:0:
499,207,92423,6,0,L|512:148,1,59.9999981689454,8|0,0:0|0:0,0:0:0:0:
484,274,92595,2,0,L|471:333,1,59.9999981689454
280,379,92766,5,2,1:3:0:0:
398,354,92852,1,2,1:3:0:0:
332,333,92937,1,2,1:3:0:0:
190,312,93109,6,0,P|154:308|131:336,1,75.0000028610231,8|0,0:0|0:0,0:0:0:0:
23,371,93280,2,0,L|73:379,1,50
280,379,93452,6,0,B|225:369|225:369|191:241|191:241|269:255,1,262.500002503395
325,296,93795,5,8,0:0:0:0:
342,299,93880,2,0,L|395:310,1,50
447,183,94052,5,8,0:0:0:0:
512,196,94137,2,0,L|463:185,1,50
372,195,94309,2,0,P|368:162|384:137,1,62.5
454,111,94480,6,0,P|525:217|422:254,1,269.999991760254,8|0,0:0|0:0,0:0:0:0:
372,195,94823,6,0,B|366:190|366:190|359:100|359:100|364:95,1,104.999996795654
419,42,95166,6,0,B|422:22|422:22|316:12|316:12|319:9|319:9|314:12|314:12|228:4|228:4|230:10|230:10|225:4|225:4|134:-5|134:-5|128:45|128:45|79:41,1,405.000001544952,12|0,0:0|0:0,0:0:0:0:
5,81,95509,5,2,1:3:0:0:
15,150,95595,1,2,1:3:0:0:
70,107,95680,1,2,1:3:0:0:
244,37,95852,6,0,L|257:106,1,50,8|0,0:0|0:0,0:0:0:0:
265,217,96023,6,0,B|274:181|236:163|236:163|294:151|294:151|343:165|371:264|306:319|200:309|190:209,1,375
24,247,96366,5,2,1:3:0:0:
29,235,96452,1,2,1:3:0:0:
34,223,96537,2,0,B|139:197|139:197|73:213|69:272,1,200,8|0,1:1|0:0,0:0:0:0:
142,273,96795,1,0,0:0:0:0:
91,321,96880,6,0,P|96:337|126:356,1,50
188,378,97052,2,0,P|219:382|246:366,1,62.5
391,217,97223,6,0,L|397:180,1,37.5000014305115,8|0,0:0|0:0,0:0:0:0:
451,252,97395,2,0,L|438:329,1,75.0000028610231
301,325,97566,6,0,B|313:253|313:253|503:216|503:216|519:129|519:129|462:93|462:93|477:15,1,500,4|8,0:0|0:0,0:0:0:0:
315,0,98080,5,0,0:0:0:0:
281,61,98166,2,0,L|289:125,1,50,0|0,1:3|1:3,1:3:0:0:
225,259,98337,1,2,1:3:0:0:
192,199,98423,1,2,1:3:0:0:
48,136,98595,6,0,L|-12:149,1,50,8|0,0:0|0:0,0:0:0:0:
68,69,98766,6,0,B|77:25|77:25|137:87|137:87|109:215|109:215|30:250|30:250|43:188,1,389.999982147218,4|0,0:0|0:0,0:0:0:0:
57,140,99109,6,0,L|181:115,1,110.000003356934
392,73,99280,5,8,0:0:0:0:
368,140,99366,2,0,L|335:235,1,100
216,335,99537,1,8,1:2:0:0:
280,373,99623,6,0,L|198:288,1,100,8|0,1:3|0:0,0:0:0:0:
57,270,99795,2,0,L|154:245,1,100,8|0,1:3|0:0,0:0:0:0:
273,172,99966,6,0,B|276:183|276:183|280:197|256:235|214:214|210:202|210:202|182:110|182:110|179:99|201:58|244:79|247:90|247:90|261:134,1,300,8|0,0:0|0:0,0:0:0:0:
512,73,100309,6,0,B|390:57|390:57|384:62|384:62|194:39|194:39|190:34|190:34|121:25,1,389.999982147218,4|0,0:0|0:0,0:0:0:0:
316,27,100652,6,0,L|323:71,1,44.999998626709,8|0,0:0|0:0,0:0:0:0:
416,221,100995,5,2,1:3:0:0:
484,240,101080,1,2,1:3:0:0:
466,171,101166,1,2,1:3:0:0:
251,53,101337,6,0,L|259:103,1,50,8|0,0:0|0:0,0:0:0:0:
214,249,101509,6,0,B|212:257|215:287|248:336|334:333|372:253|351:183|274:141|215:201|214:230|214:230|164:300|164:300|67:282,1,479.999985351563,4|0,0:0|0:0,0:0:0:0:
0,137,102023,6,0,L|121:159,1,89.9999972534181,8|0,0:0|0:0,0:0:0:0:
142,44,102195,5,2,1:3:0:0:
142,44,102280,1,2,1:3:0:0:
142,44,102366,2,0,L|191:53,1,50,2|0,1:3|0:0,0:0:0:0:
87,153,102537,6,0,P|55:117|85:75,1,100
241,4,102709,6,0,P|308:67|277:164,1,200,8|0,0:0|0:0,0:0:0:0:
222,276,102966,6,0,L|208:278,1,12.5
133,289,103052,6,0,B|139:223|139:223|218:209|218:209|268:318|268:318|338:306|338:306|345:247,1,389.999982147218,4|0,0:0|0:0,0:0:0:0:
488,129,103395,6,0,P|454:125|437:145,1,59.9999981689454,8|0,0:0|0:0,0:0:0:0:
422,213,103566,2,0,L|439:300,1,59.9999981689454
512,55,103737,5,2,1:3:0:0:
376,23,103823,1,2,1:3:0:0:
444,39,103909,1,2,1:3:0:0:
171,9,104080,6,0,P|168:59|202:87,1,75.0000028610231,8|0,0:0|0:0,0:0:0:0:
248,56,104252,2,0,P|252:31|241:10,1,50
56,104,104423,6,0,L|318:72,1,262.500002503395
76,13,104766,5,8,0:0:0:0:
72,30,104852,2,0,L|61:83,1,50
27,222,105023,5,8,0:0:0:0:
11,288,105109,2,0,L|23:237,1,50
152,163,105280,2,0,P|86:173|86:173,1,62.5
47,351,105452,6,0,B|121:388|159:319|159:319|202:244|287:294,1,269.999991760254,8|0,0:0|0:0,0:0:0:0:
337,376,105795,6,0,B|305:382|305:382|291:375|303:363|303:363|363:350,1,104.999996795654
512,225,106137,6,0,B|504:274|504:274|507:281|507:281|504:276|504:276|492:353|492:353|488:378|455:392|422:369|426:344|426:344|432:304|432:304|428:307|428:307|433:302|433:302|452:174,1,405.000001544952,12|0,0:0|0:0,0:0:0:0:
406,48,106480,5,2,1:3:0:0:
473,36,106566,1,2,1:3:0:0:
485,103,106652,1,2,1:3:0:0:
367,242,106823,6,0,L|359:295,1,50,8|0,0:0|0:0,0:0:0:0:
200,110,106995,6,0,B|283:18|283:18|329:137|329:137|189:114,1,375
0,40,107337,5,2,1:3:0:0:
10,47,107423,1,2,1:3:0:0:
20,54,107509,2,0,B|143:31|143:31|128:110,1,200,8|0,1:1|0:0,0:0:0:0:
93,168,107766,1,0,0:0:0:0:
163,252,107852,6,0,P|175:230|151:222,1,50
93,168,108023,2,0,L|78:253,1,75.0000028610231
7,321,108195,6,0,L|62:310,1,50,8|0,0:0|0:0,0:0:0:0:
286,363,108366,2,0,B|271:338|239:351|239:351|256:356|271:373,1,89.9999972534181
158,367,108537,6,0,B|178:263|178:263|456:222|456:222|510:334,1,500,4|8,0:0|0:0,0:0:0:0:
286,363,109052,5,0,0:0:0:0:
265,293,109137,1,0,0:0:0:0:
282,225,109223,2,0,L|291:155,1,50,2|2,1:3|1:3,1:3:0:0:
314,14,109395,1,2,1:3:0:0:
413,142,109566,6,0,L|407:192,1,50,8|0,0:0|0:0,0:0:0:0:
484,98,109737,6,0,B|341:113|341:113|294:56|294:56|120:73,1,375,4|0,0:0|0:0,0:0:0:0:
39,98,110080,6,0,B|51:94|51:94|69:12|69:12|60:3,1,110.000003356934
57,202,110252,5,8,0:0:0:0:
0,249,110337,2,0,B|-20:267|-20:267|-5:320|-5:320|24:330,1,100
215,263,110509,1,8,1:2:0:0:
268,311,110595,6,0,B|298:304|298:304|307:261|307:261|273:237,1,100,8|0,1:3|0:0,0:0:0:0:
161,219,110766,2,0,B|131:226|131:226|122:269|122:269|142:283,1,100,8|0,1:3|0:0,0:0:0:0:
308,371,110937,6,0,B|392:352|392:352|400:287|400:287|364:229|364:229|278:248,1,300,8|0,0:0|0:0,0:0:0:0:
188,384,111280,6,0,B|204:262|204:262|199:256|199:256|222:66|222:66|227:62|227:62|236:-7,1,389.999982147218,4|0,0:0|0:0,0:0:0:0:
286,104,111623,6,0,L|280:149,1,44.999998626709,8|0,0:0|0:0,0:0:0:0:
215,263,111966,5,2,1:3:0:0:
292,318,112052,1,2,1:3:0:0:
247,380,112137,1,2,1:3:0:0:
489,357,112309,6,0,L|482:308,1,50,8|0,0:0|0:0,0:0:0:0:
391,193,112480,6,0,B|306:194|277:51|366:-14|467:18|480:158|415:189|415:189|404:196|404:196|414:258|414:258|435:270,1,479.999985351563,4|0,0:0|0:0,0:0:0:0:
292,318,112995,6,0,L|188:304,1,89.9999972534181,8|0,0:0|0:0,0:0:0:0:
91,312,113166,5,2,1:3:0:0:
91,312,113252,1,2,1:3:0:0:
91,312,113337,2,0,L|100:364,1,50,2|0,1:3|0:0,0:0:0:0:
202,305,113509,6,0,P|186:258|131:272,1,100
11,341,113680,6,0,L|34:138,1,200,8|0,0:0|0:0,0:0:0:0:
100,76,113937,6,0,L|102:56,1,12.5
12,42,114023,6,0,B|44:4|84:31|84:31|124:57|154:24|154:24|184:-7|222:17|222:17|260:41|288:8|288:8|320:-25|366:2,1,389.999982147218,4|0,0:0|0:0,0:0:0:0:
512,105,114366,6,0,B|452:95,1,59.9999981689454,8|0,0:0|0:0,0:0:0:0:
480,170,114537,2,0,B|420:160,1,59.9999981689454
374,350,114709,5,2,1:3:0:0:
356,281,114795,1,2,1:3:0:0:
338,215,114880,6,0,P|352:239|351:270,1,59.9999981689454,2|0,1:3|0:0,0:0:0:0:
233,360,115052,6,0,P|195:381|145:362,1,75.0000028610231,8|0,0:0|0:0,0:0:0:0:
109,330,115223,2,0,B|116:302|116:302|144:310,1,50
244,193,115395,2,0,B|251:220|251:220|223:227,1,50
150,116,115566,6,0,P|72:171|156:129,1,259.999988098145,0|8,0:0|0:0,0:0:0:0:
79,23,115823,1,0,0:0:0:0:
244,193,115995,5,0,0:0:0:0:
330,59,116080,2,0,B|243:33|243:33|249:72|249:72|305:90|305:90|283:124|283:124|252:114,1,259.999988098145
461,95,116423,6,0,B|414:104|414:104|405:149|405:149|433:186|433:186|520:168|520:168|531:70|531:70|438:58,1,405.000001544952,8|0,0:0|0:0,0:0:0:0:
328,185,116766,6,0,B|356:201|356:201|347:247|347:247|319:253,1,104.999996795654
29,279,117109,6,0,B|89:270|89:270|107:315|107:315|112:313|112:313|107:315|107:315|131:373|131:373|186:364|186:364|187:347|187:347|192:348|192:348|187:347|187:347|195:249|195:249|274:236,1,419.999987182618,12|0,0:0|0:0,0:0:0:0:
399,323,117452,5,2,1:3:0:0:
333,350,117537,1,2,1:3:0:0:
276,306,117623,2,0,L|333:315,1,50,2|0,1:3|0:0,0:0:0:0:
480,167,117795,2,0,L|430:159,1,50,8|0,0:0|0:0,0:0:0:0:
372,241,117966,6,0,B|424:207|458:257|459:287|459:287|446:261|443:171|520:249|545:186|541:97|449:76,1,375
287,47,118309,5,2,1:3:0:0:
297,36,118395,1,2,1:3:0:0:
307,25,118480,2,0,B|328:-3|328:-3|354:125|354:125|331:155,1,200,8|0,1:1|0:0,0:0:0:0:
286,206,118737,1,0,0:0:0:0:
240,262,118823,6,0,L|231:311,1,50
193,208,118995,6,0,B|133:219|133:219|137:246,1,75.0000028610231
284,361,119166,2,0,B|344:350|344:350|340:323,1,75.0000028610231,8|0,0:0|0:0,0:0:0:0:
166,296,119337,6,0,B|159:333|159:333|151:336|151:336|144:372,1,75.0000028610231
49,356,119509,6,0,B|18:325|18:325|56:157|56:157|156:135|156:135|168:79|168:79|118:56|118:56|127:10|127:10|162:-1,1,500,4|8,0:0|0:0,0:0:0:0:
282,152,120023,5,0,0:0:0:0:
351,136,120109,1,0,0:0:0:0:
343,96,120195,5,2,1:3:0:0:
372,68,120280,1,2,1:3:0:0:
324,16,120366,1,2,1:3:0:0:
406,193,120537,6,0,L|471:176,1,50,8|0,0:0|0:0,0:0:0:0:
504,114,120709,6,0,P|426:13|342:188,1,375,4|0,0:0|0:0,0:0:0:0:
346,249,121052,5,0,0:0:0:0:
368,309,121137,1,0,0:0:0:0:
487,346,121223,1,8,0:0:0:0:
465,286,121309,6,0,B|417:261|417:261|389:305,1,100
282,382,121480,1,8,1:2:0:0:
231,336,121566,6,0,L|216:215,1,100,8|0,1:3|0:0,0:0:0:0:
69,190,121737,2,0,L|81:289,1,100,8|0,1:3|0:0,0:0:0:0:
245,118,121909,6,0,B|137:98|137:98|83:174|83:174|-13:157,1,300,8|0,0:0|0:0,0:0:0:0:
119,2,122252,6,0,B|135:124|135:124|130:130|130:130|153:320|153:320|158:324|158:324|167:393,1,389.999982147218,4|0,0:0|0:0,0:0:0:0:
217,282,122595,6,0,L|211:237,1,44.999998626709,8|0,0:0|0:0,0:0:0:0:
57,107,122937,5,2,1:3:0:0:
142,65,123023,1,2,1:3:0:0:
175,135,123109,1,2,1:3:0:0:
321,62,123280,6,0,L|330:13,1,50,8|0,0:0|0:0,0:0:0:0:
384,189,123452,6,0,B|411:225|411:225|524:208|524:208|558:109|443:39|368:113|368:113|337:143|285:122,1,479.999985351563,4|0,0:0|0:0,0:0:0:0:
142,65,123966,6,0,P|158:95|124:146,1,89.9999972534181,8|0,0:0|0:0,0:0:0:0:
69,173,124137,5,2,1:3:0:0:
69,173,124223,1,2,1:3:0:0:
69,173,124309,2,0,P|45:176|24:164,1,50,2|0,1:3|0:0,0:0:0:0:
74,48,124480,6,0,L|190:32,1,100
363,137,124652,6,0,P|317:58|235:98,1,200,8|0,0:0|0:0,0:0:0:0:
232,267,124909,6,0,L|220:263,1,12.5
181,194,124995,6,0,B|149:261|207:337|299:303|303:234|303:234|434:200|434:200|412:216|408:241,1,419.999987182618,4|0,0:0|0:0,0:0:0:0:
474,257,125337,6,0,P|500:289|490:327,1,75.0000028610231,8|0,0:0|0:0,0:0:0:0:
389,367,125509,2,0,P|415:342|414:305,1,75.0000028610231
363,137,125680,5,2,1:3:0:0:
313,85,125766,1,2,1:3:0:0:
243,103,125852,6,0,P|249:141|261:141,1,59.9999981689454,2|0,1:3|0:0,0:0:0:0:
357,5,126023,6,0,L|277:16,1,75.0000028610231,8|0,0:0|0:0,0:0:0:0:
157,31,126195,2,0,B|186:18|213:42|213:42|203:19,1,85.0000016212464
85,16,126366,2,0,B|66:29|66:29|74:69|74:69|96:72,1,85.0000016212464
25,213,126537,6,0,B|36:143|36:143|100:167|100:167|90:224|90:224|24:233,1,259.999988098145,0|8,0:0|0:0,0:0:0:0:
44,312,126795,1,0,0:0:0:0:
202,207,126966,5,8,0:0:0:0:
265,335,127052,2,0,B|218:317|195:352|195:352|207:304|258:289|258:289|205:261|163:323,1,259.999988098145
366,224,127395,6,0,B|412:236|429:285|429:285|493:243|493:243|457:180|457:180|416:214|357:196|357:196|371:231|349:258,1,405.000001544952,8|0,0:0|0:0,0:0:0:0:
339,327,127737,6,0,L|345:377,1,50,8|0,1:3|0:0,0:0:0:0:
352,384,127909,2,0,L|346:334,1,50,8|0,1:3|0:0,0:0:0:0:
442,109,128080,6,0,B|397:46|221:43|233:217|281:253|281:253|253:229|211:244,1,397.500016679764,12|0,0:0|0:0,0:0:0:0:
239,310,128423,5,2,1:3:0:0:
195,363,128509,1,2,1:3:0:0:
129,344,128595,1,2,1:3:0:0:
4,291,128766,6,0,L|30:181,1,100,8|0,0:0|0:0,0:0:0:0:
90,94,128937,6,0,P|99:117|78:132,1,50,8|0,1:3|0:0,0:0:0:0:
13,122,129109,6,0,P|5:85|38:62,1,75.0000028610231,8|0,1:3|0:0,0:0:0:0:
117,80,129280,6,0,P|128:126|83:161,1,100,8|0,1:3|0:0,0:0:0:0:
4,291,129452,6,0,L|30:181,1,100,8|0,0:0|0:0,0:0:0:0:
80,10,129623,5,8,0:0:0:0:
80,10,129709,1,8,0:0:0:0:
80,10,129795,2,0,L|139:3,1,50,8|0,0:0|0:0,0:0:0:0:
193,28,129966,2,0,L|252:21,1,50
306,46,130137,1,8,0:0:0:0:
454,21,130309,5,8,0:0:0:0:
454,21,130395,1,8,0:0:0:0:
440,89,130480,5,12,0:0:0:0:
448,106,130566,1,0,0:0:0:0:
430,121,130652,1,8,0:0:0:0:
438,138,130737,1,0,0:0:0:0:
421,153,130823,1,0,0:0:0:0:
429,170,130909,1,0,0:0:0:0:
412,185,130995,1,0,0:0:0:0:
420,202,131080,1,0,0:0:0:0:
406,213,131166,5,0,0:0:0:0:
410,231,131252,1,0,0:0:0:0:
410,253,131337,1,0,0:0:0:0:
403,281,131423,1,0,0:0:0:0:
383,309,131509,1,0,0:0:0:0:
349,329,131595,1,0,0:0:0:0:
305,332,131680,1,0,0:0:0:0:
261,309,131766,1,0,0:0:0:0:
303,251,131852,1,8,0:0:0:0:
303,251,132023,5,8,0:0:0:0:
268,222,132109,1,0,0:0:0:0:
223,231,132195,1,0,0:0:0:0:
190,271,132280,5,0,0:0:0:0:
132,259,132366,1,0,0:0:0:0:
87,296,132452,1,0,0:0:0:0:
20,276,132537,5,0,0:0:0:0:
5,288,132623,5,0,0:0:0:0:
44,336,132709,5,0,0:0:0:0:
107,368,132795,5,0,0:0:0:0:
184,382,132880,5,0,0:0:0:0:
271,364,132966,5,0,0:0:0:0:
348,297,133052,5,0,0:0:0:0:
389,193,133137,5,0,0:0:0:0:
363,70,133223,6,0,P|343:37|339:81,1,104.999996795654,2|0,0:0|0:0,0:0:0:0:
295,134,133909,6,0,B|252:117|239:51|268:8|268:8|205:-8|205:-8|162:32|164:155|213:217|293:259|413:255|475:207|509:95|499:70|499:70|434:55|434:55|432:99|407:143|350:148,1,975.000027894975,4|0,0:0|0:0,0:0:0:0:
114,1,134595,6,0,B|85:147|147:136|127:228,1,220.000006713867,4|0,3:1|0:0,0:0:0:0:
168,279,134852,2,0,B|158:346|158:346|154:367|115:394|85:355|87:337|87:337|96:278,1,220.000006713867
48,209,135109,2,0,B|15:216|15:216|21:249|21:249|50:244,1,75.0000028610231
246,350,135280,6,0,B|289:372|319:340|319:340|355:303|402:326|402:326|445:343|479:319|488:282|488:282|472:346|525:363,1,375,8|0,3:1|3:1,3:1:0:0:
321,304,135623,6,0,B|306:251|306:251|311:259|311:259|294:198,1,100
237,159,135795,2,0,B|290:148|290:148|281:147|281:147|317:140,1,100
459,4,135966,6,0,B|493:6|541:46|543:123|478:159|429:153|381:134|369:87|383:50|383:50|456:70,1,375
446,68,136309,6,0,L|463:184,1,100
479,263,136480,6,0,L|470:314,1,37.5000014305115
459,321,136566,2,0,L|454:345,1,25
440,378,136652,6,0,B|497:370|497:370|506:355|494:344|494:344|442:350,1,139.999995727539,8|0,3:1|0:0,0:0:0:0:
368,363,136823,2,0,B|297:381|322:327|250:342,1,125
73,292,136995,6,0,B|15:299|15:299|6:314|18:325|18:325|70:319,1,139.999995727539
145,307,137166,2,0,B|215:288|190:342|262:327,1,125
336,204,137337,6,0,B|213:186|213:186|184:181|158:124|198:81|235:84|235:84|356:103|356:103|411:110|402:159|390:207|538:232|538:232|389:207|464:278|395:304|355:286,1,839.999974365235
101,132,138023,6,0,B|9:149|9:149|19:197,1,139.999995727539,8|0,3:1|0:0,0:0:0:0:
30,201,138195,2,0,B|51:225|51:225|33:294|33:294|10:303,1,125
154,384,138366,6,0,B|246:367|246:367|236:319,1,139.999995727539,0|0,3:1|0:0,0:0:0:0:
225,315,138537,2,0,B|204:291|204:291|221:221|221:221|245:213,1,125
423,99,138709,6,0,B|525:83|525:83|512:-12|512:-12|423:4|423:4|380:146|380:146|342:115|342:115|263:127|263:127|252:66,1,620.000004730225
38,195,139223,6,0,L|78:202,1,25
19,123,139309,2,0,L|59:130,1,25
0,51,139395,6,0,B|19:53|19:53|22:51|22:51|23:54|23:54|60:60,1,50,8|0,3:1|0:0,0:0:0:0:
85,32,139566,6,0,B|104:34|104:34|107:32|107:32|108:35|108:35|161:44,1,75
208,116,139737,6,0,B|227:118|227:118|230:116|230:116|231:119|231:119|310:134,1,100
357,32,139909,6,0,B|376:34|376:34|379:32|379:32|380:35|380:35|497:53,1,125
512,257,140080,6,0,B|514:335|514:335|447:349|447:349|430:312|430:312|379:323|379:323|360:283,1,279.999991455078
7,295,140423,6,0,B|12:187|12:187|102:170|102:170|149:265|149:265|249:245|249:245|253:209|253:209|318:196|318:196|335:231,1,542.500004138947
362,286,140766,6,0,B|435:300|435:300|464:257|464:192|393:216|364:120|436:41|509:69,1,375,8|0,3:1|0:0,0:0:0:0:
483,140,141109,6,0,B|468:148|468:148|360:123,1,100
290,14,141280,2,0,B|338:25|338:25|334:16|334:16|375:24,1,100
194,132,141452,6,0,B|38:96|38:96|26:80|26:80|127:106|108:46|170:10|230:50,1,375
202,50,141795,2,0,L|218:154,1,100
262,245,141966,6,0,L|218:261,1,37.5000014305115
201,268,142052,2,0,L|227:280,1,25
254,307,142137,6,0,P|331:217|379:232,1,160,8|0,3:1|0:0,0:0:0:0:
409,168,142309,2,0,P|477:202|484:279,1,160
424,363,142480,6,0,B|382:371|382:371|368:362|379:349|379:349|440:338|440:338|455:346|447:360|447:360|434:363,1,160
330,288,142652,2,0,B|304:147|304:147|337:141,1,160
309,43,142823,6,0,B|262:-15|262:-15|-9:39|-9:39|-27:93|-27:93|20:137|20:137|0:186|0:186|43:229|43:229|21:278|21:278|57:319|57:319|161:297|161:297|177:242,1,839.999974365235
497,263,143509,6,0,L|475:197,1,50,8|0,3:1|0:0,0:0:0:0:
420,139,143680,6,0,L|394:230,1,89.9999972534181
308,271,143852,6,0,L|179:298,1,129.999994049073
56,242,144023,6,0,L|5:71,1,160
1,16,144195,6,0,B|51:8|41:40|92:31,1,90.0000021972657,8|0,3:1|0:0,0:0:0:0:
236,177,144709,6,0,L|272:183,1,37.5000014305115
312,0,144880,6,0,B|172:12|172:12|260:197|205:390|205:390|345:378|345:378|253:197|312:0,1,1050.00004005432,8|0,3:1|0:0,0:0:0:0:
149,193,145566,6,0,L|313:217,1,165.000001573563
364,141,145795,6,0,L|117:106,1,250
182,277,146023,6,0,L|252:286,1,66.6666666666667
286,377,146252,6,0,P|337:235|464:359,1,375,4|0,3:1|0:0,0:0:0:0:
397,357,146595,6,0,B|374:344|366:318|366:318|374:344|358:369,1,100
498,221,146766,2,0,B|524:226|524:226|533:178|533:178|506:173,1,100
368,69,146937,6,0,B|306:140|306:140|310:150|310:150|410:166|410:166|417:158|417:158|366:-13,1,375
360,3,147280,2,0,L|262:22,1,100
153,83,147452,6,0,L|142:43,1,37.5000014305115
140,82,147537,2,0,L|133:57,1,25
55,62,147623,6,0,B|69:14|69:14|134:2|134:2|163:43,1,139.999995727539,8|0,3:1|0:0,0:0:0:0:
239,122,147795,2,0,B|234:103|234:103|181:94|181:94|170:153,1,125
9,235,147966,6,0,B|13:253|13:253|67:263|67:263|76:212,1,125
198,304,148137,2,0,L|123:315,1,75.0000028610231
414,260,148309,6,0,B|433:315|410:390|344:440|166:401|139:336|144:131|315:77|436:134|457:278|422:348|422:348|501:363|501:363|522:308,1,839.999974365235
408,38,148995,6,0,B|430:49|430:49|442:99|442:99|381:113,1,139.999995727539,8|0,3:1|0:0,0:0:0:0:
373,108,149166,2,0,B|350:96|350:96|338:46|338:46|399:32,1,139.999995727539
511,90,149337,6,0,B|446:104|457:44|366:66,1,139.999995727539
319,15,149509,2,0,B|254:1|265:61|174:39,1,139.999995727539
44,182,149680,6,0,B|79:275|79:275|46:308|46:308|66:363|66:363|158:388|212:310|212:310|190:255|190:255|143:249|143:249|82:91,1,620.000004730225
4,34,150195,6,0,L|-2:66,1,25
75,21,150280,2,0,L|69:53,1,25
146,8,150366,6,0,B|141:40|141:40|144:43|144:43|140:45|140:45|136:68,1,50,8|0,3:1|0:0,0:0:0:0:
151,78,150537,6,0,B|146:110|146:110|149:113|149:113|145:115|145:115|138:156,1,75.0000028610231
63,210,150709,6,0,B|58:242|58:242|61:245|61:245|57:247|57:247|45:319,1,100
202,372,150880,6,0,B|232:362|232:362|234:358|234:358|237:361|237:361|322:335,1,125
498,140,151052,6,0,B|384:172|384:172|305:121|305:121|277:262|277:262|217:215|217:215|116:240,2,525.00000500679
471,261,151737,6,0,B|464:299|464:299|460:327|414:345|378:312|381:286|381:286|413:107|413:107|411:99|411:99|419:46,1,375,8|0,3:1|0:0,0:0:0:0:
358,1,152080,6,0,B|350:46|350:46|329:51|329:51|323:89,1,100
184,52,152252,2,0,B|199:72|199:72|250:63|250:63|254:41,1,100
116,16,152423,6,0,B|93:48|117:87|117:87|152:130|172:198|75:289|-48:215|-33:90|63:71,1,405.000001544952
69,141,152766,6,0,L|192:167,1,100
237,177,152937,2,0,L|295:189,2,50.0000019073487
105,281,153109,5,8,3:1:0:0:
187,355,153223,5,0,0:0:0:0:
294,321,153337,5,0,0:0:0:0:
426,272,153452,6,0,L|485:284,1,50.0000019073487
388,209,153566,6,0,L|329:221,1,50.0000019073487
449,169,153680,6,0,L|508:181,1,50.0000019073487
413,108,153795,6,0,B|399:62|343:56|310:85|310:85|334:51|334:51|307:0|208:-42|123:63|173:133|173:133|128:103|128:103|-3:144|-7:397|228:392|302:311|308:197|236:142,1,1050.00001001358
143,215,154480,6,0,L|192:265,1,50,8|0,3:1|0:0,0:0:0:0:
264,363,154652,6,0,L|369:313,1,89.9999972534181
480,311,154823,6,0,L|464:176,1,129.999994049073
511,59,154995,6,0,L|354:26,1,160
244,0,155166,6,0,P|280:20|274:66,1,90.0000021972657,8|0,3:1|0:0,0:0:0:0:
222,185,155680,6,0,L|236:247,1,37.5000014305115
0,241,155852,6,0,B|-39:170|15:112|15:112|198:135|198:135|261:207|341:152|341:152|523:175|523:175|555:243|508:302|508:302|325:279|325:279|261:207|182:262|182:262|9:240,1,1308.99997403412,8|0,3:1|0:0,0:0:0:0:
52,182,156537,6,0,L|78:188,1,16.6666666666667
81,218,156652,6,0,L|107:233,1,18.3333338928223
88,263,156766,6,0,L|104:293,1,19.9999993896485
40,316,156880,6,0,L|34:342,1,25.0000009536744
104,356,156995,6,0,L|112:385,1,29.9999990844727
172,339,157109,6,0,L|200:365,1,34.9999989318848
224,283,157223,6,0,B|231:260|231:260|253:268|253:268|246:290|246:290|224:283,1,86.6666626993817
291,349,157337,6,0,B|296:366|296:366|314:361|314:361|310:345|310:345|291:350,1,66.6666666666667
367,297,157452,6,0,L|393:294,1,26.6666666666667
425,338,157566,6,0,L|441:340,1,16.6666666666667
466,312,157680,5,0,0:0:0:0:
486,330,157795,5,0,0:0:0:0:
498,324,157909,6,0,L|250:346,1,225.000008583069,2|0,0:0|0:0,0:0:0:0:
65,360,158766,6,0,L|74:320,1,29.9999990844727,2|0,0:0|0:0,0:0:0:0:
82,322,159109,2,0,L|76:352,1,29.9999990844727,2|0,0:0|0:0,0:0:0:0:
92,139,160652,6,0,B|107:201|107:201|113:228|86:263|41:248|34:220|34:220|3:94,1,300,2|0,0:0|0:0,0:0:0:0:
159,56,161509,6,0,L|130:48,1,29.9999990844727,2|0,0:0|0:0,0:0:0:0:
32,22,161852,2,0,L|60:29,1,29.9999990844727,2|0,0:0|0:0,0:0:0:0:
419,233,162366,6,0,L|414:257,3,14.9999995422363
487,245,162709,1,0,0:0:0:0:
323,8,163395,6,0,L|389:-4,1,50,2|0,0:0|0:0,0:0:0:0:
360,75,163737,2,0,B|256:104|279:10|163:44,1,200,2|0,0:0|0:0,0:0:0:0:
113,95,164252,6,0,B|118:96|118:96|109:148,1,50,2|0,0:0|0:0,0:0:0:0:
323,8,164595,6,0,B|333:99,1,75.0000028610231,2|0,0:0|0:0,0:0:0:0:
281,373,165109,5,0,0:0:0:0:
296,370,165195,5,0,0:0:0:0:
293,355,165280,5,0,0:0:0:0:
278,358,165366,5,0,0:0:0:0:
44,238,166137,6,0,B|35:235|35:235|13:228|22:202|22:202|59:98|59:98|68:76|98:85|98:85|197:118|197:118|226:128|216:157|216:157|194:222|194:222|187:242|164:234|164:234|122:220|122:220|102:213|109:193|109:193|121:162,1,554.999997882843,2|0,0:0|0:0,0:0:0:0:
322,82,166995,6,0,B|323:91|323:91|274:104,1,50,2|0,0:0|0:0,0:0:0:0:
511,36,167337,6,0,L|391:16,1,100,2|0,0:0|0:0,0:0:0:0:
419,236,167852,6,0,L|396:241,1,18.7500007152558
440,251,167937,6,0,L|443:269,1,18.7500007152558
435,222,168023,6,0,L|458:217,1,18.7500007152558
414,207,168109,6,0,L|410:188,1,18.7500007152558
333,251,168195,5,0,0:0:0:0:
145,141,168880,5,2,0:0:0:0:
33,163,169052,1,0,0:0:0:0:
56,275,169223,1,0,0:0:0:0:
115,233,169395,5,0,0:0:0:0:
181,246,169566,1,0,0:0:0:0:
167,312,169737,1,2,0:0:0:0:
155,350,169909,5,0,0:0:0:0:
148,314,170080,1,2,0:0:0:0:
145,360,170252,5,0,0:0:0:0:
114,199,170423,1,0,0:0:0:0:
83,38,170595,5,0,0:0:0:0:
85,28,170680,1,0,0:0:0:0:
87,19,170766,1,0,0:0:0:0:
88,10,170852,1,0,0:0:0:0:
90,1,170937,1,0,0:0:0:0:
154,25,171109,5,0,0:0:0:0:
221,15,171280,1,0,0:0:0:0:
284,41,171452,1,0,0:0:0:0:
351,31,171623,5,2,0:0:0:0:
436,105,171795,1,0,0:0:0:0:
329,141,171966,1,0,0:0:0:0:
213,167,172137,5,0,0:0:0:0:
264,122,172309,1,0,0:0:0:0:
277,188,172480,1,2,0:0:0:0:
162,177,172652,5,0,0:0:0:0:
198,170,172823,1,2,0:0:0:0:
156,188,172995,5,0,0:0:0:0:
308,249,173166,1,0,0:0:0:0:
460,310,173337,5,0,0:0:0:0:
458,300,173423,1,0,0:0:0:0:
457,291,173509,1,0,0:0:0:0:
455,282,173595,1,0,0:0:0:0:
454,272,173680,1,0,0:0:0:0:
484,211,173852,5,0,0:0:0:0:
458,148,174023,1,0,0:0:0:0:
487,86,174195,1,0,0:0:0:0:
461,23,174366,6,0,P|431:25|410:50,1,50,2|0,0:0|0:0,0:0:0:0:
364,89,174709,6,0,L|162:61,1,200,2|0,0:0|0:0,0:0:0:0:
59,36,175223,6,0,B|61:25|61:25|88:16|88:16|96:23,1,50,2|0,0:0|0:0,0:0:0:0:
0,132,175566,2,0,B|10:129|10:129|19:102|19:102|12:94,1,50,2|0,0:0|0:0,0:0:0:0:
90,136,175909,1,0,0:0:0:0:
7,204,176080,5,0,0:0:0:0:
5,214,176166,1,0,0:0:0:0:
3,223,176252,1,0,0:0:0:0:
2,232,176337,1,0,0:0:0:0:
0,241,176423,1,0,0:0:0:0:
26,304,176595,5,0,0:0:0:0:
115,341,176766,1,0,0:0:0:0:
178,315,176937,1,0,0:0:0:0:
265,204,177109,6,0,L|271:179,1,25,2|0,0:0|0:0,0:0:0:0:
288,106,177280,6,0,B|320:140|327:191|273:257|194:229|194:229|239:240|245:287,1,300.000011444092,2|0,0:0|0:0,0:0:0:0:
329,341,177795,6,0,B|354:328|377:344|377:344|397:358|423:349,1,100,0|2,0:0|0:0,0:0:0:0:
466,270,178137,1,0,0:0:0:0:
489,383,178309,1,2,0:0:0:0:
489,383,178480,6,0,B|505:243|505:243|367:275|367:275|424:349,1,375
276,238,179166,6,0,B|184:84|184:84|203:27|203:27|352:-2|352:-2|389:48|389:48|370:104|370:104|163:146|163:146|152:188|152:188|179:214|179:214|309:188,1,930.000007095337,8|0,2:1|0:0,0:0:0:0:
405,220,179852,6,0,B|470:204|470:204|503:249|503:249|485:296|485:296|438:309,1,200,8|0,1:2|0:0,0:0:0:0:
395,352,180109,2,0,B|342:343|342:343|328:319|328:319|184:291,1,200,8|0,1:2|0:0,0:0:0:0:
147,341,180366,2,0,B|140:356|140:356|103:364|103:364|87:349,1,75.0000028610231,8|0,1:2|0:0,0:0:0:0:
0,235,180537,6,0,L|49:244,1,50,8|0,0:0|0:0,0:0:0:0:
134,196,180709,6,0,B|130:118|73:136|61:73|61:73|74:136|26:139|38:185,1,250
252,90,181223,6,0,B|267:79|267:79|260:36|260:36|242:28,1,75.0000028610231
178,42,181395,2,0,B|164:51|164:51|168:81|168:81|182:85,1,62.5,8|0,1:2|0:0,0:0:0:0:
343,22,181566,6,0,L|396:33,1,50
352,96,181737,2,0,L|343:132,1,37.5000014305115,8|0,1:2|0:0,0:0:0:0:
489,0,181909,6,0,B|508:22|508:22|522:134|522:134|508:147|508:147|516:218|516:218|501:236|501:236|493:168|493:168|457:139|457:139|450:86,1,419.999987182618,8|0,0:0|0:0,0:0:0:0:
252,313,182595,6,0,B|247:279|247:279|385:160|385:160|428:370|428:370|181:303|181:303|175:253,1,719.999978027344,0|8,0:0|1:2,0:0:0:0:
129,204,183280,6,0,P|105:200|87:216,1,50,8|0,0:0|0:0,0:0:0:0:
20,328,183452,6,0,B|-4:168|-4:168|140:207,1,300.000011444092
200,120,183966,6,0,L|249:112,1,50
67,87,184137,2,0,L|116:79,1,50,8|0,1:2|0:0,0:0:0:0:
247,18,184309,2,0,L|296:10,1,50
447,104,184480,5,8,1:2:0:0:
447,104,184566,1,8,1:2:0:0:
447,104,184652,2,0,L|438:166,1,40,8|0,0:0|0:0,0:0:0:0:
458,27,184823,1,0,0:0:0:0:
352,226,184995,5,0,0:0:0:0:
486,253,185166,1,0,0:0:0:0:
272,328,185337,6,0,B|258:290|258:290|285:252,1,75.0000028610231,8|0,1:2|0:0,0:0:0:0:
352,226,185509,2,0,L|415:237,1,50,8|0,1:2|0:0,0:0:0:0:
380,343,185680,6,0,B|342:349|342:349|334:364|334:364|286:371|286:371|263:350|263:350|163:364,1,225.000008583069
36,364,186023,6,0,L|43:323,1,25,8|0,0:0|0:0,0:0:0:0:
106,360,186195,1,0,0:0:0:0:
10,252,186366,6,0,L|1:195,1,44.999998626709
109,171,186537,2,0,L|83:176,1,25
148,94,186709,6,0,B|228:102|264:194|205:290|97:274|53:209|65:156|65:156|56:207|3:221|-37:193,1,450.000017166138
384,275,187395,6,0,B|412:268|428:283|428:283|470:277,1,75,8|0,0:0|0:0,0:0:0:0:
298,366,187737,6,0,B|402:348|402:348|338:359|371:320|301:332,1,187.5
212,321,188080,6,0,B|189:310|197:279|197:279|253:29|253:29|317:-4|317:-4|370:51|370:51|347:157|347:157|286:193|286:193|264:291,1,719.999978027344,0|8,0:0|1:2,0:0:0:0:
283,365,188766,6,0,L|350:377,1,50,8|0,0:0|0:0,0:0:0:0:
411,382,188937,2,0,B|497:364|497:364|526:358|544:308|510:271|480:276|480:276|377:297,1,300.000011444092
197,363,189452,5,0,0:0:0:0:
108,260,189623,6,0,B|28:277|28:277|15:319|15:319|47:354|47:354|145:332,1,250,8|8,1:2|1:2,0:0:0:0:
179,296,190052,1,8,1:2:0:0:
197,363,190137,6,0,B|208:285|208:285|203:286|203:286|209:236|209:236|214:238|214:238|227:142,2,220.000006713867,8|8|8,0:0|1:2|1:2,0:0:0:0:
327,333,190652,5,8,0:0:0:0:
337,337,190737,1,8,0:0:0:0:
347,341,190823,6,0,B|380:325|380:325|371:270|371:270|347:263|347:263|340:212|340:212|370:197,1,200,12|0,1:2|0:0,0:0:0:0:
448,193,191052,2,0,B|416:96|416:96|511:115,1,200,8|0,1:2|0:0,0:0:0:0:
470,18,191280,6,0,B|458:33|458:33|394:18,1,66.6666666666667,8|0,1:2|0:0,0:0:0:0:
253,0,191509,6,0,L|264:69,1,50,8|0,0:0|0:0,0:0:0:0:
234,131,191680,6,0,B|183:130|219:73|233:115|260:55|260:55|238:202,1,250
79,335,192195,6,0,B|87:313|107:302|107:302|38:275|9:339,1,160
142,362,192452,6,0,P|112:255|190:349,1,300
205,335,192795,1,0,0:0:0:0:
303,271,192880,6,0,B|172:302|193:110|137:294|11:211,1,300.000011444092,8|0,0:0|0:0,0:0:0:0:
321,0,193566,6,0,B|467:40|467:40|478:137|478:137|347:198|347:198|329:73|329:73|402:92|402:92|418:215,1,719.999978027344,0|8,0:0|1:2,0:0:0:0:
395,332,194252,6,0,P|373:336|350:311,1,50,8|0,0:0|0:0,0:0:0:0:
502,326,194423,2,0,P|411:298|225:374,1,300.000011444092
98,345,194937,6,0,L|92:374,1,26.6666666666667
122,325,195052,6,0,L|116:360,1,29.9999990844727
93,280,195166,6,0,L|87:312,1,33.3333333333333
157,235,195280,6,0,P|135:206|108:224,1,46.6666652425131
91,196,195395,6,0,P|55:200|45:222,1,50.0000019073487
24,233,195509,6,0,P|7:267|23:287,1,53.3333333333333
93,280,195623,6,0,B|205:252|177:339|291:312,1,200,8|0,0:0|0:0,0:0:0:0:
483,239,195966,6,0,B|492:238|492:238|486:204|486:204|474:206,1,50
410,222,196137,2,0,L|417:252,1,20
442,62,196309,6,0,L|429:143,1,67.4999979400635,8|0,1:2|0:0,0:0:0:0:
377,36,196652,2,0,L|366:102,1,67.4999979400635,8|0,1:2|0:0,0:0:0:0:
196,144,196995,6,0,B|121:160|131:98|54:117,1,150,8|0,0:0|0:0,0:0:0:0:
20,51,197337,6,0,B|-15:44|-15:44|-8:62|-8:62|9:65,1,62.5,8|0,1:2|0:0,0:0:0:0:
87,233,197509,6,0,B|104:219|104:219|98:196|98:196|76:193,1,62.5,8|0,0:0|0:0,0:0:0:0:
54,116,197680,6,0,B|68:194|68:194|4:237|4:237|18:307|18:307|72:323|72:323|86:384,2,340.000006484985,8|8|8,1:2|1:2|0:0,0:0:0:0:
172,174,198709,5,8,1:2:0:0:
304,208,198823,1,8,0:0:0:0:
208,305,198937,1,8,0:0:0:0:
277,353,199052,6,0,L|323:344,1,37.5000014305115,8|0,1:2|0:0,0:0:0:0:
385,367,199223,2,0,L|402:314,1,44.999998626709,8|0,1:2|0:0,0:0:0:0:
468,295,199395,2,0,L|433:254,1,52.4999983978272,8|0,1:2|0:0,0:0:0:0:
431,178,199566,2,0,L|367:191,1,59.9999981689454,8|0,1:2|0:0,0:0:0:0:
268,243,199737,6,0,B|308:234|305:266|342:256,1,75.0000028610231,8|0,0:0|0:0,0:0:0:0:
431,178,199909,6,0,B|437:148|437:148|407:125,1,50,8|0,1:2|0:0,0:0:0:0:
457,17,200080,2,0,B|423:32|423:32|413:71,1,62.5,8|0,1:2|0:0,0:0:0:0:
288,82,200252,2,0,B|315:109|315:109|358:98,1,75.0000028610231,8|0,1:2|0:0,0:0:0:0:
255,0,200423,5,8,0:0:0:0:
194,33,200509,5,0,0:0:0:0:
146,59,200595,1,0,0:0:0:0:
143,73,200680,1,0,0:0:0:0:
140,87,200766,1,0,0:0:0:0:
137,101,200852,1,0,0:0:0:0:
134,115,200937,1,0,0:0:0:0:
180,143,201023,1,0,0:0:0:0:
239,179,201109,5,8,0:0:0:0:
302,145,201195,1,0,0:0:0:0:
365,111,201280,1,0,0:0:0:0:
378,129,201366,1,0,0:0:0:0:
402,157,201452,5,0,0:0:0:0:
444,212,201537,5,0,0:0:0:0:
430,288,201623,5,0,0:0:0:0:
352,337,201709,5,0,0:0:0:0:
290,278,201795,6,0,B|339:261|339:261|328:300|328:300|270:322,1,150
87,355,202480,6,0,P|91:328|72:308,1,50,8|0,0:0|0:0,0:0:0:0:
85,231,202737,2,0,L|78:244,1,12.5
14,276,202823,6,0,B|138:290|138:290|210:164|210:164|336:180,1,389.999982147218
403,130,203166,6,0,B|408:92|442:66|499:58|551:115|549:213|431:236|404:170|401:144|401:144|414:82|373:40|373:40|419:-6|483:13,1,519.99997619629
256,192,214137,5,0,3:2:0:0:
227,373,214480,5,0,0:0:0:0:
285,11,214823,1,0,0:0:0:0:
256,192,215166,5,0,0:0:0:0:
227,373,215337,1,8,3:1:0:0:
399,308,215509,5,0,0:0:0:0:
256,192,215852,1,0,0:0:0:0:
113,76,216195,1,8,3:1:0:0:
84,257,216537,5,0,0:0:0:0:
256,192,216709,1,8,3:1:0:0:
427,126,216880,5,0,0:0:0:0:
113,76,217223,1,0,0:0:0:0:
227,373,217566,1,0,0:0:0:0:
285,11,217909,5,0,0:0:0:0:
48,116,218080,1,8,3:1:0:0:
43,127,218166,1,8,3:1:0:0:
38,138,218252,6,0,L|50:240,1,100,0|8,0:0|3:1,0:0:0:0:
260,359,218595,2,0,P|182:299|280:295,1,250,0|8,0:0|3:1,0:0:0:0:
18,333,219280,1,8,3:1:0:0:
278,292,219537,1,8,3:1:0:0:
340,324,219623,6,0,L|331:369,1,37.5000014305115
278,292,219795,2,0,L|261:368,1,62.5
512,202,219966,6,0,P|488:188|463:199,1,37.5000014305115
435,242,220137,2,0,P|413:263|383:261,1,62.5
155,255,220309,6,0,L|146:210,1,37.5000014305115
224,248,220480,2,0,L|210:187,1,62.5
0,177,220652,6,0,P|24:191|49:180,1,37.5000014305115
77,137,220823,2,0,P|98:115|128:117,1,62.5,8|0,3:1|0:0,0:0:0:0:
285,187,220995,6,0,L|291:154,1,25
244,107,221166,2,0,L|236:57,1,37.5000014305115
344,245,221337,6,0,L|352:195,1,37.5000014305115
311,84,221509,2,0,L|301:27,1,50
408,293,221680,6,0,L|418:236,1,50
377,61,221852,2,0,L|366:-5,1,62.5
512,177,222023,6,0,P|485:144|449:149,1,75.0000028610231
344,245,222195,6,0,L|335:301,1,50,8|0,3:1|0:0,0:0:0:0:
182,380,222366,5,0,0:0:0:0:
199,350,222452,1,0,0:0:0:0:
184,330,222537,1,0,0:0:0:0:
190,301,222623,1,0,0:0:0:0:
161,287,222709,1,0,0:0:0:0:
158,263,222795,1,0,0:0:0:0:
119,261,222880,1,0,0:0:0:0:
111,248,222966,1,0,0:0:0:0:
41,247,223052,5,0,0:0:0:0:
44,227,223137,1,0,0:0:0:0:
14,195,223223,1,0,0:0:0:0:
30,172,223309,1,0,0:0:0:0:
18,136,223395,1,0,0:0:0:0:
47,117,223480,1,0,0:0:0:0:
50,88,223566,1,0,0:0:0:0:
90,78,223652,1,0,0:0:0:0:
153,111,223737,5,0,0:0:0:0:
201,137,223823,1,0,0:0:0:0:
227,89,223909,5,0,0:0:0:0:
275,115,223995,1,0,0:0:0:0:
302,67,224080,5,8,0:0:0:0:
263,22,224166,1,0,0:0:0:0:
196,12,224252,5,0,0:0:0:0:
138,57,224337,1,0,0:0:0:0:
119,131,224423,5,0,0:0:0:0:
385,217,224595,1,8,1:3:0:0:
180,369,224766,1,8,0:0:0:0:
350,343,224937,5,8,0:0:0:0:
287,315,225023,1,8,0:0:0:0:
396,291,225109,6,0,B|354:277|322:308|322:308|326:314|326:314|233:374|121:334|121:334|125:326|125:326|88:298|28:319,1,389.999982147218,4|0,0:0|0:0,0:0:0:0:
173,277,225452,6,0,P|193:282|223:281,1,44.999998626709,8|0,0:0|0:0,0:0:0:0:
415,224,225795,5,2,1:3:0:0:
396,291,225880,1,2,1:3:0:0:
464,274,225966,1,2,1:3:0:0:
368,157,226137,6,0,P|349:173|325:172,1,50,8|0,0:0|0:0,0:0:0:0:
240,191,226309,6,0,B|228:125|278:103|278:103|251:29|251:29|216:184|216:184|210:212|172:229|139:198|146:170|146:170|157:118,1,479.999985351563,4|0,0:0|0:0,0:0:0:0:
14,0,226823,6,0,L|33:87,1,89.9999972534181,8|0,0:0|0:0,0:0:0:0:
71,160,226995,5,2,1:3:0:0:
71,160,227080,1,2,1:3:0:0:
71,160,227166,2,0,L|59:216,1,50,2|0,1:3|0:0,0:0:0:0:
104,62,227337,6,0,P|50:53|34:96,1,100
0,247,227509,6,0,B|79:236|79:236|117:264|117:264|195:252,1,200,8|0,0:0|0:0,0:0:0:0:
242,356,227766,2,0,L|238:367,1,12.5
263,290,227852,6,0,B|276:246|346:218|395:281|393:341|345:396|273:375|247:330|261:286|261:286|287:200,1,389.999982147218,4|0,0:0|0:0,0:0:0:0:
415,166,228195,6,0,B|432:183|432:183|492:170,1,59.9999981689454,8|0,0:0|0:0,0:0:0:0:
496,112,228366,2,0,B|479:95|479:95|419:108,1,59.9999981689454
260,17,228537,5,2,1:3:0:0:
233,135,228623,1,2,1:3:0:0:
348,99,228709,2,0,B|321:105|317:82|286:92,1,59.9999981689454,2|0,1:3|0:0,0:0:0:0:
233,135,228880,6,0,P|240:173|212:205,1,75.0000028610231,8|0,0:0|0:0,0:0:0:0:
152,176,229052,2,0,P|149:154|169:125,1,50
9,35,229223,6,0,P|63:72|83:10,1,125
90,24,229395,1,0,0:0:0:0:
28,235,229566,5,8,0:0:0:0:
92,261,229652,1,0,0:0:0:0:
156,287,229737,1,0,0:0:0:0:
46,371,229823,5,8,0:0:0:0:
37,303,229909,6,0,B|48:291|72:290|72:290|97:309|92:334,1,75.0000028610231
196,363,230080,2,0,B|230:344|236:374|273:355,1,69.9999978637696
342,313,230252,6,0,B|306:304|298:232|413:199|390:303|473:264|473:264|417:292|423:348|462:400|530:366|508:327,1,405.000001544952,8|0,0:0|0:0,0:0:0:0:
508,186,230595,6,0,P|454:167|446:208,1,104.999996795654
265,165,230937,6,0,B|291:54|291:54|289:55|289:55|290:54|290:54|301:7|301:7|350:56|350:56|353:56|353:56|351:57|351:57|389:94|389:94|310:127|310:127|342:159,1,419.999987182618,12|0,0:0|0:0,0:0:0:0:
360,320,231280,5,2,1:3:0:0:
307,369,231366,1,2,1:3:0:0:
236,355,231452,2,0,L|227:298,1,50,2|0,1:3|0:0,0:0:0:0:
49,198,231623,2,0,L|0:205,1,50,8|0,0:0|0:0,0:0:0:0:
97,286,231795,6,0,B|105:338|198:379|268:283|206:184|122:221|122:221|173:199|151:134,1,375
31,125,232137,5,2,1:3:0:0:
20,115,232223,1,2,1:3:0:0:
9,105,232309,2,0,B|16:70|16:70|133:42|133:42|147:-22,1,200,8|0,1:1|0:0,0:0:0:0:
207,32,232566,1,0,0:0:0:0:
268,71,232652,6,0,L|351:56,1,50
472,28,232823,6,0,B|468:48|468:48|473:52|473:52|470:66|470:66|462:70|462:70|457:94,1,75.0000028610231
389,81,232995,2,0,B|392:60|392:60|387:56|387:56|390:42|390:42|398:38|398:38|403:14,1,75.0000028610231,8|0,0:0|0:0,0:0:0:0:
498,183,233166,6,0,B|516:179|516:179|512:159|512:159|491:164|491:164|496:184,1,75.0000028610231
276,338,233337,6,0,B|322:200|322:200|433:221|433:221|423:349|423:349|348:334|348:334|359:299,1,500,4|8,0:0|0:0,0:0:0:0:
167,323,233852,5,0,0:0:0:0:
144,261,233937,1,0,0:0:0:0:
48,293,234023,5,2,1:3:0:0:
71,355,234109,1,2,1:3:0:0:
91,314,234195,1,2,1:3:0:0:
242,237,234366,6,0,P|219:216|191:228,1,50,8|0,0:0|0:0,0:0:0:0:
18,168,234537,2,0,B|-31:115|10:49|10:49|27:67|70:80|101:54|114:29|114:29|177:91|140:157,1,375,4|0,0:0|0:0,0:0:0:0:
144,261,234880,5,0,0:0:0:0:
123,325,234966,1,0,0:0:0:0:
167,375,235052,1,8,0:0:0:0:
254,298,235137,6,0,B|229:312|231:341|231:341|218:315|192:311,1,100
368,316,235309,1,0,0:0:0:0:
300,348,235395,6,0,B|328:333|349:354|349:354|372:376|407:355,1,100,8|0,1:3|0:0,0:0:0:0:
509,321,235566,2,0,B|521:271|521:271|466:258,1,100,8|0,1:3|0:0,0:0:0:0:
282,159,235737,6,0,B|286:183|286:183|289:202|308:199|308:199|473:176|473:176|493:173|490:155|490:155|482:87,1,300,8|0,0:0|0:0,0:0:0:0:
421,63,236080,6,0,B|378:74|347:42|347:42|352:36|352:36|262:-28|148:5|148:5|152:13|152:13|113:39|54:15,1,389.999982147218,4|0,0:0|0:0,0:0:0:0:
217,63,236423,6,0,P|239:63|262:69,1,44.999998626709,8|0,0:0|0:0,0:0:0:0:
97,141,236766,5,2,1:3:0:0:
52,88,236852,1,2,1:3:0:0:
76,22,236937,1,2,1:3:0:0:
231,150,237109,6,0,L|219:221,1,50,8|0,0:0|0:0,0:0:0:0:
107,347,237280,6,0,B|6:368|6:368|25:299|25:299|-22:246|-22:246|119:218|119:218|150:213|173:249|165:277|132:284|132:284|116:287,1,479.999985351563,4|0,0:0|0:0,0:0:0:0:
224,343,237795,6,0,B|250:347|250:347|282:328|282:328|313:334,1,89.9999972534181,8|0,0:0|0:0,0:0:0:0:
379,363,237966,5,2,1:3:0:0:
379,363,238052,1,2,1:3:0:0:
379,363,238137,2,0,L|435:354,1,50,2|0,1:3|0:0,0:0:0:0:
337,268,238309,6,0,P|292:301|330:340,1,100
504,301,238480,2,0,P|478:211|400:270,1,200,8|0,0:0|0:0,0:0:0:0:
224,343,238737,6,0,L|205:347,1,12.5
160,299,238823,6,0,B|175:361|175:361|250:381|250:381|217:248|217:248|152:222|152:222|141:179|141:179|160:156,1,419.999987182618,4|0,0:0|0:0,0:0:0:0:
34,99,239166,6,0,P|63:120|99:112,1,75.0000028610231,8|0,0:0|0:0,0:0:0:0:
128,45,239337,2,0,P|157:23|193:31,1,75.0000028610231
358,148,239509,5,2,1:3:0:0:
263,74,239595,1,2,1:3:0:0:
247,193,239680,2,0,B|255:159|255:159|288:168,1,59.9999981689454,2|0,1:3|0:0,0:0:0:0:
340,223,239852,6,0,B|375:215|375:215|389:230|414:230,1,75.0000028610231,8|0,0:0|0:0,0:0:0:0:
476,209,240023,2,0,P|492:191|488:167,1,50
436,14,240195,6,0,P|473:68|411:88,1,125
425,95,240366,1,0,0:0:0:0:
112,220,240537,5,8,0:0:0:0:
179,206,240623,1,0,0:0:0:0:
247,193,240709,1,0,0:0:0:0:
158,89,240795,5,8,0:0:0:0:
133,155,240880,6,0,B|122:193|122:193|147:218,1,75.0000028610231
280,296,241052,2,0,B|259:272|259:272|249:300|249:300|266:297,1,75.0000028610231
168,338,241223,2,0,B|161:354|161:354|275:325|275:325|315:360|315:360|396:339|396:339|406:287|406:287|445:275|445:275|485:324,1,405.000001544952,12|0,0:0|0:0,0:0:0:0:
504,197,241566,6,0,L|403:182,1,75.0000028610231,8|0,1:3|0:0,0:0:0:0:
408,171,241737,2,0,L|482:182,1,75.0000028610231,8|0,1:3|0:0,0:0:0:0:
435,49,241909,6,0,B|326:28|326:28|302:28|265:37|246:92|264:146|333:171|392:138|404:70|366:35|332:29,1,397.500016679764,12|0,0:0|0:0,0:0:0:0:
191,14,242252,5,2,1:3:0:0:
161,75,242337,1,2,1:3:0:0:
205,128,242423,1,2,1:3:0:0:
65,239,242595,6,0,P|33:207|50:157,1,100,8|0,0:0|0:0,0:0:0:0:
120,172,242766,6,0,P|139:194|114:200,1,50,8|0,1:3|0:0,0:0:0:0:
37,298,242937,6,0,P|40:255|73:237,1,75.0000028610231,8|0,1:3|0:0,0:0:0:0:
166,335,243109,6,0,P|145:376|100:366,1,100,8|0,1:3|0:0,0:0:0:0:
108,292,243280,6,0,B|160:273|169:308|209:292,1,100,8|0,0:0|0:0,0:0:0:0:
439,274,243452,5,0,0:0:0:0:
439,274,243537,1,0,0:0:0:0:
439,274,243623,2,0,L|433:323,1,50,8|0,0:0|0:0,0:0:0:0:
360,350,243795,2,0,L|365:300,1,50
375,230,243966,1,8,0:0:0:0:
473,9,244137,5,8,0:0:0:0:
480,22,244223,1,8,0:0:0:0:
510,82,244309,5,8,0:0:0:0:
496,93,244395,1,0,0:0:0:0:
463,101,244480,1,8,0:0:0:0:
428,93,244566,1,0,0:0:0:0:
392,66,244652,1,0,0:0:0:0:
373,23,244737,1,0,0:0:0:0:
310,10,244823,1,0,0:0:0:0:
256,50,244909,1,0,0:0:0:0:
246,115,244995,5,0,0:0:0:0:
209,124,245080,1,0,0:0:0:0:
196,158,245166,1,0,0:0:0:0:
162,145,245252,1,0,0:0:0:0:
131,167,245337,1,0,0:0:0:0:
104,139,245423,1,0,0:0:0:0:
68,148,245509,1,0,0:0:0:0:
56,109,245595,1,0,0:0:0:0:
7,63,245680,1,0,0:0:0:0:
7,63,245852,5,0,0:0:0:0:
43,22,245937,1,0,0:0:0:0:
95,39,246023,1,0,0:0:0:0:
134,77,246109,5,0,0:0:0:0:
192,49,246195,1,0,0:0:0:0:
236,96,246280,1,0,0:0:0:0:
301,78,246366,5,0,0:0:0:0:
305,105,246452,5,0,0:0:0:0:
289,137,246537,5,0,0:0:0:0:
247,191,246623,5,0,0:0:0:0:
181,227,246709,5,0,0:0:0:0:
100,252,246795,5,0,0:0:0:0:
195,250,246880,5,0,0:0:0:0:
283,295,246966,5,0,0:0:0:0:
352,371,247052,6,0,B|386:380|386:380|443:341|443:341|489:353,2,134.999995880127,4|0|0,0:0|0:0|0:0,0:0:0:0:
328,164,247737,6,0,B|345:232|345:232|358:288|296:367|199:322|186:273|186:273|168:203|168:203|163:181|126:165|98:194|103:219|103:219|118:283,1,539.999983520508,8|0,0:0|0:0,0:0:0:0:
420,278,248595,5,0,0:0:0:0:
258,155,248937,1,0,0:0:0:0:
445,76,249109,6,0,L|472:85,1,18.7500007152558,2|0,2:3|0:0,0:0:0:0:
428,99,249195,2,0,L|446:120,1,18.7500007152558,2|0,2:3|0:0,0:0:0:0:
401,110,249280,2,0,L|406:137,1,18.7500007152558,2|0,2:3|0:0,0:0:0:0:
372,106,249366,2,0,L|362:133,1,18.7500007152558,2|0,2:3|0:0,0:0:0:0:
341,86,249452,6,0,L|356:42,1,31.25,2|0,2:3|0:0,0:0:0:0:
313,59,249537,2,0,L|303:13,1,31.25,2|0,2:3|0:0,0:0:0:0:
275,49,249623,2,0,L|244:14,1,31.25,2|0,2:3|0:0,0:0:0:0:
237,59,249709,2,0,L|193:43,1,31.25,2|0,2:3|0:0,0:0:0:0:
197,118,249795,6,0,B|369:165|398:59|523:85|523:85|436:66|357:155|438:253|506:243,1,600
367,350,250480,6,0,B|351:270|351:270|213:244|213:244|164:322,1,300,8|0,0:0|0:0,0:0:0:0:
293,374,251337,1,2,1:3:0:0:
32,355,251680,5,2,1:3:0:0:
46,351,251766,1,2,1:3:0:0:
60,347,251852,1,8,1:1:0:0:
24,286,252023,1,2,1:3:0:0:
85,250,252195,1,0,0:0:0:0:
49,189,252366,1,2,1:3:0:0:
112,136,252537,6,0,L|122:68,1,62.5
23,9,252709,2,0,P|13:31|37:60,1,62.5
305,63,252880,6,0,B|216:87|216:87|194:93|152:76|190:47|149:31|124:36|124:36|30:60,1,300.000011444092,0|8,0:0|0:0,0:0:0:0:
275,147,253395,6,0,L|294:142,1,20
400,144,253566,2,0,B|370:136|370:136|361:111|361:111|381:90|381:90|417:98,6,119.999996337891
218,0,254080,5,0,0:0:0:0:
121,150,254252,5,2,1:3:0:0:
126,165,254337,1,2,1:3:0:0:
116,174,254423,1,2,1:3:0:0:
121,189,254509,1,2,1:3:0:0:
74,243,254595,6,0,B|49:190|49:190|195:213|195:213|127:301,1,300,8|0,0:0|0:0,0:0:0:0:
217,334,255280,5,0,0:0:0:0:
268,314,255366,1,0,0:0:0:0:
321,349,255452,5,0,0:0:0:0:
342,362,255537,1,0,0:0:0:0:
408,370,255623,5,0,0:0:0:0:
459,325,255709,1,0,0:0:0:0:
450,306,255795,1,0,0:0:0:0:
497,253,255880,1,0,0:0:0:0:
335,113,256137,6,0,L|344:169,2,37.5000014305115,2|2|0,1:3|1:3|0:0,0:0:0:0:
487,0,256480,6,0,L|478:56,1,37.5000014305115,2|0,1:3|0:0,0:0:0:0:
450,66,256652,1,2,1:3:0:0:
450,66,256737,1,2,1:3:0:0:
450,66,256823,1,2,1:3:0:0:
506,193,256995,5,2,1:3:0:0:
504,204,257080,1,2,1:3:0:0:
502,215,257166,2,0,L|493:271,1,37.5000014305115,2|0,1:3|0:0,0:0:0:0:
484,321,257337,1,8,0:0:0:0:
273,272,257509,6,0,L|248:277,1,25,2|0,1:3|0:0,0:0:0:0:
65,231,257680,6,0,L|98:223,1,25,2|0,1:3|0:0,0:0:0:0:
303,104,257852,6,0,L|315:107,1,12.5,2|0,1:3|0:0,0:0:0:0:
312,115,257937,2,0,L|324:118,1,12.5,2|0,1:3|0:0,0:0:0:0:
326,150,258023,6,0,B|357:89|312:9|188:-33|98:65|110:149|110:149|24:175|24:175|-17:185|-42:256|9:309|58:298|58:298|144:282|144:282|177:354|290:390|376:307|368:227|368:227|479:203|479:203|526:193|565:94|481:29|432:44|432:44|209:115,1,1624.99992561341,4|0,0:0|0:0,0:0:0:0:
109,362,262652,5,0,0:0:0:0:
109,362,262737,1,0,0:0:0:0:
109,362,262823,2,0,L|221:377,1,100,8|0,0:0|0:0,0:0:0:0:
273,343,263337,1,0,0:0:0:0:
386,271,263509,6,0,P|359:322|402:352,1,112.500004291535
512,327,263852,2,0,L|475:319,1,37.5000014305115,2|0,1:3|0:0,0:0:0:0:
473,254,264023,2,0,L|465:291,1,37.5000014305115,2|0,1:3|0:0,0:0:0:0:
417,140,264195,5,8,0:0:0:0:
417,140,264280,1,2,1:3:0:0:
417,140,264366,2,0,L|425:211,1,50,2|0,1:3|0:0,0:0:0:0:
307,50,264537,6,0,P|329:43|344:76,7,50
355,77,264880,6,0,P|331:129|281:102,1,89.9999972534181,2|0,1:3|0:0,0:0:0:0:
250,168,265052,2,0,P|217:176|186:139,1,59.9999981689454,2|0,1:3|0:0,0:0:0:0:
128,152,265223,2,0,P|117:136|120:109,1,29.9999990844727,2|0,1:3|0:0,0:0:0:0:
85,63,265395,5,0,0:0:0:0:
96,49,265480,1,0,0:0:0:0:
113,43,265566,1,8,0:0:0:0:
250,168,265737,5,0,0:0:0:0:
229,232,265823,1,0,0:0:0:0:
169,266,265909,5,2,1:3:0:0:
234,252,265995,1,2,1:3:0:0:
294,287,266080,5,2,1:3:0:0:
249,237,266166,1,2,1:3:0:0:
250,168,266252,6,0,B|381:119|365:241|499:199,1,240,2|0,0:0|0:0,0:0:0:0:
345,43,267109,6,0,B|352:44|352:44|342:80|342:80|331:77,1,50,2|0,0:0|0:0,0:0:0:0:
476,204,267452,6,0,L|491:317,1,100,2|0,0:0|0:0,0:0:0:0:
