osu file format v14

[General]
AudioFilename: audio.mp3
AudioLeadIn: 0
PreviewTime: 72061
Countdown: 0
SampleSet: Soft
StackLeniency: 0.7
Mode: 3
LetterboxInBreaks: 0
SpecialStyle: 0
WidescreenStoryboard: 0

[Editor]
DistanceSpacing: 1.2
BeatDivisor: 4
GridSize: 8
TimelineZoom: 1.960003

[Metadata]
Title:Routing
TitleUnicode:Routing
Artist:Camellia
ArtistUnicode:かめりあ
Creator:_Stan
Version:Tofu's Another
Source:beatmania IIDX 23 copula
Tags:22 pendual super future tech bass tofu1222 dustmoon exneko
BeatmapID:1637717
BeatmapSetID:730034

[Difficulty]
HPDrainRate:8.2
CircleSize:4
OverallDifficulty:8
ApproachRate:8
SliderMultiplier:1.4
SliderTickRate:1

[Events]
//Background and Video events
0,0,"BG.jpg",0,0
//Break Periods
//Storyboard Layer 0 (Background)
//Storyboard Layer 1 (Fail)
//Storyboard Layer 2 (Pass)
//Storyboard Layer 3 (Foreground)
//Storyboard Sound Samples

[TimingPoints]
1645,416.666666666667,4,2,1,25,1,0
1645,-100,4,2,1,25,0,0
1671,-55.5555555555556,4,2,1,25,0,0
1775,-83.3333333333333,4,2,1,25,0,0
1801,-200,4,2,1,25,0,0
1957,-100,4,2,1,25,0,0
2895,-55.5555555555556,4,2,1,25,0,0
2947,-500,4,2,1,25,0,0
2999,-100,4,2,1,25,0,0
4561,-66.6666666666667,4,2,1,25,0,0
4639,-83.3333333333333,4,2,1,25,0,0
4717,-125,4,2,1,25,0,0
4796,-200,4,2,1,25,0,0
4874,-100,4,2,1,25,0,0
4978,-55.5555555555556,4,2,1,25,0,0
5082,-90.9090909090909,4,2,1,25,0,0
5134,-200,4,2,1,25,0,0
5290,-100,4,2,1,25,0,0
6228,-55.5555555555556,4,2,1,25,0,0
6280,-500,4,2,1,25,0,0
6332,-100,4,2,1,25,0,0
8311,-55.5555555555556,4,2,1,25,0,0
8415,-90.9090909090909,4,2,1,25,0,0
8467,-200,4,2,1,25,0,0
8624,-100,4,2,1,25,0,0
9561,-55.5555555555556,4,2,1,25,0,0
9613,-500,4,2,1,25,0,0
9665,-100,4,2,1,25,0,0
11228,-66.6666666666667,4,2,1,25,0,0
11306,-83.3333333333333,4,2,1,25,0,0
11384,-125,4,2,1,25,0,0
11462,-200,4,2,1,25,0,0
11540,-100,4,2,1,25,0,0
11645,-62.5,4,2,1,25,0,0
11697,-83.3333333333333,4,2,1,25,0,0
11749,-125,4,2,1,25,0,0
11801,-250,4,2,1,25,0,0
11853,-100,4,2,1,25,0,0
12895,-166.666666666667,4,2,1,25,0,0
12947,-71.4285714285714,4,2,1,25,0,0
12999,-166.666666666667,4,2,1,25,0,0
13051,-71.4285714285714,4,2,1,25,0,0
13103,-166.666666666667,4,2,1,25,0,0
13155,-71.4285714285714,4,2,1,25,0,0
13207,-111.111111111111,4,2,1,25,0,0
13311,-117.647058823529,4,2,1,25,0,0
14561,-250,4,2,1,25,0,0
14665,-125,4,2,1,25,0,0
14770,-83.3333333333333,4,2,1,25,0,0
14874,-62.5,4,2,1,25,0,0
14978,-100,4,2,1,25,0,0
16853,-250,4,2,1,25,0,0
16957,-62.5,4,2,1,25,0,0
17061,-100,4,2,1,25,0,0
21228,-200,4,2,1,25,0,0
21280,-125,4,2,1,25,0,0
21332,-83.3333333333333,4,2,1,25,0,0
21384,-66.6666666666667,4,2,1,25,0,0
21436,-100,4,2,1,25,0,0
21540,-250,4,2,1,25,0,0
21592,-125,4,2,1,25,0,0
21645,-83.3333333333333,4,2,1,25,0,0
21697,-62.5,4,2,1,25,0,0
21749,-500.000000000003,4,2,1,25,0,0
21801,-250.000000000001,4,2,1,25,0,0
21853,-166.666666666666,4,2,1,25,0,0
21905,-90.9090909090909,4,2,1,25,0,0
21957,-55.5555555555556,4,2,1,25,0,0
22061,-100,4,2,1,25,0,0
23520,-250,4,2,1,25,0,0
23624,-62.5,4,2,1,25,0,0
23728,-100,4,2,1,25,0,0
30186,-250,4,2,1,25,0,0
30290,-62.5,4,2,1,25,0,0
30395,-100,4,2,1,25,0,0
34874,-50,4,2,1,25,0,0
35047,-111.111111111111,4,2,1,25,0,0
35082,-142.857142857143,4,2,1,25,0,0
35117,-250,4,2,1,25,0,0
35151,-500,4,2,1,25,0,0
35256,-100,4,2,1,25,0,0
35533,-250,4,2,1,25,0,0
35603,-62.5,4,2,1,25,0,0
35672,-250,4,2,1,25,0,0
35742,-62.5,4,2,1,25,0,0
35811,-250,4,2,1,25,0,0
35881,-62.5,4,2,1,25,0,0
35950,-250,4,2,1,25,0,0
36020,-62.5,4,2,1,25,0,0
36089,-250,4,2,1,25,0,0
36158,-62.5,4,2,1,25,0,0
36228,-100,4,2,1,25,0,0
36853,-333.333333333333,4,2,1,25,0,0
37009,-32.258064516129,4,2,1,25,0,0
37061,-100,4,2,1,25,0,0
39145,-62.5,4,2,1,25,0,0
39197,-83.3333333333333,4,2,1,25,0,0
39249,-125,4,2,1,25,0,0
39301,-250,4,2,1,25,0,0
39353,-100,4,2,1,25,0,0
39457,-62.5,4,2,1,25,0,0
39509,-83.3333333333333,4,2,1,25,0,0
39561,-125,4,2,1,25,0,0
39613,-250,4,2,1,25,0,0
39665,-100,4,2,1,25,0,0
39770,-62.5,4,2,1,25,0,0
39822,-83.3333333333333,4,2,1,25,0,0
39874,-125,4,2,1,25,0,0
39926,-250,4,2,1,25,0,0
39978,-100,4,2,1,25,0,0
40395,-125,4,2,1,25,0,0
40499,-83.3333333333333,4,2,1,25,0,0
40603,-100,4,2,1,25,0,0
40811,-142.857142857143,4,2,1,25,0,0
40915,-76.9230769230769,4,2,1,25,0,0
41020,-100,4,2,1,25,0,0
41228,-166.666666666667,4,2,1,25,0,0
41332,-71.4285714285714,4,2,1,25,0,0
41436,-100,4,2,1,25,0,0
41645,-200,4,2,1,25,0,0
41749,-66.6666666666667,4,2,1,25,0,0
41853,-100,4,2,1,25,0,0
42061,-250,4,2,1,25,0,0
42165,-62.5,4,2,1,25,0,0
42270,-100,4,2,1,25,0,0
42478,-250,4,2,1,25,0,0
42582,-62.5,4,2,1,25,0,0
42686,-100,4,2,1,25,0,0
42898,-500,4,2,1,25,0,0
42929,-55.5555555555556,4,2,1,25,0,0
42964,-500,4,2,1,25,0,0
42999,-55.5555555555556,4,2,1,25,0,0
43033,-333.333333333333,4,2,1,25,0,0
43068,-58.8235294117647,4,2,1,25,0,0
43103,-250.000000000001,4,2,1,25,0,0
43138,-62.5,4,2,1,25,0,0
43172,-200,4,2,1,25,0,0
43207,-66.6666666666667,4,2,1,25,0,0
43242,-166.666666666667,4,2,1,25,0,0
43276,-71.4285714285714,4,2,1,25,0,0
43311,-111.111111111111,4,2,1,25,0,0
45811,-199.999999999999,4,2,1,25,0,0
45863,-142.857142857143,4,2,1,25,0,0
45915,-90.9090909090909,4,2,1,25,0,0
45967,-76.9230769230769,4,2,1,25,0,0
46020,-199.999999999999,4,2,1,25,0,0
46124,-100,4,2,1,25,0,0
46228,-66.6666666666667,4,2,1,25,0,0
46332,-200,4,2,1,25,0,0
46436,-100,4,2,1,25,0,0
46540,-66.6666666666667,4,2,1,25,0,0
46645,-100,4,2,1,25,0,0
54874,-166.666666666667,4,2,1,25,0,0
55030,-45.4545454545455,4,2,1,25,0,0
55082,-100,4,2,1,25,0,0
55395,-333.333333333333,4,2,1,25,0,0
55473,-47.6190476190476,4,2,1,25,0,0
55499,-100,4,2,1,25,0,0
55603,-250,4,2,1,25,0,0
55707,-125,4,2,1,25,0,0
55811,-83.3333333333333,4,2,1,25,0,0
55915,-62.5,4,2,1,25,0,0
56020,-100,4,2,1,25,0,0
56645,-250,4,2,1,25,0,0
56714,-125,4,2,1,25,0,0
56783,-83.3333333333333,4,2,1,25,0,0
56853,-62.5,4,2,1,25,0,0
56922,-100,4,2,1,25,0,0
57061,-250,4,2,1,25,0,0
57113,-125,4,2,1,25,0,0
57165,-83.3333333333333,4,2,1,25,0,0
57217,-62.5,4,2,1,25,0,0
57270,-100,4,2,1,25,0,0
57374,-250,4,2,1,25,0,0
57426,-125,4,2,1,25,0,0
57478,-83.3333333333333,4,2,1,25,0,0
57530,-62.5,4,2,1,25,0,0
57582,-100,4,2,1,25,0,0
57686,-250,4,2,1,25,0,0
57738,-125,4,2,1,25,0,0
57790,-83.3333333333333,4,2,1,25,0,0
57842,-62.5,4,2,1,25,0,0
57895,-100,4,2,1,25,0,0
57999,-250,4,2,1,25,0,0
58051,-62.5,4,2,1,25,0,0
58103,-100,4,2,1,25,0,0
58207,-250.000000000001,4,2,1,25,0,0
58311,-100,4,2,1,25,0,0
58415,-62.5,4,2,1,25,0,0
58520,-100,4,2,1,25,0,0
59561,-166.666666666667,4,2,1,25,0,0
59665,-71.4285714285714,4,2,1,25,0,0
59770,-100,4,2,1,25,0,0
59978,-250,4,2,1,25,0,0
60047,-125,4,2,1,25,0,0
60117,-83.3333333333333,4,2,1,25,0,0
60186,-62.5,4,2,1,25,0,0
60256,-100,4,2,1,25,0,0
60395,-250,4,2,1,25,0,0
60447,-125,4,2,1,25,0,0
60499,-83.3333333333333,4,2,1,25,0,0
60551,-62.5,4,2,1,25,0,0
60603,-100,4,2,1,25,0,0
60707,-250,4,2,1,25,0,0
60759,-125,4,2,1,25,0,0
60811,-83.3333333333333,4,2,1,25,0,0
60863,-62.5,4,2,1,25,0,0
60915,-100,4,2,1,25,0,0
61020,-250,4,2,1,25,0,0
61072,-125,4,2,1,25,0,0
61124,-83.3333333333333,4,2,1,25,0,0
61176,-62.5,4,2,1,25,0,0
61228,-100,4,2,1,25,0,0
61332,-250,4,2,1,25,0,0
61384,-62.5,4,2,1,25,0,0
61436,-100,4,2,1,25,0,0
61540,-250,4,2,1,25,0,0
61592,-125,4,2,1,25,0,0
61645,-83.3333333333333,4,2,1,25,0,0
61697,-62.5,4,2,1,25,0,0
61749,-100,4,2,1,25,0,0
62790,-166.666666666667,4,2,1,25,0,0
62868,-45.4545454545455,4,2,1,25,0,0
62895,-166.666666666667,4,2,1,25,0,0
62973,-45.4545454545455,4,2,1,25,0,0
62999,-100,4,2,1,25,0,0
63311,-250,4,2,1,25,0,0
63381,-125,4,2,1,25,0,0
63450,-83.3333333333333,4,2,1,25,0,0
63520,-62.5,4,2,1,25,0,0
63589,-100,4,2,1,25,0,0
63728,-250,4,2,1,25,0,0
63780,-125,4,2,1,25,0,0
63832,-83.3333333333333,4,2,1,25,0,0
63884,-62.5,4,2,1,25,0,0
63936,-100,4,2,1,25,0,0
64040,-250,4,2,1,25,0,0
64092,-125,4,2,1,25,0,0
64145,-83.3333333333333,4,2,1,25,0,0
64197,-62.5,4,2,1,25,0,0
64249,-100,4,2,1,25,0,0
64353,-250,4,2,1,25,0,0
64405,-125,4,2,1,25,0,0
64457,-83.3333333333333,4,2,1,25,0,0
64509,-62.5,4,2,1,25,0,0
64561,-100,4,2,1,25,0,0
64665,-250,4,2,1,25,0,0
64717,-62.5,4,2,1,25,0,0
64770,-100,4,2,1,25,0,0
66228,-166.666666666667,4,2,1,25,0,0
66332,-71.4285714285714,4,2,1,25,0,0
66436,-100,4,2,1,25,0,0
66645,-250,4,2,1,25,0,0
66714,-125,4,2,1,25,0,0
66783,-83.3333333333333,4,2,1,25,0,0
66853,-62.5,4,2,1,25,0,0
66922,-100,4,2,1,25,0,0
67061,-250,4,2,1,25,0,0
67113,-125,4,2,1,25,0,0
67165,-83.3333333333333,4,2,1,25,0,0
67217,-62.5,4,2,1,25,0,0
67270,-100,4,2,1,25,0,0
67374,-250,4,2,1,25,0,0
67426,-125,4,2,1,25,0,0
67478,-83.3333333333333,4,2,1,25,0,0
67530,-62.5,4,2,1,25,0,0
67582,-100,4,2,1,25,0,0
67686,-250,4,2,1,25,0,0
67738,-125,4,2,1,25,0,0
67790,-83.3333333333333,4,2,1,25,0,0
67842,-62.5,4,2,1,25,0,0
67895,-100,4,2,1,25,0,0
67999,-250,4,2,1,25,0,0
68051,-62.5,4,2,1,25,0,0
68103,-100,4,2,1,25,0,0
68207,-250,4,2,1,25,0,0
68259,-125,4,2,1,25,0,0
68311,-71.4285714285714,4,2,1,25,0,0
68363,-62.5,4,2,1,25,0,0
68415,-100,4,2,1,25,0,0
70134,-105.263157894737,4,2,1,25,0,0
70290,-111.111111111111,4,2,1,25,0,0
70603,-117.647058823529,4,2,1,25,0,0
70915,-125,4,2,1,25,0,0
72582,-117.647058823529,4,2,1,25,0,0
72686,-111.111111111111,4,2,1,25,0,0
72790,-105.263157894737,4,2,1,25,0,0
72895,-50,4,2,1,25,0,0
72999,-66.6666666666667,4,2,1,25,0,0
73103,-100,4,2,1,25,0,0
73207,-200,4,2,1,25,0,0
73311,-100,4,2,1,25,0,1
73624,-166.666666666667,4,2,1,25,0,1
73702,-45.4545454545455,4,2,1,25,0,1
73728,-100,4,2,1,25,0,1
75290,-166.666666666667,4,2,1,25,0,1
75368,-45.4545454545455,4,2,1,25,0,1
75395,-100,4,2,1,25,0,1
76992,-500.000000000005,4,2,1,25,0,1
77026,-55.5555555555556,4,2,1,25,0,1
77061,-100,4,2,1,25,0,1
78207,-200,4,2,1,25,0,1
78259,-125,4,2,1,25,0,1
78311,-83.3333333333333,4,2,1,25,0,1
78363,-66.6666666666667,4,2,1,25,0,1
78415,-100,4,2,1,25,0,1
78520,-250,4,2,1,25,0,1
78624,-83.3333333333333,4,2,1,25,0,1
78676,-50,4,2,1,25,0,1
78728,-100,4,2,1,25,0,1
80290,-166.666666666667,4,2,1,25,0,1
80368,-45.4545454545455,4,2,1,25,0,1
80395,-100,4,2,1,25,0,1
81957,-166.666666666667,4,2,1,25,0,1
82035,-45.4545454545455,4,2,1,25,0,1
82061,-100,4,2,1,25,0,1
83624,-166.666666666667,4,2,1,25,0,1
83702,-45.4545454545455,4,2,1,25,0,1
83728,-71.4285714285714,4,2,1,25,0,1
83780,-83.3333333333333,4,2,1,25,0,1
83832,-125,4,2,1,25,0,1
83884,-166.666666666667,4,2,1,25,0,1
83936,-100,4,2,1,25,0,1
84353,-166.666666666667,4,2,1,25,0,1
84431,-45.4545454545455,4,2,1,25,0,1
84457,-100,4,2,1,25,0,1
84561,-200,4,2,1,25,0,1
84639,-40,4,2,1,25,0,1
84665,-100,4,2,1,25,0,1
84769,-166.666666666667,4,2,1,25,0,1
84847,-45.4545454545455,4,2,1,25,0,1
84874,-100,4,2,1,25,0,1
86436,-333.333333333334,4,2,1,25,0,0
86471,-58.8235294117647,4,2,1,25,0,0
86506,-500,4,2,1,25,0,0
86540,-55.5555555555556,4,2,1,25,0,0
86575,-1000,4,2,1,25,0,0
86610,-52.6315789473684,4,2,1,25,0,0
86645,-100,4,2,1,25,0,1
86957,-166.666666666667,4,2,1,25,0,1
87035,-45.4545454545455,4,2,1,25,0,1
87061,-100,4,2,1,25,0,1
88624,-166.666666666667,4,2,1,25,0,1
88702,-45.4545454545455,4,2,1,25,0,1
88728,-100,4,2,1,25,0,1
89978,-250,4,2,1,25,0,1
90013,-62.5,4,2,1,25,0,1
90047,-250,4,2,1,25,0,1
90082,-62.5,4,2,1,25,0,1
90117,-166.666666666667,4,2,1,25,0,1
90221,-45.4545454545455,4,2,1,25,0,1
90256,-333.333333333333,4,2,1,25,0,1
90360,-32.258064516129,4,2,1,25,0,1
90395,-100,4,2,1,25,0,1
91853,-166.666666666667,4,2,1,25,0,1
91957,-100,4,2,1,25,0,1
92009,-55.5555555555556,4,2,1,25,0,1
92061,-100,4,2,1,25,0,1
93624,-166.666666666667,4,2,1,25,0,1
93702,-45.4545454545455,4,2,1,25,0,1
93728,-100,4,2,1,25,0,1
95290,-166.666666666667,4,2,1,25,0,1
95368,-45.4545454545455,4,2,1,25,0,1
95395,-100,4,2,1,25,0,1
95811,-250,4,2,1,25,0,1
95837,-125,4,2,1,25,0,1
95863,-83.3333333333333,4,2,1,25,0,1
95889,-62.5,4,2,1,25,0,1
95915,-100,4,2,1,25,0,1
96124,-250.000000000001,4,2,1,25,0,1
96202,-35.7142857142857,4,2,1,25,0,1
96228,-100,4,2,1,25,0,1
96645,-250.000000000001,4,2,1,25,0,1
96749,-125,4,2,1,25,0,1
96853,-83.3333333333333,4,2,1,25,0,1
96957,-62.5,4,2,1,25,0,1
97061,-100,4,2,1,25,0,1
97478,-62.5,4,2,1,25,0,1
97530,-83.3333333333333,4,2,1,25,0,1
97582,-125,4,2,1,25,0,1
97634,-250,4,2,1,25,0,1
97686,-100,4,2,1,25,0,1
97790,-62.5,4,2,1,25,0,1
97895,-76.9230769230769,4,2,1,25,0,1
97999,-100,4,2,1,25,0,1
98103,-250,4,2,1,25,0,1
98155,-125,4,2,1,25,0,1
98207,-83.3333333333333,4,2,1,25,0,1
98259,-62.5,4,2,1,25,0,1
98311,-100,4,2,1,25,0,1
98415,-62.5,4,2,1,25,0,1
98520,-76.9230769230769,4,2,1,25,0,1
98624,-100,4,2,1,25,0,1
98728,-250,4,2,1,25,0,1
98780,-125,4,2,1,25,0,1
98832,-83.3333333333333,4,2,1,25,0,1
98884,-62.5,4,2,1,25,0,1
98936,-100,4,2,1,25,0,1
99040,-125,4,2,1,25,0,1
99092,-83.3333333333333,4,2,1,25,0,1
99145,-125,4,2,1,25,0,1
99197,-83.3333333333333,4,2,1,25,0,1
99249,-125,4,2,1,25,0,1
99301,-83.3333333333333,4,2,1,25,0,1
99353,-200,4,2,1,25,0,1
99431,-40,4,2,1,25,0,1
99457,-200,4,2,1,25,0,1
99535,-40,4,2,1,25,0,1
99561,-100,4,2,1,25,0,1
100186,-76.9230769230769,4,2,1,25,0,1
100238,-90.9090909090909,4,2,1,25,0,1
100290,-125,4,2,1,25,0,1
100342,-142.857142857143,4,2,1,25,0,1
100395,-100,4,2,1,25,0,1
100499,-76.9230769230769,4,2,1,25,0,1
100551,-90.9090909090909,4,2,1,25,0,1
100603,-111.111111111111,4,2,1,25,0,1
100655,-142.857142857143,4,2,1,25,0,1
100707,-100,4,2,1,25,0,1
101228,-250,4,2,1,25,0,1
101332,-125,4,2,1,25,0,1
101436,-83.3333333333333,4,2,1,25,0,1
101540,-62.5,4,2,1,25,0,1
101645,-55.5555555555556,4,2,1,25,0,0
101749,-100,4,2,1,25,0,0
101853,-125,4,2,1,25,0,0
101957,-250,4,2,1,25,0,0
102061,-100,4,2,1,25,0,0
102895,-55.5555555555556,4,2,1,25,0,0
102947,-500,4,2,1,25,0,0
102999,-100,4,2,1,25,0,0
104561,-66.6666666666667,4,2,1,25,0,0
104639,-83.3333333333333,4,2,1,25,0,0
104717,-125,4,2,1,25,0,0
104796,-200,4,2,1,25,0,0
104874,-100,4,2,1,25,0,0
104978,-55.5555555555556,4,2,1,25,0,0
105082,-90.9090909090909,4,2,1,25,0,0
105134,-200,4,2,1,25,0,0
105290,-100,4,2,1,25,0,0
106228,-55.5555555555556,4,2,1,25,0,0
106280,-500,4,2,1,25,0,0
106332,-100,4,2,1,25,0,0
108311,-55.5555555555556,4,2,1,25,0,0
108415,-90.9090909090909,4,2,1,25,0,0
108467,-200,4,2,1,25,0,0
108624,-100,4,2,1,25,0,0
109561,-55.5555555555556,4,2,1,25,0,0
109613,-500,4,2,1,25,0,0
109665,-100,4,2,1,25,0,0
111228,-66.6666666666667,4,2,1,25,0,0
111306,-83.3333333333333,4,2,1,25,0,0
111384,-125,4,2,1,25,0,0
111462,-250,4,2,1,25,0,0
111540,-100,4,2,1,25,0,0
112895,-333.333333333333,4,2,1,25,0,0
112947,-58.8235294117647,4,2,1,25,0,0
112999,-333.333333333333,4,2,1,25,0,0
113051,-58.8235294117647,4,2,1,25,0,0
113103,-333.333333333333,4,2,1,25,0,0
113155,-58.8235294117647,4,2,1,25,0,0
113207,-100,4,2,1,25,0,0
113311,-166.666666666667,4,2,1,25,0,0
114353,-156.25,4,2,1,25,0,0
114561,-147.058823529412,4,2,1,25,0,0
114770,-138.888888888889,4,2,1,25,0,0
114978,-131.578947368421,4,2,1,25,0,0
115186,-125,4,2,1,25,0,0
115395,-119.047619047619,4,2,1,25,0,0
115603,-113.636363636364,4,2,1,25,0,0
115811,-108.695652173913,4,2,1,25,0,0
116020,-106.382978723404,4,2,1,25,0,0
116228,-102.040816326531,4,2,1,25,0,0
116436,-100,4,2,1,25,0,0

[HitObjects]
448,192,1645,5,0,0:0:0:60:snare_l.wav
64,192,1645,128,0,1957:0:0:0:0:
192,192,1645,128,0,1957:0:0:0:50:finish.wav
320,192,2061,1,0,0:0:0:0:
64,192,2165,1,0,0:0:0:0:
192,192,2374,1,0,0:0:0:0:
320,192,2686,1,0,0:0:0:0:
448,192,2895,1,0,0:0:0:0:
192,192,2895,128,0,3103:0:0:0:50:finish.wav
64,192,2895,128,0,3103:0:0:0:60:snare_l.wav
320,192,2999,1,0,0:0:0:0:
320,192,3207,1,0,0:0:0:0:
192,192,3207,1,0,0:0:0:50:finish.wav
64,192,3207,1,0,0:0:0:60:snare_l.wav
320,192,3520,1,0,0:0:0:0:
64,192,3624,1,0,0:0:0:0:
192,192,3728,1,0,0:0:0:0:
448,192,3832,1,0,0:0:0:0:
64,192,3936,1,0,0:0:0:0:
320,192,4040,1,0,0:0:0:0:
64,192,4249,1,0,0:0:0:0:
192,192,4249,1,0,0:0:0:50:finish.wav
448,192,4249,1,0,0:0:0:60:snare_l.wav
320,192,4353,1,0,0:0:0:0:
64,192,4405,1,0,0:0:0:0:
448,192,4457,1,0,0:0:0:0:
192,192,4509,1,0,0:0:0:0:
64,192,4561,1,0,0:0:0:0:
320,192,4561,128,0,4874:0:0:0:50:finish.wav
448,192,4561,128,0,4874:0:0:0:60:snare_l.wav
448,192,4978,1,0,0:0:0:0:
64,192,4978,128,0,5290:0:0:0:50:finish.wav
192,192,4978,128,0,5290:0:0:0:60:snare_l.wav
320,192,5395,1,0,0:0:0:0:
448,192,5499,1,0,0:0:0:0:
64,192,5603,1,0,0:0:0:0:
192,192,5707,1,0,0:0:0:0:
448,192,5915,1,0,0:0:0:0:
64,192,6020,1,0,0:0:0:0:
320,192,6124,1,0,0:0:0:0:
448,192,6228,1,0,0:0:0:0:
64,192,6228,128,0,6436:0:0:0:50:finish.wav
192,192,6228,128,0,6436:0:0:0:60:snare_l.wav
320,192,6332,1,0,0:0:0:0:
64,192,6540,1,0,0:0:0:0:
192,192,6540,1,0,0:0:0:50:finish.wav
320,192,6540,1,0,0:0:0:60:snare_l.wav
448,192,6783,1,0,0:0:0:0:
320,192,6783,1,0,0:0:0:0:
448,192,6922,1,0,0:0:0:0:
320,192,6922,1,0,0:0:0:0:
64,192,6992,1,0,0:0:0:0:
448,192,7061,1,0,0:0:0:0:
320,192,7061,1,0,0:0:0:0:
192,192,7131,1,0,0:0:0:0:
64,192,7200,1,0,0:0:0:0:
448,192,7270,1,0,0:0:0:0:
320,192,7339,1,0,0:0:0:0:
192,192,7408,1,0,0:0:0:0:
64,192,7478,1,0,0:0:0:0:
448,192,7478,1,0,0:0:0:0:
320,192,7582,1,0,0:0:0:0:
192,192,7686,1,0,0:0:0:0:
64,192,7790,1,0,0:0:0:0:
320,192,7895,1,0,0:0:0:0:
448,192,7895,1,0,0:0:0:0:
64,192,7999,1,0,0:0:0:0:
192,192,8103,1,0,0:0:0:0:
320,192,8207,1,0,0:0:0:0:
448,192,8311,1,0,0:0:0:0:
192,192,8311,128,0,8624:0:0:0:50:finish.wav
64,192,8311,128,0,8624:0:0:0:60:snare_l.wav
448,192,8728,1,0,0:0:0:0:
64,192,8832,1,0,0:0:0:0:
320,192,9040,1,0,0:0:0:0:
192,192,9353,1,0,0:0:0:0:
64,192,9561,1,0,0:0:0:0:
448,192,9561,128,0,9770:0:0:0:50:finish.wav
320,192,9561,128,0,9770:0:0:0:60:snare_l.wav
192,192,9665,1,0,0:0:0:0:
320,192,9874,1,0,0:0:0:0:
192,192,9874,1,0,0:0:0:50:finish.wav
64,192,9874,1,0,0:0:0:60:snare_l.wav
448,192,10082,1,0,0:0:0:0:
192,192,10186,1,0,0:0:0:0:
320,192,10290,1,0,0:0:0:0:
64,192,10395,1,0,0:0:0:0:
448,192,10499,1,0,0:0:0:0:
192,192,10499,1,0,0:0:0:0:
320,192,10603,1,0,0:0:0:0:
192,192,10707,1,0,0:0:0:0:
64,192,10707,1,0,0:0:0:0:
320,192,10811,1,0,0:0:0:0:
64,192,10915,1,0,0:0:0:0:
448,192,10915,1,0,0:0:0:50:finish.wav
192,192,10915,1,0,0:0:0:60:snare_l.wav
320,192,11124,1,0,0:0:0:0:
192,192,11176,1,0,0:0:0:0:
64,192,11228,1,0,0:0:0:0:
448,192,11228,128,0,11540:0:0:0:50:finish.wav
320,192,11228,128,0,11540:0:0:0:60:snare_l.wav
448,192,11645,1,0,0:0:0:0:
64,192,11645,128,0,11957:0:0:0:50:finish.wav
192,192,11645,128,0,11957:0:0:0:60:snare_l.wav
320,192,11853,1,0,0:0:0:0:
448,192,11957,1,0,0:0:0:0:
64,192,12061,1,0,0:0:0:0:
192,192,12061,1,0,0:0:0:0:
320,192,12165,1,0,0:0:0:0:
192,192,12270,1,0,0:0:0:0:
448,192,12374,1,0,0:0:0:0:
320,192,12478,1,0,0:0:0:0:
64,192,12478,1,0,0:0:0:0:
192,192,12582,1,0,0:0:0:0:
448,192,12686,1,0,0:0:0:0:
320,192,12686,1,0,0:0:0:0:
64,192,12790,1,0,0:0:0:0:
448,192,12895,1,0,0:0:0:0:
192,192,12895,128,0,13103:0:0:0:50:finish.wav
320,192,12895,128,0,13103:0:0:0:60:snare_l.wav
64,192,12999,1,0,0:0:0:0:
448,192,13103,1,0,0:0:0:0:
64,192,13207,1,0,0:0:0:0:
320,192,13207,1,0,0:0:0:50:finish.wav
192,192,13207,1,0,0:0:0:60:snare_l.wav
320,192,13936,1,0,0:0:0:0:
448,192,14040,1,0,0:0:0:0:
192,192,14145,1,0,0:0:0:0:
64,192,14145,1,0,0:0:0:0:
320,192,14249,1,0,0:0:0:0:
64,192,14353,1,0,0:0:0:0:
448,192,14353,1,0,0:0:0:0:
192,192,14405,1,0,0:0:0:0:
320,192,14457,1,0,0:0:0:0:
448,192,14509,1,0,0:0:0:0:
64,192,14561,1,0,0:0:0:0:
192,192,14561,128,0,14978:0:0:0:60:snare_h.wav
64,192,14978,1,0,0:0:0:0:
448,192,14978,1,0,0:0:0:50:finish.wav
320,192,14978,1,0,0:0:0:60:snare_l.wav
320,192,15186,128,0,15395:0:0:0:40:kick.wav
64,192,15395,1,0,0:0:0:0:
448,192,15395,1,0,0:0:0:0:
192,192,15395,1,0,0:0:0:60:snare_h.wav
448,192,15603,1,0,0:0:0:40:kick.wav
64,192,15707,1,0,0:0:0:0:
320,192,15811,1,0,0:0:0:0:
192,192,15811,1,0,0:0:0:60:snare_l.wav
448,192,15915,1,0,0:0:0:0:
64,192,16020,128,0,16228:0:0:0:40:kick.wav
320,192,16228,1,0,0:0:0:0:
192,192,16228,1,0,0:0:0:0:
448,192,16228,1,0,0:0:0:60:snare_h.wav
64,192,16332,1,0,0:0:0:0:
448,192,16436,1,0,0:0:0:40:kick.wav
320,192,16540,1,0,0:0:0:0:
192,192,16645,1,0,0:0:0:0:
64,192,16645,1,0,0:0:0:60:snare_l.wav
448,192,16749,1,0,0:0:0:0:
448,192,16853,128,0,17061:0:0:0:40:kick.wav
64,192,17061,1,0,0:0:0:0:
192,192,17061,1,0,0:0:0:0:
320,192,17061,1,0,0:0:0:60:snare_h.wav
448,192,17200,1,0,0:0:0:0:
320,192,17270,1,0,0:0:0:40:kick.wav
192,192,17339,1,0,0:0:0:0:
64,192,17408,1,0,0:0:0:0:
448,192,17478,1,0,0:0:0:0:
320,192,17478,1,0,0:0:0:60:snare_l.wav
192,192,17582,1,0,0:0:0:0:
64,192,17686,1,0,0:0:0:0:
320,192,17790,1,0,0:0:0:0:
64,192,17895,1,0,0:0:0:0:
192,192,17895,1,0,0:0:0:0:
448,192,17895,1,0,0:0:0:60:snare_h.wav
320,192,17999,1,0,0:0:0:0:
64,192,18103,1,0,0:0:0:40:kick.wav
448,192,18207,1,0,0:0:0:0:
192,192,18311,1,0,0:0:0:0:
64,192,18311,1,0,0:0:0:60:snare_l.wav
320,192,18520,128,0,18728:0:0:0:40:kick.wav
64,192,18728,1,0,0:0:0:0:
448,192,18728,1,0,0:0:0:0:
192,192,18728,1,0,0:0:0:60:snare_h.wav
192,192,18936,1,0,0:0:0:40:kick.wav
64,192,19040,1,0,0:0:0:0:
320,192,19145,1,0,0:0:0:0:
448,192,19145,1,0,0:0:0:60:snare_l.wav
64,192,19353,1,0,0:0:0:40:kick.wav
320,192,19422,1,0,0:0:0:0:
192,192,19492,1,0,0:0:0:0:
448,192,19561,1,0,0:0:0:0:
320,192,19561,1,0,0:0:0:0:
64,192,19561,1,0,0:0:0:60:snare_h.wav
192,192,19665,1,0,0:0:0:0:
448,192,19770,1,0,0:0:0:40:kick.wav
320,192,19874,1,0,0:0:0:0:
192,192,19978,1,0,0:0:0:0:
64,192,19978,1,0,0:0:0:60:snare_l.wav
448,192,20186,1,0,0:0:0:40:kick.wav
192,192,20290,1,0,0:0:0:0:
320,192,20395,1,0,0:0:0:0:
448,192,20395,1,0,0:0:0:0:
64,192,20395,1,0,0:0:0:60:snare_h.wav
192,192,20499,1,0,0:0:0:0:
448,192,20603,1,0,0:0:0:40:kick.wav
320,192,20707,1,0,0:0:0:0:
192,192,20811,1,0,0:0:0:0:
64,192,20811,128,0,21020:0:0:0:60:snare_l.wav
448,192,20915,128,0,21124:0:0:0:0:
320,192,21228,1,0,0:0:0:0:
192,192,21228,128,0,21436:0:0:0:0:
64,192,21228,1,0,0:0:0:60:snare_h.wav
448,192,21436,1,0,0:0:0:40:kick.wav
320,192,21540,128,0,21749:0:0:0:0:
64,192,21540,1,0,0:0:0:60:snare_l.wav
64,192,21749,1,0,0:0:0:0:
192,192,21749,1,0,0:0:0:0:
448,192,21749,1,0,0:0:0:60:snare_l.wav
320,192,22061,1,0,0:0:0:0:
448,192,22061,1,0,0:0:0:50:finish.wav
192,192,22061,1,0,0:0:0:60:snare_h.wav
64,192,22270,1,0,0:0:0:40:kick.wav
448,192,22374,1,0,0:0:0:0:
192,192,22478,1,0,0:0:0:0:
320,192,22478,1,0,0:0:0:60:snare_l.wav
64,192,22582,1,0,0:0:0:0:
448,192,22686,128,0,22895:0:0:0:40:kick.wav
320,192,22895,1,0,0:0:0:0:
192,192,22895,1,0,0:0:0:0:
64,192,22895,1,0,0:0:0:60:snare_h.wav
448,192,22999,1,0,0:0:0:0:
192,192,23103,1,0,0:0:0:40:kick.wav
320,192,23207,1,0,0:0:0:0:
64,192,23311,1,0,0:0:0:0:
448,192,23311,1,0,0:0:0:60:snare_l.wav
192,192,23415,1,0,0:0:0:0:
192,192,23520,128,0,23728:0:0:0:40:kick.wav
64,192,23728,1,0,0:0:0:0:
448,192,23728,1,0,0:0:0:0:
320,192,23728,1,0,0:0:0:60:snare_h.wav
192,192,23936,1,0,0:0:0:40:kick.wav
320,192,24006,1,0,0:0:0:0:
448,192,24075,1,0,0:0:0:0:
192,192,24145,1,0,0:0:0:0:
64,192,24145,1,0,0:0:0:60:snare_l.wav
320,192,24353,1,0,0:0:0:40:kick.wav
448,192,24561,1,0,0:0:0:0:
64,192,24561,1,0,0:0:0:0:
192,192,24561,1,0,0:0:0:60:snare_h.wav
320,192,24770,1,0,0:0:0:40:kick.wav
192,192,24874,1,0,0:0:0:0:
64,192,24978,1,0,0:0:0:0:
448,192,24978,1,0,0:0:0:60:snare_l.wav
320,192,25082,1,0,0:0:0:0:
192,192,25186,128,0,25395:0:0:0:40:kick.wav
64,192,25395,1,0,0:0:0:0:
320,192,25395,1,0,0:0:0:0:
448,192,25395,1,0,0:0:0:60:snare_h.wav
192,192,25603,1,0,0:0:0:40:kick.wav
64,192,25707,1,0,0:0:0:0:
448,192,25811,1,0,0:0:0:0:
320,192,25811,1,0,0:0:0:60:snare_l.wav
192,192,26020,1,0,0:0:0:40:kick.wav
320,192,26124,1,0,0:0:0:0:
64,192,26228,1,0,0:0:0:0:
448,192,26228,1,0,0:0:0:0:
192,192,26228,1,0,0:0:0:60:snare_h.wav
448,192,26436,1,0,0:0:0:40:kick.wav
320,192,26488,1,0,0:0:0:0:
192,192,26540,1,0,0:0:0:0:
64,192,26540,1,0,0:0:0:60:snare_l.wav
448,192,26592,1,0,0:0:0:0:
320,192,26645,1,0,0:0:0:0:
192,192,26697,1,0,0:0:0:0:
64,192,26749,1,0,0:0:0:0:
320,192,26853,1,0,0:0:0:0:
192,192,27061,1,0,0:0:0:0:
448,192,27165,1,0,0:0:0:0:
64,192,27270,1,0,0:0:0:0:
448,192,27374,1,0,0:0:0:0:
320,192,27408,1,0,0:0:0:0:
192,192,27443,1,0,0:0:0:0:
64,192,27478,1,0,0:0:0:0:
448,192,27582,1,0,0:0:0:0:
192,192,27686,1,0,0:0:0:0:
64,192,27738,1,0,0:0:0:0:
320,192,27790,1,0,0:0:0:0:
448,192,27842,1,0,0:0:0:0:
64,192,27895,1,0,0:0:0:0:
192,192,27895,1,0,0:0:0:60:snare_h.wav
320,192,27947,1,0,0:0:0:0:
448,192,27999,1,0,0:0:0:0:
64,192,28051,1,0,0:0:0:0:
192,192,28103,1,0,0:0:0:0:
448,192,28155,1,0,0:0:0:0:
320,192,28207,1,0,0:0:0:0:
192,192,28259,1,0,0:0:0:0:
64,192,28311,1,0,0:0:0:50:finish.wav
448,192,28311,1,0,0:0:0:60:snare_l.wav
192,192,28520,128,0,28728:0:0:0:40:kick.wav
448,192,28728,1,0,0:0:0:0:
64,192,28728,1,0,0:0:0:0:
320,192,28728,1,0,0:0:0:60:snare_h.wav
192,192,28936,1,0,0:0:0:40:kick.wav
320,192,29040,1,0,0:0:0:0:
64,192,29145,1,0,0:0:0:60:snare_l.wav
192,192,29145,1,0,0:0:0:0:
320,192,29249,1,0,0:0:0:40:kick.wav
448,192,29353,1,0,0:0:0:0:
64,192,29405,1,0,0:0:0:0:
192,192,29457,1,0,0:0:0:0:
320,192,29509,1,0,0:0:0:0:
64,192,29561,1,0,0:0:0:60:snare_h.wav
448,192,29561,1,0,0:0:0:0:
192,192,29561,1,0,0:0:0:0:
320,192,29665,1,0,0:0:0:0:
64,192,29770,1,0,0:0:0:40:kick.wav
192,192,29874,1,0,0:0:0:0:
320,192,29978,1,0,0:0:0:0:
448,192,29978,1,0,0:0:0:60:snare_l.wav
64,192,30082,1,0,0:0:0:0:
64,192,30186,128,0,30395:0:0:0:40:kick.wav
448,192,30395,1,0,0:0:0:0:
320,192,30395,1,0,0:0:0:0:
192,192,30395,1,0,0:0:0:60:snare_h.wav
64,192,30533,1,0,0:0:0:0:
192,192,30603,1,0,0:0:0:40:kick.wav
320,192,30672,1,0,0:0:0:0:
448,192,30742,1,0,0:0:0:0:
64,192,30811,1,0,0:0:0:0:
192,192,30811,1,0,0:0:0:60:snare_l.wav
320,192,31020,1,0,0:0:0:40:kick.wav
192,192,31124,1,0,0:0:0:0:
448,192,31228,1,0,0:0:0:0:
320,192,31228,1,0,0:0:0:0:
64,192,31228,1,0,0:0:0:60:snare_h.wav
192,192,31332,1,0,0:0:0:0:
320,192,31436,1,0,0:0:0:40:kick.wav
448,192,31540,1,0,0:0:0:0:
192,192,31645,1,0,0:0:0:0:
64,192,31645,1,0,0:0:0:60:snare_l.wav
320,192,31853,128,0,32061:0:0:0:40:kick.wav
448,192,32061,1,0,0:0:0:0:
64,192,32061,1,0,0:0:0:0:
192,192,32061,1,0,0:0:0:60:snare_h.wav
320,192,32270,1,0,0:0:0:40:kick.wav
448,192,32374,1,0,0:0:0:0:
192,192,32478,1,0,0:0:0:0:
64,192,32478,1,0,0:0:0:60:snare_l.wav
448,192,32686,1,0,0:0:0:40:kick.wav
192,192,32756,1,0,0:0:0:0:
320,192,32825,1,0,0:0:0:0:
64,192,32895,1,0,0:0:0:0:
192,192,32895,1,0,0:0:0:0:
448,192,32895,1,0,0:0:0:60:snare_h.wav
320,192,32999,1,0,0:0:0:0:
64,192,33103,1,0,0:0:0:40:kick.wav
192,192,33207,1,0,0:0:0:0:
320,192,33311,1,0,0:0:0:0:
448,192,33311,1,0,0:0:0:60:snare_l.wav
64,192,33520,1,0,0:0:0:0:
192,192,33520,1,0,0:0:0:60:snare_l.wav
320,192,33624,1,0,0:0:0:0:
192,192,33728,1,0,0:0:0:0:
64,192,33832,1,0,0:0:0:0:
448,192,33832,1,0,0:0:0:60:snare_l.wav
320,192,33936,1,0,0:0:0:0:
192,192,34040,1,0,0:0:0:0:
320,192,34145,1,0,0:0:0:0:
448,192,34145,1,0,0:0:0:60:snare_l.wav
64,192,34353,1,0,0:0:0:0:
192,192,34457,1,0,0:0:0:0:
320,192,34457,1,0,0:0:0:60:snare_l.wav
448,192,34561,1,0,0:0:0:0:
64,192,34665,1,0,0:0:0:0:
192,192,34665,1,0,0:0:0:60:snare_l.wav
320,192,34770,1,0,0:0:0:0:
192,192,34874,1,0,0:0:0:0:
448,192,34874,1,0,0:0:0:50:finish.wav
64,192,34874,1,0,0:0:0:60:snare_h.wav
320,192,35256,1,0,0:0:0:0:
448,192,35256,1,0,0:0:0:60:snare_l.wav
192,192,35325,1,0,0:0:0:0:
64,192,35325,1,0,0:0:0:60:snare_l.wav
448,192,35395,1,0,0:0:0:0:
320,192,35395,1,0,0:0:0:60:snare_l.wav
192,192,35533,1,0,0:0:0:0:
320,192,35533,1,0,0:0:0:60:snare_l.wav
64,192,35672,1,0,0:0:0:0:
192,192,35672,1,0,0:0:0:60:snare_l.wav
320,192,35811,1,0,0:0:0:0:
448,192,35811,1,0,0:0:0:60:snare_l.wav
192,192,35950,1,0,0:0:0:0:
64,192,35950,1,0,0:0:0:60:snare_l.wav
192,192,36089,1,0,0:0:0:0:
320,192,36089,1,0,0:0:0:60:snare_l.wav
320,192,36228,1,0,0:0:0:0:
448,192,36228,1,0,0:0:0:60:snare_l.wav
192,192,36332,1,0,0:0:0:0:
320,192,36436,1,0,0:0:0:0:
448,192,36540,1,0,0:0:0:0:
192,192,36540,1,0,0:0:0:0:
64,192,36540,1,0,0:0:0:50:finish.wav
320,192,36749,1,0,0:0:0:0:
320,192,36853,128,0,37061:0:0:0:40:kick.wav
64,192,37061,1,0,0:0:0:0:
448,192,37061,1,0,0:0:0:0:
192,192,37061,1,0,0:0:0:50:finish.wav
320,192,37270,1,0,0:0:0:40:kick.wav
192,192,37339,1,0,0:0:0:0:
64,192,37408,1,0,0:0:0:0:
448,192,37478,1,0,0:0:0:0:
320,192,37478,1,0,0:0:0:60:snare_l.wav
192,192,37686,1,0,0:0:0:40:kick.wav
64,192,37895,1,0,0:0:0:0:
448,192,37895,1,0,0:0:0:0:
320,192,37895,1,0,0:0:0:60:snare_h.wav
192,192,38103,1,0,0:0:0:40:kick.wav
320,192,38207,1,0,0:0:0:0:
448,192,38311,1,0,0:0:0:0:
64,192,38311,1,0,0:0:0:60:snare_l.wav
192,192,38415,1,0,0:0:0:0:
320,192,38520,128,0,38728:0:0:0:40:kick.wav
448,192,38728,1,0,0:0:0:0:
192,192,38728,1,0,0:0:0:0:
64,192,38728,1,0,0:0:0:60:snare_h.wav
320,192,38832,1,0,0:0:0:0:
192,192,38936,1,0,0:0:0:40:kick.wav
448,192,39040,1,0,0:0:0:0:
320,192,39145,1,0,0:0:0:0:
64,192,39145,128,0,39353:0:0:0:50:finish.wav
192,192,39145,128,0,39353:0:0:0:60:snare_l.wav
64,192,39457,1,0,0:0:0:0:
192,192,39457,128,0,39665:0:0:0:50:finish.wav
320,192,39457,128,0,39665:0:0:0:60:snare_l.wav
192,192,39770,1,0,0:0:0:0:
320,192,39770,128,0,39978:0:0:0:50:finish.wav
448,192,39770,128,0,39978:0:0:0:60:snare_l.wav
64,192,40186,1,0,0:0:0:40:kick.wav
64,192,40290,1,0,0:0:0:40:kick.wav
448,192,40395,1,0,0:0:0:0:
320,192,40395,1,0,0:0:0:50:snare_h.wav
192,192,40603,1,0,0:0:0:40:kick.wav
192,192,40707,1,0,0:0:0:40:kick.wav
64,192,40811,1,0,0:0:0:0:
448,192,40811,1,0,0:0:0:50:snare_h.wav
320,192,41020,1,0,0:0:0:40:kick.wav
320,192,41124,1,0,0:0:0:40:kick.wav
64,192,41228,1,0,0:0:0:0:
192,192,41228,1,0,0:0:0:50:snare_h.wav
448,192,41436,1,0,0:0:0:40:kick.wav
448,192,41540,1,0,0:0:0:40:kick.wav
64,192,41645,1,0,0:0:0:0:
192,192,41645,1,0,0:0:0:50:snare_h.wav
320,192,41853,1,0,0:0:0:40:kick.wav
320,192,41957,1,0,0:0:0:40:kick.wav
64,192,42061,1,0,0:0:0:0:
448,192,42061,1,0,0:0:0:50:snare_h.wav
192,192,42270,1,0,0:0:0:40:kick.wav
192,192,42374,1,0,0:0:0:40:kick.wav
448,192,42478,1,0,0:0:0:0:
320,192,42478,1,0,0:0:0:50:snare_h.wav
64,192,42686,1,0,0:0:0:40:kick.wav
64,192,42790,1,0,0:0:0:40:kick.wav
320,192,42895,1,0,0:0:0:0:
192,192,42895,1,0,0:0:0:50:snare_h.wav
64,192,43033,1,0,0:0:0:0:
192,192,43103,1,0,0:0:0:0:
448,192,43172,1,0,0:0:0:0:
320,192,43242,1,0,0:0:0:0:
448,192,43311,1,0,0:0:0:0:
64,192,43311,1,0,0:0:0:50:finish.wav
192,192,43311,1,0,0:0:0:60:snare_l.wav
320,192,43520,1,0,0:0:0:0:
448,192,43589,1,0,0:0:0:0:
192,192,43658,1,0,0:0:0:0:
64,192,43728,1,0,0:0:0:0:
320,192,43832,1,0,0:0:0:0:
448,192,44040,128,0,44249:0:0:0:0:
320,192,44249,1,0,0:0:0:0:
192,192,44301,1,0,0:0:0:0:
64,192,44353,1,0,0:0:0:0:
192,192,44561,1,0,0:0:0:0:
320,192,44665,1,0,0:0:0:0:
64,192,44770,128,0,44978:0:0:0:0:
448,192,44874,128,0,44978:0:0:0:0:
192,192,45186,128,0,45603:0:0:0:0:
448,192,45603,1,0,0:0:0:0:
320,192,45672,1,0,0:0:0:0:
192,192,45742,1,0,0:0:0:0:
64,192,45811,1,0,0:0:0:0:
320,192,46020,1,0,0:0:0:0:
448,192,46020,1,0,0:0:0:60:snare_l.wav
192,192,46332,1,0,0:0:0:0:
320,192,46332,1,0,0:0:0:60:snare_l.wav
64,192,46645,1,0,0:0:0:0:
448,192,46645,1,0,0:0:0:50:finish.wav
320,192,46645,1,0,0:0:0:60:snare_l.wav
192,192,46853,1,0,0:0:0:40:kick.wav
320,192,46922,1,0,0:0:0:0:
448,192,46992,1,0,0:0:0:0:
192,192,47061,1,0,0:0:0:0:
64,192,47061,1,0,0:0:0:0:
320,192,47061,1,0,0:0:0:60:snare_h.wav
448,192,47165,1,0,0:0:0:0:
64,192,47270,1,0,0:0:0:40:kick.wav
448,192,47374,128,0,47582:0:0:0:0:
320,192,47478,1,0,0:0:0:0:
192,192,47478,1,0,0:0:0:60:snare_l.wav
64,192,47582,1,0,0:0:0:0:
320,192,47634,1,0,0:0:0:0:
192,192,47686,1,0,0:0:0:40:kick.wav
448,192,47790,1,0,0:0:0:0:
320,192,47895,1,0,0:0:0:0:
192,192,47895,1,0,0:0:0:0:
64,192,47895,1,0,0:0:0:60:snare_h.wav
448,192,47999,1,0,0:0:0:0:
192,192,48103,128,0,48311:0:0:0:40:kick.wav
448,192,48207,128,0,48311:0:0:0:0:
64,192,48311,1,0,0:0:0:0:
320,192,48311,1,0,0:0:0:60:snare_l.wav
192,192,48415,1,0,0:0:0:0:
64,192,48520,128,0,48728:0:0:0:40:kick.wav
320,192,48728,1,0,0:0:0:0:
192,192,48728,1,0,0:0:0:0:
448,192,48728,1,0,0:0:0:60:snare_h.wav
64,192,48832,1,0,0:0:0:0:
448,192,48936,1,0,0:0:0:40:kick.wav
320,192,49040,1,0,0:0:0:0:
192,192,49145,1,0,0:0:0:0:
64,192,49145,128,0,49353:0:0:0:60:snare_l.wav
448,192,49249,1,0,0:0:0:0:
320,192,49353,1,0,0:0:0:40:kick.wav
192,192,49457,128,0,49561:0:0:0:0:
64,192,49561,1,0,0:0:0:0:
448,192,49561,1,0,0:0:0:0:
320,192,49561,1,0,0:0:0:60:snare_h.wav
192,192,49978,1,0,0:0:0:0:
320,192,49978,1,0,0:0:0:60:snare_l.wav
64,192,50186,1,0,0:0:0:40:kick.wav
192,192,50256,1,0,0:0:0:0:
320,192,50325,1,0,0:0:0:0:
448,192,50395,1,0,0:0:0:0:
64,192,50395,1,0,0:0:0:0:
192,192,50395,1,0,0:0:0:60:snare_h.wav
320,192,50499,1,0,0:0:0:0:
192,192,50603,1,0,0:0:0:40:kick.wav
448,192,50707,128,0,50915:0:0:0:0:
64,192,50811,1,0,0:0:0:0:
320,192,50811,1,0,0:0:0:60:snare_l.wav
192,192,50915,1,0,0:0:0:0:
320,192,50967,1,0,0:0:0:0:
64,192,51020,1,0,0:0:0:40:kick.wav
448,192,51124,1,0,0:0:0:0:
320,192,51228,1,0,0:0:0:0:
192,192,51228,1,0,0:0:0:0:
64,192,51228,1,0,0:0:0:60:snare_h.wav
448,192,51332,1,0,0:0:0:0:
192,192,51436,128,0,51645:0:0:0:40:kick.wav
320,192,51540,128,0,51645:0:0:0:0:
64,192,51645,1,0,0:0:0:0:
448,192,51645,1,0,0:0:0:60:snare_l.wav
320,192,51749,1,0,0:0:0:0:
192,192,51853,128,0,52061:0:0:0:40:kick.wav
64,192,52061,1,0,0:0:0:0:
448,192,52061,1,0,0:0:0:0:
320,192,52061,1,0,0:0:0:60:snare_h.wav
192,192,52165,1,0,0:0:0:0:
448,192,52270,1,0,0:0:0:40:kick.wav
320,192,52339,1,0,0:0:0:0:
192,192,52408,1,0,0:0:0:0:
64,192,52478,1,0,0:0:0:0:
448,192,52478,1,0,0:0:0:60:snare_l.wav
192,192,52686,1,0,0:0:0:40:kick.wav
320,192,52756,1,0,0:0:0:0:
448,192,52825,1,0,0:0:0:0:
64,192,52895,1,0,0:0:0:0:
320,192,52895,1,0,0:0:0:0:
192,192,52895,1,0,0:0:0:60:snare_h.wav
448,192,52999,1,0,0:0:0:0:
64,192,53103,1,0,0:0:0:40:kick.wav
192,192,53207,1,0,0:0:0:0:
320,192,53311,1,0,0:0:0:0:
448,192,53311,128,0,53520:0:0:0:60:snare_l.wav
192,192,53520,1,0,0:0:0:40:kick.wav
320,192,53624,1,0,0:0:0:0:
448,192,53728,1,0,0:0:0:0:
64,192,53728,1,0,0:0:0:0:
192,192,53728,1,0,0:0:0:60:snare_h.wav
320,192,53832,1,0,0:0:0:0:
192,192,53936,1,0,0:0:0:40:kick.wav
448,192,54040,1,0,0:0:0:0:
320,192,54092,1,0,0:0:0:0:
192,192,54145,1,0,0:0:0:0:
64,192,54145,128,0,54353:0:0:0:60:snare_l.wav
320,192,54353,1,0,0:0:0:40:kick.wav
192,192,54457,1,0,0:0:0:0:
64,192,54561,1,0,0:0:0:0:
448,192,54561,1,0,0:0:0:0:
320,192,54561,1,0,0:0:0:60:snare_h.wav
192,192,54665,1,0,0:0:0:0:
320,192,54770,1,0,0:0:0:40:kick.wav
448,192,54874,128,0,55290:0:0:0:0:
64,192,55082,1,0,0:0:0:0:
192,192,55082,1,0,0:0:0:60:snare_h.wav
448,192,55395,128,0,55499:0:0:0:0:
192,192,55395,1,0,0:0:0:50:finish.wav
64,192,55395,1,0,0:0:0:60:snare_h.wav
448,192,55603,128,0,56020:0:0:0:0:
64,192,55603,1,0,0:0:0:50:finish.wav
192,192,55603,1,0,0:0:0:60:snare_h.wav
192,192,56020,1,0,0:0:0:0:
320,192,56124,1,0,0:0:0:0:
64,192,56228,1,0,0:0:0:0:
192,192,56280,1,0,0:0:0:0:
320,192,56332,1,0,0:0:0:0:
448,192,56436,1,0,0:0:0:0:
64,192,56540,1,0,0:0:0:0:
448,192,56645,1,0,0:0:0:0:
192,192,56645,128,0,56957:0:0:0:50:finish.wav
320,192,56645,128,0,56957:0:0:0:60:snare_l.wav
192,192,57061,128,0,57270:0:0:0:0:
448,192,57061,1,0,0:0:0:50:finish.wav
320,192,57061,128,0,57270:0:0:0:60:snare_l.wav
320,192,57374,128,0,57582:0:0:0:0:
448,192,57374,128,0,57582:0:0:0:50:finish.wav
64,192,57374,1,0,0:0:0:60:snare_l.wav
320,192,57686,1,0,0:0:0:0:
64,192,57686,128,0,57895:0:0:0:50:finish.wav
192,192,57686,128,0,57895:0:0:0:60:snare_l.wav
192,192,57999,128,0,58103:0:0:0:0:
320,192,57999,128,0,58103:0:0:0:50:finish.wav
448,192,57999,1,0,0:0:0:60:snare_l.wav
448,192,58207,1,0,0:0:0:0:
192,192,58207,1,0,0:0:0:50:finish.wav
64,192,58207,1,0,0:0:0:60:snare_l.wav
320,192,58520,1,0,0:0:0:0:
448,192,58546,1,0,0:0:0:0:
192,192,58728,1,0,0:0:0:0:
448,192,58832,1,0,0:0:0:0:
320,192,58858,1,0,0:0:0:0:
192,192,58936,1,0,0:0:0:0:
64,192,59040,1,0,0:0:0:0:
448,192,59145,1,0,0:0:0:0:
320,192,59249,1,0,0:0:0:0:
64,192,59353,1,0,0:0:0:0:
192,192,59353,1,0,0:0:0:0:
320,192,59457,1,0,0:0:0:0:
448,192,59457,1,0,0:0:0:0:
64,192,59561,1,0,0:0:0:0:
448,192,59561,1,0,0:0:0:0:
192,192,59561,1,0,0:0:0:60:snare_h.wav
320,192,59770,1,0,0:0:0:0:
192,192,59770,1,0,0:0:0:0:
64,192,59978,1,0,0:0:0:0:
320,192,59978,128,0,60290:0:0:0:50:finish.wav
448,192,59978,128,0,60290:0:0:0:60:snare_l.wav
192,192,60395,1,0,0:0:0:0:
320,192,60395,128,0,60603:0:0:0:50:finish.wav
448,192,60395,128,0,60603:0:0:0:60:snare_l.wav
192,192,60707,128,0,60915:0:0:0:0:
320,192,60707,128,0,60915:0:0:0:50:finish.wav
64,192,60707,1,0,0:0:0:60:snare_l.wav
64,192,61020,128,0,61228:0:0:0:0:
192,192,61020,128,0,61228:0:0:0:50:finish.wav
448,192,61020,1,0,0:0:0:60:snare_l.wav
448,192,61332,128,0,61436:0:0:0:0:
320,192,61332,128,0,61436:0:0:0:50:finish.wav
192,192,61332,1,0,0:0:0:60:snare_l.wav
192,192,61540,128,0,61749:0:0:0:0:
64,192,61540,1,0,0:0:0:50:finish.wav
320,192,61540,128,0,61749:0:0:0:60:snare_l.wav
64,192,61853,1,0,0:0:0:0:
192,192,61853,1,0,0:0:0:50:finish.wav
448,192,61853,1,0,0:0:0:60:snare_l.wav
320,192,62061,1,0,0:0:0:0:
192,192,62165,1,0,0:0:0:0:
448,192,62270,1,0,0:0:0:0:
64,192,62374,1,0,0:0:0:0:
320,192,62426,1,0,0:0:0:0:
192,192,62478,1,0,0:0:0:0:
448,192,62582,1,0,0:0:0:0:
64,192,62686,1,0,0:0:0:50:finish.wav
192,192,62686,1,0,0:0:0:60:snare_l.wav
320,192,62790,1,0,0:0:0:0:
448,192,62895,1,0,0:0:0:0:
64,192,62895,1,0,0:0:0:0:
192,192,62895,1,0,0:0:0:60:snare_h.wav
320,192,62999,1,0,0:0:0:50:finish.wav
192,192,62999,1,0,0:0:0:60:snare_l.wav
448,192,63103,1,0,0:0:0:0:
64,192,63207,1,0,0:0:0:0:
448,192,63311,1,0,0:0:0:0:
192,192,63311,128,0,63624:0:0:0:50:finish.wav
320,192,63311,128,0,63624:0:0:0:60:snare_l.wav
192,192,63728,128,0,63936:0:0:0:0:
448,192,63728,1,0,0:0:0:50:finish.wav
320,192,63728,128,0,63936:0:0:0:60:snare_l.wav
320,192,64040,128,0,64249:0:0:0:0:
448,192,64040,128,0,64249:0:0:0:50:finish.wav
64,192,64040,1,0,0:0:0:60:snare_l.wav
320,192,64353,1,0,0:0:0:0:
64,192,64353,128,0,64561:0:0:0:50:finish.wav
192,192,64353,128,0,64561:0:0:0:60:snare_l.wav
192,192,64665,128,0,64770:0:0:0:0:
320,192,64665,128,0,64770:0:0:0:50:finish.wav
448,192,64665,1,0,0:0:0:60:snare_l.wav
448,192,64874,1,0,0:0:0:0:
192,192,64874,1,0,0:0:0:50:finish.wav
64,192,64874,1,0,0:0:0:60:snare_l.wav
448,192,65117,1,0,0:0:0:0:
320,192,65151,1,0,0:0:0:0:
192,192,65186,1,0,0:0:0:0:
64,192,65221,1,0,0:0:0:0:
448,192,65290,1,0,0:0:0:0:
192,192,65395,1,0,0:0:0:0:
320,192,65499,1,0,0:0:0:0:
64,192,65603,1,0,0:0:0:0:
448,192,65707,1,0,0:0:0:0:
320,192,65759,1,0,0:0:0:0:
192,192,65811,1,0,0:0:0:0:
448,192,65915,1,0,0:0:0:0:
192,192,66020,1,0,0:0:0:0:
64,192,66020,1,0,0:0:0:60:snare_h.wav
320,192,66124,1,0,0:0:0:0:
448,192,66124,1,0,0:0:0:60:snare_l.wav
64,192,66228,1,0,0:0:0:0:
192,192,66228,1,0,0:0:0:0:
448,192,66228,1,0,0:0:0:60:snare_h.wav
320,192,66436,1,0,0:0:0:60:snare_l.wav
448,192,66506,1,0,0:0:0:0:
192,192,66575,1,0,0:0:0:0:
64,192,66645,1,0,0:0:0:0:
448,192,66645,128,0,66957:0:0:0:50:finish.wav
320,192,66645,128,0,66957:0:0:0:60:snare_l.wav
192,192,67061,1,0,0:0:0:0:
320,192,67061,128,0,67270:0:0:0:50:finish.wav
448,192,67061,128,0,67270:0:0:0:60:snare_l.wav
192,192,67374,128,0,67582:0:0:0:0:
320,192,67374,128,0,67582:0:0:0:50:finish.wav
64,192,67374,1,0,0:0:0:60:snare_l.wav
64,192,67686,128,0,67895:0:0:0:0:
192,192,67686,128,0,67895:0:0:0:50:finish.wav
448,192,67686,1,0,0:0:0:60:snare_l.wav
448,192,67999,128,0,68103:0:0:0:0:
320,192,67999,128,0,68103:0:0:0:50:finish.wav
192,192,67999,1,0,0:0:0:60:snare_l.wav
192,192,68207,128,0,68415:0:0:0:0:
64,192,68207,1,0,0:0:0:50:finish.wav
320,192,68207,128,0,68415:0:0:0:60:snare_l.wav
64,192,68520,1,0,0:0:0:50:finish.wav
448,192,68520,1,0,0:0:0:60:snare_l.wav
192,192,68589,1,0,0:0:0:0:
320,192,68658,1,0,0:0:0:0:
64,192,68728,1,0,0:0:0:0:
448,192,68797,1,0,0:0:0:0:
192,192,68867,1,0,0:0:0:0:
320,192,68936,1,0,0:0:0:0:
64,192,69040,1,0,0:0:0:0:
320,192,69145,128,0,69353:0:0:0:0:
192,192,69249,128,0,69353:0:0:0:0:
64,192,69353,1,0,0:0:0:50:finish.wav
448,192,69353,1,0,0:0:0:60:snare_h.wav
320,192,69457,1,0,0:0:0:0:
192,192,69509,1,0,0:0:0:0:
64,192,69561,1,0,0:0:0:0:
320,192,69665,1,0,0:0:0:50:finish.wav
448,192,69665,1,0,0:0:0:60:snare_h.wav
192,192,69978,1,0,0:0:0:50:finish.wav
64,192,69978,128,0,70082:0:0:0:60:snare_l.wav
64,192,70134,128,0,70238:0:0:0:0:
64,192,70290,128,0,70395:0:0:0:0:
64,192,70603,128,0,70707:0:0:0:0:
64,192,70915,128,0,71020:0:0:0:0:
64,192,71228,128,0,71332:0:0:0:0:
448,192,71228,1,0,0:0:0:0:
320,192,71367,1,0,0:0:0:0:
192,192,71506,1,0,0:0:0:0:
448,192,71645,1,0,0:0:0:0:
64,192,71783,1,0,0:0:0:0:
192,192,71783,1,0,0:0:0:0:
448,192,71922,1,0,0:0:0:0:
320,192,71922,1,0,0:0:0:0:
192,192,72061,1,0,0:0:0:0:
64,192,72061,1,0,0:0:0:0:
448,192,72165,1,0,0:0:0:0:
320,192,72165,1,0,0:0:0:0:
64,192,72270,1,0,0:0:0:0:
192,192,72339,1,0,0:0:0:0:
320,192,72408,1,0,0:0:0:0:
448,192,72478,1,0,0:0:0:0:
64,192,72478,1,0,0:0:0:0:
192,192,72582,1,0,0:0:0:0:
320,192,72582,1,0,0:0:0:0:
64,192,72686,1,0,0:0:0:0:
448,192,72686,1,0,0:0:0:0:
192,192,72790,1,0,0:0:0:0:
320,192,72790,1,0,0:0:0:0:
448,192,72895,1,0,0:0:0:0:
64,192,72895,1,0,0:0:0:50:finish.wav
192,192,72895,128,0,73311:0:0:0:60:snare_h.wav
64,192,73311,1,0,0:0:0:0:
448,192,73311,1,0,0:0:0:50:finish.wav
320,192,73311,128,0,73520:0:0:0:60:snare_l.wav
192,192,73520,128,0,73728:0:0:0:40:kick.wav
64,192,73728,1,0,0:0:0:0:
320,192,73728,1,0,0:0:0:0:
448,192,73728,128,0,73936:0:0:0:60:snare_h.wav
320,192,73936,128,0,74145:0:0:0:40:kick.wav
192,192,74040,128,0,74145:0:0:0:0:
64,192,74145,1,0,0:0:0:0:
448,192,74145,1,0,0:0:0:60:snare_l.wav
192,192,74249,128,0,74353:0:0:0:0:
320,192,74353,128,0,74457:0:0:0:40:kick.wav
448,192,74457,128,0,74561:0:0:0:0:
192,192,74561,1,0,0:0:0:0:
64,192,74561,128,0,74665:0:0:0:0:
320,192,74561,1,0,0:0:0:60:snare_h.wav
448,192,74665,128,0,74770:0:0:0:0:
192,192,74770,128,0,74874:0:0:0:40:kick.wav
320,192,74874,128,0,74978:0:0:0:0:
64,192,74978,1,0,0:0:0:0:
448,192,74978,128,0,75186:0:0:0:60:snare_l.wav
192,192,75186,128,0,75395:0:0:0:40:kick.wav
64,192,75395,1,0,0:0:0:0:
448,192,75395,1,0,0:0:0:0:
320,192,75395,128,0,75603:0:0:0:60:snare_h.wav
192,192,75603,128,0,75811:0:0:0:40:kick.wav
64,192,75707,128,0,75811:0:0:0:0:
448,192,75811,1,0,0:0:0:0:
320,192,75811,1,0,0:0:0:60:snare_l.wav
192,192,75915,1,0,0:0:0:0:
320,192,75967,1,0,0:0:0:0:
64,192,76020,128,0,76124:0:0:0:40:kick.wav
192,192,76124,128,0,76228:0:0:0:0:
320,192,76228,1,0,0:0:0:0:
64,192,76228,1,0,0:0:0:0:
448,192,76228,128,0,76332:0:0:0:60:snare_h.wav
192,192,76332,128,0,76436:0:0:0:0:
320,192,76436,128,0,76540:0:0:0:40:kick.wav
64,192,76540,128,0,76645:0:0:0:0:
192,192,76645,1,0,0:0:0:0:
448,192,76645,128,0,76853:0:0:0:60:snare_l.wav
64,192,76853,1,0,0:0:0:40:kick.wav
192,192,76922,1,0,0:0:0:0:
320,192,76992,1,0,0:0:0:0:
448,192,77061,1,0,0:0:0:0:
64,192,77061,1,0,0:0:0:0:
192,192,77061,1,0,0:0:0:60:snare_h.wav
320,192,77270,128,0,77478:0:0:0:40:kick.wav
448,192,77374,128,0,77478:0:0:0:0:
192,192,77478,1,0,0:0:0:0:
64,192,77478,128,0,77582:0:0:0:60:snare_l.wav
320,192,77582,128,0,77686:0:0:0:0:
448,192,77790,128,0,77895:0:0:0:0:
64,192,77895,1,0,0:0:0:0:
192,192,77895,1,0,0:0:0:0:
320,192,77895,1,0,0:0:0:60:snare_h.wav
320,192,77999,128,0,78103:0:0:0:0:
192,192,78103,1,0,0:0:0:40:kick.wav
448,192,78207,1,0,0:0:0:0:
320,192,78207,1,0,0:0:0:0:
64,192,78207,128,0,78415:0:0:0:60:snare_l.wav
320,192,78415,1,0,0:0:0:0:
448,192,78520,128,0,78728:0:0:0:40:kick.wav
64,192,78520,1,0,0:0:0:60:snare_l.wav
64,192,78728,1,0,0:0:0:50:finish.wav
320,192,78728,1,0,0:0:0:60:snare_h.wav
192,192,78728,128,0,78936:0:0:0:0:
320,192,78936,1,0,0:0:0:40:kick.wav
448,192,78988,1,0,0:0:0:0:
64,192,79040,1,0,0:0:0:0:
192,192,79145,1,0,0:0:0:0:
320,192,79145,128,0,79353:0:0:0:60:snare_l.wav
64,192,79353,128,0,79561:0:0:0:40:kick.wav
448,192,79561,128,0,79770:0:0:0:0:
192,192,79561,1,0,0:0:0:0:
320,192,79561,1,0,0:0:0:60:snare_h.wav
192,192,79770,128,0,79978:0:0:0:40:kick.wav
448,192,79978,1,0,0:0:0:0:
64,192,79978,1,0,0:0:0:0:
320,192,79978,128,0,80186:0:0:0:60:snare_l.wav
192,192,80186,128,0,80395:0:0:0:40:kick.wav
64,192,80395,1,0,0:0:0:0:
320,192,80395,1,0,0:0:0:0:
448,192,80395,128,0,80603:0:0:0:60:snare_h.wav
320,192,80603,128,0,80811:0:0:0:40:kick.wav
192,192,80707,128,0,80811:0:0:0:0:
64,192,80811,1,0,0:0:0:0:
448,192,80811,1,0,0:0:0:60:snare_l.wav
192,192,80915,128,0,81020:0:0:0:0:
320,192,81020,128,0,81124:0:0:0:40:kick.wav
448,192,81124,128,0,81228:0:0:0:0:
192,192,81228,1,0,0:0:0:0:
64,192,81228,128,0,81332:0:0:0:0:
320,192,81228,1,0,0:0:0:60:snare_h.wav
448,192,81332,128,0,81436:0:0:0:0:
192,192,81436,128,0,81540:0:0:0:40:kick.wav
320,192,81540,128,0,81645:0:0:0:0:
64,192,81645,1,0,0:0:0:0:
448,192,81645,128,0,81853:0:0:0:60:snare_l.wav
192,192,81853,128,0,82061:0:0:0:40:kick.wav
64,192,82061,1,0,0:0:0:0:
448,192,82061,1,0,0:0:0:0:
320,192,82061,128,0,82270:0:0:0:60:snare_h.wav
192,192,82270,128,0,82478:0:0:0:40:kick.wav
64,192,82374,128,0,82478:0:0:0:0:
448,192,82478,1,0,0:0:0:0:
320,192,82478,1,0,0:0:0:60:snare_l.wav
192,192,82582,1,0,0:0:0:0:
320,192,82634,1,0,0:0:0:0:
64,192,82686,128,0,82790:0:0:0:40:kick.wav
192,192,82790,128,0,82895:0:0:0:0:
320,192,82895,1,0,0:0:0:0:
64,192,82895,1,0,0:0:0:0:
448,192,82895,128,0,82999:0:0:0:60:snare_h.wav
192,192,82999,128,0,83103:0:0:0:0:
320,192,83103,128,0,83207:0:0:0:40:kick.wav
64,192,83207,128,0,83311:0:0:0:0:
320,192,83311,1,0,0:0:0:0:
192,192,83311,128,0,83520:0:0:0:60:snare_l.wav
448,192,83415,128,0,83624:0:0:0:0:
64,192,83520,1,0,0:0:0:40:kick.wav
192,192,83728,1,0,0:0:0:0:
64,192,83728,1,0,0:0:0:50:finish.wav
448,192,83728,128,0,83936:0:0:0:60:snare_h.wav
320,192,83936,1,0,0:0:0:40:kick.wav
64,192,84040,1,0,0:0:0:0:
192,192,84040,1,0,0:0:0:0:
320,192,84092,1,0,0:0:0:0:
448,192,84092,1,0,0:0:0:0:
64,192,84145,1,0,0:0:0:0:
192,192,84145,128,0,84249:0:0:0:60:snare_l.wav
448,192,84249,1,0,0:0:0:0:
320,192,84249,128,0,84353:0:0:0:60:snare_l.wav
192,192,84457,1,0,0:0:0:0:
64,192,84457,128,0,84561:0:0:0:60:snare_h.wav
448,192,84665,128,0,84770:0:0:0:0:
320,192,84665,1,0,0:0:0:60:snare_l.wav
64,192,84874,128,0,85082:0:0:0:0:
192,192,84874,1,0,0:0:0:60:snare_l.wav
448,192,85082,1,0,0:0:0:0:
320,192,85082,1,0,0:0:0:0:
192,192,85134,1,0,0:0:0:0:
448,192,85186,128,0,85395:0:0:0:40:kick.wav
64,192,85186,1,0,0:0:0:60:snare_h.wav
64,192,85395,128,0,85499:0:0:0:0:
192,192,85395,1,0,0:0:0:0:
320,192,85499,1,0,0:0:0:0:
192,192,85603,1,0,0:0:0:0:
64,192,85603,128,0,85707:0:0:0:40:kick.wav
320,192,85655,1,0,0:0:0:0:
448,192,85707,1,0,0:0:0:0:
64,192,85811,128,0,85915:0:0:0:0:
192,192,85811,1,0,0:0:0:0:
320,192,85915,1,0,0:0:0:0:
64,192,86020,128,0,86124:0:0:0:0:
448,192,86020,1,0,0:0:0:40:kick.wav
320,192,86072,1,0,0:0:0:0:
192,192,86124,1,0,0:0:0:0:
320,192,86228,1,0,0:0:0:0:
64,192,86228,128,0,86436:0:0:0:0:
448,192,86228,1,0,0:0:0:60:snare_h.wav
192,192,86332,1,0,0:0:0:0:
320,192,86436,1,0,0:0:0:0:
448,192,86506,1,0,0:0:0:0:
192,192,86575,1,0,0:0:0:0:
320,192,86645,1,0,0:0:0:0:
64,192,86645,1,0,0:0:0:50:finish.wav
448,192,86645,128,0,88311:0:0:0:60:snare_l.wav
192,192,86853,128,0,86957:0:0:0:40:kick.wav
64,192,87061,1,0,0:0:0:60:snare_h.wav
320,192,87061,1,0,0:0:0:0:
192,192,87165,128,0,87270:0:0:0:0:
64,192,87374,128,0,87478:0:0:0:0:
192,192,87478,1,0,0:0:0:0:
320,192,87478,1,0,0:0:0:60:snare_l.wav
64,192,87582,1,0,0:0:0:0:
320,192,87686,128,0,87790:0:0:0:40:kick.wav
64,192,87895,1,0,0:0:0:0:
192,192,87895,128,0,87999:0:0:0:60:snare_h.wav
64,192,88103,1,0,0:0:0:40:kick.wav
320,192,88207,128,0,88311:0:0:0:0:
192,192,88311,1,0,0:0:0:0:
64,192,88311,1,0,0:0:0:60:snare_l.wav
448,192,88415,1,0,0:0:0:0:
320,192,88467,1,0,0:0:0:0:
192,192,88520,1,0,0:0:0:40:kick.wav
64,192,88624,1,0,0:0:0:0:
320,192,88728,1,0,0:0:0:0:
448,192,88728,1,0,0:0:0:0:
192,192,88728,128,0,88832:0:0:0:60:snare_h.wav
64,192,88832,128,0,88936:0:0:0:0:
320,192,89040,128,0,89145:0:0:0:0:
192,192,89145,1,0,0:0:0:0:
64,192,89145,1,0,0:0:0:60:snare_l.wav
448,192,89249,128,0,89353:0:0:0:0:
192,192,89353,1,0,0:0:0:40:kick.wav
320,192,89457,1,0,0:0:0:0:
448,192,89561,1,0,0:0:0:0:
64,192,89561,128,0,89665:0:0:0:0:
192,192,89561,1,0,0:0:0:60:snare_h.wav
192,192,89770,128,0,89874:0:0:0:40:kick.wav
64,192,89978,1,0,0:0:0:0:
448,192,89978,1,0,0:0:0:60:snare_l.wav
320,192,90047,1,0,0:0:0:0:
192,192,90117,1,0,0:0:0:0:
448,192,90256,1,0,0:0:0:0:
192,192,90395,1,0,0:0:0:0:
64,192,90395,1,0,0:0:0:50:finish.wav
320,192,90395,128,0,90603:0:0:0:60:snare_h.wav
64,192,90603,1,0,0:0:0:40:kick.wav
192,192,90707,1,0,0:0:0:0:
320,192,90811,1,0,0:0:0:0:
448,192,90811,1,0,0:0:0:60:snare_l.wav
192,192,90915,128,0,91020:0:0:0:0:
64,192,91020,128,0,91124:0:0:0:40:kick.wav
448,192,91124,1,0,0:0:0:0:
320,192,91228,1,0,0:0:0:0:
64,192,91228,1,0,0:0:0:0:
192,192,91228,128,0,91436:0:0:0:60:snare_h.wav
448,192,91332,1,0,0:0:0:0:
64,192,91436,1,0,0:0:0:40:kick.wav
320,192,91540,1,0,0:0:0:0:
448,192,91540,128,0,91645:0:0:0:60:snare_l.wav
320,192,91749,128,0,91853:0:0:0:0:
192,192,91853,1,0,0:0:0:40:kick.wav
64,192,91853,1,0,0:0:0:60:snare_l.wav
192,192,92061,1,0,0:0:0:0:
448,192,92061,1,0,0:0:0:50:finish.wav
64,192,92061,1,0,0:0:0:60:snare_h.wav
320,192,92131,1,0,0:0:0:0:
192,192,92200,1,0,0:0:0:0:
64,192,92270,1,0,0:0:0:40:kick.wav
320,192,92374,1,0,0:0:0:0:
192,192,92478,1,0,0:0:0:0:
64,192,92478,128,0,92582:0:0:0:60:snare_l.wav
448,192,92582,1,0,0:0:0:0:
192,192,92686,1,0,0:0:0:40:kick.wav
320,192,92790,1,0,0:0:0:0:
448,192,92895,1,0,0:0:0:0:
64,192,92895,128,0,93103:0:0:0:0:
192,192,92895,1,0,0:0:0:60:snare_h.wav
320,192,93103,1,0,0:0:0:40:kick.wav
64,192,93311,1,0,0:0:0:0:
448,192,93311,1,0,0:0:0:60:snare_l.wav
320,192,93520,128,0,93728:0:0:0:40:kick.wav
192,192,93728,1,0,0:0:0:0:
64,192,93728,1,0,0:0:0:0:
448,192,93728,1,0,0:0:0:60:snare_h.wav
320,192,93832,128,0,93936:0:0:0:0:
192,192,94040,128,0,94145:0:0:0:0:
64,192,94145,1,0,0:0:0:0:
448,192,94145,1,0,0:0:0:60:snare_l.wav
192,192,94249,1,0,0:0:0:0:
320,192,94353,128,0,94457:0:0:0:40:kick.wav
64,192,94561,1,0,0:0:0:0:
192,192,94561,1,0,0:0:0:0:
448,192,94561,128,0,94665:0:0:0:60:snare_h.wav
320,192,94770,1,0,0:0:0:40:kick.wav
192,192,94874,128,0,94978:0:0:0:0:
64,192,94978,1,0,0:0:0:0:
448,192,94978,1,0,0:0:0:60:snare_l.wav
320,192,95082,1,0,0:0:0:0:
192,192,95134,1,0,0:0:0:0:
64,192,95186,1,0,0:0:0:40:kick.wav
448,192,95290,128,0,95395:0:0:0:0:
192,192,95395,1,0,0:0:0:0:
64,192,95395,1,0,0:0:0:0:
320,192,95395,128,0,95499:0:0:0:60:snare_h.wav
64,192,95603,1,0,0:0:0:40:kick.wav
192,192,95707,1,0,0:0:0:0:
448,192,95811,1,0,0:0:0:0:
320,192,95811,1,0,0:0:0:0:
192,192,95915,1,0,0:0:0:0:
64,192,95915,128,0,96020:0:0:0:60:snare_l.wav
448,192,96020,1,0,0:0:0:40:kick.wav
320,192,96124,1,0,0:0:0:0:
192,192,96228,1,0,0:0:0:0:
448,192,96228,1,0,0:0:0:0:
64,192,96228,128,0,96332:0:0:0:60:snare_l.wav
320,192,96436,1,0,0:0:0:0:
192,192,96436,1,0,0:0:0:40:kick.wav
448,192,96436,128,0,96540:0:0:0:60:snare_h.wav
192,192,96645,1,0,0:0:0:0:
320,192,96645,1,0,0:0:0:50:finish.wav
64,192,96645,128,0,97061:0:0:0:60:snare_l.wav
448,192,97061,1,0,0:0:0:0:
320,192,97061,1,0,0:0:0:0:
192,192,97131,1,0,0:0:0:0:
64,192,97200,1,0,0:0:0:0:
448,192,97270,1,0,0:0:0:0:
320,192,97339,1,0,0:0:0:0:
192,192,97408,1,0,0:0:0:0:
64,192,97478,1,0,0:0:0:0:
320,192,97478,128,0,97686:0:0:0:50:finish.wav
448,192,97478,128,0,97686:0:0:0:60:snare_l.wav
192,192,97790,1,0,0:0:0:0:
320,192,97790,1,0,0:0:0:0:
64,192,97790,1,0,0:0:0:60:snare_l.wav
64,192,98103,128,0,98311:0:0:0:0:
192,192,98103,128,0,98311:0:0:0:50:finish.wav
448,192,98103,1,0,0:0:0:60:snare_l.wav
320,192,98415,1,0,0:0:0:0:
192,192,98415,1,0,0:0:0:0:
448,192,98415,1,0,0:0:0:60:snare_l.wav
64,192,98728,128,0,98936:0:0:0:0:
192,192,98728,128,0,98936:0:0:0:50:finish.wav
448,192,98728,1,0,0:0:0:60:snare_l.wav
320,192,98936,1,0,0:0:0:0:
64,192,99040,1,0,0:0:0:0:
192,192,99040,1,0,0:0:0:0:
448,192,99040,1,0,0:0:0:60:snare_l.wav
320,192,99145,1,0,0:0:0:0:
192,192,99249,1,0,0:0:0:0:
64,192,99353,1,0,0:0:0:0:
448,192,99353,128,0,99561:0:0:0:50:finish.wav
320,192,99353,128,0,99561:0:0:0:60:snare_l.wav
192,192,99457,128,0,99561:0:0:0:60:snare_l.wav
320,192,99665,1,0,0:0:0:0:
448,192,99665,1,0,0:0:0:0:
64,192,99665,128,0,99770:0:0:0:60:snare_l.wav
64,192,99874,1,0,0:0:0:0:
192,192,99874,1,0,0:0:0:50:finish.wav
448,192,99874,128,0,101228:0:0:0:60:snare_h.wav
320,192,100082,1,0,0:0:0:40:kick.wav
64,192,100186,1,0,0:0:0:40:kick.wav
320,192,100395,1,0,0:0:0:40:kick.wav
64,192,100499,1,0,0:0:0:40:kick.wav
320,192,100707,1,0,0:0:0:40:kick.wav
64,192,100811,1,0,0:0:0:40:kick.wav
192,192,100915,1,0,0:0:0:0:
320,192,101020,1,0,0:0:0:40:kick.wav
64,192,101124,1,0,0:0:0:40:kick.wav
192,192,101228,128,0,101645:0:0:0:0:
320,192,101228,1,0,0:0:0:60:snare_h.wav
64,192,101645,1,0,0:0:0:0:
320,192,101645,128,0,102061:0:0:0:50:finish.wav
448,192,101645,128,0,102061:0:0:0:60:snare_l.wav
64,192,102061,1,0,0:0:0:0:
448,192,102165,1,0,0:0:0:0:
192,192,102270,1,0,0:0:0:0:
320,192,102374,1,0,0:0:0:0:
448,192,102582,1,0,0:0:0:0:
192,192,102686,1,0,0:0:0:0:
448,192,102895,1,0,0:0:0:0:
192,192,102895,128,0,103103:0:0:0:50:finish.wav
64,192,102895,128,0,103103:0:0:0:60:snare_l.wav
320,192,102999,1,0,0:0:0:0:
320,192,103207,1,0,0:0:0:0:
192,192,103207,1,0,0:0:0:50:finish.wav
64,192,103207,1,0,0:0:0:60:snare_l.wav
64,192,103520,1,0,0:0:0:0:
448,192,103520,1,0,0:0:0:0:
192,192,103624,1,0,0:0:0:0:
448,192,103832,1,0,0:0:0:0:
320,192,104040,1,0,0:0:0:0:
64,192,104249,1,0,0:0:0:0:
192,192,104249,1,0,0:0:0:50:finish.wav
448,192,104249,1,0,0:0:0:60:snare_l.wav
320,192,104353,1,0,0:0:0:0:
64,192,104405,1,0,0:0:0:0:
448,192,104457,1,0,0:0:0:0:
192,192,104509,1,0,0:0:0:0:
64,192,104561,1,0,0:0:0:0:
320,192,104561,128,0,104874:0:0:0:50:finish.wav
448,192,104561,128,0,104874:0:0:0:60:snare_l.wav
448,192,104978,1,0,0:0:0:0:
64,192,104978,128,0,105290:0:0:0:50:finish.wav
192,192,104978,128,0,105290:0:0:0:60:snare_l.wav
448,192,105290,1,0,0:0:0:0:
320,192,105395,1,0,0:0:0:0:
64,192,105499,1,0,0:0:0:0:
192,192,105603,1,0,0:0:0:0:
320,192,105707,1,0,0:0:0:0:
448,192,105915,1,0,0:0:0:0:
64,192,106020,1,0,0:0:0:0:
320,192,106124,1,0,0:0:0:0:
64,192,106228,128,0,106436:0:0:0:0:
192,192,106228,128,0,106436:0:0:0:50:finish.wav
448,192,106228,1,0,0:0:0:60:snare_l.wav
320,192,106332,1,0,0:0:0:0:
64,192,106540,1,0,0:0:0:0:
192,192,106540,1,0,0:0:0:50:finish.wav
320,192,106540,1,0,0:0:0:60:snare_l.wav
448,192,106783,1,0,0:0:0:0:
320,192,106783,1,0,0:0:0:0:
448,192,106922,1,0,0:0:0:0:
320,192,106922,1,0,0:0:0:0:
64,192,106992,1,0,0:0:0:0:
448,192,107061,1,0,0:0:0:0:
320,192,107061,1,0,0:0:0:0:
192,192,107131,1,0,0:0:0:0:
64,192,107200,1,0,0:0:0:0:
448,192,107270,1,0,0:0:0:0:
320,192,107339,1,0,0:0:0:0:
192,192,107408,1,0,0:0:0:0:
64,192,107478,1,0,0:0:0:0:
448,192,107478,1,0,0:0:0:0:
320,192,107582,1,0,0:0:0:0:
192,192,107686,1,0,0:0:0:0:
64,192,107790,1,0,0:0:0:0:
320,192,107895,1,0,0:0:0:0:
448,192,107895,1,0,0:0:0:0:
64,192,107999,1,0,0:0:0:0:
192,192,108103,1,0,0:0:0:0:
320,192,108207,1,0,0:0:0:0:
448,192,108311,1,0,0:0:0:0:
192,192,108311,128,0,108624:0:0:0:50:finish.wav
64,192,108311,128,0,108624:0:0:0:60:snare_l.wav
320,192,108624,1,0,0:0:0:0:
448,192,108728,1,0,0:0:0:0:
192,192,108936,1,0,0:0:0:0:
448,192,109040,1,0,0:0:0:0:
64,192,109145,1,0,0:0:0:0:
320,192,109249,1,0,0:0:0:0:
192,192,109353,1,0,0:0:0:0:
64,192,109561,1,0,0:0:0:0:
448,192,109561,128,0,109770:0:0:0:50:finish.wav
320,192,109561,128,0,109770:0:0:0:60:snare_l.wav
192,192,109665,1,0,0:0:0:0:
320,192,109874,1,0,0:0:0:0:
192,192,109874,1,0,0:0:0:50:finish.wav
64,192,109874,1,0,0:0:0:60:snare_l.wav
448,192,110082,1,0,0:0:0:0:
64,192,110186,1,0,0:0:0:0:
192,192,110290,1,0,0:0:0:0:
320,192,110395,1,0,0:0:0:0:
64,192,110499,1,0,0:0:0:0:
192,192,110499,1,0,0:0:0:0:
448,192,110603,1,0,0:0:0:0:
192,192,110707,1,0,0:0:0:0:
320,192,110707,1,0,0:0:0:0:
64,192,110915,1,0,0:0:0:0:
448,192,110915,1,0,0:0:0:50:finish.wav
192,192,110915,1,0,0:0:0:60:snare_l.wav
320,192,111124,1,0,0:0:0:0:
192,192,111176,1,0,0:0:0:0:
64,192,111228,1,0,0:0:0:0:
448,192,111228,128,0,111540:0:0:0:50:finish.wav
320,192,111228,128,0,111540:0:0:0:60:snare_l.wav
192,192,111645,1,0,0:0:0:60:snare_l.wav
64,192,111645,1,0,0:0:0:50:finish.wav
448,192,111645,1,0,0:0:0:0:
448,192,111853,1,0,0:0:0:0:
320,192,111922,1,0,0:0:0:0:
192,192,111992,1,0,0:0:0:0:
64,192,112061,1,0,0:0:0:0:
320,192,112131,1,0,0:0:0:0:
192,192,112200,1,0,0:0:0:0:
448,192,112270,1,0,0:0:0:0:
320,192,112339,1,0,0:0:0:0:
192,192,112408,1,0,0:0:0:0:
64,192,112478,1,0,0:0:0:0:
448,192,112478,1,0,0:0:0:0:
320,192,112582,1,0,0:0:0:0:
192,192,112686,1,0,0:0:0:0:
64,192,112686,1,0,0:0:0:0:
320,192,112790,1,0,0:0:0:0:
64,192,112895,128,0,113103:0:0:0:0:
192,192,112895,1,0,0:0:0:50:finish.wav
448,192,112895,128,0,113103:0:0:0:60:snare_l.wav
320,192,112999,1,0,0:0:0:0:
192,192,113103,1,0,0:0:0:0:
320,192,113207,1,0,0:0:0:0:
64,192,113207,128,0,116592:0:0:0:50:finish.wav
448,192,113207,128,0,116592:0:0:0:60:snare_l.wav
192,192,114353,128,0,114561:0:0:0:30:kick.wav
320,192,114561,128,0,114770:0:0:0:30:kick.wav
192,192,114770,128,0,114978:0:0:0:30:kick.wav
320,192,114978,128,0,115186:0:0:0:30:kick.wav
192,192,115186,128,0,115395:0:0:0:30:kick.wav
320,192,115395,128,0,115603:0:0:0:30:kick.wav
192,192,115603,128,0,115811:0:0:0:30:kick.wav
320,192,115811,128,0,116020:0:0:0:30:kick.wav
192,192,116020,128,0,116228:0:0:0:30:kick.wav
320,192,116228,128,0,116436:0:0:0:30:kick.wav
192,192,116436,1,0,0:0:0:30:kick.wav
320,192,116488,1,0,0:0:0:30:kick.wav
192,192,116540,1,0,0:0:0:30:kick.wav
320,192,116592,1,0,0:0:0:30:kick.wav
