osu file format v14

[General]
AudioFilename: audio.mp3
AudioLeadIn: 0
PreviewTime: 72061
Countdown: 0
SampleSet: Soft
StackLeniency: 0.7
Mode: 3
LetterboxInBreaks: 0
SpecialStyle: 0
WidescreenStoryboard: 0

[Editor]
DistanceSpacing: 1.2
BeatDivisor: 4
GridSize: 8
TimelineZoom: 1.9

[Metadata]
Title:Routing
TitleUnicode:Routing
Artist:Camellia
ArtistUnicode:かめりあ
Creator:_Stan
Version:Hyper
Source:beatmania IIDX 23 copula
Tags:22 pendual super future tech bass tofu1222 dustmoon exneko
BeatmapID:1540798
BeatmapSetID:730034

[Difficulty]
HPDrainRate:7.8
CircleSize:4
OverallDifficulty:7.8
ApproachRate:8
SliderMultiplier:1.4
SliderTickRate:1

[Events]
//Background and Video events
0,0,"BG.jpg",0,0
//Break Periods
//Storyboard Layer 0 (Background)
//Storyboard Layer 1 (Fail)
//Storyboard Layer 2 (Pass)
//Storyboard Layer 3 (Foreground)
//Storyboard Sound Samples

[TimingPoints]
1645,416.666666666667,4,2,1,25,1,0
14561,-250,4,2,1,25,0,0
14665,-125,4,2,1,25,0,0
14770,-83.3333333333333,4,2,1,25,0,0
14874,-62.5,4,2,1,25,0,0
14978,-100,4,2,1,25,0,0
21749,-200,4,2,1,25,0,0
21853,-100,4,2,1,25,0,0
21957,-66.6666666666667,4,2,1,25,0,0
22061,-100,4,2,1,25,0,0
42895,-250,4,2,1,25,0,0
42999,-125,4,2,1,25,0,0
43103,-83.3333333333333,4,2,1,25,0,0
43207,-62.5,4,2,1,25,0,0
43311,-100,4,2,1,25,0,0
72895,-250,4,2,1,25,0,0
72999,-125,4,2,1,25,0,0
73103,-83.3333333333333,4,2,1,25,0,0
73207,-62.5,4,2,1,25,0,0
73311,-100,4,2,1,25,0,1
85186,-100,4,2,1,25,0,0
86645,-100,4,2,1,25,0,1
101228,-142.857142857143,4,2,1,25,0,1
101332,-111.111111111111,4,2,1,25,0,1
101436,-90.9090909090909,4,2,1,25,0,1
101540,-76.9230769230769,4,2,1,25,0,1
101645,-100,4,2,1,25,0,0

[HitObjects]
448,192,1645,5,0,0:0:0:60:snare_l.wav
64,192,1645,1,0,0:0:0:50:finish.wav
192,192,2061,1,0,0:0:0:0:
320,192,2165,1,0,0:0:0:0:
64,192,2374,1,0,0:0:0:0:
192,192,2686,1,0,0:0:0:0:
320,192,2895,1,0,0:0:0:60:snare_l.wav
448,192,2895,1,0,0:0:0:50:finish.wav
64,192,2999,1,0,0:0:0:0:
448,192,3207,1,0,0:0:0:60:snare_l.wav
320,192,3207,1,0,0:0:0:50:finish.wav
192,192,3520,128,0,3728:0:0:0:0:
64,192,3728,1,0,0:0:0:0:
448,192,3832,1,0,0:0:0:0:
320,192,3936,1,0,0:0:0:0:
192,192,4040,1,0,0:0:0:0:
64,192,4145,1,0,0:0:0:0:
320,192,4249,1,0,0:0:0:60:snare_l.wav
448,192,4249,1,0,0:0:0:50:finish.wav
448,192,4561,128,0,4978:0:0:0:60:snare_l.wav
320,192,4561,128,0,4978:0:0:0:50:finish.wav
192,192,4978,1,0,0:0:0:60:snare_l.wav
64,192,4978,1,0,0:0:0:50:finish.wav
320,192,5395,1,0,0:0:0:0:
448,192,5499,1,0,0:0:0:0:
192,192,5603,1,0,0:0:0:0:
64,192,5707,1,0,0:0:0:0:
320,192,5915,1,0,0:0:0:0:
64,192,6020,1,0,0:0:0:0:
448,192,6124,1,0,0:0:0:0:
192,192,6228,1,0,0:0:0:60:snare_l.wav
64,192,6228,1,0,0:0:0:50:finish.wav
320,192,6332,1,0,0:0:0:0:
192,192,6540,1,0,0:0:0:60:snare_l.wav
64,192,6540,1,0,0:0:0:50:finish.wav
448,192,6645,1,0,0:0:0:0:
320,192,6783,1,0,0:0:0:0:
192,192,6922,1,0,0:0:0:0:
64,192,7061,1,0,0:0:0:0:
448,192,7270,1,0,0:0:0:0:
320,192,7339,1,0,0:0:0:0:
192,192,7408,1,0,0:0:0:0:
64,192,7478,1,0,0:0:0:0:
448,192,7582,1,0,0:0:0:0:
192,192,7686,1,0,0:0:0:0:
320,192,7790,1,0,0:0:0:0:
64,192,7895,1,0,0:0:0:0:
448,192,7999,1,0,0:0:0:0:
192,192,8103,1,0,0:0:0:0:
320,192,8207,1,0,0:0:0:0:
64,192,8311,1,0,0:0:0:60:snare_l.wav
448,192,8311,1,0,0:0:0:50:finish.wav
320,192,8728,1,0,0:0:0:0:
192,192,8832,1,0,0:0:0:0:
448,192,9040,1,0,0:0:0:0:
320,192,9353,1,0,0:0:0:0:
192,192,9561,1,0,0:0:0:60:snare_l.wav
64,192,9561,1,0,0:0:0:50:finish.wav
448,192,9665,1,0,0:0:0:0:
192,192,9874,1,0,0:0:0:60:snare_l.wav
64,192,9874,1,0,0:0:0:50:finish.wav
320,192,10186,128,0,10395:0:0:0:0:
448,192,10395,1,0,0:0:0:0:
64,192,10499,1,0,0:0:0:0:
192,192,10603,1,0,0:0:0:0:
320,192,10707,1,0,0:0:0:0:
448,192,10811,1,0,0:0:0:0:
64,192,10915,1,0,0:0:0:60:snare_l.wav
192,192,10915,1,0,0:0:0:50:finish.wav
448,192,11228,128,0,11645:0:0:0:60:snare_l.wav
320,192,11228,128,0,11645:0:0:0:50:finish.wav
192,192,11645,1,0,0:0:0:60:snare_l.wav
64,192,11645,1,0,0:0:0:50:finish.wav
448,192,12061,1,0,0:0:0:0:
320,192,12061,1,0,0:0:0:0:
64,192,12165,1,0,0:0:0:0:
192,192,12270,1,0,0:0:0:0:
320,192,12374,1,0,0:0:0:0:
64,192,12478,1,0,0:0:0:0:
448,192,12478,1,0,0:0:0:0:
192,192,12582,1,0,0:0:0:0:
320,192,12686,1,0,0:0:0:0:
448,192,12790,1,0,0:0:0:0:
64,192,12895,1,0,0:0:0:60:snare_l.wav
192,192,12895,1,0,0:0:0:50:finish.wav
320,192,12999,1,0,0:0:0:0:
448,192,12999,1,0,0:0:0:0:
192,192,13103,1,0,0:0:0:0:
64,192,13103,1,0,0:0:0:0:
448,192,13207,1,0,0:0:0:60:snare_l.wav
320,192,13207,1,0,0:0:0:50:finish.wav
64,192,13936,1,0,0:0:0:0:
192,192,14040,1,0,0:0:0:0:
448,192,14145,1,0,0:0:0:0:
320,192,14145,1,0,0:0:0:0:
64,192,14249,1,0,0:0:0:0:
448,192,14353,1,0,0:0:0:0:
320,192,14405,1,0,0:0:0:0:
192,192,14457,1,0,0:0:0:0:
64,192,14509,1,0,0:0:0:0:
448,192,14561,1,0,0:0:0:60:snare_h.wav
320,192,14561,1,0,0:0:0:0:
64,192,14978,1,0,0:0:0:60:snare_l.wav
192,192,14978,1,0,0:0:0:50:finish.wav
448,192,14978,1,0,0:0:0:0:
320,192,15186,1,0,0:0:0:40:kick.wav
64,192,15395,1,0,0:0:0:60:snare_h.wav
192,192,15395,1,0,0:0:0:0:
448,192,15499,1,0,0:0:0:0:
320,192,15707,1,0,0:0:0:0:
64,192,15811,1,0,0:0:0:60:snare_l.wav
192,192,15811,1,0,0:0:0:0:
448,192,15915,1,0,0:0:0:0:
320,192,16020,1,0,0:0:0:40:kick.wav
64,192,16228,1,0,0:0:0:60:snare_h.wav
448,192,16228,1,0,0:0:0:0:
192,192,16332,1,0,0:0:0:0:
320,192,16540,1,0,0:0:0:0:
64,192,16645,1,0,0:0:0:60:snare_l.wav
192,192,16645,1,0,0:0:0:0:
320,192,16749,1,0,0:0:0:0:
448,192,16853,128,0,17061:0:0:0:40:kick.wav
192,192,17061,1,0,0:0:0:60:snare_h.wav
64,192,17061,1,0,0:0:0:0:
320,192,17200,1,0,0:0:0:0:
448,192,17270,1,0,0:0:0:40:kick.wav
192,192,17339,1,0,0:0:0:0:
320,192,17408,1,0,0:0:0:0:
64,192,17478,1,0,0:0:0:60:snare_l.wav
448,192,17478,1,0,0:0:0:0:
320,192,17686,1,0,0:0:0:40:kick.wav
192,192,17790,1,0,0:0:0:0:
64,192,17895,1,0,0:0:0:60:snare_h.wav
448,192,17895,1,0,0:0:0:0:
192,192,17999,1,0,0:0:0:0:
320,192,18103,1,0,0:0:0:40:kick.wav
448,192,18207,1,0,0:0:0:0:
192,192,18311,1,0,0:0:0:60:snare_l.wav
64,192,18311,1,0,0:0:0:0:
320,192,18520,128,0,18728:0:0:0:40:kick.wav
64,192,18728,1,0,0:0:0:60:snare_h.wav
448,192,18728,1,0,0:0:0:0:
192,192,18936,1,0,0:0:0:40:kick.wav
320,192,19040,1,0,0:0:0:0:
448,192,19145,1,0,0:0:0:60:snare_l.wav
64,192,19145,1,0,0:0:0:0:
192,192,19353,1,0,0:0:0:40:kick.wav
320,192,19422,1,0,0:0:0:0:
192,192,19492,1,0,0:0:0:0:
448,192,19561,1,0,0:0:0:60:snare_h.wav
64,192,19561,1,0,0:0:0:0:
320,192,19770,1,0,0:0:0:40:kick.wav
192,192,19874,1,0,0:0:0:0:
64,192,19978,1,0,0:0:0:60:snare_l.wav
448,192,19978,1,0,0:0:0:0:
320,192,20186,1,0,0:0:0:40:kick.wav
64,192,20395,1,0,0:0:0:60:snare_h.wav
192,192,20395,1,0,0:0:0:0:
320,192,20603,1,0,0:0:0:40:kick.wav
448,192,20707,1,0,0:0:0:0:
64,192,20811,128,0,21124:0:0:0:60:snare_l.wav
192,192,20811,128,0,21124:0:0:0:0:
192,192,21228,128,0,21436:0:0:0:60:snare_h.wav
320,192,21228,128,0,21436:0:0:0:0:
448,192,21540,128,0,21749:0:0:0:60:snare_l.wav
320,192,21540,128,0,21749:0:0:0:0:
64,192,21749,1,0,0:0:0:60:snare_l.wav
192,192,21749,1,0,0:0:0:0:
64,192,22061,1,0,0:0:0:60:snare_h.wav
320,192,22061,1,0,0:0:0:50:finish.wav
448,192,22061,1,0,0:0:0:0:
192,192,22165,1,0,0:0:0:0:
320,192,22374,1,0,0:0:0:0:
64,192,22478,1,0,0:0:0:60:snare_l.wav
192,192,22478,1,0,0:0:0:0:
448,192,22582,1,0,0:0:0:0:
320,192,22686,1,0,0:0:0:40:kick.wav
64,192,22895,1,0,0:0:0:60:snare_h.wav
192,192,22895,1,0,0:0:0:0:
320,192,22999,1,0,0:0:0:0:
192,192,23207,1,0,0:0:0:0:
320,192,23311,1,0,0:0:0:60:snare_l.wav
448,192,23311,1,0,0:0:0:0:
64,192,23415,1,0,0:0:0:0:
192,192,23520,128,0,23728:0:0:0:40:kick.wav
448,192,23728,1,0,0:0:0:60:snare_h.wav
64,192,23728,1,0,0:0:0:0:
320,192,23936,1,0,0:0:0:40:kick.wav
192,192,24006,1,0,0:0:0:0:
320,192,24075,1,0,0:0:0:0:
64,192,24145,1,0,0:0:0:60:snare_l.wav
448,192,24145,1,0,0:0:0:0:
192,192,24353,1,0,0:0:0:40:kick.wav
64,192,24561,1,0,0:0:0:60:snare_h.wav
448,192,24561,1,0,0:0:0:0:
320,192,24770,1,0,0:0:0:40:kick.wav
192,192,24874,1,0,0:0:0:0:
448,192,24978,1,0,0:0:0:60:snare_l.wav
64,192,24978,1,0,0:0:0:0:
320,192,25082,1,0,0:0:0:0:
192,192,25186,1,0,0:0:0:40:kick.wav
448,192,25395,1,0,0:0:0:60:snare_h.wav
64,192,25395,1,0,0:0:0:0:
320,192,25603,1,0,0:0:0:40:kick.wav
192,192,25707,1,0,0:0:0:0:
64,192,25811,1,0,0:0:0:60:snare_l.wav
448,192,25811,1,0,0:0:0:0:
320,192,26020,128,0,26228:0:0:0:40:kick.wav
64,192,26228,1,0,0:0:0:60:snare_h.wav
448,192,26228,1,0,0:0:0:0:
192,192,26540,1,0,0:0:0:60:snare_l.wav
64,192,26540,1,0,0:0:0:0:
320,192,26853,1,0,0:0:0:0:
64,192,27061,1,0,0:0:0:0:
192,192,27165,1,0,0:0:0:0:
320,192,27270,1,0,0:0:0:0:
64,192,27374,1,0,0:0:0:0:
192,192,27408,1,0,0:0:0:0:
320,192,27443,1,0,0:0:0:0:
448,192,27478,1,0,0:0:0:0:
64,192,27582,1,0,0:0:0:0:
448,192,27686,1,0,0:0:0:0:
320,192,27738,1,0,0:0:0:0:
192,192,27790,1,0,0:0:0:0:
64,192,27842,1,0,0:0:0:0:
448,192,27895,1,0,0:0:0:60:snare_h.wav
320,192,27895,1,0,0:0:0:0:
192,192,27999,1,0,0:0:0:0:
320,192,28103,1,0,0:0:0:0:
192,192,28207,1,0,0:0:0:0:
448,192,28311,1,0,0:0:0:60:snare_l.wav
64,192,28311,1,0,0:0:0:50:finish.wav
192,192,28520,128,0,28728:0:0:0:40:kick.wav
64,192,28728,1,0,0:0:0:60:snare_h.wav
448,192,28728,1,0,0:0:0:0:
320,192,28832,1,0,0:0:0:0:
192,192,28936,1,0,0:0:0:40:kick.wav
320,192,29040,1,0,0:0:0:0:
448,192,29145,1,0,0:0:0:60:snare_l.wav
64,192,29145,1,0,0:0:0:0:
192,192,29249,1,0,0:0:0:0:
320,192,29353,1,0,0:0:0:40:kick.wav
64,192,29457,1,0,0:0:0:0:
192,192,29561,1,0,0:0:0:60:snare_h.wav
448,192,29561,1,0,0:0:0:0:
64,192,29665,1,0,0:0:0:0:
320,192,29770,1,0,0:0:0:40:kick.wav
192,192,29874,1,0,0:0:0:0:
448,192,29978,1,0,0:0:0:60:snare_l.wav
64,192,29978,1,0,0:0:0:0:
320,192,30082,1,0,0:0:0:0:
192,192,30186,128,0,30395:0:0:0:40:kick.wav
64,192,30395,1,0,0:0:0:60:snare_h.wav
448,192,30395,1,0,0:0:0:0:
320,192,30499,1,0,0:0:0:0:
192,192,30603,1,0,0:0:0:40:kick.wav
320,192,30707,1,0,0:0:0:0:
448,192,30811,1,0,0:0:0:60:snare_l.wav
64,192,30811,1,0,0:0:0:0:
192,192,30915,1,0,0:0:0:0:
320,192,31020,1,0,0:0:0:40:kick.wav
64,192,31124,1,0,0:0:0:0:
448,192,31228,1,0,0:0:0:60:snare_h.wav
192,192,31228,1,0,0:0:0:0:
320,192,31332,1,0,0:0:0:0:
192,192,31436,1,0,0:0:0:40:kick.wav
64,192,31540,1,0,0:0:0:0:
448,192,31645,1,0,0:0:0:60:snare_l.wav
320,192,31645,1,0,0:0:0:0:
192,192,31749,1,0,0:0:0:0:
320,192,31853,1,0,0:0:0:40:kick.wav
64,192,31957,1,0,0:0:0:0:
448,192,32061,1,0,0:0:0:60:snare_h.wav
192,192,32061,1,0,0:0:0:0:
64,192,32165,1,0,0:0:0:0:
320,192,32270,1,0,0:0:0:40:kick.wav
448,192,32374,1,0,0:0:0:0:
192,192,32478,1,0,0:0:0:60:snare_l.wav
64,192,32478,1,0,0:0:0:0:
320,192,32582,1,0,0:0:0:0:
64,192,32686,1,0,0:0:0:40:kick.wav
192,192,32756,1,0,0:0:0:0:
64,192,32825,1,0,0:0:0:0:
320,192,32895,1,0,0:0:0:60:snare_h.wav
448,192,32895,1,0,0:0:0:0:
192,192,32999,1,0,0:0:0:0:
448,192,33103,1,0,0:0:0:40:kick.wav
320,192,33207,1,0,0:0:0:0:
192,192,33311,1,0,0:0:0:60:snare_l.wav
64,192,33311,1,0,0:0:0:0:
192,192,33520,1,0,0:0:0:60:snare_l.wav
64,192,33520,1,0,0:0:0:0:
448,192,33624,1,0,0:0:0:0:
320,192,33728,1,0,0:0:0:0:
64,192,33832,1,0,0:0:0:60:snare_l.wav
192,192,33832,1,0,0:0:0:0:
448,192,33936,1,0,0:0:0:0:
64,192,34040,1,0,0:0:0:0:
320,192,34145,1,0,0:0:0:60:snare_l.wav
448,192,34145,1,0,0:0:0:0:
192,192,34249,1,0,0:0:0:0:
64,192,34353,1,0,0:0:0:0:
448,192,34457,1,0,0:0:0:60:snare_l.wav
320,192,34457,1,0,0:0:0:0:
192,192,34561,1,0,0:0:0:0:
320,192,34665,1,0,0:0:0:60:snare_l.wav
448,192,34665,1,0,0:0:0:0:
448,192,34874,1,0,0:0:0:60:snare_h.wav
192,192,34874,128,0,35186:0:0:0:50:finish.wav
64,192,34874,128,0,35186:0:0:0:0:
320,192,35256,1,0,0:0:0:60:snare_l.wav
192,192,35325,1,0,0:0:0:60:snare_l.wav
64,192,35395,1,0,0:0:0:60:snare_l.wav
448,192,35395,1,0,0:0:0:0:
192,192,35533,1,0,0:0:0:60:snare_l.wav
320,192,35533,1,0,0:0:0:0:
320,192,35672,1,0,0:0:0:60:snare_l.wav
448,192,35672,1,0,0:0:0:0:
192,192,35811,1,0,0:0:0:60:snare_l.wav
64,192,35811,1,0,0:0:0:0:
448,192,35950,1,0,0:0:0:60:snare_l.wav
64,192,35950,1,0,0:0:0:0:
320,192,36089,1,0,0:0:0:60:snare_l.wav
192,192,36089,1,0,0:0:0:0:
64,192,36228,1,0,0:0:0:60:snare_l.wav
448,192,36228,1,0,0:0:0:0:
64,192,36540,1,0,0:0:0:50:finish.wav
192,192,36540,1,0,0:0:0:0:
448,192,36540,1,0,0:0:0:0:
320,192,36749,1,0,0:0:0:0:
192,192,36853,1,0,0:0:0:0:
448,192,37061,1,0,0:0:0:60:snare_h.wav
64,192,37061,1,0,0:0:0:50:finish.wav
320,192,37061,1,0,0:0:0:0:
192,192,37270,128,0,37478:0:0:0:40:kick.wav
448,192,37478,1,0,0:0:0:60:snare_l.wav
64,192,37478,1,0,0:0:0:0:
320,192,37686,1,0,0:0:0:40:kick.wav
64,192,37895,1,0,0:0:0:60:snare_h.wav
192,192,37895,1,0,0:0:0:0:
448,192,38103,1,0,0:0:0:40:kick.wav
320,192,38207,1,0,0:0:0:0:
192,192,38311,1,0,0:0:0:60:snare_l.wav
64,192,38311,1,0,0:0:0:0:
448,192,38415,1,0,0:0:0:0:
320,192,38520,128,0,38728:0:0:0:40:kick.wav
64,192,38728,1,0,0:0:0:60:snare_h.wav
448,192,38728,1,0,0:0:0:0:
192,192,38832,1,0,0:0:0:0:
320,192,38936,1,0,0:0:0:40:kick.wav
448,192,39040,1,0,0:0:0:0:
64,192,39145,128,0,39353:0:0:0:60:snare_l.wav
192,192,39145,128,0,39353:0:0:0:50:finish.wav
320,192,39457,128,0,39665:0:0:0:60:snare_l.wav
192,192,39457,128,0,39665:0:0:0:50:finish.wav
320,192,39770,128,0,39978:0:0:0:60:snare_l.wav
448,192,39770,128,0,39978:0:0:0:50:finish.wav
64,192,40186,1,0,0:0:0:40:kick.wav
192,192,40290,1,0,0:0:0:40:kick.wav
320,192,40395,1,0,0:0:0:50:snare_h.wav
448,192,40395,1,0,0:0:0:0:
64,192,40603,1,0,0:0:0:40:kick.wav
192,192,40707,1,0,0:0:0:40:kick.wav
320,192,40811,1,0,0:0:0:50:snare_h.wav
448,192,40811,1,0,0:0:0:0:
192,192,41020,1,0,0:0:0:40:kick.wav
320,192,41124,1,0,0:0:0:40:kick.wav
448,192,41228,1,0,0:0:0:50:snare_h.wav
64,192,41228,1,0,0:0:0:0:
192,192,41436,1,0,0:0:0:40:kick.wav
320,192,41540,1,0,0:0:0:40:kick.wav
64,192,41645,1,0,0:0:0:50:snare_h.wav
448,192,41645,1,0,0:0:0:0:
320,192,41853,1,0,0:0:0:40:kick.wav
448,192,41957,1,0,0:0:0:40:kick.wav
192,192,42061,1,0,0:0:0:50:snare_h.wav
64,192,42061,1,0,0:0:0:0:
320,192,42270,1,0,0:0:0:40:kick.wav
448,192,42374,1,0,0:0:0:40:kick.wav
64,192,42478,1,0,0:0:0:50:snare_h.wav
192,192,42478,1,0,0:0:0:0:
320,192,42686,1,0,0:0:0:40:kick.wav
192,192,42790,1,0,0:0:0:40:kick.wav
448,192,42895,1,0,0:0:0:50:snare_h.wav
64,192,42895,1,0,0:0:0:0:
448,192,43311,1,0,0:0:0:60:snare_l.wav
64,192,43311,1,0,0:0:0:50:finish.wav
192,192,43311,1,0,0:0:0:0:
320,192,43520,1,0,0:0:0:0:
192,192,43589,1,0,0:0:0:0:
64,192,43658,1,0,0:0:0:0:
448,192,43728,1,0,0:0:0:0:
320,192,43832,1,0,0:0:0:0:
192,192,44040,1,0,0:0:0:0:
448,192,44249,1,0,0:0:0:0:
320,192,44301,1,0,0:0:0:0:
192,192,44353,1,0,0:0:0:0:
64,192,44561,1,0,0:0:0:0:
192,192,44665,1,0,0:0:0:0:
320,192,44770,128,0,44978:0:0:0:0:
192,192,45186,128,0,45603:0:0:0:0:
64,192,45603,1,0,0:0:0:0:
448,192,45672,1,0,0:0:0:0:
320,192,45742,1,0,0:0:0:0:
192,192,45811,1,0,0:0:0:0:
448,192,46020,1,0,0:0:0:60:snare_l.wav
64,192,46020,1,0,0:0:0:0:
64,192,46332,1,0,0:0:0:60:snare_l.wav
448,192,46332,1,0,0:0:0:0:
448,192,46645,1,0,0:0:0:60:snare_l.wav
64,192,46645,1,0,0:0:0:50:finish.wav
320,192,46645,1,0,0:0:0:0:
192,192,46853,1,0,0:0:0:40:kick.wav
320,192,46922,1,0,0:0:0:0:
192,192,46992,1,0,0:0:0:0:
64,192,47061,1,0,0:0:0:60:snare_h.wav
448,192,47061,1,0,0:0:0:0:
320,192,47165,1,0,0:0:0:0:
192,192,47374,1,0,0:0:0:0:
320,192,47478,1,0,0:0:0:60:snare_l.wav
448,192,47478,1,0,0:0:0:0:
64,192,47582,1,0,0:0:0:0:
192,192,47634,1,0,0:0:0:0:
320,192,47686,1,0,0:0:0:40:kick.wav
448,192,47895,1,0,0:0:0:60:snare_h.wav
64,192,47895,1,0,0:0:0:0:
320,192,47999,1,0,0:0:0:0:
192,192,48103,128,0,48311:0:0:0:40:kick.wav
448,192,48311,1,0,0:0:0:60:snare_l.wav
64,192,48311,1,0,0:0:0:0:
320,192,48520,128,0,48728:0:0:0:40:kick.wav
64,192,48728,1,0,0:0:0:60:snare_h.wav
448,192,48728,1,0,0:0:0:0:
192,192,48936,1,0,0:0:0:40:kick.wav
320,192,49040,1,0,0:0:0:0:
64,192,49145,128,0,49353:0:0:0:60:snare_l.wav
448,192,49145,1,0,0:0:0:0:
320,192,49457,1,0,0:0:0:0:
64,192,49561,1,0,0:0:0:60:snare_h.wav
192,192,49561,1,0,0:0:0:0:
320,192,49770,1,0,0:0:0:40:kick.wav
448,192,49978,1,0,0:0:0:60:snare_l.wav
64,192,49978,1,0,0:0:0:0:
192,192,50186,1,0,0:0:0:40:kick.wav
320,192,50256,1,0,0:0:0:0:
192,192,50325,1,0,0:0:0:0:
64,192,50395,1,0,0:0:0:60:snare_h.wav
448,192,50395,1,0,0:0:0:0:
320,192,50499,1,0,0:0:0:0:
192,192,50707,1,0,0:0:0:0:
64,192,50811,1,0,0:0:0:60:snare_l.wav
448,192,50811,1,0,0:0:0:0:
320,192,50915,1,0,0:0:0:0:
192,192,50967,1,0,0:0:0:0:
320,192,51020,1,0,0:0:0:40:kick.wav
448,192,51228,1,0,0:0:0:60:snare_h.wav
64,192,51228,1,0,0:0:0:0:
320,192,51332,1,0,0:0:0:0:
192,192,51436,128,0,51645:0:0:0:40:kick.wav
448,192,51645,1,0,0:0:0:60:snare_l.wav
64,192,51645,1,0,0:0:0:0:
320,192,51853,128,0,52061:0:0:0:40:kick.wav
64,192,52061,1,0,0:0:0:60:snare_h.wav
448,192,52061,1,0,0:0:0:0:
192,192,52270,1,0,0:0:0:40:kick.wav
448,192,52478,1,0,0:0:0:60:snare_l.wav
320,192,52478,1,0,0:0:0:0:
192,192,52686,1,0,0:0:0:40:kick.wav
320,192,52756,1,0,0:0:0:0:
448,192,52825,1,0,0:0:0:0:
64,192,52895,1,0,0:0:0:60:snare_h.wav
192,192,52895,1,0,0:0:0:0:
320,192,52999,1,0,0:0:0:0:
192,192,53103,1,0,0:0:0:40:kick.wav
448,192,53207,1,0,0:0:0:0:
64,192,53311,1,0,0:0:0:60:snare_l.wav
320,192,53311,1,0,0:0:0:0:
192,192,53520,1,0,0:0:0:40:kick.wav
320,192,53624,1,0,0:0:0:0:
64,192,53728,1,0,0:0:0:60:snare_h.wav
448,192,53728,1,0,0:0:0:0:
320,192,54040,1,0,0:0:0:0:
192,192,54092,1,0,0:0:0:0:
448,192,54145,1,0,0:0:0:60:snare_l.wav
64,192,54145,1,0,0:0:0:0:
320,192,54353,1,0,0:0:0:40:kick.wav
192,192,54457,1,0,0:0:0:0:
64,192,54561,1,0,0:0:0:60:snare_h.wav
448,192,54561,1,0,0:0:0:0:
320,192,54770,1,0,0:0:0:40:kick.wav
448,192,54874,128,0,55290:0:0:0:0:
64,192,55082,1,0,0:0:0:60:snare_h.wav
64,192,55395,1,0,0:0:0:60:snare_h.wav
192,192,55395,1,0,0:0:0:50:finish.wav
448,192,55395,128,0,55499:0:0:0:0:
64,192,55603,1,0,0:0:0:60:snare_h.wav
192,192,55603,1,0,0:0:0:50:finish.wav
448,192,55603,128,0,56020:0:0:0:0:
320,192,56020,1,0,0:0:0:0:
64,192,56124,1,0,0:0:0:0:
448,192,56228,1,0,0:0:0:0:
320,192,56280,1,0,0:0:0:0:
192,192,56332,1,0,0:0:0:0:
448,192,56436,1,0,0:0:0:0:
192,192,56540,1,0,0:0:0:0:
320,192,56645,128,0,56957:0:0:0:60:snare_l.wav
448,192,56645,128,0,56957:0:0:0:50:finish.wav
64,192,56645,1,0,0:0:0:0:
192,192,57061,128,0,57270:0:0:0:60:snare_l.wav
320,192,57061,128,0,57270:0:0:0:50:finish.wav
64,192,57374,128,0,57582:0:0:0:60:snare_l.wav
192,192,57374,128,0,57582:0:0:0:50:finish.wav
192,192,57686,128,0,57895:0:0:0:60:snare_l.wav
320,192,57686,128,0,57895:0:0:0:50:finish.wav
320,192,57999,128,0,58103:0:0:0:60:snare_l.wav
448,192,57999,128,0,58103:0:0:0:50:finish.wav
64,192,58207,1,0,0:0:0:60:snare_l.wav
192,192,58207,1,0,0:0:0:50:finish.wav
320,192,58520,1,0,0:0:0:0:
448,192,58546,1,0,0:0:0:0:
64,192,58728,1,0,0:0:0:0:
192,192,58832,1,0,0:0:0:0:
448,192,58936,1,0,0:0:0:0:
320,192,59040,1,0,0:0:0:0:
192,192,59145,1,0,0:0:0:0:
64,192,59249,1,0,0:0:0:0:
320,192,59353,1,0,0:0:0:0:
448,192,59457,1,0,0:0:0:0:
64,192,59561,1,0,0:0:0:60:snare_h.wav
192,192,59561,1,0,0:0:0:0:
320,192,59665,1,0,0:0:0:0:
448,192,59770,1,0,0:0:0:0:
192,192,59978,128,0,60290:0:0:0:60:snare_l.wav
64,192,59978,128,0,60290:0:0:0:50:finish.wav
320,192,59978,1,0,0:0:0:0:
192,192,60395,128,0,60603:0:0:0:60:snare_l.wav
320,192,60395,128,0,60603:0:0:0:50:finish.wav
320,192,60707,128,0,60915:0:0:0:60:snare_l.wav
448,192,60707,128,0,60915:0:0:0:50:finish.wav
192,192,61020,128,0,61228:0:0:0:60:snare_l.wav
64,192,61020,128,0,61228:0:0:0:50:finish.wav
320,192,61332,128,0,61436:0:0:0:60:snare_l.wav
448,192,61332,128,0,61436:0:0:0:50:finish.wav
192,192,61540,128,0,61749:0:0:0:60:snare_l.wav
320,192,61540,128,0,61749:0:0:0:50:finish.wav
192,192,61853,1,0,0:0:0:60:snare_l.wav
64,192,61853,1,0,0:0:0:50:finish.wav
448,192,62061,1,0,0:0:0:0:
320,192,62165,1,0,0:0:0:0:
448,192,62270,1,0,0:0:0:0:
64,192,62374,1,0,0:0:0:0:
192,192,62426,1,0,0:0:0:0:
320,192,62478,1,0,0:0:0:0:
64,192,62582,1,0,0:0:0:0:
448,192,62686,1,0,0:0:0:60:snare_l.wav
192,192,62686,1,0,0:0:0:50:finish.wav
64,192,62895,1,0,0:0:0:60:snare_h.wav
320,192,62895,1,0,0:0:0:0:
448,192,62999,1,0,0:0:0:60:snare_l.wav
192,192,62999,1,0,0:0:0:50:finish.wav
64,192,63311,128,0,63624:0:0:0:60:snare_l.wav
192,192,63311,128,0,63624:0:0:0:50:finish.wav
448,192,63311,1,0,0:0:0:0:
320,192,63728,128,0,63936:0:0:0:60:snare_l.wav
448,192,63728,128,0,63936:0:0:0:50:finish.wav
192,192,64040,128,0,64249:0:0:0:60:snare_l.wav
320,192,64040,128,0,64249:0:0:0:50:finish.wav
64,192,64353,128,0,64561:0:0:0:60:snare_l.wav
192,192,64353,128,0,64561:0:0:0:50:finish.wav
320,192,64665,128,0,64770:0:0:0:60:snare_l.wav
448,192,64665,128,0,64770:0:0:0:50:finish.wav
192,192,64874,1,0,0:0:0:60:snare_l.wav
64,192,64874,1,0,0:0:0:50:finish.wav
448,192,64978,1,0,0:0:0:0:
320,192,65082,1,0,0:0:0:0:
64,192,65186,1,0,0:0:0:0:
192,192,65238,1,0,0:0:0:0:
320,192,65290,1,0,0:0:0:0:
64,192,65395,1,0,0:0:0:0:
192,192,65499,1,0,0:0:0:0:
448,192,65603,1,0,0:0:0:0:
64,192,65707,1,0,0:0:0:0:
192,192,65759,1,0,0:0:0:0:
320,192,65811,1,0,0:0:0:0:
64,192,65915,1,0,0:0:0:0:
448,192,66020,1,0,0:0:0:60:snare_h.wav
320,192,66020,1,0,0:0:0:0:
192,192,66124,1,0,0:0:0:60:snare_l.wav
64,192,66124,1,0,0:0:0:0:
448,192,66228,1,0,0:0:0:60:snare_h.wav
320,192,66228,1,0,0:0:0:0:
192,192,66436,1,0,0:0:0:60:snare_l.wav
320,192,66506,1,0,0:0:0:0:
448,192,66575,1,0,0:0:0:0:
64,192,66645,128,0,66957:0:0:0:60:snare_l.wav
192,192,66645,128,0,66957:0:0:0:50:finish.wav
192,192,67061,128,0,67270:0:0:0:60:snare_l.wav
320,192,67061,128,0,67270:0:0:0:50:finish.wav
448,192,67374,128,0,67582:0:0:0:60:snare_l.wav
320,192,67374,128,0,67582:0:0:0:50:finish.wav
64,192,67686,128,0,67895:0:0:0:60:snare_l.wav
192,192,67686,128,0,67895:0:0:0:50:finish.wav
320,192,67999,128,0,68103:0:0:0:60:snare_l.wav
448,192,67999,128,0,68103:0:0:0:50:finish.wav
192,192,68207,128,0,68415:0:0:0:60:snare_l.wav
64,192,68207,128,0,68415:0:0:0:50:finish.wav
448,192,68520,1,0,0:0:0:60:snare_l.wav
320,192,68589,1,0,0:0:0:0:
192,192,68658,1,0,0:0:0:0:
64,192,68728,1,0,0:0:0:0:
320,192,68797,1,0,0:0:0:0:
192,192,68867,1,0,0:0:0:0:
448,192,68936,1,0,0:0:0:0:
320,192,69040,1,0,0:0:0:0:
192,192,69145,128,0,69353:0:0:0:0:
448,192,69353,5,0,0:0:0:60:snare_h.wav
64,192,69353,1,0,0:0:0:50:finish.wav
192,192,69665,1,0,0:0:0:60:snare_h.wav
320,192,69665,1,0,0:0:0:50:finish.wav
448,192,69978,1,0,0:0:0:60:snare_l.wav
320,192,69978,1,0,0:0:0:50:finish.wav
192,192,70134,1,0,0:0:0:0:
64,192,70290,1,0,0:0:0:0:
192,192,70603,1,0,0:0:0:0:
320,192,70915,1,0,0:0:0:0:
64,192,71228,1,0,0:0:0:0:
448,192,71228,1,0,0:0:0:0:
192,192,71367,1,0,0:0:0:0:
320,192,71506,1,0,0:0:0:0:
448,192,71645,1,0,0:0:0:0:
64,192,71645,1,0,0:0:0:0:
192,192,71783,1,0,0:0:0:0:
320,192,71922,1,0,0:0:0:0:
448,192,72061,1,0,0:0:0:0:
64,192,72165,1,0,0:0:0:0:
320,192,72270,1,0,0:0:0:0:
192,192,72339,1,0,0:0:0:0:
64,192,72408,1,0,0:0:0:0:
320,192,72478,1,0,0:0:0:0:
448,192,72478,1,0,0:0:0:0:
192,192,72582,1,0,0:0:0:0:
64,192,72582,1,0,0:0:0:0:
320,192,72686,1,0,0:0:0:0:
448,192,72686,1,0,0:0:0:0:
192,192,72790,1,0,0:0:0:0:
64,192,72790,1,0,0:0:0:0:
448,192,72895,1,0,0:0:0:60:snare_h.wav
320,192,72895,1,0,0:0:0:50:finish.wav
64,192,73311,1,0,0:0:0:60:snare_l.wav
448,192,73311,1,0,0:0:0:50:finish.wav
192,192,73311,1,0,0:0:0:0:
320,192,73520,128,0,73728:0:0:0:40:kick.wav
64,192,73728,1,0,0:0:0:60:snare_h.wav
448,192,73728,1,0,0:0:0:0:
192,192,73728,1,0,0:0:0:0:
192,192,73936,1,0,0:0:0:40:kick.wav
320,192,74040,1,0,0:0:0:0:
64,192,74145,1,0,0:0:0:60:snare_l.wav
448,192,74145,1,0,0:0:0:0:
192,192,74249,1,0,0:0:0:0:
320,192,74353,1,0,0:0:0:40:kick.wav
192,192,74457,1,0,0:0:0:0:
448,192,74561,1,0,0:0:0:60:snare_h.wav
64,192,74561,1,0,0:0:0:0:
320,192,74561,1,0,0:0:0:0:
192,192,74665,1,0,0:0:0:0:
448,192,74770,1,0,0:0:0:40:kick.wav
64,192,74874,1,0,0:0:0:0:
448,192,74978,1,0,0:0:0:60:snare_l.wav
320,192,74978,1,0,0:0:0:0:
192,192,75186,128,0,75395:0:0:0:40:kick.wav
448,192,75395,1,0,0:0:0:60:snare_h.wav
64,192,75395,1,0,0:0:0:0:
320,192,75395,1,0,0:0:0:0:
192,192,75603,1,0,0:0:0:40:kick.wav
320,192,75707,1,0,0:0:0:0:
192,192,75811,1,0,0:0:0:60:snare_l.wav
64,192,75811,1,0,0:0:0:0:
448,192,75915,1,0,0:0:0:0:
320,192,75967,1,0,0:0:0:0:
192,192,76020,1,0,0:0:0:40:kick.wav
448,192,76124,1,0,0:0:0:0:
192,192,76228,1,0,0:0:0:60:snare_h.wav
64,192,76228,1,0,0:0:0:0:
320,192,76228,1,0,0:0:0:0:
448,192,76332,1,0,0:0:0:0:
192,192,76436,1,0,0:0:0:40:kick.wav
320,192,76540,1,0,0:0:0:0:
64,192,76645,1,0,0:0:0:60:snare_l.wav
448,192,76645,128,0,76853:0:0:0:0:
192,192,76853,1,0,0:0:0:40:kick.wav
64,192,77061,1,0,0:0:0:60:snare_h.wav
320,192,77061,1,0,0:0:0:0:
448,192,77061,1,0,0:0:0:0:
192,192,77270,1,0,0:0:0:40:kick.wav
320,192,77374,1,0,0:0:0:0:
64,192,77478,1,0,0:0:0:60:snare_l.wav
448,192,77478,1,0,0:0:0:0:
192,192,77582,1,0,0:0:0:0:
320,192,77790,1,0,0:0:0:0:
64,192,77895,1,0,0:0:0:60:snare_h.wav
448,192,77895,1,0,0:0:0:0:
192,192,77895,1,0,0:0:0:0:
320,192,77999,1,0,0:0:0:0:
64,192,78207,1,0,0:0:0:60:snare_l.wav
192,192,78207,128,0,78415:0:0:0:0:
64,192,78415,1,0,0:0:0:0:
320,192,78520,128,0,78728:0:0:0:60:snare_l.wav
448,192,78520,1,0,0:0:0:40:kick.wav
64,192,78728,1,0,0:0:0:60:snare_h.wav
192,192,78728,1,0,0:0:0:50:finish.wav
448,192,78728,1,0,0:0:0:0:
320,192,78936,1,0,0:0:0:40:kick.wav
192,192,78988,1,0,0:0:0:0:
64,192,79040,1,0,0:0:0:0:
448,192,79145,128,0,79353:0:0:0:60:snare_l.wav
320,192,79145,1,0,0:0:0:0:
192,192,79353,128,0,79561:0:0:0:40:kick.wav
64,192,79561,1,0,0:0:0:60:snare_h.wav
448,192,79561,1,0,0:0:0:0:
320,192,79561,128,0,79770:0:0:0:0:
64,192,79770,128,0,79978:0:0:0:40:kick.wav
448,192,79978,1,0,0:0:0:60:snare_l.wav
320,192,79978,1,0,0:0:0:0:
192,192,80186,128,0,80395:0:0:0:40:kick.wav
320,192,80395,1,0,0:0:0:60:snare_h.wav
64,192,80395,1,0,0:0:0:0:
448,192,80395,1,0,0:0:0:0:
192,192,80603,1,0,0:0:0:40:kick.wav
320,192,80707,1,0,0:0:0:0:
64,192,80811,1,0,0:0:0:60:snare_l.wav
448,192,80811,1,0,0:0:0:0:
192,192,80915,1,0,0:0:0:0:
320,192,81020,1,0,0:0:0:40:kick.wav
192,192,81124,1,0,0:0:0:0:
64,192,81228,1,0,0:0:0:60:snare_h.wav
448,192,81228,1,0,0:0:0:0:
320,192,81228,1,0,0:0:0:0:
192,192,81332,1,0,0:0:0:0:
448,192,81436,1,0,0:0:0:40:kick.wav
320,192,81540,1,0,0:0:0:0:
64,192,81645,1,0,0:0:0:60:snare_l.wav
192,192,81645,1,0,0:0:0:0:
320,192,81853,128,0,82061:0:0:0:40:kick.wav
64,192,82061,1,0,0:0:0:60:snare_h.wav
448,192,82061,1,0,0:0:0:0:
192,192,82061,1,0,0:0:0:0:
320,192,82270,1,0,0:0:0:40:kick.wav
192,192,82374,1,0,0:0:0:0:
448,192,82478,1,0,0:0:0:60:snare_l.wav
64,192,82478,1,0,0:0:0:0:
320,192,82582,1,0,0:0:0:0:
192,192,82634,1,0,0:0:0:0:
64,192,82686,1,0,0:0:0:40:kick.wav
448,192,82790,1,0,0:0:0:0:
64,192,82895,1,0,0:0:0:60:snare_h.wav
320,192,82895,1,0,0:0:0:0:
192,192,82895,1,0,0:0:0:0:
448,192,82999,1,0,0:0:0:0:
192,192,83103,1,0,0:0:0:40:kick.wav
320,192,83207,1,0,0:0:0:0:
64,192,83311,1,0,0:0:0:60:snare_l.wav
448,192,83311,1,0,0:0:0:0:
192,192,83520,128,0,83728:0:0:0:40:kick.wav
64,192,83728,1,0,0:0:0:60:snare_h.wav
448,192,83728,1,0,0:0:0:50:finish.wav
320,192,83728,1,0,0:0:0:0:
64,192,83936,1,0,0:0:0:40:kick.wav
320,192,84040,1,0,0:0:0:0:
192,192,84092,1,0,0:0:0:0:
64,192,84145,1,0,0:0:0:60:snare_l.wav
448,192,84145,1,0,0:0:0:0:
320,192,84249,1,0,0:0:0:60:snare_l.wav
192,192,84249,1,0,0:0:0:0:
320,192,84457,5,0,0:0:0:60:snare_h.wav
448,192,84457,1,0,0:0:0:0:
192,192,84665,1,0,0:0:0:60:snare_l.wav
64,192,84665,1,0,0:0:0:0:
320,192,84874,128,0,85186:0:0:0:60:snare_l.wav
448,192,84874,128,0,85186:0:0:0:0:
64,192,85186,5,0,0:0:0:60:snare_h.wav
192,192,85186,1,0,0:0:0:40:kick.wav
320,192,85603,1,0,0:0:0:40:kick.wav
192,192,85655,1,0,0:0:0:0:
64,192,85707,1,0,0:0:0:0:
448,192,85811,1,0,0:0:0:0:
320,192,85915,1,0,0:0:0:0:
192,192,86020,1,0,0:0:0:40:kick.wav
320,192,86072,1,0,0:0:0:0:
448,192,86124,1,0,0:0:0:0:
64,192,86228,1,0,0:0:0:0:
192,192,86228,1,0,0:0:0:60:snare_h.wav
320,192,86332,1,0,0:0:0:0:
64,192,86436,1,0,0:0:0:40:kick.wav
192,192,86506,1,0,0:0:0:0:
320,192,86575,1,0,0:0:0:0:
448,192,86645,128,0,88311:0:0:0:60:snare_l.wav
64,192,86645,1,0,0:0:0:50:finish.wav
192,192,86853,1,0,0:0:0:40:kick.wav
64,192,87061,1,0,0:0:0:60:snare_h.wav
320,192,87061,1,0,0:0:0:0:
192,192,87165,1,0,0:0:0:0:
320,192,87374,1,0,0:0:0:0:
64,192,87478,1,0,0:0:0:60:snare_l.wav
192,192,87478,1,0,0:0:0:0:
320,192,87582,1,0,0:0:0:0:
64,192,87686,1,0,0:0:0:40:kick.wav
192,192,87895,1,0,0:0:0:60:snare_h.wav
320,192,87895,1,0,0:0:0:0:
64,192,88103,1,0,0:0:0:40:kick.wav
320,192,88207,1,0,0:0:0:0:
64,192,88311,1,0,0:0:0:60:snare_l.wav
192,192,88311,1,0,0:0:0:0:
320,192,88415,1,0,0:0:0:0:
192,192,88467,1,0,0:0:0:0:
64,192,88520,1,0,0:0:0:40:kick.wav
320,192,88624,1,0,0:0:0:0:
448,192,88728,1,0,0:0:0:60:snare_h.wav
192,192,88728,1,0,0:0:0:0:
64,192,88936,1,0,0:0:0:40:kick.wav
192,192,89040,1,0,0:0:0:0:
320,192,89145,1,0,0:0:0:60:snare_l.wav
448,192,89145,1,0,0:0:0:0:
64,192,89249,1,0,0:0:0:0:
192,192,89353,1,0,0:0:0:40:kick.wav
64,192,89561,1,0,0:0:0:60:snare_h.wav
320,192,89561,128,0,89770:0:0:0:0:
192,192,89770,128,0,89978:0:0:0:40:kick.wav
448,192,89978,1,0,0:0:0:60:snare_l.wav
64,192,89978,1,0,0:0:0:0:
320,192,90047,1,0,0:0:0:0:
192,192,90117,1,0,0:0:0:0:
192,192,90256,1,0,0:0:0:0:
64,192,90395,1,0,0:0:0:60:snare_h.wav
448,192,90395,1,0,0:0:0:50:finish.wav
320,192,90395,1,0,0:0:0:0:
192,192,90603,1,0,0:0:0:40:kick.wav
448,192,90811,1,0,0:0:0:60:snare_l.wav
64,192,90811,1,0,0:0:0:0:
320,192,90915,1,0,0:0:0:0:
192,192,91020,1,0,0:0:0:40:kick.wav
64,192,91228,1,0,0:0:0:60:snare_h.wav
320,192,91228,128,0,91436:0:0:0:0:
448,192,91436,1,0,0:0:0:40:kick.wav
64,192,91540,1,0,0:0:0:60:snare_l.wav
192,192,91540,1,0,0:0:0:0:
448,192,91749,1,0,0:0:0:0:
64,192,91853,1,0,0:0:0:60:snare_l.wav
192,192,91853,1,0,0:0:0:40:kick.wav
320,192,92061,1,0,0:0:0:60:snare_h.wav
448,192,92061,1,0,0:0:0:50:finish.wav
64,192,92131,1,0,0:0:0:0:
192,192,92200,1,0,0:0:0:0:
320,192,92270,1,0,0:0:0:40:kick.wav
64,192,92478,1,0,0:0:0:60:snare_l.wav
192,192,92478,1,0,0:0:0:0:
448,192,92582,1,0,0:0:0:0:
320,192,92686,1,0,0:0:0:40:kick.wav
448,192,92790,1,0,0:0:0:0:
64,192,92895,1,0,0:0:0:60:snare_h.wav
192,192,92895,128,0,93103:0:0:0:0:
320,192,93103,128,0,93311:0:0:0:40:kick.wav
448,192,93311,1,0,0:0:0:60:snare_l.wav
64,192,93311,1,0,0:0:0:0:
192,192,93520,128,0,93728:0:0:0:40:kick.wav
448,192,93728,1,0,0:0:0:60:snare_h.wav
64,192,93728,1,0,0:0:0:0:
320,192,93832,1,0,0:0:0:0:
192,192,94040,1,0,0:0:0:0:
64,192,94145,1,0,0:0:0:60:snare_l.wav
448,192,94145,1,0,0:0:0:0:
192,192,94249,1,0,0:0:0:0:
320,192,94353,1,0,0:0:0:40:kick.wav
64,192,94561,1,0,0:0:0:60:snare_h.wav
448,192,94561,1,0,0:0:0:0:
192,192,94770,1,0,0:0:0:40:kick.wav
320,192,94874,1,0,0:0:0:0:
64,192,94978,1,0,0:0:0:60:snare_l.wav
448,192,94978,1,0,0:0:0:0:
192,192,95082,1,0,0:0:0:0:
320,192,95134,1,0,0:0:0:0:
448,192,95186,1,0,0:0:0:40:kick.wav
192,192,95290,1,0,0:0:0:0:
64,192,95395,1,0,0:0:0:60:snare_h.wav
320,192,95395,1,0,0:0:0:0:
192,192,95603,1,0,0:0:0:40:kick.wav
320,192,95707,1,0,0:0:0:0:
192,192,95915,1,0,0:0:0:60:snare_l.wav
64,192,95915,1,0,0:0:0:0:
448,192,96124,1,0,0:0:0:0:
192,192,96228,1,0,0:0:0:60:snare_l.wav
64,192,96228,1,0,0:0:0:0:
320,192,96436,1,0,0:0:0:60:snare_h.wav
192,192,96436,1,0,0:0:0:40:kick.wav
192,192,96645,128,0,97061:0:0:0:60:snare_l.wav
64,192,96645,128,0,97061:0:0:0:50:finish.wav
448,192,96645,1,0,0:0:0:0:
448,192,97061,1,0,0:0:0:0:
320,192,97131,1,0,0:0:0:0:
64,192,97200,1,0,0:0:0:0:
192,192,97270,1,0,0:0:0:0:
320,192,97339,1,0,0:0:0:0:
448,192,97408,1,0,0:0:0:0:
64,192,97478,128,0,97686:0:0:0:60:snare_l.wav
192,192,97478,128,0,97686:0:0:0:50:finish.wav
192,192,97790,1,0,0:0:0:60:snare_l.wav
64,192,97790,1,0,0:0:0:0:
448,192,98103,128,0,98311:0:0:0:60:snare_l.wav
320,192,98103,128,0,98311:0:0:0:50:finish.wav
320,192,98415,1,0,0:0:0:60:snare_l.wav
448,192,98415,1,0,0:0:0:0:
64,192,98728,128,0,98936:0:0:0:60:snare_l.wav
192,192,98728,128,0,98936:0:0:0:50:finish.wav
192,192,99040,1,0,0:0:0:60:snare_l.wav
64,192,99040,1,0,0:0:0:0:
448,192,99249,1,0,0:0:0:0:
64,192,99353,1,0,0:0:0:60:snare_l.wav
192,192,99353,1,0,0:0:0:50:finish.wav
320,192,99457,1,0,0:0:0:60:snare_l.wav
448,192,99665,1,0,0:0:0:60:snare_l.wav
320,192,99665,1,0,0:0:0:0:
64,192,99874,128,0,101645:0:0:0:60:snare_h.wav
192,192,99874,1,0,0:0:0:50:finish.wav
448,192,100082,1,0,0:0:0:40:kick.wav
320,192,100186,1,0,0:0:0:40:kick.wav
448,192,100395,1,0,0:0:0:40:kick.wav
320,192,100499,1,0,0:0:0:40:kick.wav
448,192,100707,1,0,0:0:0:40:kick.wav
320,192,100811,1,0,0:0:0:40:kick.wav
192,192,100915,1,0,0:0:0:0:
448,192,101020,1,0,0:0:0:40:kick.wav
320,192,101124,1,0,0:0:0:40:kick.wav
192,192,101228,128,0,101645:0:0:0:60:snare_h.wav
448,192,101645,1,0,0:0:0:60:snare_l.wav
320,192,101645,1,0,0:0:0:50:finish.wav
64,192,102061,1,0,0:0:0:0:
192,192,102165,1,0,0:0:0:0:
320,192,102270,1,0,0:0:0:0:
448,192,102374,1,0,0:0:0:0:
192,192,102686,1,0,0:0:0:0:
320,192,102895,1,0,0:0:0:60:snare_l.wav
448,192,102895,1,0,0:0:0:50:finish.wav
64,192,102999,1,0,0:0:0:0:
448,192,103207,1,0,0:0:0:60:snare_l.wav
320,192,103207,1,0,0:0:0:50:finish.wav
64,192,103520,1,0,0:0:0:0:
320,192,103624,128,0,103832:0:0:0:0:
192,192,103832,1,0,0:0:0:0:
448,192,104040,1,0,0:0:0:0:
192,192,104249,1,0,0:0:0:60:snare_l.wav
64,192,104249,1,0,0:0:0:50:finish.wav
64,192,104561,128,0,104978:0:0:0:60:snare_l.wav
192,192,104561,128,0,104978:0:0:0:50:finish.wav
320,192,104978,1,0,0:0:0:60:snare_l.wav
448,192,104978,1,0,0:0:0:50:finish.wav
64,192,105290,1,0,0:0:0:0:
192,192,105395,1,0,0:0:0:0:
320,192,105499,1,0,0:0:0:0:
448,192,105603,1,0,0:0:0:0:
64,192,105707,1,0,0:0:0:0:
192,192,105915,1,0,0:0:0:0:
320,192,106020,1,0,0:0:0:0:
448,192,106124,1,0,0:0:0:0:
192,192,106228,1,0,0:0:0:60:snare_l.wav
64,192,106228,1,0,0:0:0:50:finish.wav
320,192,106332,1,0,0:0:0:0:
192,192,106540,1,0,0:0:0:60:snare_l.wav
64,192,106540,1,0,0:0:0:50:finish.wav
448,192,106645,1,0,0:0:0:0:
320,192,106783,1,0,0:0:0:0:
192,192,106922,1,0,0:0:0:0:
64,192,107061,1,0,0:0:0:0:
448,192,107270,1,0,0:0:0:0:
320,192,107339,1,0,0:0:0:0:
192,192,107408,1,0,0:0:0:0:
64,192,107478,1,0,0:0:0:0:
320,192,107582,1,0,0:0:0:0:
192,192,107686,1,0,0:0:0:0:
64,192,107790,1,0,0:0:0:0:
448,192,107895,1,0,0:0:0:0:
192,192,107999,1,0,0:0:0:0:
320,192,108103,1,0,0:0:0:0:
448,192,108207,1,0,0:0:0:0:
64,192,108311,1,0,0:0:0:60:snare_l.wav
192,192,108311,1,0,0:0:0:50:finish.wav
320,192,108624,1,0,0:0:0:0:
320,192,108728,1,0,0:0:0:0:
64,192,108832,1,0,0:0:0:0:
448,192,108936,1,0,0:0:0:0:
192,192,109040,1,0,0:0:0:0:
64,192,109145,1,0,0:0:0:0:
320,192,109249,1,0,0:0:0:0:
192,192,109353,1,0,0:0:0:0:
448,192,109561,1,0,0:0:0:60:snare_l.wav
320,192,109561,1,0,0:0:0:50:finish.wav
64,192,109665,1,0,0:0:0:0:
320,192,109874,1,0,0:0:0:60:snare_l.wav
448,192,109874,1,0,0:0:0:50:finish.wav
64,192,110082,1,0,0:0:0:0:
192,192,110082,1,0,0:0:0:0:
64,192,110186,1,0,0:0:0:0:
192,192,110186,1,0,0:0:0:0:
448,192,110395,1,0,0:0:0:0:
64,192,110499,1,0,0:0:0:0:
192,192,110603,1,0,0:0:0:0:
320,192,110707,1,0,0:0:0:0:
448,192,110811,1,0,0:0:0:0:
64,192,110915,1,0,0:0:0:60:snare_l.wav
192,192,110915,1,0,0:0:0:50:finish.wav
64,192,111228,128,0,111645:0:0:0:60:snare_l.wav
192,192,111228,128,0,111645:0:0:0:50:finish.wav
320,192,111645,1,0,0:0:0:60:snare_l.wav
448,192,111645,1,0,0:0:0:50:finish.wav
64,192,111853,1,0,0:0:0:0:
192,192,111957,1,0,0:0:0:0:
448,192,112061,1,0,0:0:0:0:
320,192,112061,1,0,0:0:0:0:
64,192,112165,1,0,0:0:0:0:
192,192,112270,1,0,0:0:0:0:
320,192,112374,1,0,0:0:0:0:
448,192,112478,1,0,0:0:0:0:
64,192,112478,1,0,0:0:0:0:
192,192,112582,1,0,0:0:0:0:
320,192,112686,1,0,0:0:0:0:
448,192,112790,1,0,0:0:0:0:
64,192,112895,1,0,0:0:0:60:snare_l.wav
192,192,112895,1,0,0:0:0:50:finish.wav
320,192,112999,1,0,0:0:0:0:
448,192,112999,1,0,0:0:0:0:
192,192,113103,1,0,0:0:0:0:
64,192,113207,128,0,116020:0:0:0:60:snare_l.wav
448,192,113207,128,0,116228:0:0:0:50:finish.wav
192,192,114353,1,0,0:0:0:30:kick.wav
320,192,114561,1,0,0:0:0:30:kick.wav
192,192,114770,1,0,0:0:0:30:kick.wav
320,192,114978,1,0,0:0:0:30:kick.wav
192,192,115186,1,0,0:0:0:30:kick.wav
320,192,115395,1,0,0:0:0:30:kick.wav
192,192,115603,1,0,0:0:0:30:kick.wav
320,192,115811,1,0,0:0:0:30:kick.wav
192,192,116020,1,0,0:0:0:30:kick.wav
320,192,116228,1,0,0:0:0:30:kick.wav
64,192,116436,1,0,0:0:0:30:kick.wav
192,192,116488,1,0,0:0:0:30:kick.wav
320,192,116540,1,0,0:0:0:30:kick.wav
448,192,116592,1,0,0:0:0:30:kick.wav
