osu file format v14

[General]
AudioFilename: audio.mp3
AudioLeadIn: 0
PreviewTime: 72061
Countdown: 0
SampleSet: Soft
StackLeniency: 0.7
Mode: 3
LetterboxInBreaks: 0
SpecialStyle: 0
WidescreenStoryboard: 0

[Editor]
DistanceSpacing: 1.2
BeatDivisor: 4
GridSize: 8
TimelineZoom: 1.6

[Metadata]
Title:Routing
TitleUnicode:Routing
Artist:Camellia
ArtistUnicode:かめりあ
Creator:_Stan
Version:Dust's Beginner
Source:beatmania IIDX 23 copula
Tags:22 pendual super future tech bass tofu1222 dustmoon exneko
BeatmapID:1637716
BeatmapSetID:730034

[Difficulty]
HPDrainRate:7
CircleSize:4
OverallDifficulty:7
ApproachRate:8
SliderMultiplier:1.4
SliderTickRate:1

[Events]
//Background and Video events
0,0,"BG.jpg",0,0
//Break Periods
//Storyboard Layer 0 (Background)
//Storyboard Layer 1 (Fail)
//Storyboard Layer 2 (Pass)
//Storyboard Layer 3 (Foreground)
//Storyboard Sound Samples

[TimingPoints]
1645,416.666666666667,4,2,1,25,1,0
73311,-100,4,2,1,25,0,1
85186,-100,4,2,1,25,0,0
86645,-100,4,2,1,25,0,1
101645,-100,4,2,1,25,0,0

[HitObjects]
64,192,1645,5,0,0:0:0:60:snare_l.wav
448,192,1645,1,0,0:0:0:50:finish.wav
192,192,2061,1,0,0:0:0:0:
320,192,2374,1,0,0:0:0:0:
64,192,2895,1,0,0:0:0:60:snare_l.wav
192,192,2895,1,0,0:0:0:50:finish.wav
320,192,3207,1,0,0:0:0:60:snare_l.wav
448,192,3207,1,0,0:0:0:50:finish.wav
64,192,3728,1,0,0:0:0:0:
192,192,4040,1,0,0:0:0:0:
448,192,4249,1,0,0:0:0:60:snare_l.wav
320,192,4249,1,0,0:0:0:50:finish.wav
192,192,4561,1,0,0:0:0:60:snare_l.wav
64,192,4561,1,0,0:0:0:50:finish.wav
64,192,4978,1,0,0:0:0:60:snare_l.wav
448,192,4978,1,0,0:0:0:50:finish.wav
192,192,5395,1,0,0:0:0:0:
320,192,5707,1,0,0:0:0:0:
64,192,6228,1,0,0:0:0:60:snare_l.wav
192,192,6228,1,0,0:0:0:50:finish.wav
320,192,6540,1,0,0:0:0:60:snare_l.wav
448,192,6540,1,0,0:0:0:50:finish.wav
64,192,7061,1,0,0:0:0:0:
192,192,7478,1,0,0:0:0:0:
320,192,7895,1,0,0:0:0:0:
64,192,8311,1,0,0:0:0:60:snare_l.wav
448,192,8311,1,0,0:0:0:50:finish.wav
320,192,8728,1,0,0:0:0:0:
192,192,9040,1,0,0:0:0:0:
320,192,9561,1,0,0:0:0:60:snare_l.wav
448,192,9561,1,0,0:0:0:50:finish.wav
64,192,9874,1,0,0:0:0:60:snare_l.wav
192,192,9874,1,0,0:0:0:50:finish.wav
320,192,10395,1,0,0:0:0:0:
448,192,10707,1,0,0:0:0:0:
192,192,10915,1,0,0:0:0:60:snare_l.wav
64,192,10915,1,0,0:0:0:50:finish.wav
320,192,11228,1,0,0:0:0:60:snare_l.wav
448,192,11228,1,0,0:0:0:50:finish.wav
64,192,11645,1,0,0:0:0:60:snare_l.wav
448,192,11645,1,0,0:0:0:50:finish.wav
192,192,12061,1,0,0:0:0:0:
320,192,12374,1,0,0:0:0:0:
192,192,12895,1,0,0:0:0:60:snare_l.wav
64,192,12895,1,0,0:0:0:50:finish.wav
448,192,13207,1,0,0:0:0:60:snare_l.wav
320,192,13207,1,0,0:0:0:50:finish.wav
320,192,14561,1,0,0:0:0:60:snare_h.wav
64,192,14978,1,0,0:0:0:60:snare_l.wav
448,192,14978,1,0,0:0:0:50:finish.wav
192,192,15395,1,0,0:0:0:60:snare_h.wav
320,192,15395,1,0,0:0:0:0:
64,192,15811,1,0,0:0:0:60:snare_l.wav
320,192,16228,1,0,0:0:0:60:snare_h.wav
448,192,16228,1,0,0:0:0:0:
192,192,16645,1,0,0:0:0:60:snare_l.wav
64,192,17061,1,0,0:0:0:60:snare_h.wav
320,192,17061,1,0,0:0:0:0:
448,192,17478,1,0,0:0:0:60:snare_l.wav
64,192,17895,1,0,0:0:0:60:snare_h.wav
192,192,17895,1,0,0:0:0:0:
320,192,18311,1,0,0:0:0:60:snare_l.wav
448,192,18728,1,0,0:0:0:60:snare_h.wav
192,192,18728,1,0,0:0:0:0:
64,192,19145,1,0,0:0:0:60:snare_l.wav
448,192,19561,1,0,0:0:0:60:snare_h.wav
320,192,19561,1,0,0:0:0:0:
64,192,19978,1,0,0:0:0:60:snare_l.wav
448,192,20395,1,0,0:0:0:60:snare_h.wav
192,192,20395,1,0,0:0:0:0:
320,192,20811,1,0,0:0:0:60:snare_l.wav
448,192,21228,1,0,0:0:0:60:snare_h.wav
64,192,21228,1,0,0:0:0:0:
192,192,21540,1,0,0:0:0:60:snare_l.wav
320,192,21749,1,0,0:0:0:60:snare_l.wav
448,192,22061,1,0,0:0:0:60:snare_h.wav
64,192,22061,1,0,0:0:0:50:finish.wav
192,192,22478,1,0,0:0:0:60:snare_l.wav
320,192,22895,1,0,0:0:0:60:snare_h.wav
448,192,22895,1,0,0:0:0:0:
64,192,23311,1,0,0:0:0:60:snare_l.wav
448,192,23728,1,0,0:0:0:60:snare_h.wav
192,192,23728,1,0,0:0:0:0:
64,192,24145,1,0,0:0:0:60:snare_l.wav
320,192,24561,1,0,0:0:0:60:snare_h.wav
192,192,24561,1,0,0:0:0:0:
448,192,24978,1,0,0:0:0:60:snare_l.wav
320,192,25395,1,0,0:0:0:60:snare_h.wav
64,192,25395,1,0,0:0:0:0:
448,192,25811,1,0,0:0:0:60:snare_l.wav
192,192,26228,1,0,0:0:0:60:snare_h.wav
64,192,26540,1,0,0:0:0:60:snare_l.wav
448,192,26540,1,0,0:0:0:0:
320,192,26853,1,0,0:0:0:0:
192,192,27061,128,0,27895:0:0:0:0:
320,192,27895,128,0,28311:0:0:0:60:snare_h.wav
448,192,28311,1,0,0:0:0:60:snare_l.wav
64,192,28311,1,0,0:0:0:50:finish.wav
192,192,28728,1,0,0:0:0:60:snare_h.wav
320,192,28728,1,0,0:0:0:0:
448,192,29145,1,0,0:0:0:60:snare_l.wav
320,192,29561,1,0,0:0:0:60:snare_h.wav
64,192,29561,1,0,0:0:0:0:
192,192,29978,1,0,0:0:0:60:snare_l.wav
448,192,30395,1,0,0:0:0:60:snare_h.wav
320,192,30395,1,0,0:0:0:0:
192,192,30811,1,0,0:0:0:60:snare_l.wav
64,192,31228,1,0,0:0:0:60:snare_h.wav
448,192,31228,1,0,0:0:0:0:
320,192,31645,1,0,0:0:0:60:snare_l.wav
192,192,32061,1,0,0:0:0:60:snare_h.wav
64,192,32061,1,0,0:0:0:0:
448,192,32478,1,0,0:0:0:60:snare_l.wav
320,192,32895,1,0,0:0:0:60:snare_h.wav
192,192,32895,1,0,0:0:0:0:
64,192,33311,1,0,0:0:0:60:snare_l.wav
192,192,33520,1,0,0:0:0:60:snare_l.wav
448,192,33832,1,0,0:0:0:60:snare_l.wav
320,192,34145,1,0,0:0:0:60:snare_l.wav
192,192,34457,1,0,0:0:0:60:snare_l.wav
320,192,34665,1,0,0:0:0:60:snare_l.wav
64,192,34874,1,0,0:0:0:60:snare_h.wav
448,192,34874,1,0,0:0:0:50:finish.wav
320,192,35395,1,0,0:0:0:60:snare_l.wav
64,192,35533,1,0,0:0:0:60:snare_l.wav
448,192,35672,1,0,0:0:0:60:snare_l.wav
192,192,35811,1,0,0:0:0:60:snare_l.wav
320,192,35950,1,0,0:0:0:60:snare_l.wav
64,192,36089,1,0,0:0:0:60:snare_l.wav
448,192,36228,1,0,0:0:0:60:snare_l.wav
320,192,36540,1,0,0:0:0:50:finish.wav
192,192,36540,1,0,0:0:0:0:
64,192,37061,1,0,0:0:0:50:finish.wav
448,192,37061,1,0,0:0:0:0:
320,192,37478,1,0,0:0:0:60:snare_l.wav
64,192,37895,1,0,0:0:0:60:snare_h.wav
192,192,37895,1,0,0:0:0:0:
448,192,38311,1,0,0:0:0:60:snare_l.wav
192,192,38728,1,0,0:0:0:60:snare_h.wav
320,192,39145,5,0,0:0:0:60:snare_l.wav
448,192,39145,1,0,0:0:0:50:finish.wav
192,192,39457,1,0,0:0:0:60:snare_l.wav
64,192,39457,1,0,0:0:0:50:finish.wav
320,192,39770,1,0,0:0:0:60:snare_l.wav
448,192,39770,1,0,0:0:0:50:finish.wav
64,192,40186,1,0,0:0:0:40:kick.wav
192,192,40395,1,0,0:0:0:50:snare_h.wav
448,192,40603,1,0,0:0:0:40:kick.wav
320,192,40811,1,0,0:0:0:50:snare_h.wav
64,192,41020,1,0,0:0:0:40:kick.wav
192,192,41228,1,0,0:0:0:50:snare_h.wav
448,192,41436,1,0,0:0:0:40:kick.wav
320,192,41645,1,0,0:0:0:50:snare_h.wav
192,192,41853,1,0,0:0:0:40:kick.wav
64,192,42061,1,0,0:0:0:50:snare_h.wav
320,192,42270,1,0,0:0:0:40:kick.wav
448,192,42478,1,0,0:0:0:50:snare_h.wav
192,192,42686,1,0,0:0:0:40:kick.wav
64,192,42895,128,0,43311:0:0:0:50:snare_h.wav
320,192,43311,1,0,0:0:0:60:snare_l.wav
448,192,43311,1,0,0:0:0:50:finish.wav
448,192,46020,1,0,0:0:0:60:snare_l.wav
320,192,46332,1,0,0:0:0:60:snare_l.wav
64,192,46645,1,0,0:0:0:60:snare_l.wav
192,192,46645,1,0,0:0:0:50:finish.wav
448,192,47061,1,0,0:0:0:60:snare_h.wav
320,192,47061,1,0,0:0:0:0:
192,192,47478,1,0,0:0:0:60:snare_l.wav
64,192,47895,1,0,0:0:0:60:snare_h.wav
448,192,47895,1,0,0:0:0:0:
320,192,48311,1,0,0:0:0:60:snare_l.wav
448,192,48728,1,0,0:0:0:60:snare_h.wav
192,192,48728,1,0,0:0:0:0:
320,192,49145,1,0,0:0:0:60:snare_l.wav
64,192,49561,1,0,0:0:0:60:snare_h.wav
192,192,49561,1,0,0:0:0:0:
448,192,49978,1,0,0:0:0:60:snare_l.wav
192,192,50395,1,0,0:0:0:60:snare_h.wav
320,192,50395,1,0,0:0:0:0:
64,192,50811,1,0,0:0:0:60:snare_l.wav
320,192,51228,1,0,0:0:0:60:snare_h.wav
448,192,51228,1,0,0:0:0:0:
192,192,51645,1,0,0:0:0:60:snare_l.wav
64,192,52061,1,0,0:0:0:60:snare_h.wav
448,192,52061,1,0,0:0:0:0:
320,192,52478,1,0,0:0:0:60:snare_l.wav
192,192,52895,1,0,0:0:0:60:snare_h.wav
64,192,52895,1,0,0:0:0:0:
320,192,53311,1,0,0:0:0:60:snare_l.wav
64,192,53728,1,0,0:0:0:60:snare_h.wav
448,192,53728,1,0,0:0:0:0:
192,192,54145,1,0,0:0:0:60:snare_l.wav
320,192,54561,1,0,0:0:0:60:snare_h.wav
448,192,54561,1,0,0:0:0:0:
192,192,55082,1,0,0:0:0:60:snare_h.wav
64,192,55082,1,0,0:0:0:0:
320,192,55395,1,0,0:0:0:60:snare_h.wav
448,192,55395,1,0,0:0:0:50:finish.wav
192,192,55603,1,0,0:0:0:60:snare_h.wav
64,192,55603,1,0,0:0:0:50:finish.wav
320,192,56020,128,0,56645:0:0:0:0:
64,192,56645,1,0,0:0:0:60:snare_l.wav
448,192,56645,1,0,0:0:0:50:finish.wav
192,192,57061,1,0,0:0:0:60:snare_l.wav
320,192,57374,1,0,0:0:0:60:snare_l.wav
448,192,57686,1,0,0:0:0:60:snare_l.wav
192,192,57999,1,0,0:0:0:60:snare_l.wav
64,192,58207,1,0,0:0:0:60:snare_l.wav
320,192,59561,1,0,0:0:0:60:snare_h.wav
448,192,59978,1,0,0:0:0:60:snare_l.wav
64,192,59978,1,0,0:0:0:50:finish.wav
192,192,60395,1,0,0:0:0:60:snare_l.wav
320,192,60707,1,0,0:0:0:60:snare_l.wav
448,192,61020,1,0,0:0:0:60:snare_l.wav
192,192,61332,1,0,0:0:0:60:snare_l.wav
320,192,61540,1,0,0:0:0:60:snare_l.wav
64,192,61853,1,0,0:0:0:60:snare_l.wav
448,192,62686,1,0,0:0:0:60:snare_l.wav
192,192,62895,1,0,0:0:0:60:snare_h.wav
320,192,62999,1,0,0:0:0:60:snare_l.wav
64,192,63311,1,0,0:0:0:60:snare_l.wav
448,192,63311,1,0,0:0:0:50:finish.wav
320,192,63728,1,0,0:0:0:60:snare_l.wav
192,192,64040,1,0,0:0:0:60:snare_l.wav
64,192,64353,1,0,0:0:0:60:snare_l.wav
320,192,64665,1,0,0:0:0:60:snare_l.wav
448,192,64874,1,0,0:0:0:60:snare_l.wav
192,192,66228,1,0,0:0:0:60:snare_h.wav
64,192,66645,1,0,0:0:0:60:snare_l.wav
448,192,66645,1,0,0:0:0:50:finish.wav
320,192,67061,1,0,0:0:0:60:snare_l.wav
192,192,67374,1,0,0:0:0:60:snare_l.wav
64,192,67686,1,0,0:0:0:60:snare_l.wav
320,192,67999,1,0,0:0:0:60:snare_l.wav
192,192,68207,1,0,0:0:0:60:snare_l.wav
448,192,68520,1,0,0:0:0:60:snare_l.wav
320,192,69353,1,0,0:0:0:60:snare_h.wav
192,192,69665,1,0,0:0:0:60:snare_h.wav
64,192,69978,1,0,0:0:0:60:snare_l.wav
448,192,69978,128,0,71645:0:0:0:50:finish.wav
192,192,71645,128,0,72895:0:0:0:0:
320,192,72895,1,0,0:0:0:60:snare_h.wav
64,192,73311,5,0,0:0:0:60:snare_l.wav
448,192,73311,1,0,0:0:0:50:finish.wav
320,192,73728,1,0,0:0:0:60:snare_h.wav
64,192,73936,1,0,0:0:0:40:kick.wav
192,192,74145,5,0,0:0:0:60:snare_l.wav
448,192,74561,1,0,0:0:0:60:snare_h.wav
320,192,74561,1,0,0:0:0:0:
64,192,74978,1,0,0:0:0:60:snare_l.wav
192,192,75395,1,0,0:0:0:60:snare_h.wav
448,192,75603,1,0,0:0:0:40:kick.wav
320,192,75811,1,0,0:0:0:60:snare_l.wav
64,192,76228,1,0,0:0:0:60:snare_h.wav
192,192,76228,1,0,0:0:0:0:
320,192,76645,1,0,0:0:0:60:snare_l.wav
448,192,77061,1,0,0:0:0:60:snare_h.wav
320,192,77270,1,0,0:0:0:40:kick.wav
192,192,77478,1,0,0:0:0:60:snare_l.wav
64,192,77895,1,0,0:0:0:60:snare_h.wav
448,192,77895,1,0,0:0:0:0:
320,192,78207,1,0,0:0:0:60:snare_l.wav
320,192,78520,1,0,0:0:0:60:snare_l.wav
192,192,78728,1,0,0:0:0:60:snare_h.wav
64,192,78728,1,0,0:0:0:50:finish.wav
448,192,78936,1,0,0:0:0:40:kick.wav
64,192,79145,1,0,0:0:0:60:snare_l.wav
320,192,79353,1,0,0:0:0:40:kick.wav
192,192,79561,1,0,0:0:0:60:snare_h.wav
448,192,79770,1,0,0:0:0:40:kick.wav
64,192,79978,1,0,0:0:0:60:snare_l.wav
320,192,80395,1,0,0:0:0:60:snare_h.wav
192,192,80603,1,0,0:0:0:40:kick.wav
448,192,80811,1,0,0:0:0:60:snare_l.wav
64,192,81228,1,0,0:0:0:60:snare_h.wav
192,192,81228,1,0,0:0:0:0:
320,192,81645,1,0,0:0:0:60:snare_l.wav
192,192,82061,1,0,0:0:0:60:snare_h.wav
448,192,82270,1,0,0:0:0:40:kick.wav
64,192,82478,1,0,0:0:0:60:snare_l.wav
192,192,82895,1,0,0:0:0:60:snare_h.wav
320,192,82895,1,0,0:0:0:0:
448,192,83311,1,0,0:0:0:60:snare_l.wav
64,192,83311,1,0,0:0:0:0:
320,192,83728,1,0,0:0:0:60:snare_h.wav
64,192,84249,1,0,0:0:0:60:snare_l.wav
192,192,84457,1,0,0:0:0:60:snare_h.wav
320,192,84665,1,0,0:0:0:60:snare_l.wav
448,192,84874,128,0,85186:0:0:0:60:snare_l.wav
192,192,85186,128,0,86228:0:0:0:60:snare_h.wav
320,192,86228,128,0,86645:0:0:0:60:snare_h.wav
64,192,86645,1,0,0:0:0:60:snare_l.wav
448,192,86645,1,0,0:0:0:50:finish.wav
192,192,87061,1,0,0:0:0:60:snare_h.wav
320,192,87061,1,0,0:0:0:0:
448,192,87478,1,0,0:0:0:60:snare_l.wav
192,192,87895,1,0,0:0:0:60:snare_h.wav
64,192,87895,1,0,0:0:0:0:
320,192,88311,128,0,88728:0:0:0:60:snare_l.wav
64,192,88728,1,0,0:0:0:60:snare_h.wav
448,192,88728,1,0,0:0:0:0:
192,192,89145,1,0,0:0:0:60:snare_l.wav
448,192,89561,1,0,0:0:0:60:snare_h.wav
320,192,89561,1,0,0:0:0:0:
192,192,89978,128,0,90395:0:0:0:60:snare_l.wav
64,192,90395,1,0,0:0:0:60:snare_h.wav
448,192,90395,1,0,0:0:0:50:finish.wav
320,192,90811,1,0,0:0:0:60:snare_l.wav
64,192,91228,1,0,0:0:0:60:snare_h.wav
192,192,91228,1,0,0:0:0:0:
448,192,91540,1,0,0:0:0:60:snare_l.wav
320,192,91540,1,0,0:0:0:0:
448,192,91853,1,0,0:0:0:60:snare_l.wav
192,192,92061,1,0,0:0:0:60:snare_h.wav
64,192,92061,1,0,0:0:0:50:finish.wav
320,192,92478,128,0,92895:0:0:0:60:snare_l.wav
192,192,92895,1,0,0:0:0:60:snare_h.wav
64,192,93311,1,0,0:0:0:60:snare_l.wav
448,192,93311,1,0,0:0:0:0:
320,192,93728,1,0,0:0:0:60:snare_h.wav
192,192,93728,1,0,0:0:0:0:
448,192,94145,1,0,0:0:0:60:snare_l.wav
192,192,94561,1,0,0:0:0:60:snare_h.wav
64,192,94561,1,0,0:0:0:0:
448,192,94978,128,0,95395:0:0:0:60:snare_l.wav
64,192,95395,1,0,0:0:0:60:snare_h.wav
320,192,95395,1,0,0:0:0:0:
192,192,95915,1,0,0:0:0:60:snare_l.wav
64,192,96228,1,0,0:0:0:60:snare_l.wav
192,192,96436,1,0,0:0:0:60:snare_h.wav
448,192,96645,1,0,0:0:0:60:snare_l.wav
320,192,96645,1,0,0:0:0:50:finish.wav
192,192,97478,1,0,0:0:0:60:snare_l.wav
64,192,97478,1,0,0:0:0:50:finish.wav
192,192,97790,1,0,0:0:0:60:snare_l.wav
320,192,98103,1,0,0:0:0:60:snare_l.wav
448,192,98103,1,0,0:0:0:50:finish.wav
448,192,98415,1,0,0:0:0:60:snare_l.wav
64,192,98728,1,0,0:0:0:60:snare_l.wav
192,192,98728,1,0,0:0:0:50:finish.wav
64,192,99040,1,0,0:0:0:60:snare_l.wav
448,192,99353,1,0,0:0:0:60:snare_l.wav
320,192,99353,1,0,0:0:0:50:finish.wav
320,192,99665,1,0,0:0:0:60:snare_l.wav
64,192,99874,1,0,0:0:0:60:snare_h.wav
192,192,99874,1,0,0:0:0:50:finish.wav
320,192,101228,1,0,0:0:0:60:snare_h.wav
64,192,101645,5,0,0:0:0:60:snare_l.wav
448,192,101645,1,0,0:0:0:50:finish.wav
320,192,102061,1,0,0:0:0:0:
192,192,102374,1,0,0:0:0:0:
64,192,102895,1,0,0:0:0:60:snare_l.wav
320,192,102895,1,0,0:0:0:50:finish.wav
192,192,103207,1,0,0:0:0:60:snare_l.wav
448,192,103207,1,0,0:0:0:50:finish.wav
192,192,104249,1,0,0:0:0:60:snare_l.wav
448,192,104249,1,0,0:0:0:50:finish.wav
64,192,104561,1,0,0:0:0:60:snare_l.wav
320,192,104561,1,0,0:0:0:50:finish.wav
448,192,104978,1,0,0:0:0:60:snare_l.wav
64,192,104978,1,0,0:0:0:50:finish.wav
192,192,105395,1,0,0:0:0:0:
320,192,105707,1,0,0:0:0:0:
192,192,106228,1,0,0:0:0:60:snare_l.wav
448,192,106228,1,0,0:0:0:50:finish.wav
64,192,106540,1,0,0:0:0:60:snare_l.wav
320,192,106540,1,0,0:0:0:50:finish.wav
448,192,107061,1,0,0:0:0:0:
320,192,107478,1,0,0:0:0:0:
192,192,107895,1,0,0:0:0:0:
448,192,108311,1,0,0:0:0:60:snare_l.wav
64,192,108311,1,0,0:0:0:50:finish.wav
192,192,108728,1,0,0:0:0:0:
320,192,109040,1,0,0:0:0:0:
448,192,109561,1,0,0:0:0:60:snare_l.wav
192,192,109561,1,0,0:0:0:50:finish.wav
320,192,109874,1,0,0:0:0:60:snare_l.wav
64,192,109874,1,0,0:0:0:50:finish.wav
192,192,110395,1,0,0:0:0:0:
64,192,110915,1,0,0:0:0:60:snare_l.wav
320,192,110915,1,0,0:0:0:50:finish.wav
448,192,111228,1,0,0:0:0:60:snare_l.wav
192,192,111228,1,0,0:0:0:50:finish.wav
448,192,111645,1,0,0:0:0:60:snare_l.wav
64,192,111645,1,0,0:0:0:50:finish.wav
320,192,112061,1,0,0:0:0:0:
192,192,112478,1,0,0:0:0:0:
64,192,112895,1,0,0:0:0:60:snare_l.wav
320,192,112895,1,0,0:0:0:50:finish.wav
448,192,113207,1,0,0:0:0:60:snare_l.wav
192,192,113207,1,0,0:0:0:50:finish.wav
