osu file format v14

[General]
AudioFilename: audio.mp3
AudioLeadIn: 0
PreviewTime: 73211
Countdown: 0
SampleSet: Normal
StackLeniency: 0.7
Mode: 1
LetterboxInBreaks: 0
WidescreenStoryboard: 0

[Editor]
Bookmarks: 1649,14982,28315,43315,56649,73315,86649,101649,116596
DistanceSpacing: 1.2
BeatDivisor: 4
GridSize: 32
TimelineZoom: 2.899999

[Metadata]
Title:Routing
TitleUnicode:Routing
Artist:Camellia
ArtistUnicode:かめりあ
Creator:_DUSK_
Version:Kantan
Source:beatmania IIDX 23 copula
Tags:かめるかめりあ cametek kamelcamellia 22 pendual super future tech bass masaya oya 大箭将也 electronic instrumental video game genjuro
BeatmapID:2665992
BeatmapSetID:1022420

[Difficulty]
HPDrainRate:8
CircleSize:5
OverallDifficulty:3
ApproachRate:9
SliderMultiplier:1.4
SliderTickRate:1

[Events]
//Background and Video events
0,0,"BG.jpg",0,0
//Break Periods
//Storyboard Layer 0 (Background)
//Storyboard Layer 1 (Fail)
//Storyboard Layer 2 (Pass)
//Storyboard Layer 3 (Foreground)
//Storyboard Layer 4 (Overlay)
//Storyboard Sound Samples

[TimingPoints]
1649,416.666666666667,4,1,0,100,1,0
13524,-100,4,1,0,60,0,0
13732,-100,4,1,0,80,0,0
13940,-100,4,1,0,100,0,0
14982,-95.2380952380952,4,1,0,100,0,1
26649,-95.2380952380952,4,1,0,100,0,0
28315,-95.2380952380952,4,1,0,100,0,1
34878,-95.2380952380952,4,1,0,100,0,0
36544,-95.2380952380952,4,1,0,100,0,0
37065,-95.2380952380952,4,1,0,100,0,1
39774,-95.2380952380952,4,1,0,100,0,0
43419,-100,4,1,0,70,0,0
46024,-100,4,1,0,100,0,0
73315,-90.9090909090909,4,1,0,100,0,1
85190,-90.9090909090909,4,1,0,100,0,0
86649,-90.9090909090909,4,1,0,100,0,1
101232,-100,4,1,0,100,0,0
113211,-100,4,1,0,100,0,0
113315,-100,4,1,0,50,0,0

[HitObjects]
256,192,1649,5,4,0:0:0:0:
256,192,2899,1,12,0:0:0:0:
256,192,3211,1,12,0:0:0:0:
256,192,4982,1,4,0:0:0:0:
256,192,6232,1,12,0:0:0:0:
256,192,6544,1,12,0:0:0:0:
256,192,7482,1,8,0:0:0:0:
256,192,7899,1,8,0:0:0:0:
256,192,8315,1,4,0:0:0:0:
256,192,9565,1,12,0:0:0:0:
256,192,9878,1,12,0:0:0:0:
256,192,11649,1,4,0:0:0:0:
256,192,12899,1,12,0:0:0:0:
256,192,13211,1,12,0:0:0:0:
256,192,13419,12,0,14565,0:0:0:0:
256,192,14982,5,12,0:0:0:0:
256,192,15399,1,0,0:0:0:0:
256,192,15711,1,0,0:0:0:0:
256,192,16232,1,8,0:0:0:0:
256,192,16544,1,0,0:0:0:0:
256,192,17482,1,0,0:0:0:0:
256,192,17794,1,8,0:0:0:0:
256,192,18211,1,0,0:0:0:0:
256,192,18732,1,8,0:0:0:0:
256,192,19044,1,0,0:0:0:0:
256,192,19565,1,0,0:0:0:0:
256,192,19878,1,8,0:0:0:0:
256,192,20815,1,0,0:0:0:0:
256,192,21232,1,0,0:0:0:0:
256,192,21544,1,8,0:0:0:0:
256,192,22065,1,12,0:0:0:0:
256,192,22378,1,0,0:0:0:0:
256,192,22899,1,0,0:0:0:0:
256,192,23211,1,0,0:0:0:0:
256,192,24149,1,0,0:0:0:0:
256,192,24565,1,8,0:0:0:0:
256,192,24878,1,0,0:0:0:0:
256,192,25399,1,8,0:0:0:0:
256,192,25711,1,0,0:0:0:0:
256,192,26232,1,0,0:0:0:0:
256,192,26544,1,8,0:0:0:0:
256,192,28315,1,4,0:0:0:0:
256,192,28732,1,8,0:0:0:0:
256,192,29044,1,0,0:0:0:0:
256,192,29565,1,8,0:0:0:0:
256,192,29878,1,0,0:0:0:0:
256,192,30815,1,0,0:0:0:0:
256,192,31128,1,8,0:0:0:0:
256,192,31544,1,0,0:0:0:0:
256,192,32065,1,8,0:0:0:0:
256,192,32378,1,8,0:0:0:0:
256,192,32899,1,8,0:0:0:0:
256,192,33211,1,0,0:0:0:0:
256,192,34149,1,0,0:0:0:0:
256,192,34565,1,8,0:0:0:0:
256,192,34878,1,12,0:0:0:0:
256,192,36544,1,4,0:0:0:0:
256,192,37065,1,12,0:0:0:0:
256,192,37482,1,0,0:0:0:0:
256,192,37899,1,8,0:0:0:0:
256,192,38211,1,0,0:0:0:0:
256,192,39149,1,8,0:0:0:0:
256,192,39461,1,8,0:0:0:0:
256,192,39774,1,8,0:0:0:0:
256,192,39982,12,0,42899,0:0:0:0:
256,192,43315,5,4,0:0:0:0:
256,192,46024,1,0,0:0:0:0:
256,192,46649,1,12,0:0:0:0:
256,192,47482,1,0,0:0:0:0:
256,192,47899,1,8,0:0:0:0:
256,192,48315,1,0,0:0:0:0:
256,192,49149,1,0,0:0:0:0:
256,192,49461,1,8,0:0:0:0:
256,192,49982,1,0,0:0:0:0:
256,192,50815,1,8,0:0:0:0:
256,192,51232,1,0,0:0:0:0:
256,192,51649,1,8,0:0:0:0:
256,192,52482,1,0,0:0:0:0:
256,192,52899,1,0,0:0:0:0:
256,192,53315,1,8,0:0:0:0:
256,192,54149,1,8,0:0:0:0:
256,192,54565,1,0,0:0:0:0:
256,192,55399,1,0,0:0:0:0:
256,192,56232,1,8,0:0:0:0:
256,192,56649,1,4,0:0:0:0:
256,192,57378,1,4,0:0:0:0:
256,192,58211,1,12,0:0:0:0:
256,192,59982,1,12,0:0:0:0:
256,192,60711,1,12,0:0:0:0:
256,192,61544,1,4,0:0:0:0:
256,192,63315,1,4,0:0:0:0:
256,192,64044,1,4,0:0:0:0:
256,192,64878,1,12,0:0:0:0:
256,192,66649,1,12,0:0:0:0:
256,192,67378,1,12,0:0:0:0:
256,192,68211,1,4,0:0:0:0:
256,192,69982,1,4,0:0:0:0:
256,192,71649,1,0,0:0:0:0:
256,192,72482,1,8,0:0:0:0:
256,192,73315,5,4,0:0:0:0:
256,192,73732,1,8,0:0:0:0:
256,192,74044,1,0,0:0:0:0:
256,192,74565,1,8,0:0:0:0:
256,192,74982,1,0,0:0:0:0:
256,192,75399,1,8,0:0:0:0:
256,192,75711,1,8,0:0:0:0:
256,192,76232,1,8,0:0:0:0:
256,192,76649,1,0,0:0:0:0:
256,192,77482,1,8,0:0:0:0:
256,192,77794,1,0,0:0:0:0:
256,192,78211,1,0,0:0:0:0:
256,192,78732,1,8,0:0:0:0:
256,192,79149,1,8,0:0:0:0:
256,192,79982,1,8,0:0:0:0:
256,192,80399,1,8,0:0:0:0:
256,192,80711,1,0,0:0:0:0:
256,192,81649,1,0,0:0:0:0:
256,192,82065,1,8,0:0:0:0:
256,192,82378,1,0,0:0:0:0:
256,192,82899,1,0,0:0:0:0:
256,192,83315,1,8,0:0:0:0:
256,192,84149,1,8,0:0:0:0:
256,192,84461,1,0,0:0:0:0:
256,192,84878,1,8,0:0:0:0:
256,192,85399,1,0,0:0:0:0:
256,192,85815,1,0,0:0:0:0:
256,192,86232,1,8,0:0:0:0:
256,192,86649,1,0,0:0:0:0:
256,192,87065,1,8,0:0:0:0:
256,192,87378,1,0,0:0:0:0:
256,192,87899,1,0,0:0:0:0:
256,192,88211,1,8,0:0:0:0:
256,192,88732,1,0,0:0:0:0:
256,192,89044,1,8,0:0:0:0:
256,192,89565,1,8,0:0:0:0:
256,192,89982,1,0,0:0:0:0:
256,192,90399,1,12,0:0:0:0:
256,192,91232,1,8,0:0:0:0:
256,192,91544,1,0,0:0:0:0:
256,192,92065,1,8,0:0:0:0:
256,192,92482,1,0,0:0:0:0:
256,192,92899,1,8,0:0:0:0:
256,192,93315,1,0,0:0:0:0:
256,192,93732,1,0,0:0:0:0:
256,192,94044,1,8,0:0:0:0:
256,192,94565,1,8,0:0:0:0:
256,192,94878,1,0,0:0:0:0:
256,192,95399,1,8,0:0:0:0:
256,192,95711,1,0,0:0:0:0:
256,192,96232,1,0,0:0:0:0:
256,192,96649,1,8,0:0:0:0:
256,192,97482,1,4,0:0:0:0:
256,192,98107,1,12,0:0:0:0:
256,192,98732,1,4,0:0:0:0:
256,192,99357,1,12,0:0:0:0:
256,192,99878,1,4,0:0:0:0:
256,192,101649,1,4,0:0:0:0:
256,192,102899,1,12,0:0:0:0:
256,192,103211,1,12,0:0:0:0:
256,192,104982,1,4,0:0:0:0:
256,192,106232,1,12,0:0:0:0:
256,192,106544,1,12,0:0:0:0:
256,192,108315,1,4,0:0:0:0:
256,192,109565,1,12,0:0:0:0:
256,192,109878,1,12,0:0:0:0:
256,192,111649,5,4,0:0:0:0:
256,192,112899,1,12,0:0:0:0:
256,192,113211,1,12,0:0:0:0:
256,192,113419,12,0,116649,0:0:0:0:
