osu file format v14

[General]
AudioFilename: audio.mp3
AudioLeadIn: 0
PreviewTime: 73211
Countdown: 0
SampleSet: Normal
StackLeniency: 0.7
Mode: 1
LetterboxInBreaks: 0
WidescreenStoryboard: 0

[Editor]
Bookmarks: 1649,14982,28315,43315,56649,73315,86649,101649,116596
DistanceSpacing: 1.2
BeatDivisor: 4
GridSize: 32
TimelineZoom: 2.899999

[Metadata]
Title:Routing
TitleUnicode:Routing
Artist:Camellia
ArtistUnicode:かめりあ
Creator:_DUSK_
Version:Inner Oni
Source:beatmania IIDX 23 copula
Tags:かめるかめりあ cametek kamelcamellia 22 pendual super future tech bass masaya oya 大箭将也 electronic instrumental video game genjuro
BeatmapID:2139052
BeatmapSetID:1022420

[Difficulty]
HPDrainRate:6
CircleSize:5
OverallDifficulty:6.5
ApproachRate:9
SliderMultiplier:1.3
SliderTickRate:1

[Events]
//Background and Video events
0,0,"routing.jpg",0,115
//Break Periods
//Storyboard Layer 0 (Background)
//Storyboard Layer 1 (Fail)
//Storyboard Layer 2 (Pass)
//Storyboard Layer 3 (Foreground)
//Storyboard Layer 4 (Overlay)
//Storyboard Sound Samples

[TimingPoints]
1649,416.666666666667,4,1,0,100,1,0
1649,-76.9230769230769,4,1,0,100,0,0
1753,-100,4,1,0,100,0,0
3524,-99.009900990099,4,1,0,100,0,0
3732,-98.0392156862745,4,1,0,100,0,0
3836,-97.0873786407767,4,1,0,100,0,0
3940,-96.1538461538461,4,1,0,100,0,0
4044,-95.2380952380952,4,1,0,100,0,0
4253,-90.9090909090909,4,1,0,100,0,0
4565,-83.3333333333333,4,1,0,100,0,0
4982,-76.9230769230769,4,1,0,100,0,0
5086,-100,4,1,0,100,0,0
6649,-99.009900990099,4,1,0,100,0,0
6787,-98.0392156862745,4,1,0,100,0,0
6926,-97.0873786407767,4,1,0,100,0,0
7065,-96.1538461538461,4,1,0,100,0,0
7274,-95.2380952380952,4,1,0,100,0,0
7343,-93.4579439252336,4,1,0,100,0,0
7412,-92.5925925925926,4,1,0,100,0,0
7482,-91.743119266055,4,1,0,100,0,0
7586,-90.9090909090909,4,1,0,100,0,0
7794,-90.0900900900901,4,1,0,100,0,0
7899,-89.2857142857143,4,1,0,100,0,0
8003,-88.4955752212389,4,1,0,100,0,0
8315,-76.9230769230769,4,1,0,100,0,0
8419,-88.4955752212389,4,1,0,100,0,0
10086,-87.719298245614,4,1,0,100,0,0
10190,-86.9565217391304,4,1,0,100,0,0
10294,-86.2068965517241,4,1,0,100,0,0
10399,-85.4700854700855,4,1,0,100,0,0
10607,-84.7457627118644,4,1,0,100,0,0
10711,-84.0336134453781,4,1,0,100,0,0
10919,-84.0336134453781,4,1,0,100,0,0
11232,-83.3333333333333,4,1,0,100,0,0
11649,-82.6446280991736,4,1,0,100,0,0
11857,-81.9672131147541,4,1,0,100,0,0
11961,-81.3008130081301,4,1,0,100,0,0
12065,-80.6451612903226,4,1,0,100,0,0
12169,-80,4,1,0,100,0,0
12378,-79.3650793650794,4,1,0,100,0,0
12482,-78.7401574803149,4,1,0,100,0,0
12586,-78.125,4,1,0,100,0,0
12690,-77.5193798449612,4,1,0,100,0,0
12899,-76.9230769230769,4,1,0,100,0,0
13003,-76.3358778625954,4,1,0,100,0,0
13107,-75.7575757575758,4,1,0,100,0,0
13211,-75.187969924812,4,1,0,100,0,0
13524,-83.3333333333333,4,1,0,60,0,0
13732,-81.9672131147541,4,1,0,80,0,0
13940,-80.6451612903226,4,1,0,100,0,0
14044,-79.3650793650794,4,1,0,100,0,0
14149,-78.125,4,1,0,100,0,0
14253,-76.9230769230769,4,1,0,100,0,0
14461,-75.7575757575758,4,1,0,100,0,0
14565,-74.6268656716418,4,1,0,100,0,0
14982,-71.4285714285714,4,1,0,100,0,1
16857,-70.9219858156028,4,1,0,100,0,1
16926,-70.4225352112676,4,1,0,100,0,1
16996,-69.9300699300699,4,1,0,100,0,1
17065,-69.4444444444444,4,1,0,100,0,1
17204,-68.9655172413793,4,1,0,100,0,1
17274,-68.4931506849315,4,1,0,100,0,1
17343,-68.0272108843537,4,1,0,100,0,1
17412,-67.5675675675676,4,1,0,100,0,1
17482,-67.1140939597315,4,1,0,100,0,1
17794,-71.4285714285714,4,1,0,100,0,1
19357,-70.9219858156028,4,1,0,100,0,1
19426,-70.4225352112676,4,1,0,100,0,1
19496,-69.9300699300699,4,1,0,100,0,1
19565,-69.4444444444444,4,1,0,100,0,1
19669,-68.9655172413793,4,1,0,100,0,1
19878,-71.4285714285714,4,1,0,100,0,1
21857,-70.4225352112676,4,1,0,100,0,1
21926,-69.4444444444444,4,1,0,100,0,1
21996,-68.4931506849315,4,1,0,100,0,1
22065,-67.5675675675676,4,1,0,100,0,1
22378,-71.4285714285714,4,1,0,100,0,1
23524,-70.9219858156028,4,1,0,100,0,1
23593,-70.4225352112676,4,1,0,100,0,1
23662,-69.9300699300699,4,1,0,100,0,1
23732,-69.4444444444444,4,1,0,100,0,1
23801,-68.9655172413793,4,1,0,100,0,1
23871,-68.4931506849315,4,1,0,100,0,1
23940,-68.0272108843537,4,1,0,100,0,1
24010,-67.5675675675676,4,1,0,100,0,1
24079,-67.1140939597315,4,1,0,100,0,1
24149,-66.6666666666667,4,1,0,100,0,1
24357,-71.4285714285714,4,1,0,100,0,1
25190,-70.9219858156028,4,1,0,100,0,1
25260,-70.4225352112676,4,1,0,100,0,1
25329,-69.9300699300699,4,1,0,100,0,1
25399,-69.4444444444444,4,1,0,100,0,1
25503,-68.9655172413793,4,1,0,100,0,1
25711,-71.4285714285714,4,1,0,100,0,1
26024,-70.9219858156028,4,1,0,100,0,1
26093,-70.4225352112676,4,1,0,100,0,1
26162,-69.9300699300699,4,1,0,100,0,1
26232,-69.4444444444444,4,1,0,100,0,1
26336,-68.9655172413793,4,1,0,100,0,1
26544,-71.9424460431655,4,1,0,100,0,1
26649,-72.463768115942,4,1,0,100,0,0
26701,-72.992700729927,4,1,0,100,0,0
26753,-73.5294117647059,4,1,0,100,0,0
26857,-74.0740740740741,4,1,0,100,0,0
27065,-75.187969924812,4,1,0,100,0,0
27169,-76.3358778625954,4,1,0,100,0,0
27378,-78.125,4,1,0,100,0,0
27482,-77.5193798449612,4,1,0,100,0,0
27586,-76.9230769230769,4,1,0,100,0,0
27690,-76.3358778625954,4,1,0,100,0,0
27742,-75.7575757575758,4,1,0,100,0,0
27794,-75.187969924812,4,1,0,100,0,0
27899,-74.6268656716418,4,1,0,100,0,0
27968,-74.0740740740741,4,1,0,100,0,0
28037,-73.5294117647059,4,1,0,100,0,0
28107,-72.992700729927,4,1,0,100,0,0
28176,-72.463768115942,4,1,0,100,0,0
28246,-71.9424460431655,4,1,0,100,0,0
28315,-71.4285714285714,4,1,0,100,0,1
30190,-70.9219858156028,4,1,0,100,0,1
30260,-70.4225352112676,4,1,0,100,0,1
30329,-69.9300699300699,4,1,0,100,0,1
30399,-69.4444444444444,4,1,0,100,0,1
30503,-68.9655172413793,4,1,0,100,0,1
30607,-68.4931506849315,4,1,0,100,0,1
30676,-68.0272108843537,4,1,0,100,0,1
30746,-67.5675675675676,4,1,0,100,0,1
30815,-67.1140939597315,4,1,0,100,0,1
31024,-71.4285714285714,4,1,0,100,0,1
32690,-70.9219858156028,4,1,0,100,0,1
32760,-70.4225352112676,4,1,0,100,0,1
32829,-69.9300699300699,4,1,0,100,0,1
32899,-69.4444444444444,4,1,0,100,0,1
33003,-68.9655172413793,4,1,0,100,0,1
33211,-71.4285714285714,4,1,0,100,0,1
33419,-70.9219858156028,4,1,0,100,0,1
33524,-70.4225352112676,4,1,0,100,0,1
33628,-69.9300699300699,4,1,0,100,0,1
33732,-69.4444444444444,4,1,0,100,0,1
33836,-68.9655172413793,4,1,0,100,0,1
33940,-68.4931506849315,4,1,0,100,0,1
34044,-68.0272108843537,4,1,0,100,0,1
34149,-67.5675675675676,4,1,0,100,0,1
34253,-67.1140939597315,4,1,0,100,0,1
34461,-66.6666666666667,4,1,0,100,0,1
34565,-66.2251655629139,4,1,0,100,0,1
34669,-65.7894736842105,4,1,0,100,0,1
34774,-65.359477124183,4,1,0,100,0,1
34878,-64.9350649350649,4,1,0,100,0,0
35260,-65.359477124183,4,1,0,100,0,0
35329,-65.7894736842105,4,1,0,100,0,0
35399,-66.2251655629139,4,1,0,100,0,0
35537,-67.1140939597315,4,1,0,100,0,0
35676,-68.0272108843537,4,1,0,100,0,0
35815,-68.9655172413793,4,1,0,100,0,0
35954,-69.9300699300699,4,1,0,100,0,0
36093,-70.9219858156028,4,1,0,100,0,0
36232,-71.9424460431655,4,1,0,100,0,0
36544,-71.4285714285714,4,1,0,100,0,0
36753,-70.9219858156028,4,1,0,100,0,0
36857,-70.4225352112676,4,1,0,100,0,0
36961,-69.9300699300699,4,1,0,100,0,0
37013,-69.4444444444444,4,1,0,100,0,0
37065,-68.9655172413793,4,1,0,100,0,1
37204,-71.4285714285714,4,1,0,100,0,1
37274,-70.9219858156028,4,1,0,100,0,1
37343,-70.4225352112676,4,1,0,100,0,1
37412,-69.9300699300699,4,1,0,100,0,1
37482,-69.4444444444444,4,1,0,100,0,1
37586,-68.9655172413793,4,1,0,100,0,1
37690,-68.4931506849315,4,1,0,100,0,1
37760,-68.0272108843537,4,1,0,100,0,1
37829,-67.5675675675676,4,1,0,100,0,1
37899,-67.1140939597315,4,1,0,100,0,1
38732,-66.6666666666667,4,1,0,100,0,1
38836,-66.2251655629139,4,1,0,100,0,1
38940,-65.7894736842105,4,1,0,100,0,1
39044,-65.359477124183,4,1,0,100,0,1
39149,-64.9350649350649,4,1,0,100,0,1
39461,-62.5,4,1,0,100,0,1
39774,-58.8235294117647,4,1,0,100,0,0
39982,-83.3333333333333,4,1,0,100,0,0
40294,-82.6446280991736,4,1,0,100,0,0
40399,-81.9672131147541,4,1,0,100,0,0
40711,-81.3008130081301,4,1,0,100,0,0
40815,-80.6451612903226,4,1,0,100,0,0
40919,-80,4,1,0,100,0,0
41024,-79.3650793650794,4,1,0,100,0,0
41232,-78.7401574803149,4,1,0,100,0,0
41440,-78.125,4,1,0,100,0,0
41544,-77.5193798449612,4,1,0,100,0,0
41649,-76.9230769230769,4,1,0,100,0,0
41857,-76.3358778625954,4,1,0,100,0,0
41961,-75.7575757575758,4,1,0,100,0,0
42065,-75.187969924812,4,1,0,100,0,0
42274,-74.6268656716418,4,1,0,100,0,0
42378,-74.0740740740741,4,1,0,100,0,0
42482,-73.5294117647059,4,1,0,100,0,0
42586,-72.992700729927,4,1,0,100,0,0
42690,-72.463768115942,4,1,0,100,0,0
42794,-71.9424460431655,4,1,0,100,0,0
42899,-71.4285714285714,4,1,0,100,0,0
43315,-66.6666666666667,4,1,0,100,0,0
43419,-90.9090909090909,4,1,0,70,0,0
46024,-89.2857142857143,4,1,0,100,0,0
46128,-87.719298245614,4,1,0,100,0,0
46232,-86.2068965517241,4,1,0,100,0,0
46336,-84.7457627118644,4,1,0,100,0,0
46440,-83.3333333333333,4,1,0,100,0,0
46544,-81.9672131147541,4,1,0,100,0,0
46649,-80.6451612903226,4,1,0,100,0,0
55086,-79.3650793650794,4,1,0,100,0,0
55399,-78.7401574803149,4,1,0,100,0,0
55607,-78.125,4,1,0,100,0,0
55815,-77.5193798449612,4,1,0,100,0,0
55919,-76.3358778625954,4,1,0,100,0,0
55971,-75.187969924812,4,1,0,100,0,0
56024,-74.0740740740741,4,1,0,100,0,0
56076,-72.992700729927,4,1,0,100,0,0
56128,-71.9424460431655,4,1,0,100,0,0
56232,-70.9219858156028,4,1,0,100,0,0
56284,-69.9300699300699,4,1,0,100,0,0
56336,-68.9655172413793,4,1,0,100,0,0
56440,-68.0272108843537,4,1,0,100,0,0
56544,-67.1140939597315,4,1,0,100,0,0
56649,-66.2251655629139,4,1,0,100,0,0
57065,-65.359477124183,4,1,0,100,0,0
57378,-64.5161290322581,4,1,0,100,0,0
57690,-63.6942675159236,4,1,0,100,0,0
58003,-62.8930817610063,4,1,0,100,0,0
58211,-62.111801242236,4,1,0,100,0,0
58524,-66.6666666666667,4,1,0,100,0,0
58732,-66.2251655629139,4,1,0,100,0,0
58836,-65.7894736842105,4,1,0,100,0,0
58888,-65.359477124183,4,1,0,100,0,0
58940,-64.9350649350649,4,1,0,100,0,0
59044,-64.1025641025641,4,1,0,100,0,0
59149,-63.6942675159236,4,1,0,100,0,0
59253,-63.2911392405063,4,1,0,100,0,0
59357,-62.8930817610063,4,1,0,100,0,0
59461,-62.5,4,1,0,100,0,0
59565,-62.111801242236,4,1,0,100,0,0
59669,-61.7283950617284,4,1,0,100,0,0
59982,-60.9756097560976,4,1,0,100,0,0
60399,-60.2409638554217,4,1,0,100,0,0
60711,-59.5238095238095,4,1,0,100,0,0
61024,-58.8235294117647,4,1,0,100,0,0
61336,-74.0740740740741,4,1,0,100,0,0
62065,-73.5294117647059,4,1,0,100,0,0
62169,-72.992700729927,4,1,0,100,0,0
62274,-72.463768115942,4,1,0,100,0,0
62378,-71.9424460431655,4,1,0,100,0,0
62430,-71.4285714285714,4,1,0,100,0,0
62482,-70.9219858156028,4,1,0,100,0,0
62586,-70.4225352112676,4,1,0,100,0,0
62690,-69.9300699300699,4,1,0,100,0,0
62742,-69.4444444444444,4,1,0,100,0,0
62794,-68.9655172413793,4,1,0,100,0,0
62899,-68.4931506849315,4,1,0,100,0,0
63003,-68.0272108843537,4,1,0,100,0,0
63107,-67.5675675675676,4,1,0,100,0,0
63159,-67.1140939597315,4,1,0,100,0,0
63211,-66.6666666666667,4,1,0,100,0,0
63315,-66.2251655629139,4,1,0,100,0,0
63732,-65.359477124183,4,1,0,100,0,0
64044,-64.5161290322581,4,1,0,100,0,0
64357,-63.6942675159236,4,1,0,100,0,0
64669,-62.8930817610063,4,1,0,100,0,0
64878,-71.4285714285714,4,1,0,100,0,0
64982,-70.9219858156028,4,1,0,100,0,0
65190,-70.4225352112676,4,1,0,100,0,0
65294,-69.9300699300699,4,1,0,100,0,0
65503,-69.4444444444444,4,1,0,100,0,0
65607,-68.9655172413793,4,1,0,100,0,0
65711,-68.4931506849315,4,1,0,100,0,0
65763,-68.0272108843537,4,1,0,100,0,0
65815,-67.5675675675676,4,1,0,100,0,0
65919,-67.1140939597315,4,1,0,100,0,0
66024,-66.6666666666667,4,1,0,100,0,0
66128,-66.2251655629139,4,1,0,100,0,0
66232,-65.7894736842105,4,1,0,100,0,0
66440,-68.9655172413793,4,1,0,100,0,0
66544,-68.4931506849315,4,1,0,100,0,0
66649,-68.0272108843537,4,1,0,100,0,0
66701,-67.5675675675676,4,1,0,100,0,0
66753,-67.1140939597315,4,1,0,100,0,0
66805,-66.6666666666667,4,1,0,100,0,0
66857,-66.2251655629139,4,1,0,100,0,0
66961,-65.7894736842105,4,1,0,100,0,0
67065,-65.359477124183,4,1,0,100,0,0
67117,-64.9350649350649,4,1,0,100,0,0
67169,-64.5161290322581,4,1,0,100,0,0
67221,-64.1025641025641,4,1,0,100,0,0
67274,-63.6942675159236,4,1,0,100,0,0
67378,-63.2911392405063,4,1,0,100,0,0
67482,-62.5,4,1,0,100,0,0
67534,-62.111801242236,4,1,0,100,0,0
67586,-61.7283950617284,4,1,0,100,0,0
67638,-61.3496932515337,4,1,0,100,0,0
67690,-60.9756097560976,4,1,0,100,0,0
67794,-60.6060606060606,4,1,0,100,0,0
67899,-60.2409638554217,4,1,0,100,0,0
67951,-59.8802395209581,4,1,0,100,0,0
68003,-59.5238095238095,4,1,0,100,0,0
68055,-59.1715976331361,4,1,0,100,0,0
68107,-58.8235294117647,4,1,0,100,0,0
68211,-58.4795321637427,4,1,0,100,0,0
68419,-58.1395348837209,4,1,0,100,0,0
68524,-57.8034682080925,4,1,0,100,0,0
68593,-57.4712643678161,4,1,0,100,0,0
68662,-57.1428571428571,4,1,0,100,0,0
68732,-56.8181818181818,4,1,0,100,0,0
68801,-56.4971751412429,4,1,0,100,0,0
68871,-56.1797752808989,4,1,0,100,0,0
68940,-55.8659217877095,4,1,0,100,0,0
69044,-55.5555555555556,4,1,0,100,0,0
69149,-55.2486187845304,4,1,0,100,0,0
69218,-54.9450549450549,4,1,0,100,0,0
69287,-54.6448087431694,4,1,0,100,0,0
69357,-54.3478260869565,4,1,0,100,0,0
69426,-54.054054054054,4,1,0,100,0,0
69496,-53.763440860215,4,1,0,100,0,0
69565,-53.475935828877,4,1,0,100,0,0
69669,-53.1914893617021,4,1,0,100,0,0
69774,-52.9100529100529,4,1,0,100,0,0
69878,-52.6315789473684,4,1,0,100,0,0
69982,-52.3560209424084,4,1,0,100,0,0
70294,-55.5555555555556,4,1,0,100,0,0
70607,-58.8235294117647,4,1,0,100,0,0
70919,-62.5,4,1,0,100,0,0
71232,-66.6666666666667,4,1,0,100,0,0
71649,-71.4285714285714,4,1,0,100,0,0
71857,-70.4225352112676,4,1,0,100,0,0
71961,-69.4444444444444,4,1,0,100,0,0
72169,-68.4931506849315,4,1,0,100,0,0
72274,-67.5675675675676,4,1,0,100,0,0
72343,-66.6666666666667,4,1,0,100,0,0
72482,-65.7894736842105,4,1,0,100,0,0
72586,-64.9350649350649,4,1,0,100,0,0
72690,-64.1025641025641,4,1,0,100,0,0
72794,-63.2911392405063,4,1,0,100,0,0
72899,-62.5,4,1,0,100,0,0
73315,-71.4285714285714,4,1,0,100,0,1
84253,-70.9219858156028,4,1,0,100,0,1
84461,-70.4225352112676,4,1,0,100,0,1
84669,-69.9300699300699,4,1,0,100,0,1
84774,-69.4444444444444,4,1,0,100,0,1
84878,-68.9655172413793,4,1,0,100,0,1
85190,-68.9655172413793,4,1,0,100,0,0
85399,-74.6268656716418,4,1,0,100,0,0
85607,-74.0740740740741,4,1,0,100,0,0
85676,-73.5294117647059,4,1,0,100,0,0
85746,-72.992700729927,4,1,0,100,0,0
85815,-72.463768115942,4,1,0,100,0,0
86024,-71.9424460431655,4,1,0,100,0,0
86093,-71.4285714285714,4,1,0,100,0,0
86162,-70.9219858156028,4,1,0,100,0,0
86232,-70.4225352112676,4,1,0,100,0,0
86440,-69.9300699300699,4,1,0,100,0,0
86510,-69.4444444444444,4,1,0,100,0,0
86579,-68.9655172413793,4,1,0,100,0,0
86649,-68.4931506849315,4,1,0,100,0,1
97482,-68.0272108843537,4,1,0,100,0,1
97794,-67.1140939597315,4,1,0,100,0,1
98107,-66.2251655629139,4,1,0,100,0,1
98419,-65.359477124183,4,1,0,100,0,1
98732,-64.5161290322581,4,1,0,100,0,1
99044,-63.6942675159236,4,1,0,100,0,1
99357,-62.8930817610063,4,1,0,100,0,1
99669,-62.111801242236,4,1,0,100,0,1
99878,-61.7283950617284,4,1,0,100,0,1
100190,-59.1715976331361,4,1,0,100,0,1
100242,-59.8802395209581,4,1,0,100,0,1
100294,-60.6060606060606,4,1,0,100,0,1
100372,-61.3496932515337,4,1,0,100,0,1
100451,-62.111801242236,4,1,0,100,0,1
100529,-62.8930817610063,4,1,0,100,0,1
100633,-64.1025641025641,4,1,0,100,0,1
100815,-65.359477124183,4,1,0,100,0,1
101024,-67.1140939597315,4,1,0,100,0,1
101232,-69.4444444444444,4,1,0,100,0,0
101649,-76.9230769230769,4,1,0,100,0,0
101753,-100,4,1,0,100,0,0
104253,-90.9090909090909,4,1,0,100,0,0
104565,-83.3333333333333,4,1,0,100,0,0
104982,-76.9230769230769,4,1,0,100,0,0
105086,-100,4,1,0,100,0,0
108315,-76.9230769230769,4,1,0,100,0,0
108419,-100,4,1,0,100,0,0
110919,-97.0873786407767,4,1,0,100,0,0
111232,-92.5925925925926,4,1,0,100,0,0
111649,-87.719298245614,4,1,0,100,0,0
111857,-86.9565217391304,4,1,0,100,0,0
111961,-86.2068965517241,4,1,0,100,0,0
112065,-85.4700854700855,4,1,0,100,0,0
112169,-84.7457627118644,4,1,0,100,0,0
112274,-84.0336134453781,4,1,0,100,0,0
112378,-83.3333333333333,4,1,0,100,0,0
112482,-82.6446280991736,4,1,0,100,0,0
112586,-81.9672131147541,4,1,0,100,0,0
112690,-81.3008130081301,4,1,0,100,0,0
112794,-80.6451612903226,4,1,0,100,0,0
112899,-80,4,1,0,100,0,0
113003,-79.3650793650794,4,1,0,100,0,0
113211,-78.7401574803149,4,1,0,100,0,0
113315,-78.125,4,1,0,50,0,0
113940,-99.009900990099,4,1,0,50,0,0
114149,-98.0392156862745,4,1,0,50,0,0
114357,-97.0873786407767,4,1,0,50,0,0
114565,-96.1538461538461,4,1,0,50,0,0
114774,-95.2380952380952,4,1,0,50,0,0
114982,-94.3396226415094,4,1,0,50,0,0
115190,-93.4579439252336,4,1,0,50,0,0
115399,-92.5925925925926,4,1,0,50,0,0
115607,-91.743119266055,4,1,0,50,0,0
115815,-90.9090909090909,4,1,0,50,0,0
116024,-90.0900900900901,4,1,0,50,0,0
116232,-89.2857142857143,4,1,0,50,0,0
116440,-88.4955752212389,4,1,0,50,0,0
116492,-87.719298245614,4,1,0,50,0,0
116544,-86.9565217391304,4,1,0,50,0,0
116596,-86.2068965517241,4,1,0,50,0,0

[HitObjects]
256,192,1649,5,4,0:0:0:0:
256,192,2065,1,8,0:0:0:0:
256,192,2169,1,0,0:0:0:0:
256,192,2378,1,0,0:0:0:0:
256,192,2690,1,0,0:0:0:0:
256,192,2899,1,8,0:0:0:0:
256,192,3003,1,8,0:0:0:0:
256,192,3211,1,0,0:0:0:0:
256,192,3524,1,0,0:0:0:0:
256,192,3732,1,8,0:0:0:0:
256,192,3836,1,0,0:0:0:0:
256,192,3940,1,8,0:0:0:0:
256,192,4044,1,8,0:0:0:0:
256,192,4253,1,4,0:0:0:0:
256,192,4565,1,12,0:0:0:0:
256,192,4982,1,4,0:0:0:0:
256,192,5399,1,8,0:0:0:0:
256,192,5503,1,0,0:0:0:0:
256,192,5607,1,0,0:0:0:0:
256,192,5711,1,8,0:0:0:0:
256,192,5919,1,8,0:0:0:0:
256,192,6024,1,0,0:0:0:0:
256,192,6232,1,8,0:0:0:0:
256,192,6544,1,0,0:0:0:0:
256,192,6649,1,0,0:0:0:0:
256,192,6787,1,8,0:0:0:0:
256,192,6926,1,8,0:0:0:0:
256,192,7065,1,8,0:0:0:0:
256,192,7274,1,0,0:0:0:0:
256,192,7343,1,0,0:0:0:0:
256,192,7412,1,0,0:0:0:0:
256,192,7482,1,8,0:0:0:0:
256,192,7586,1,8,0:0:0:0:
256,192,7794,1,8,0:0:0:0:
256,192,7899,1,0,0:0:0:0:
256,192,8003,1,8,0:0:0:0:
256,192,8315,1,4,0:0:0:0:
256,192,8732,1,8,0:0:0:0:
256,192,8836,1,0,0:0:0:0:
256,192,9044,1,8,0:0:0:0:
256,192,9357,1,8,0:0:0:0:
256,192,9565,1,8,0:0:0:0:
256,192,9669,1,8,0:0:0:0:
256,192,9878,1,0,0:0:0:0:
256,192,10086,1,0,0:0:0:0:
256,192,10190,1,8,0:0:0:0:
256,192,10294,1,0,0:0:0:0:
256,192,10399,1,8,0:0:0:0:
256,192,10607,1,8,0:0:0:0:
256,192,10711,1,8,0:0:0:0:
256,192,10919,1,4,0:0:0:0:
256,192,11232,1,12,0:0:0:0:
256,192,11649,1,4,0:0:0:0:
256,192,11857,1,0,0:0:0:0:
256,192,11961,1,0,0:0:0:0:
256,192,12065,1,0,0:0:0:0:
256,192,12169,1,8,0:0:0:0:
256,192,12378,1,8,0:0:0:0:
256,192,12482,1,0,0:0:0:0:
256,192,12586,1,8,0:0:0:0:
256,192,12690,1,8,0:0:0:0:
256,192,12899,1,8,0:0:0:0:
256,192,13003,1,0,0:0:0:0:
256,192,13107,1,0,0:0:0:0:
256,192,13211,1,8,0:0:0:0:
256,192,13524,1,8,0:0:0:0:
256,192,13732,1,8,0:0:0:0:
256,192,13940,1,0,0:0:0:0:
256,192,14044,1,8,0:0:0:0:
256,192,14149,1,8,0:0:0:0:
256,192,14253,1,0,0:0:0:0:
256,192,14461,1,0,0:0:0:0:
256,192,14565,1,8,0:0:0:0:
256,192,14982,1,4,0:0:0:0:
256,192,15190,1,8,0:0:0:0:
256,192,15294,1,8,0:0:0:0:
256,192,15399,1,0,0:0:0:0:
256,192,15503,1,8,0:0:0:0:
256,192,15711,1,8,0:0:0:0:
256,192,15815,1,0,0:0:0:0:
256,192,15919,1,0,0:0:0:0:
256,192,16024,1,8,0:0:0:0:
256,192,16232,1,8,0:0:0:0:
256,192,16336,1,8,0:0:0:0:
256,192,16544,1,8,0:0:0:0:
256,192,16649,1,0,0:0:0:0:
256,192,16753,1,0,0:0:0:0:
256,192,16857,1,8,0:0:0:0:
256,192,16926,1,8,0:0:0:0:
256,192,16996,1,8,0:0:0:0:
256,192,17065,1,0,0:0:0:0:
256,192,17204,1,0,0:0:0:0:
256,192,17274,1,8,0:0:0:0:
256,192,17343,1,0,0:0:0:0:
256,192,17412,1,0,0:0:0:0:
256,192,17482,1,8,0:0:0:0:
256,192,17794,1,8,0:0:0:0:
256,192,17899,1,0,0:0:0:0:
256,192,18003,1,8,0:0:0:0:
256,192,18211,1,8,0:0:0:0:
256,192,18315,1,0,0:0:0:0:
256,192,18419,1,0,0:0:0:0:
256,192,18524,1,8,0:0:0:0:
256,192,18732,1,8,0:0:0:0:
256,192,18836,1,8,0:0:0:0:
256,192,18940,1,0,0:0:0:0:
256,192,19044,1,8,0:0:0:0:
256,192,19149,1,0,0:0:0:0:
256,192,19357,1,0,0:0:0:0:
256,192,19426,1,0,0:0:0:0:
256,192,19496,1,0,0:0:0:0:
256,192,19565,1,8,0:0:0:0:
256,192,19669,1,8,0:0:0:0:
256,192,19878,1,8,0:0:0:0:
256,192,19982,1,0,0:0:0:0:
256,192,20086,1,8,0:0:0:0:
256,192,20190,1,8,0:0:0:0:
256,192,20399,1,0,0:0:0:0:
256,192,20503,1,8,0:0:0:0:
256,192,20607,1,8,0:0:0:0:
256,192,20711,1,0,0:0:0:0:
256,192,20815,1,8,0:0:0:0:
256,192,20919,1,0,0:0:0:0:
256,192,21128,1,8,0:0:0:0:
256,192,21232,1,0,0:0:0:0:
256,192,21336,1,8,0:0:0:0:
256,192,21544,1,0,0:0:0:0:
256,192,21753,1,0,0:0:0:0:
256,192,21857,1,8,0:0:0:0:
256,192,21926,1,8,0:0:0:0:
256,192,21996,1,8,0:0:0:0:
256,192,22065,1,0,0:0:0:0:
256,192,22378,1,8,0:0:0:0:
256,192,22482,1,0,0:0:0:0:
256,192,22586,1,8,0:0:0:0:
256,192,22690,1,8,0:0:0:0:
256,192,22899,1,0,0:0:0:0:
256,192,23003,1,8,0:0:0:0:
256,192,23211,1,8,0:0:0:0:
256,192,23315,1,0,0:0:0:0:
256,192,23419,1,8,0:0:0:0:
256,192,23524,1,0,0:0:0:0:
256,192,23593,1,0,0:0:0:0:
256,192,23662,1,0,0:0:0:0:
256,192,23732,1,8,0:0:0:0:
256,192,23801,1,8,0:0:0:0:
256,192,23871,1,8,0:0:0:0:
256,192,23940,1,0,0:0:0:0:
256,192,24010,1,8,0:0:0:0:
256,192,24079,1,8,0:0:0:0:
256,192,24149,1,0,0:0:0:0:
256,192,24357,1,0,0:0:0:0:
256,192,24461,1,0,0:0:0:0:
256,192,24565,1,8,0:0:0:0:
256,192,24669,1,8,0:0:0:0:
256,192,24878,1,8,0:0:0:0:
256,192,24982,1,0,0:0:0:0:
256,192,25086,1,0,0:0:0:0:
256,192,25190,1,8,0:0:0:0:
256,192,25260,1,8,0:0:0:0:
256,192,25329,1,8,0:0:0:0:
256,192,25399,1,0,0:0:0:0:
256,192,25503,1,0,0:0:0:0:
256,192,25711,1,8,0:0:0:0:
256,192,25815,1,0,0:0:0:0:
256,192,26024,1,8,0:0:0:0:
256,192,26093,1,0,0:0:0:0:
256,192,26162,1,0,0:0:0:0:
256,192,26232,1,8,0:0:0:0:
256,192,26336,1,0,0:0:0:0:
256,192,26544,1,0,0:0:0:0:
256,192,26649,1,8,0:0:0:0:
256,192,26701,1,8,0:0:0:0:
256,192,26753,1,8,0:0:0:0:
256,192,26857,1,8,0:0:0:0:
256,192,27065,1,8,0:0:0:0:
256,192,27169,1,8,0:0:0:0:
256,192,27378,1,8,0:0:0:0:
256,192,27482,1,0,0:0:0:0:
256,192,27586,1,0,0:0:0:0:
256,192,27690,1,8,0:0:0:0:
256,192,27742,1,0,0:0:0:0:
256,192,27794,1,8,0:0:0:0:
256,192,27899,5,0,0:0:0:0:
256,192,27968,1,0,0:0:0:0:
256,192,28037,1,0,0:0:0:0:
256,192,28107,1,8,0:0:0:0:
256,192,28176,1,8,0:0:0:0:
256,192,28246,1,8,0:0:0:0:
256,192,28315,1,0,0:0:0:0:
256,192,28524,1,8,0:0:0:0:
256,192,28732,1,0,0:0:0:0:
256,192,28836,1,8,0:0:0:0:
256,192,28940,1,8,0:0:0:0:
256,192,29044,1,0,0:0:0:0:
256,192,29253,1,8,0:0:0:0:
256,192,29357,1,0,0:0:0:0:
256,192,29461,1,0,0:0:0:0:
256,192,29565,1,8,0:0:0:0:
256,192,29669,1,8,0:0:0:0:
256,192,29878,1,8,0:0:0:0:
256,192,29982,1,0,0:0:0:0:
256,192,30086,1,0,0:0:0:0:
256,192,30190,1,8,0:0:0:0:
256,192,30260,1,8,0:0:0:0:
256,192,30329,1,8,0:0:0:0:
256,192,30399,1,0,0:0:0:0:
256,192,30503,1,0,0:0:0:0:
256,192,30607,1,8,0:0:0:0:
256,192,30676,1,0,0:0:0:0:
256,192,30746,1,0,0:0:0:0:
256,192,30815,1,0,0:0:0:0:
256,192,31024,1,8,0:0:0:0:
256,192,31128,1,8,0:0:0:0:
256,192,31232,1,0,0:0:0:0:
256,192,31336,1,8,0:0:0:0:
256,192,31544,1,8,0:0:0:0:
256,192,31649,1,0,0:0:0:0:
256,192,31857,1,0,0:0:0:0:
256,192,31961,1,8,0:0:0:0:
256,192,32065,1,0,0:0:0:0:
256,192,32169,1,0,0:0:0:0:
256,192,32378,1,8,0:0:0:0:
256,192,32482,1,0,0:0:0:0:
256,192,32690,1,8,0:0:0:0:
256,192,32760,1,8,0:0:0:0:
256,192,32829,1,8,0:0:0:0:
256,192,32899,1,0,0:0:0:0:
256,192,33003,1,0,0:0:0:0:
256,192,33211,1,8,0:0:0:0:
256,192,33315,1,0,0:0:0:0:
256,192,33419,1,8,0:0:0:0:
256,192,33524,1,0,0:0:0:0:
256,192,33628,1,8,0:0:0:0:
256,192,33732,1,8,0:0:0:0:
256,192,33836,1,0,0:0:0:0:
256,192,33940,1,8,0:0:0:0:
256,192,34044,1,8,0:0:0:0:
256,192,34149,1,0,0:0:0:0:
256,192,34253,1,8,0:0:0:0:
256,192,34461,1,0,0:0:0:0:
256,192,34565,1,8,0:0:0:0:
256,192,34669,1,0,0:0:0:0:
256,192,34774,1,8,0:0:0:0:
256,192,34878,1,8,0:0:0:0:
256,192,35260,1,0,0:0:0:0:
256,192,35329,1,0,0:0:0:0:
256,192,35399,1,8,0:0:0:0:
256,192,35537,1,0,0:0:0:0:
256,192,35676,1,8,0:0:0:0:
256,192,35815,1,0,0:0:0:0:
256,192,35954,1,8,0:0:0:0:
256,192,36093,1,0,0:0:0:0:
256,192,36232,1,8,0:0:0:0:
256,192,36544,1,12,0:0:0:0:
256,192,36753,1,0,0:0:0:0:
256,192,36857,1,0,0:0:0:0:
256,192,36961,1,8,0:0:0:0:
256,192,37013,1,8,0:0:0:0:
256,192,37065,1,0,0:0:0:0:
256,192,37204,1,0,0:0:0:0:
256,192,37274,1,8,0:0:0:0:
256,192,37343,1,0,0:0:0:0:
256,192,37412,1,0,0:0:0:0:
256,192,37482,1,8,0:0:0:0:
256,192,37586,1,0,0:0:0:0:
256,192,37690,1,8,0:0:0:0:
256,192,37760,1,0,0:0:0:0:
256,192,37829,1,0,0:0:0:0:
256,192,37899,1,8,0:0:0:0:
256,192,38003,1,0,0:0:0:0:
256,192,38107,1,0,0:0:0:0:
256,192,38211,1,8,0:0:0:0:
256,192,38315,1,0,0:0:0:0:
256,192,38419,1,8,0:0:0:0:
256,192,38524,1,8,0:0:0:0:
256,192,38732,5,0,0:0:0:0:
256,192,38836,1,0,0:0:0:0:
256,192,38940,1,8,0:0:0:0:
256,192,39044,1,8,0:0:0:0:
256,192,39149,5,4,0:0:0:0:
256,192,39461,1,12,0:0:0:0:
256,192,39774,1,12,0:0:0:0:
256,192,40190,1,0,0:0:0:0:
256,192,40294,1,0,0:0:0:0:
256,192,40399,1,8,0:0:0:0:
256,192,40711,1,0,0:0:0:0:
256,192,40815,1,8,0:0:0:0:
256,192,40919,1,0,0:0:0:0:
256,192,41024,1,0,0:0:0:0:
256,192,41232,1,8,0:0:0:0:
256,192,41440,1,0,0:0:0:0:
256,192,41544,1,0,0:0:0:0:
256,192,41649,1,8,0:0:0:0:
256,192,41857,1,0,0:0:0:0:
256,192,41961,1,0,0:0:0:0:
256,192,42065,1,8,0:0:0:0:
256,192,42274,1,0,0:0:0:0:
256,192,42378,1,0,0:0:0:0:
256,192,42482,1,8,0:0:0:0:
256,192,42586,1,8,0:0:0:0:
256,192,42690,1,0,0:0:0:0:
256,192,42794,1,0,0:0:0:0:
256,192,42899,1,8,0:0:0:0:
256,192,43315,1,4,0:0:0:0:
256,192,43940,1,8,0:0:0:0:
256,192,44357,1,0,0:0:0:0:
256,192,44774,1,8,0:0:0:0:
256,192,46024,1,0,0:0:0:0:
256,192,46128,1,8,0:0:0:0:
256,192,46232,1,8,0:0:0:0:
256,192,46336,1,0,0:0:0:0:
256,192,46440,1,8,0:0:0:0:
256,192,46544,1,8,0:0:0:0:
256,192,46649,1,4,0:0:0:0:
256,192,46857,1,8,0:0:0:0:
256,192,46926,1,8,0:0:0:0:
256,192,46996,1,8,0:0:0:0:
256,192,47065,1,0,0:0:0:0:
256,192,47169,1,8,0:0:0:0:
256,192,47378,1,8,0:0:0:0:
256,192,47482,1,0,0:0:0:0:
256,192,47586,1,0,0:0:0:0:
256,192,47690,1,8,0:0:0:0:
256,192,47899,1,0,0:0:0:0:
256,192,48107,1,8,0:0:0:0:
256,192,48211,1,8,0:0:0:0:
256,192,48315,1,0,0:0:0:0:
256,192,48524,1,8,0:0:0:0:
256,192,48732,1,0,0:0:0:0:
256,192,48836,1,8,0:0:0:0:
256,192,49044,1,8,0:0:0:0:
256,192,49149,1,0,0:0:0:0:
256,192,49253,1,0,0:0:0:0:
256,192,49461,1,8,0:0:0:0:
256,192,49565,1,0,0:0:0:0:
256,192,49669,1,0,0:0:0:0:
256,192,49774,1,8,0:0:0:0:
256,192,49982,1,0,0:0:0:0:
256,192,50190,1,8,0:0:0:0:
256,192,50242,1,0,0:0:0:0:
256,192,50294,1,8,0:0:0:0:
256,192,50399,1,8,0:0:0:0:
256,192,50503,1,0,0:0:0:0:
256,192,50711,1,8,0:0:0:0:
256,192,50815,1,0,0:0:0:0:
256,192,50919,1,0,0:0:0:0:
256,192,51024,1,8,0:0:0:0:
256,192,51232,1,0,0:0:0:0:
256,192,51336,1,0,0:0:0:0:
256,192,51440,1,8,0:0:0:0:
256,192,51649,1,0,0:0:0:0:
256,192,51857,1,8,0:0:0:0:
256,192,51961,1,0,0:0:0:0:
256,192,52065,1,0,0:0:0:0:
256,192,52274,1,8,0:0:0:0:
256,192,52378,1,8,0:0:0:0:
256,192,52482,1,0,0:0:0:0:
256,192,52690,1,0,0:0:0:0:
256,192,52760,1,8,0:0:0:0:
256,192,52829,1,8,0:0:0:0:
256,192,52899,1,0,0:0:0:0:
256,192,53003,1,0,0:0:0:0:
256,192,53107,1,8,0:0:0:0:
256,192,53211,1,0,0:0:0:0:
256,192,53315,1,8,0:0:0:0:
256,192,53524,1,8,0:0:0:0:
256,192,53628,1,8,0:0:0:0:
256,192,53732,1,0,0:0:0:0:
256,192,53940,1,8,0:0:0:0:
256,192,54044,1,0,0:0:0:0:
256,192,54149,1,0,0:0:0:0:
256,192,54357,1,0,0:0:0:0:
256,192,54461,1,8,0:0:0:0:
256,192,54565,1,0,0:0:0:0:
256,192,54774,1,0,0:0:0:0:
256,192,54878,1,8,0:0:0:0:
256,192,55086,1,0,0:0:0:0:
256,192,55399,1,0,0:0:0:0:
256,192,55607,1,0,0:0:0:0:
256,192,55815,1,0,0:0:0:0:
256,192,55919,1,8,0:0:0:0:
256,192,55971,1,8,0:0:0:0:
256,192,56024,1,8,0:0:0:0:
256,192,56076,1,8,0:0:0:0:
256,192,56128,1,8,0:0:0:0:
256,192,56232,1,8,0:0:0:0:
256,192,56284,1,0,0:0:0:0:
256,192,56336,1,8,0:0:0:0:
256,192,56440,1,8,0:0:0:0:
256,192,56544,1,8,0:0:0:0:
256,192,56649,5,4,0:0:0:0:
256,192,57065,1,12,0:0:0:0:
256,192,57378,1,12,0:0:0:0:
256,192,57690,1,4,0:0:0:0:
256,192,58003,1,12,0:0:0:0:
256,192,58211,1,4,0:0:0:0:
256,192,58524,1,8,0:0:0:0:
256,192,58732,1,0,0:0:0:0:
256,192,58836,1,8,0:0:0:0:
256,192,58888,1,8,0:0:0:0:
256,192,58940,1,0,0:0:0:0:
256,192,59044,1,0,0:0:0:0:
256,192,59149,1,8,0:0:0:0:
256,192,59253,1,8,0:0:0:0:
256,192,59357,1,8,0:0:0:0:
256,192,59461,1,8,0:0:0:0:
256,192,59565,1,8,0:0:0:0:
256,192,59669,1,8,0:0:0:0:
256,192,59982,1,12,0:0:0:0:
256,192,60399,1,12,0:0:0:0:
256,192,60711,1,12,0:0:0:0:
256,192,61024,1,4,0:0:0:0:
256,192,61336,1,8,0:0:0:0:
256,192,61440,1,0,0:0:0:0:
256,192,61510,1,8,0:0:0:0:
256,192,61579,1,0,0:0:0:0:
256,192,61649,1,8,0:0:0:0:
256,192,61857,1,0,0:0:0:0:
256,192,62065,1,8,0:0:0:0:
256,192,62169,1,0,0:0:0:0:
256,192,62274,1,8,0:0:0:0:
256,192,62378,1,8,0:0:0:0:
256,192,62430,1,8,0:0:0:0:
256,192,62482,1,0,0:0:0:0:
256,192,62586,1,8,0:0:0:0:
256,192,62690,1,0,0:0:0:0:
256,192,62742,1,0,0:0:0:0:
256,192,62794,1,8,0:0:0:0:
256,192,62899,1,8,0:0:0:0:
256,192,63003,1,0,0:0:0:0:
256,192,63107,1,8,0:0:0:0:
256,192,63159,1,8,0:0:0:0:
256,192,63211,1,8,0:0:0:0:
256,192,63315,1,4,0:0:0:0:
256,192,63732,1,12,0:0:0:0:
256,192,64044,1,12,0:0:0:0:
256,192,64357,1,4,0:0:0:0:
256,192,64669,1,12,0:0:0:0:
256,192,64878,1,0,0:0:0:0:
256,192,64982,1,8,0:0:0:0:
256,192,65190,1,8,0:0:0:0:
256,192,65294,1,8,0:0:0:0:
256,192,65503,1,8,0:0:0:0:
256,192,65607,1,0,0:0:0:0:
256,192,65711,1,8,0:0:0:0:
256,192,65763,1,8,0:0:0:0:
256,192,65815,1,0,0:0:0:0:
256,192,65919,1,0,0:0:0:0:
256,192,66024,1,8,0:0:0:0:
256,192,66128,1,0,0:0:0:0:
256,192,66232,1,8,0:0:0:0:
256,192,66440,1,0,0:0:0:0:
256,192,66544,1,8,0:0:0:0:
256,192,66649,1,0,0:0:0:0:
256,192,66701,1,0,0:0:0:0:
256,192,66753,1,8,0:0:0:0:
256,192,66805,1,8,0:0:0:0:
256,192,66857,1,0,0:0:0:0:
256,192,66961,1,8,0:0:0:0:
256,192,67065,1,0,0:0:0:0:
256,192,67117,1,8,0:0:0:0:
256,192,67169,1,8,0:0:0:0:
256,192,67221,1,0,0:0:0:0:
256,192,67274,1,8,0:0:0:0:
256,192,67378,1,8,0:0:0:0:
256,192,67482,1,0,0:0:0:0:
256,192,67534,1,8,0:0:0:0:
256,192,67586,1,0,0:0:0:0:
256,192,67638,1,0,0:0:0:0:
256,192,67690,1,8,0:0:0:0:
256,192,67794,1,8,0:0:0:0:
256,192,67899,1,8,0:0:0:0:
256,192,67951,1,8,0:0:0:0:
256,192,68003,1,0,0:0:0:0:
256,192,68055,1,0,0:0:0:0:
256,192,68107,1,8,0:0:0:0:
256,192,68211,1,0,0:0:0:0:
256,192,68315,1,8,0:0:0:0:
256,192,68419,1,8,0:0:0:0:
256,192,68524,1,8,0:0:0:0:
256,192,68593,1,8,0:0:0:0:
256,192,68662,1,0,0:0:0:0:
256,192,68732,1,8,0:0:0:0:
256,192,68801,1,0,0:0:0:0:
256,192,68871,1,0,0:0:0:0:
256,192,68940,1,8,0:0:0:0:
256,192,69044,1,0,0:0:0:0:
256,192,69149,1,8,0:0:0:0:
256,192,69218,1,0,0:0:0:0:
256,192,69287,1,0,0:0:0:0:
256,192,69357,1,8,0:0:0:0:
256,192,69426,1,8,0:0:0:0:
256,192,69496,1,8,0:0:0:0:
256,192,69565,1,0,0:0:0:0:
256,192,69669,1,0,0:0:0:0:
256,192,69774,1,8,0:0:0:0:
256,192,69878,1,8,0:0:0:0:
256,192,69982,1,4,0:0:0:0:
256,192,70294,1,8,0:0:0:0:
256,192,70607,1,8,0:0:0:0:
256,192,70919,1,8,0:0:0:0:
256,192,71232,1,8,0:0:0:0:
256,192,71649,1,8,0:0:0:0:
256,192,71857,1,8,0:0:0:0:
256,192,71961,1,0,0:0:0:0:
256,192,72169,1,8,0:0:0:0:
256,192,72274,1,0,0:0:0:0:
256,192,72343,1,0,0:0:0:0:
256,192,72412,1,0,0:0:0:0:
256,192,72482,1,8,0:0:0:0:
256,192,72586,1,0,0:0:0:0:
256,192,72690,1,8,0:0:0:0:
256,192,72794,1,0,0:0:0:0:
256,192,72899,1,8,0:0:0:0:
256,192,73315,1,4,0:0:0:0:
256,192,73524,1,8,0:0:0:0:
256,192,73628,1,8,0:0:0:0:
256,192,73732,1,0,0:0:0:0:
256,192,73940,1,8,0:0:0:0:
256,192,74044,1,0,0:0:0:0:
256,192,74253,1,8,0:0:0:0:
256,192,74357,1,0,0:0:0:0:
256,192,74461,1,0,0:0:0:0:
256,192,74565,1,8,0:0:0:0:
256,192,74669,1,0,0:0:0:0:
256,192,74774,1,8,0:0:0:0:
256,192,74878,1,8,0:0:0:0:
256,192,74982,1,0,0:0:0:0:
256,192,75190,1,8,0:0:0:0:
256,192,75294,1,8,0:0:0:0:
256,192,75399,1,0,0:0:0:0:
256,192,75503,1,0,0:0:0:0:
256,192,75607,1,8,0:0:0:0:
256,192,75711,1,0,0:0:0:0:
256,192,75919,1,0,0:0:0:0:
256,192,76024,1,8,0:0:0:0:
256,192,76128,1,0,0:0:0:0:
256,192,76232,1,8,0:0:0:0:
256,192,76336,1,0,0:0:0:0:
256,192,76440,1,8,0:0:0:0:
256,192,76544,1,8,0:0:0:0:
256,192,76649,1,0,0:0:0:0:
256,192,76857,1,0,0:0:0:0:
256,192,76961,1,0,0:0:0:0:
256,192,77065,1,8,0:0:0:0:
256,192,77274,1,0,0:0:0:0:
256,192,77378,1,0,0:0:0:0:
256,192,77482,1,8,0:0:0:0:
256,192,77586,1,8,0:0:0:0:
256,192,77794,1,8,0:0:0:0:
256,192,77899,1,0,0:0:0:0:
256,192,78003,1,8,0:0:0:0:
256,192,78211,1,8,0:0:0:0:
256,192,78419,1,0,0:0:0:0:
256,192,78524,1,8,0:0:0:0:
256,192,78732,1,8,0:0:0:0:
256,192,78940,1,8,0:0:0:0:
256,192,79044,1,0,0:0:0:0:
256,192,79149,1,0,0:0:0:0:
256,192,79253,1,8,0:0:0:0:
256,192,79357,1,8,0:0:0:0:
256,192,79565,1,8,0:0:0:0:
256,192,79669,1,8,0:0:0:0:
256,192,79774,1,0,0:0:0:0:
256,192,79878,1,8,0:0:0:0:
256,192,79982,1,0,0:0:0:0:
256,192,80190,1,0,0:0:0:0:
256,192,80294,1,0,0:0:0:0:
256,192,80399,1,8,0:0:0:0:
256,192,80607,1,8,0:0:0:0:
256,192,80711,1,0,0:0:0:0:
256,192,80919,1,0,0:0:0:0:
256,192,81024,1,8,0:0:0:0:
256,192,81128,1,8,0:0:0:0:
256,192,81232,1,0,0:0:0:0:
256,192,81336,1,0,0:0:0:0:
256,192,81440,1,8,0:0:0:0:
256,192,81544,1,8,0:0:0:0:
256,192,81649,1,0,0:0:0:0:
256,192,81857,1,0,0:0:0:0:
256,192,81961,1,8,0:0:0:0:
256,192,82065,1,0,0:0:0:0:
256,192,82169,1,0,0:0:0:0:
256,192,82274,1,8,0:0:0:0:
256,192,82378,1,8,0:0:0:0:
256,192,82586,1,0,0:0:0:0:
256,192,82638,1,0,0:0:0:0:
256,192,82690,1,8,0:0:0:0:
256,192,82794,1,0,0:0:0:0:
256,192,82899,1,8,0:0:0:0:
256,192,83003,1,8,0:0:0:0:
256,192,83107,1,0,0:0:0:0:
256,192,83211,1,0,0:0:0:0:
256,192,83315,1,8,0:0:0:0:
256,192,83524,1,8,0:0:0:0:
256,192,83628,1,0,0:0:0:0:
256,192,83732,1,8,0:0:0:0:
256,192,83940,1,0,0:0:0:0:
256,192,84044,1,0,0:0:0:0:
256,192,84096,1,0,0:0:0:0:
256,192,84149,1,0,0:0:0:0:
256,192,84253,1,8,0:0:0:0:
256,192,84461,1,8,0:0:0:0:
256,192,84669,1,8,0:0:0:0:
256,192,84774,1,0,0:0:0:0:
256,192,84878,1,8,0:0:0:0:
251,193,84982,1,8,0:0:0:0:
256,192,85034,1,8,0:0:0:0:
256,192,85086,1,8,0:0:0:0:
256,192,85190,1,0,0:0:0:0:
256,192,85399,1,8,0:0:0:0:
256,192,85503,1,8,0:0:0:0:
256,192,85607,1,0,0:0:0:0:
256,192,85676,1,8,0:0:0:0:
256,192,85746,1,8,0:0:0:0:
256,192,85815,1,0,0:0:0:0:
256,192,85919,1,8,0:0:0:0:
256,192,86024,1,8,0:0:0:0:
256,192,86093,1,0,0:0:0:0:
256,192,86162,1,0,0:0:0:0:
256,192,86232,1,8,0:0:0:0:
256,192,86336,1,0,0:0:0:0:
256,192,86440,1,8,0:0:0:0:
256,192,86510,1,8,0:0:0:0:
256,192,86579,1,8,0:0:0:0:
256,192,86649,1,0,0:0:0:0:
256,192,86857,1,8,0:0:0:0:
256,192,87065,1,0,0:0:0:0:
256,192,87169,1,8,0:0:0:0:
256,192,87378,1,8,0:0:0:0:
256,192,87482,1,0,0:0:0:0:
256,192,87690,1,8,0:0:0:0:
256,192,87794,1,8,0:0:0:0:
256,192,87899,1,0,0:0:0:0:
256,192,88107,1,0,0:0:0:0:
256,192,88211,1,8,0:0:0:0:
256,192,88315,1,0,0:0:0:0:
256,192,88419,1,8,0:0:0:0:
256,192,88471,1,8,0:0:0:0:
256,192,88524,1,8,0:0:0:0:
256,192,88593,1,8,0:0:0:0:
256,192,88732,1,8,0:0:0:0:
256,192,88836,1,0,0:0:0:0:
256,192,89044,1,8,0:0:0:0:
256,192,89149,1,0,0:0:0:0:
256,192,89253,1,8,0:0:0:0:
256,192,89357,1,8,0:0:0:0:
256,192,89565,1,0,0:0:0:0:
256,192,89774,1,8,0:0:0:0:
256,192,89982,1,0,0:0:0:0:
256,192,90034,1,0,0:0:0:0:
256,192,90121,1,0,0:0:0:0:
256,192,90260,1,0,0:0:0:0:
256,192,90399,1,4,0:0:0:0:
256,192,90607,1,8,0:0:0:0:
256,192,90711,1,8,0:0:0:0:
256,192,90815,1,0,0:0:0:0:
256,192,91024,1,8,0:0:0:0:
256,192,91128,1,0,0:0:0:0:
256,192,91232,1,0,0:0:0:0:
256,192,91336,1,8,0:0:0:0:
256,192,91544,1,0,0:0:0:0:
256,192,91753,1,0,0:0:0:0:
256,192,91857,1,8,0:0:0:0:
256,192,91961,1,8,0:0:0:0:
256,192,92065,1,0,0:0:0:0:
256,192,92135,1,0,0:0:0:0:
256,192,92204,1,0,0:0:0:0:
256,192,92274,1,8,0:0:0:0:
256,192,92482,1,8,0:0:0:0:
256,192,92586,1,0,0:0:0:0:
256,192,92690,1,8,0:0:0:0:
256,192,92794,1,8,0:0:0:0:
256,192,92899,1,0,0:0:0:0:
256,192,93107,1,8,0:0:0:0:
256,192,93315,1,0,0:0:0:0:
256,192,93524,1,8,0:0:0:0:
256,192,93628,1,8,0:0:0:0:
256,192,93732,1,0,0:0:0:0:
256,192,93836,1,8,0:0:0:0:
256,192,94044,1,8,0:0:0:0:
256,192,94149,1,0,0:0:0:0:
256,192,94253,1,0,0:0:0:0:
256,192,94357,1,8,0:0:0:0:
256,192,94565,1,8,0:0:0:0:
256,192,94774,1,0,0:0:0:0:
256,192,94878,1,8,0:0:0:0:
256,192,94982,1,0,0:0:0:0:
256,192,95086,1,8,0:0:0:0:
256,192,95138,1,8,0:0:0:0:
256,192,95190,1,8,0:0:0:0:
256,192,95260,1,8,0:0:0:0:
256,192,95399,1,8,0:0:0:0:
256,192,95503,1,0,0:0:0:0:
256,192,95607,1,0,0:0:0:0:
256,192,95711,1,8,0:0:0:0:
256,192,95815,1,0,0:0:0:0:
256,192,95919,1,0,0:0:0:0:
256,192,96024,1,8,0:0:0:0:
256,192,96128,1,8,0:0:0:0:
256,192,96232,1,0,0:0:0:0:
256,192,96440,1,0,0:0:0:0:
256,192,96649,1,4,0:0:0:0:
256,192,97065,1,8,0:0:0:0:
256,192,97169,1,8,0:0:0:0:
256,192,97274,1,0,0:0:0:0:
256,192,97378,1,0,0:0:0:0:
256,192,97482,1,12,0:0:0:0:
256,192,97794,1,4,0:0:0:0:
256,192,98107,1,12,0:0:0:0:
256,192,98419,1,4,0:0:0:0:
256,192,98732,1,12,0:0:0:0:
256,192,99044,1,4,0:0:0:0:
256,192,99357,1,12,0:0:0:0:
256,192,99669,1,4,0:0:0:0:
256,192,99878,1,12,0:0:0:0:
256,192,100190,1,8,0:0:0:0:
256,192,100242,1,8,0:0:0:0:
256,192,100294,1,8,0:0:0:0:
256,192,100364,1,8,0:0:0:0:
256,192,100451,1,8,0:0:0:0:
256,192,100529,1,8,0:0:0:0:
256,192,100633,1,8,0:0:0:0:
256,192,100815,1,8,0:0:0:0:
256,192,101024,1,8,0:0:0:0:
256,192,101232,1,8,0:0:0:0:
256,192,101649,1,4,0:0:0:0:
256,192,102065,1,0,0:0:0:0:
256,192,102169,1,8,0:0:0:0:
256,192,102274,1,8,0:0:0:0:
256,192,102378,1,0,0:0:0:0:
256,192,102690,1,0,0:0:0:0:
256,192,102899,1,8,0:0:0:0:
256,192,103003,1,8,0:0:0:0:
256,192,103211,1,0,0:0:0:0:
256,192,103524,1,0,0:0:0:0:
256,192,103628,1,8,0:0:0:0:
256,192,103836,1,8,0:0:0:0:
256,192,104044,1,0,0:0:0:0:
256,192,104253,1,4,0:0:0:0:
256,192,104565,1,4,0:0:0:0:
256,192,104982,1,12,0:0:0:0:
256,192,105294,1,0,0:0:0:0:
256,192,105399,1,8,0:0:0:0:
256,192,105503,1,0,0:0:0:0:
256,192,105607,1,0,0:0:0:0:
256,192,105711,1,8,0:0:0:0:
256,192,105919,1,8,0:0:0:0:
256,192,106024,1,0,0:0:0:0:
256,192,106232,1,8,0:0:0:0:
256,192,106336,1,8,0:0:0:0:
256,192,106544,1,0,0:0:0:0:
256,192,106787,1,8,0:0:0:0:
256,192,106926,1,8,0:0:0:0:
256,192,107065,1,8,0:0:0:0:
256,192,107274,1,0,0:0:0:0:
256,192,107343,1,0,0:0:0:0:
256,192,107412,1,0,0:0:0:0:
256,192,107482,1,8,0:0:0:0:
256,192,107586,1,8,0:0:0:0:
256,192,107794,1,0,0:0:0:0:
256,192,107899,1,8,0:0:0:0:
256,192,108107,1,8,0:0:0:0:
256,192,108315,1,4,0:0:0:0:
256,192,108613,1,8,0:0:0:0:
256,192,108672,1,0,0:0:0:0:
256,192,108732,1,8,0:0:0:0:
256,192,108992,1,8,0:0:0:0:
256,192,109114,1,0,0:0:0:0:
256,192,109227,1,8,0:0:0:0:
256,192,109357,1,0,0:0:0:0:
256,192,109565,1,0,0:0:0:0:
256,192,109669,1,8,0:0:0:0:
256,192,109878,1,0,0:0:0:0:
256,192,110086,1,8,0:0:0:0:
256,192,110190,1,8,0:0:0:0:
256,192,110399,1,0,0:0:0:0:
256,192,110503,1,8,0:0:0:0:
256,192,110607,1,0,0:0:0:0:
256,192,110711,1,8,0:0:0:0:
256,192,110919,1,4,0:0:0:0:
256,192,111232,1,12,0:0:0:0:
256,192,111649,1,4,0:0:0:0:
256,192,111857,1,0,0:0:0:0:
256,192,111961,1,0,0:0:0:0:
256,192,112065,1,8,0:0:0:0:
256,192,112169,1,0,0:0:0:0:
256,192,112274,1,0,0:0:0:0:
256,192,112378,1,0,0:0:0:0:
256,192,112482,1,8,0:0:0:0:
256,192,112586,1,0,0:0:0:0:
256,192,112690,1,8,0:0:0:0:
256,192,112794,1,8,0:0:0:0:
256,192,112899,1,0,0:0:0:0:
256,192,113003,1,8,0:0:0:0:
256,192,113211,1,4,0:0:0:0:
256,192,113940,5,0,0:0:0:0:
256,192,114149,5,0,0:0:0:0:
256,192,114357,1,8,0:0:0:0:
256,192,114565,5,8,0:0:0:0:
256,192,114774,5,8,0:0:0:0:
256,192,114982,1,8,0:0:0:0:
256,192,115190,1,8,0:0:0:0:
256,192,115399,1,8,0:0:0:0:
256,192,115607,1,8,0:0:0:0:
256,192,115815,1,8,0:0:0:0:
256,192,116024,1,8,0:0:0:0:
256,192,116232,1,8,0:0:0:0:
256,192,116440,5,8,0:0:0:0:
256,192,116492,1,8,0:0:0:0:
256,192,116544,1,8,0:0:0:0:
256,192,116596,1,8,0:0:0:0:
