osu file format v14

[General]
AudioFilename: audio.mp3
AudioLeadIn: 0
PreviewTime: 73207
Countdown: 0
SampleSet: Soft
StackLeniency: 0.4
Mode: 0
LetterboxInBreaks: 0
WidescreenStoryboard: 0

[Editor]
Bookmarks: 1645,14978,28311,35082,39770,43311,46645,56645,69978,73311,86645,101645,113207
DistanceSpacing: 0.5
BeatDivisor: 8
GridSize: 32
TimelineZoom: 4.019998

[Metadata]
Title:Routing
TitleUnicode:Routing
Artist:Camellia
ArtistUnicode:かめりあ
Creator:Mir
Version:Reverb
Source:beatmania IIDX 23 copula
Tags:22 pendual super future 2323 lasse low bpm alt jazzy electric house boogaloo
BeatmapID:1403907
BeatmapSetID:663255

[Difficulty]
HPDrainRate:6
CircleSize:4
OverallDifficulty:9
ApproachRate:9.7
SliderMultiplier:3.03
SliderTickRate:1

[Events]
//Background and Video events
0,0,"routing.jpg",0,0
//Break Periods
2,43511,45525
//Storyboard Layer 0 (Background)
//Storyboard Layer 1 (Fail)
//Storyboard Layer 2 (Pass)
//Storyboard Layer 3 (Foreground)
//Storyboard Sound Samples

[TimingPoints]
1645,416.666666666667,4,2,1,50,1,0
3259,-100,4,2,99,5,0,0
3311,-100,4,2,1,50,0,0
6593,-100,4,2,99,5,0,0
6645,-100,4,2,1,50,0,0
9926,-100,4,2,99,5,0,0
9978,-100,4,2,2,50,0,0
10915,-100,4,2,1,50,0,0
11645,-100,4,2,2,50,0,0
13207,-100,4,2,2,50,0,0
14561,-250,4,2,2,50,0,0
14926,-250,4,2,99,5,0,0
14978,-66.6666666666667,4,2,1,80,0,0
15290,-83.3333333333333,4,2,1,80,0,0
16853,-66.6666666666667,4,2,1,80,0,0
17009,-83.3333333333333,4,2,99,5,0,0
17061,-83.3333333333333,4,2,1,80,0,0
18676,-83.3333333333333,4,2,99,5,0,0
18728,-83.3333333333333,4,2,1,80,0,0
19093,-83.3333333333333,4,2,99,5,0,0
19145,-83.3333333333333,4,2,1,80,0,0
21176,-83.3333333333333,4,2,99,5,0,0
21228,-83.3333333333333,4,2,1,80,0,0
22009,-83.3333333333333,4,2,99,5,0,0
22061,-83.3333333333333,4,2,1,80,0,0
23520,-66.6666666666667,4,2,1,80,0,0
23676,-66.6666666666667,4,2,99,5,0,0
23728,-66.6666666666667,4,2,1,80,0,0
24145,-83.3333333333333,4,2,1,80,0,0
26593,-83.3333333333333,4,2,99,5,0,0
26645,-83.3333333333333,4,2,1,80,0,0
27895,-50,4,2,1,80,0,0
28311,-66.6666666666667,4,2,1,80,0,0
28624,-83.3333333333333,4,2,1,80,0,0
30186,-66.6666666666667,4,2,1,80,0,0
30342,-66.6666666666667,4,2,99,5,0,0
30395,-66.6666666666667,4,2,1,80,0,0
30811,-83.3333333333333,4,2,1,80,0,0
32009,-83.3333333333333,4,2,99,5,0,0
32061,-83.3333333333333,4,2,1,80,0,0
32426,-83.3333333333333,4,2,99,5,0,0
32478,-83.3333333333333,4,2,1,80,0,0
34874,-133.333333333333,4,2,1,80,0,0
36488,-133.333333333333,4,2,99,5,0,0
36540,-166.666666666667,4,2,1,80,0,0
37061,-58.8235294117647,4,2,1,80,0,0
37478,-83.3333333333333,4,2,1,80,0,0
39770,-166.666666666667,4,2,1,70,0,0
39978,-100,4,2,1,70,0,0
40395,-100,4,2,1,40,0,0
40811,-100,4,2,1,50,0,0
41228,-100,4,2,1,60,0,0
41645,-100,4,2,1,70,0,0
42061,-100,4,2,1,80,0,0
42478,-100,4,2,1,90,0,0
42895,-100,4,2,1,60,0,0
43311,-100,4,2,1,70,0,0
46020,-50,4,2,1,100,0,0
46332,-100,4,2,1,80,0,0
46645,-76.9230769230769,4,2,1,60,0,0
48728,-58.8235294117647,4,2,1,60,0,0
49145,-76.9230769230769,4,2,1,60,0,0
56645,-100,4,2,1,60,0,0
57009,-100,4,2,99,5,0,0
57061,-100,4,2,1,60,0,0
57322,-100,4,2,99,5,0,0
57374,-100,4,2,1,60,0,0
57634,-100,4,2,99,5,0,0
57686,-100,4,2,1,60,0,0
57947,-100,4,2,99,5,0,0
57999,-100,4,2,1,60,0,0
58103,-100,4,2,99,5,0,0
58207,-100,4,2,1,60,0,0
60342,-100,4,2,99,5,0,0
60394,-100,4,2,1,60,0,0
60655,-100,4,2,99,5,0,0
60707,-100,4,2,1,60,0,0
60967,-100,4,2,99,5,0,0
61019,-100,4,2,1,60,0,0
61280,-100,4,2,99,5,0,0
61332,-100,4,2,1,60,0,0
61488,-100,4,2,99,5,0,0
61540,-100,4,2,1,60,0,0
61801,-100,4,2,99,5,0,0
61853,-100,4,2,1,60,0,0
61957,-100,4,2,99,5,0,0
62061,-100,4,2,1,60,0,0
63676,-100,4,2,99,5,0,0
63728,-100,4,2,1,60,0,0
63988,-100,4,2,99,5,0,0
64040,-100,4,2,1,60,0,0
64301,-100,4,2,99,5,0,0
64353,-100,4,2,1,60,0,0
64613,-100,4,2,99,5,0,0
64665,-100,4,2,1,60,0,0
64770,-100,4,2,99,5,0,0
64874,-100,4,2,1,60,0,0
73311,-58.8235294117647,4,2,1,95,0,1
79770,-76.9230769230769,4,2,1,85,0,0
79978,-58.8235294117647,4,2,1,95,0,1
83311,-100,4,2,1,95,0,1
83728,-76.9230769230769,4,2,1,95,0,1
84301,-58.8235294117647,4,2,99,5,0,1
84353,-58.8235294117647,4,2,1,95,0,1
84509,-58.8235294117647,4,2,99,5,0,1
84561,-58.8235294117647,4,2,1,95,0,1
84718,-58.8235294117647,4,2,99,5,0,1
84770,-58.8235294117647,4,2,1,95,0,1
84978,-100,4,2,1,70,0,0
85186,-86.9565217391304,4,2,1,70,0,0
85395,-76.9230769230769,4,2,1,70,0,0
85603,-68.9655172413793,4,2,1,70,0,0
85811,-62.5,4,2,1,70,0,0
86020,-57.1428571428571,4,2,1,70,0,0
86228,-50,4,2,1,70,0,0
86645,-55.5555555555556,4,2,1,70,0,1
91593,-55.5555555555556,4,2,99,5,0,1
91645,-55.5555555555556,4,2,1,85,0,1
93103,-55.5555555555556,4,2,1,85,0,0
93311,-55.5555555555556,4,2,1,85,0,1
96645,-100,4,2,1,70,0,0
97061,-100,4,2,3,70,0,0
97270,-100,4,2,4,70,0,0
97478,-100,4,2,1,70,0,0
103259,-100,4,2,99,5,0,0
103311,-100,4,2,1,70,0,0
106593,-100,4,2,99,5,0,0
106645,-100,4,2,1,70,0,0
109926,-100,4,2,99,5,0,0
109978,-100,4,2,2,70,0,0
110915,-100,4,2,1,70,0,0
111645,-95.2380952380952,4,2,2,70,0,0
116645,-100,4,2,99,5,0,0

[Colours]
Combo1 : 243,233,171
Combo2 : 255,164,209
Combo3 : 160,239,186
Combo4 : 162,187,253

[HitObjects]
138,185,1645,6,0,P|212:159|339:239,1,227.25,6|0,3:2|0:2,0:2:0:0:
512,110,2061,5,0,0:2:0:0:
441,137,2165,2,0,P|365:127|338:107,1,75.75,0|0,0:2|0:2,0:2:0:0:
229,68,2374,2,0,P|317:63|389:15,1,151.5,0|0,0:2|0:2,0:2:0:0:
147,30,2686,2,0,P|148:96|163:131,1,75.75,0|0,0:2|0:2,0:2:0:0:
229,68,2895,5,2,3:2:0:0:
93,206,2999,2,0,P|51:203|-3:206,1,75.75,2|0,3:2|0:2,0:2:0:0:
179,333,3207,2,0,L|232:333,1,37.875,2|0,3:2|0:2,0:2:0:0:
347,230,3728,5,0,0:2:0:0:
293,176,3833,1,0,0:2:0:0:
347,123,3937,1,0,0:2:0:0:
400,176,4040,2,0,P|424:234|414:270,1,75.75,0|0,0:2|0:2,0:2:0:0:
52,250,4249,6,0,B|125:232|125:232|259:240,1,151.5,2|0,3:2|0:2,0:2:0:0:
454,323,4561,6,0,B|389:338|389:338|307:313|307:313|187:330,1,227.25,2|0,3:2|0:2,0:2:0:0:
240,151,4978,6,0,P|294:208|229:324,1,227.25,6|0,3:2|0:2,0:2:0:0:
171,97,5395,5,0,0:2:0:0:
240,151,5499,2,0,P|321:142|361:119,1,75.75,0|0,0:2|0:2,0:2:0:0:
440,59,5707,2,0,P|403:51|335:64,1,75.75,0|0,0:2|0:2,0:2:0:0:
412,179,5915,1,0,0:2:0:0:
482,229,6020,2,0,B|496:194|496:194|493:128,1,75.75,0|0,0:2|0:2,0:2:0:0:
159,182,6228,5,2,3:2:0:0:
297,261,6332,2,0,P|351:268|381:255,1,75.75,2|0,3:2|0:2,0:2:0:0:
174,350,6540,2,0,L|111:357,1,37.875,2|0,3:2|0:2,0:2:0:0:
108,39,6783,5,0,1:2:0:0:
143,164,6922,1,0,1:2:0:0:
21,134,7061,1,0,1:2:0:0:
198,226,7270,5,2,0:3:0:0:
221,232,7339,1,2,0:3:0:0:
245,228,7408,1,2,0:3:0:0:
270,219,7478,6,0,P|282:177|254:104,2,75.75,2|0|0,1:2|1:2|3:2,0:2:0:0:
284,336,7790,1,2,3:2:0:0:
286,233,7895,2,0,P|365:232|387:370,1,227.25,0|0,1:2|0:2,0:2:0:0:
134,320,8311,6,0,B|203:312|203:312|250:323|250:323|318:314|318:314|248:357,1,227.25,6|0,3:2|0:2,0:2:0:0:
34,299,8728,5,0,0:2:0:0:
97,227,8832,2,0,P|103:184|92:131,1,75.75,0|0,0:2|0:2,0:2:0:0:
96,29,9040,2,0,P|91:66|194:127,1,151.5,0|0,0:2|0:2,0:2:0:0:
251,49,9353,2,0,L|161:49,1,75.75,0|0,0:2|0:2,0:2:0:0:
393,90,9561,5,2,3:2:0:0:
270,213,9665,2,0,P|230:225|183:219,1,75.75,2|0,3:2|0:2,0:2:0:0:
385,313,9874,2,0,L|432:315,1,37.875,2|0,3:2|0:2,0:2:0:0:
276,334,10082,5,0,3:2:0:0:
250,354,10186,2,0,L|155:355,1,75.75,0|0,3:2|3:2,0:2:0:0:
106,247,10395,5,0,3:3:0:0:
52,193,10499,1,8,3:3:0:0:
106,139,10603,1,0,3:2:0:0:
159,193,10707,2,0,P|180:225|173:285,1,75.75,0|0,3:3|3:3,3:2:0:0:
483,82,10915,6,0,B|429:70|429:70|386:88|386:88|275:71,1,151.5,2|0,3:2|0:2,0:2:0:0:
106,59,11228,6,0,B|76:25|76:25|287:67,1,227.25,2|0,3:2|0:2,0:2:0:0:
290,157,11645,6,0,B|294:194|294:194|282:253,1,75.75,6|0,3:2|3:2,0:2:0:0:
201,297,11853,2,0,B|193:259|193:259|197:222,1,75.75,0|0,3:2|3:2,0:2:0:0:
370,258,12061,5,8,3:2:0:0:
440,285,12165,1,0,3:2:0:0:
411,356,12270,1,0,3:2:0:0:
341,327,12374,2,0,B|333:289|333:289|337:252,1,75.75,0|8,3:2|3:2,0:2:0:0:
369,160,12582,1,0,3:2:0:0:
269,181,12686,2,0,L|180:178,1,75.75,0|0,3:2|3:2,0:2:0:0:
129,42,12895,5,6,3:3:0:0:
180,270,12999,1,6,3:3:0:0:
253,102,13103,1,4,3:3:0:0:
50,211,13207,1,6,3:3:0:0:
110,146,13936,5,0,3:2:0:0:
148,223,14040,1,0,3:2:0:0:
201,152,14145,1,8,0:2:0:0:
97,145,14249,1,0,3:2:0:0:
146,243,14353,1,0,3:2:0:0:
154,73,14457,1,0,3:2:0:0:
106,323,14561,6,0,P|167:330|211:303,1,106.05,8|0,3:2|0:2,0:2:0:0:
234,298,14978,6,0,B|482:263|482:263|366:303,1,340.87501300335,4|0,3:2|0:2,0:2:0:0:
397,75,15395,5,8,3:2:0:0:
469,125,15499,2,0,P|499:158|509:201,1,90.8999972259522,0|2,0:2|0:2,0:2:0:0:
278,191,15707,2,0,P|288:147|318:114,1,90.8999972259522,0|0,0:2|3:2,0:2:0:0:
323,18,15915,1,0,0:2:0:0:
235,61,16020,2,0,L|130:57,1,90.8999972259522,2|0,0:2|0:2,0:2:0:0:
0,213,16228,5,8,3:2:0:0:
54,134,16332,2,0,P|87:164|100:207,1,90.8999972259522,0|2,0:2|0:2,0:2:0:0:
190,378,16540,2,0,L|300:376,1,90.8999972259522,0|0,0:2|3:2,0:2:0:0:
150,290,16749,1,0,0:2:0:0:
76,372,16853,6,0,B|73:316|73:316|57:292|57:292|72:268|72:268|71:158,1,170.437506501675,2|0,0:2|0:2,0:2:0:0:
100,207,17061,2,0,P|143:195|173:162,1,90.8999972259522,8|0,3:2|0:2,0:2:0:0:
299,336,17270,2,0,P|255:323|226:289,1,90.8999972259522,2|0,0:2|0:2,0:2:0:0:
315,92,17478,6,0,B|351:79|351:79|208:81,1,181.799994451904,0|2,3:2|0:2,0:2:0:0:
227,290,17790,2,0,P|307:264|326:231,1,90.8999972259522,0|8,0:2|3:2,0:2:0:0:
225,0,17999,2,0,P|145:26|126:59,1,90.8999972259522,0|2,0:2|0:2,0:2:0:0:
128,207,18207,6,0,B|142:243|142:243|128:340,1,90.8999972259522,0|0,0:2|3:2,0:2:0:0:
129,114,18415,1,0,0:0:0:0:
207,162,18520,2,0,P|313:171|341:160,1,90.8999972259522,2|0,0:2|0:2,0:2:0:0:
412,282,18728,5,8,3:2:0:0:
357,353,18832,2,0,P|327:306|329:263,1,90.8999972259522,0|2,0:2|0:2,0:2:0:0:
348,8,19040,6,0,L|347:69,1,45.4499986129761,0|0,0:2|0:2,0:2:0:0:
386,181,19145,2,0,L|267:172,1,90.8999972259522,0|0,3:2|0:2,0:2:0:0:
71,143,19353,5,2,0:2:0:0:
86,116,19422,1,2,0:2:0:0:
115,106,19492,1,2,0:2:0:0:
144,108,19561,6,0,P|189:119|245:107,2,90.8999972259522,8|0|2,3:2|0:2|0:2,0:2:0:0:
317,91,19874,1,0,0:2:0:0:
295,174,19978,2,0,B|305:220|305:220|293:327,1,90.8999972259522,0|0,3:2|0:2,0:2:0:0:
202,371,20186,2,0,B|197:327|197:327|207:281,1,90.8999972259522,2|0,0:2|0:2,0:2:0:0:
424,78,20395,5,8,3:2:0:0:
510,106,20499,1,0,0:2:0:0:
510,196,20603,1,2,0:2:0:0:
423,225,20707,1,0,0:2:0:0:
370,151,20811,6,0,P|236:123|277:252,1,318.149990290833,2|0,3:2|0:2,0:2:0:0:
267,248,21228,6,0,P|198:217|237:265,1,181.799994451904,2|0,3:2|3:2,0:2:0:0:
259,328,21540,5,2,3:2:0:0:
120,83,21749,5,0,3:2:0:0:
36,167,21853,2,0,B|80:176|80:176|167:160,1,90.8999972259522,2|0,3:2|0:2,0:2:0:0:
346,124,22061,5,12,3:2:0:0:
408,201,22165,2,0,P|357:220|306:212,1,90.8999972259522,0|2,0:2|0:2,0:2:0:0:
203,189,22374,2,0,P|169:158|156:115,1,90.8999972259522,0|0,0:2|3:2,0:2:0:0:
121,9,22582,1,0,0:2:0:0:
29,76,22687,2,0,L|39:206,1,90.8999972259522,2|0,0:2|0:2,0:2:0:0:
27,319,22895,5,8,3:2:0:0:
94,242,22999,2,0,P|137:228|181:238,1,90.8999972259522,0|2,0:2|0:2,0:2:0:0:
264,283,23207,2,0,P|298:313|311:357,1,90.8999972259522,0|0,0:2|3:2,0:2:0:0:
221,164,23415,1,0,0:2:0:0:
348,158,23520,6,0,P|376:112|364:39,1,113.62500433445,2|0,0:2|0:2,0:2:0:0:
170,87,23728,6,0,B|115:73|115:73|59:86,1,113.62500433445,8|0,3:2|0:2,0:2:0:0:
233,253,23936,1,2,0:2:0:0:
233,253,23988,1,0,0:2:0:0:
233,253,24040,1,0,0:2:0:0:
117,343,24145,6,0,B|187:333|187:333|224:343|224:343|272:335|272:335|299:312|299:312|414:294,1,272.699991677857,0|0,3:2|0:2,0:2:0:0:
404,182,24561,5,8,3:2:0:0:
319,129,24665,2,0,P|300:178|310:227,1,90.8999972259522,0|2,0:2|0:2,0:2:0:0:
495,184,24874,6,0,L|372:182,1,90.8999972259522,0|0,0:2|3:2,0:2:0:0:
137,95,25082,1,0,0:2:0:0:
198,27,25186,2,0,P|227:76|226:125,1,90.8999972259522,2|0,0:2|0:2,0:2:0:0:
169,280,25395,5,8,3:2:0:0:
113,199,25499,2,0,L|7:201,1,90.8999972259522,0|2,0:2|0:2,0:2:0:0:
189,300,25707,2,0,L|279:301,2,90.8999972259522,0|0|0,0:2|3:2|0:2,0:2:0:0:
242,98,26020,2,0,L|232:151,1,45.4499986129761,2|0,0:2|0:2,0:2:0:0:
265,68,26124,2,0,L|275:121,1,45.4499986129761,0|0,0:2|0:2,0:2:0:0:
361,148,26228,6,0,P|447:124|452:21,1,181.799994451904,8|0,3:2|0:2,0:2:0:0:
370,17,26540,2,0,L|380:64,1,45.4499986129761,2|0,3:2|0:2,0:2:0:0:
279,301,26853,1,0,0:2:0:0:
51,115,27061,5,0,0:2:0:0:
94,138,27165,1,0,0:2:0:0:
139,140,27270,1,0,0:2:0:0:
181,124,27374,6,0,L|213:105,4,22.7249993064881,0|0|0|0|0,0:2|0:2|0:2|0:2|0:2,0:2:0:0:
190,212,27582,1,0,0:2:0:0:
181,256,27686,2,0,L|173:305,2,45.4499986129761,0|0|0,0:2|0:2|0:2,0:2:0:0:
324,219,27895,6,0,B|357:209|359:237|403:223,6,75.75,0|0|0|0|0|0|0,0:2|0:2|0:2|0:2|0:2|0:2|0:2,0:2:0:0:
386,152,28311,6,0,B|459:76|459:76|404:343,1,340.87501300335,4|0,3:2|0:2,0:2:0:0:
149,310,28728,1,8,3:2:0:0:
159,216,28832,2,0,P|225:249|240:287,1,90.8999972259522,0|2,0:2|0:2,0:2:0:0:
30,326,29040,2,0,L|44:222,1,90.8999972259522,0|0,0:2|3:2,0:2:0:0:
131,119,29249,1,0,0:2:0:0:
22,55,29353,2,0,L|34:145,1,90.8999972259522,2|0,0:2|0:2,0:2:0:0:
255,126,29561,5,8,3:2:0:0:
227,30,29665,2,0,P|148:28|115:54,1,90.8999972259522,0|2,0:2|0:2,0:2:0:0:
238,145,29874,2,0,P|281:157|325:147,1,90.8999972259522,0|0,0:2|3:2,0:2:0:0:
429,43,30082,1,0,0:2:0:0:
415,160,30186,6,0,B|402:226|402:226|419:261|419:261|408:356,1,170.437506501675,0|0,0:2|0:2,0:2:0:0:
419,337,30395,2,0,P|473:324|507:280,1,113.62500433445,8|0,3:2|0:2,0:2:0:0:
249,227,30603,2,0,P|283:270|337:283,1,113.62500433445,2|0,0:2|0:2,0:2:0:0:
256,120,30811,6,0,B|172:91|172:91|67:123,1,181.799994451904,0|2,3:2|0:2,0:2:0:0:
149,294,31124,2,0,P|161:238|150:181,1,90.8999972259522,0|8,0:2|3:2,0:2:0:0:
31,342,31332,2,0,P|19:286|30:229,1,90.8999972259522,0|2,0:2|0:2,0:2:0:0:
290,336,31540,6,0,P|334:345|378:336,1,90.8999972259522,0|0,0:2|3:2,0:2:0:0:
462,120,31749,1,0,0:2:0:0:
359,167,31853,2,0,B|336:205|336:205|333:314,1,90.8999972259522,2|0,0:2|0:2,0:2:0:0:
467,133,32061,5,8,3:2:0:0:
368,83,32165,2,0,B|326:68|326:68|260:75,1,90.8999972259522,0|2,0:2|0:2,0:2:0:0:
65,287,32374,6,0,L|75:217,1,45.4499986129761,0|0,0:2|0:2,0:2:0:0:
23,158,32478,2,0,P|71:146|112:156,1,90.8999972259522,0|0,3:2|0:2,0:2:0:0:
336,237,32686,5,0,0:2:0:0:
308,251,32756,1,0,0:2:0:0:
277,253,32825,1,0,0:2:0:0:
248,243,32895,6,0,P|206:230|149:238,2,90.8999972259522,8|0|2,3:2|0:2|0:2,0:2:0:0:
331,331,33207,1,0,0:2:0:0:
416,288,33311,2,0,L|523:282,1,90.8999972259522,0|0,3:2|0:2,0:2:0:0:
245,355,33520,2,0,L|154:359,1,90.8999972259522,0|0,3:2|0:2,0:2:0:0:
72,115,33728,5,0,3:2:0:0:
159,144,33832,1,0,3:2:0:0:
159,234,33936,1,2,0:2:0:0:
72,263,34040,1,0,0:2:0:0:
19,189,34145,5,0,3:2:0:0:
98,189,34249,2,0,L|254:191,1,90.8999972259522,0|2,0:2|0:2,0:2:0:0:
348,174,34457,1,0,3:2:0:0:
278,119,34561,1,2,3:2:0:0:
294,258,34665,2,0,P|297:349|274:385,1,90.8999972259522,2|0,3:2|0:2,0:2:0:0:
24,305,34874,6,0,B|73:323|108:280|108:280|156:264|191:294,1,170.437506501675,2|0,1:2|0:2,0:2:0:0:
251,332,35256,6,0,L|261:378,2,37.8750014448166,0|0|0,3:0|3:0|3:0,0:0:0:0:
267,93,35533,1,2,3:1:0:0:
435,271,35672,1,2,3:1:0:0:
231,200,35811,1,2,3:1:0:0:
324,188,35950,1,2,3:1:0:0:
271,110,36089,1,2,3:1:0:0:
262,258,36228,6,0,B|210:278|164:245|164:245|142:234|102:247,1,142.031255418062,0|0,3:0|0:0,0:0:0:0:
126,241,36540,6,0,P|115:242|139:234,1,181.799994451904,2|0,3:2|0:2,0:2:0:0:
281,185,37061,6,0,B|379:147|439:237|515:186|534:111|534:111|473:177|431:148,1,386.325007368565,14|0,3:2|0:2,0:2:0:0:
250,103,37478,6,0,P|210:124|192:165,1,90.8999972259522,0|0,3:2|0:2,0:2:0:0:
339,246,37686,2,0,P|320:205|280:184,1,90.8999972259522,2|0,0:2|0:2,0:2:0:0:
81,211,37895,1,8,3:2:0:0:
157,271,37999,2,0,B|203:280|203:280|273:263,1,90.8999972259522,0|2,0:2|0:2,0:2:0:0:
503,190,38207,6,0,L|328:193,1,90.8999972259522,0|0,0:2|3:2,0:2:0:0:
338,324,38415,1,0,0:2:0:0:
421,373,38520,2,0,P|432:327|415:262,1,90.8999972259522,2|0,0:2|0:2,0:2:0:0:
280,55,38728,5,8,3:2:0:0:
215,119,38832,1,0,0:2:0:0:
280,183,38936,1,2,0:2:0:0:
344,119,39040,1,0,0:2:0:0:
280,55,39145,6,0,P|168:92|148:194,1,181.799994451904,2|0,3:2|0:2,0:2:0:0:
160,313,39457,6,0,P|190:230|181:200,2,90.8999972259522,2|8|0,3:2|0:2|0:2,0:2:0:0:
54,269,39770,6,0,P|76:208|80:273,1,181.799994451904,6|0,3:2|3:2,0:2:0:0:
57,339,40290,1,0,3:0:0:0:
52,373,40395,1,0,1:2:0:0:
230,122,40603,5,0,3:2:0:0:
241,197,40707,1,0,3:2:0:0:
251,272,40811,1,8,1:2:0:0:
305,123,41020,5,0,3:2:0:0:
294,198,41124,1,0,3:2:0:0:
284,272,41228,1,8,1:2:0:0:
184,95,41436,5,0,3:2:0:0:
200,208,41540,1,0,3:2:0:0:
215,320,41644,1,8,1:2:0:0:
358,96,41853,5,0,3:2:0:0:
342,209,41957,1,0,3:2:0:0:
327,321,42061,1,8,1:2:0:0:
154,84,42270,5,0,3:2:0:0:
173,220,42374,1,0,3:2:0:0:
191,355,42478,1,8,1:2:0:0:
389,87,42686,5,0,3:2:0:0:
370,223,42790,1,0,3:2:0:0:
344,354,42895,5,8,1:2:0:0:
357,354,42964,1,0,0:2:0:0:
369,354,43033,1,0,0:2:0:0:
383,354,43103,2,0,L|453:352,2,50.5,0|0|0,0:2|0:2|0:2,0:2:0:0:
276,272,43311,5,6,3:1:0:0:
190,104,46020,6,0,P|274:192|250:98,1,303,2|0,3:2|0:2,0:2:0:0:
201,132,46332,6,0,P|213:191|249:142,1,151.5,2|0,3:2|0:2,0:2:0:0:
59,197,46645,6,0,P|56:251|92:329,1,98.4749954921725,6|0,3:2|0:2,0:2:0:0:
236,272,46853,5,2,0:2:0:0:
213,295,46922,1,0,0:2:0:0:
201,325,46992,1,0,0:2:0:0:
202,357,47061,1,8,3:2:0:0:
289,341,47165,2,0,P|359:341|403:303,1,98.4749954921725,0|2,0:2|0:2,0:2:0:0:
319,156,47374,6,0,P|308:231|332:287,2,98.4749954921725,0|0|0,0:2|3:2|0:2,0:2:0:0:
495,199,47686,2,0,L|394:213,1,98.4749954921725,2|0,0:2|0:2,0:2:0:0:
73,153,47895,1,8,3:2:0:0:
153,174,47999,1,0,0:2:0:0:
220,124,48103,6,0,P|170:93|95:98,1,98.4749954921725,2|0,0:2|0:2,0:2:0:0:
46,286,48311,2,0,L|176:276,1,98.4749954921725,0|0,3:2|0:2,0:2:0:0:
325,343,48520,2,0,L|195:333,1,98.4749954921725,2|0,0:2|0:2,0:2:0:0:
475,347,48728,6,0,B|420:345|420:345|387:333|387:333|325:353|325:353|302:341|302:341|172:331,1,257.550004912376,8|2,3:2|0:2,0:2:0:0:
84,194,49040,1,0,0:2:0:0:
222,243,49145,6,0,L|354:254,1,98.4749954921725,0|0,3:2|0:2,0:2:0:0:
287,109,49353,1,2,0:2:0:0:
195,64,49457,2,0,P|188:136|212:176,2,98.4749954921725,0|8|0,0:2|3:2|0:2,0:2:0:0:
384,91,49770,2,0,L|287:109,1,98.4749954921725,2|0,0:2|0:2,0:2:0:0:
170,326,49978,2,0,B|216:338|216:338|313:324,1,98.4749954921725,0|0,3:2|0:2,0:2:0:0:
410,232,50186,5,2,0:2:0:0:
404,264,50256,1,0,0:2:0:0:
400,296,50325,1,0,0:2:0:0:
395,328,50395,1,8,3:2:0:0:
482,345,50499,2,0,L|495:226,1,98.4749954921725,0|2,0:2|0:2,0:2:0:0:
353,124,50707,6,0,P|396:147|445:152,2,98.4749954921725,0|0|0,0:2|3:2|0:2,0:2:0:0:
141,127,51020,2,0,L|151:249,1,98.4749954921725,2|0,0:2|0:2,0:2:0:0:
24,380,51228,1,8,3:2:0:0:
73,316,51332,1,0,0:2:0:0:
151,324,51436,6,0,B|188:322|188:322|193:326|193:326|197:322|197:322|291:317,1,98.4749954921725,2|0,0:2|0:2,0:2:0:0:
333,371,51645,2,0,P|341:293|308:247,1,98.4749954921725,0|0,3:2|0:2,0:2:0:0:
279,111,51853,6,0,P|267:158|279:205,1,98.4749954921725,2|0,0:2|0:2,0:2:0:0:
463,160,52061,2,0,L|325:157,1,98.4749954921725,8|0,3:2|0:2,0:2:0:0:
32,207,52270,1,2,0:2:0:0:
103,183,52374,1,0,0:2:0:0:
174,160,52478,2,0,P|170:247|149:274,1,98.4749954921725,0|0,3:2|0:2,0:2:0:0:
14,82,52686,5,2,0:2:0:0:
85,36,52790,1,0,0:2:0:0:
163,73,52895,1,8,3:2:0:0:
174,160,52999,1,0,0:2:0:0:
91,119,53103,1,2,0:2:0:0:
242,30,53207,1,0,0:2:0:0:
260,198,53311,6,0,B|331:191|331:191|387:210|387:210|453:200,1,196.949990984345,0|2,3:2|0:2,0:2:0:0:
486,103,53624,2,0,L|344:125,2,98.4749954921725,0|8|0,0:2|3:2|0:2,0:2:0:0:
185,157,53936,1,2,0:2:0:0:
187,239,54040,1,0,0:2:0:0:
260,198,54145,6,0,P|250:104|157:77,1,196.949990984345,0|2,3:2|0:2,0:2:0:0:
90,154,54457,2,0,P|137:168|185:157,2,98.4749954921725,0|8|0,0:2|3:2|0:2,0:2:0:0:
53,82,54770,1,2,0:2:0:0:
148,267,54874,6,0,P|227:282|285:253,1,98.4749954921725,0|0,0:2|0:2,0:2:0:0:
345,191,55082,2,0,P|280:220|336:334,1,196.949990984345,2|0,3:2|0:2,0:2:0:0:
414,218,55395,6,0,P|366:223|341:264,1,98.4749954921725,2|0,3:2|0:2,0:2:0:0:
484,339,55603,2,0,P|458:298|411:292,1,98.4749954921725,2|0,3:2|0:2,0:2:0:0:
350,334,55811,1,0,0:2:0:0:
341,360,55915,2,0,L|306:369,8,24.6187488730431,0|0|0|0|0|0|0|0|0,0:2|0:2|0:2|0:2|0:2|0:2|0:2|0:2|0:2,0:2:0:0:
127,293,56228,5,0,0:2:0:0:
120,244,56332,1,0,0:2:0:0:
114,195,56436,1,0,0:2:0:0:
108,146,56540,1,0,0:2:0:0:
100,95,56645,6,0,B|238:56|230:164|381:99,1,265.125,6|0,3:1|0:2,0:2:0:0:
358,109,57061,6,0,B|260:66|266:148|161:119,1,189.375,2|0,3:1|0:2,0:2:0:0:
175,122,57374,6,0,B|265:95|259:178|357:135,1,189.375,2|0,3:1|0:2,0:2:0:0:
355,136,57686,6,0,P|314:177|387:258,1,189.375,2|0,3:1|0:2,0:2:0:0:
384,258,57999,6,0,P|370:232|370:264,1,75.75,2|0,3:1|0:2,0:2:0:0:
378,338,58207,5,2,3:1:0:0:
381,357,58520,6,0,P|307:357|227:291,1,151.5,0|0,0:2|0:2,0:2:0:0:
226,205,58832,1,0,0:2:0:0:
197,230,58936,6,0,P|139:237|48:173,1,151.5,0|0,0:2|0:2,0:2:0:0:
151,152,59249,1,0,0:2:0:0:
176,123,59353,1,0,3:2:0:0:
155,84,59457,1,0,3:2:0:0:
51,67,59561,5,8,0:2:0:0:
128,119,59665,2,0,P|164:131|202:128,1,75.75,0|0,0:2|3:2,0:2:0:0:
396,46,59978,6,0,P|313:80|413:146,1,265.125,6|0,3:1|0:2,0:2:0:0:
412,146,60395,6,0,P|346:155|412:223,1,189.375,2|0,3:2|0:2,0:1:0:0:
392,231,60707,6,0,B|301:198|317:283|192:238,1,189.375,2|0,3:1|0:2,0:2:0:0:
209,243,61020,6,0,P|221:183|231:257,1,189.375,2|0,3:1|0:2,0:2:0:0:
264,249,61332,6,0,P|246:289|272:363,1,113.625,2|0,3:1|0:2,0:2:0:0:
263,353,61540,6,0,P|189:313|95:355,1,189.375,2|0,3:1|0:2,0:2:0:0:
97,351,61853,6,0,P|129:299|131:252,1,75.75,2|0,3:1|0:2,0:2:0:0:
151,193,62061,1,0,0:2:0:0:
176,172,62165,2,0,P|185:142|164:73,1,75.75,0|0,0:2|0:2,0:2:0:0:
94,49,62374,2,0,L|48:45,2,37.875,0|0|0,0:2|0:2|0:2,0:2:0:0:
268,111,62582,6,0,L|360:111,2,75.75,0|2|0,0:2|3:2|0:2,0:2:0:0:
258,211,62895,2,0,L|256:266,2,37.875,8|0|2,0:2|0:2|3:2,0:2:0:0:
358,291,63103,2,0,L|356:253,2,37.875,0|0|0,0:2|0:2|0:2,0:2:0:0:
145,335,63311,6,0,P|77:266|143:115,1,265.125,6|0,3:1|0:2,0:2:0:0:
128,123,63728,6,0,P|113:173|2:130,1,189.375,2|0,3:1|0:2,0:2:0:0:
4,147,64040,6,0,P|19:97|130:140,1,189.375,2|0,3:1|0:2,0:2:0:0:
128,122,64353,6,0,P|132:58|254:16,1,189.375,2|0,3:1|0:2,0:2:0:0:
233,8,64665,6,0,P|253:52|237:106,1,75.75,2|0,3:1|0:2,0:2:0:0:
235,178,64874,1,2,3:1:0:0:
439,168,65186,6,0,P|451:108|441:76,2,75.75,0|0|0,0:2|0:2|0:2,0:2:0:0:
401,263,65499,1,0,0:2:0:0:
388,298,65603,1,0,0:2:0:0:
378,334,65707,2,0,L|365:377,2,37.875,0|0|0,0:2|0:2|0:2,0:2:0:0:
238,170,66020,5,0,3:2:0:0:
325,103,66124,1,0,3:2:0:0:
221,59,66228,2,0,P|185:73|94:34,1,113.625,8|0,0:2|0:2,0:2:0:0:
114,55,66436,2,0,P|94:38|80:18,2,37.875,0|0|0,0:2|0:2|0:2,0:2:0:0:
116,237,66645,6,0,L|123:183,4,37.875,6|0|0|0|0,3:1|0:2|0:2|0:2|0:2,0:2:0:0:
396,237,67061,6,0,L|389:183,4,37.875,2|0|0|0|0,3:1|0:2|0:2|0:2|0:2,0:2:0:0:
155,343,67374,6,0,L|162:289,4,37.875,2|0|0|0|0,3:1|0:2|0:2|0:2|0:2,0:2:0:0:
355,342,67686,6,0,L|348:288,4,37.875,2|0|0|0|0,3:1|0:2|0:2|0:2|0:2,0:2:0:0:
251,246,67999,6,0,L|253:176,2,37.875,2|0|0,3:1|0:2|0:2,0:2:0:0:
288,132,68207,6,0,P|252:123|216:134,1,75.75,2|0,3:1|0:2,0:2:0:0:
134,168,68415,1,0,0:2:0:0:
114,185,68520,1,2,3:1:0:0:
97,198,68589,6,0,L|32:198,2,50.5,0|0|0,0:2|0:2|0:2,0:2:0:0:
200,246,68797,2,0,L|265:246,2,50.5,0|0|0,0:2|0:2|0:2,0:2:0:0:
139,312,69006,5,0,0:2:0:0:
133,321,69075,1,0,0:2:0:0:
127,328,69145,6,0,L|123:375,2,37.875,0|0|0,0:2|0:2|0:2,0:2:0:0:
246,339,69353,2,0,L|242:301,2,37.875,0|0|0,3:2|0:2|0:2,0:2:0:0:
355,348,69561,6,0,L|385:347,12,18.9375,0|0|0|0|0|0|0|0|0|0|0|0|0,0:2|0:2|0:2|0:2|3:2|0:2|0:2|0:2|0:2|0:2|0:2|0:2|0:2,0:2:0:0:
334,350,69978,5,2,3:2:0:0:
256,192,71645,12,8,72895,0:2:0:0:
430,104,73311,6,0,L|294:87,1,128.775002456188,4|0,3:2|0:2,0:2:0:0:
131,175,73520,2,0,L|267:158,1,128.775002456188,2|0,0:2|0:2,0:2:0:0:
71,103,73728,2,0,P|36:154|51:221,1,128.775002456188,8|0,3:2|0:2,0:2:0:0:
187,319,73936,1,2,0:2:0:0:
248,246,74040,2,0,P|277:284|259:382,1,128.775002456188,0|0,0:2|3:2,0:2:0:0:
108,357,74249,6,0,B|61:352|61:352|29:369|29:369|-33:365,2,128.775002456188,0|2|0,0:2|0:2|0:2,0:2:0:0:
187,319,74561,1,8,3:2:0:0:
67,262,74665,1,0,0:2:0:0:
193,341,74770,1,2,0:2:0:0:
141,192,74874,1,0,0:2:0:0:
273,361,74978,6,0,P|367:362|401:336,1,128.775002456188,0|0,3:2|0:2,0:2:0:0:
512,194,75186,2,0,B|463:184|463:184|352:206,1,128.775002456188,2|0,0:2|0:2,0:2:0:0:
141,113,75395,2,0,P|144:52|184:1,1,128.775002456188,8|0,3:2|0:2,0:2:0:0:
277,200,75603,1,2,0:2:0:0:
154,207,75707,2,0,L|-3:205,1,128.775002456188,0|0,0:2|3:2,0:2:0:0:
299,286,75915,5,0,0:2:0:0:
299,286,75968,1,0,0:2:0:0:
299,286,76020,2,0,L|433:286,1,128.775002456188,2|0,0:2|0:2,0:2:0:0:
427,70,76228,1,8,3:2:0:0:
496,231,76332,1,0,0:2:0:0:
439,100,76436,1,2,0:2:0:0:
415,201,76540,1,0,0:2:0:0:
512,78,76645,6,0,B|439:66|439:66|390:84|390:84|347:91|249:66|249:66|294:74|325:86|365:142,1,386.325007368565,0|0,3:2|0:2,0:2:0:0:
390,195,77061,2,0,P|303:194|267:130,1,128.775002456188,8|0,3:2|0:2,0:2:0:0:
250,66,77270,5,2,0:2:0:0:
174,199,77374,1,0,0:2:0:0:
348,121,77478,1,0,3:2:0:0:
254,253,77582,2,0,B|221:304|221:304|224:391,1,128.775002456188,0|2,0:2|0:2,0:2:0:0:
441,324,77790,6,0,B|380:311|380:311|316:330,1,128.775002456188,0|8,0:1|3:2,0:2:0:0:
49,193,77999,2,0,B|112:212|112:212|173:199,1,128.775002456188,0|2,0:1|0:2,0:2:0:0:
493,116,78207,6,0,B|526:93|526:93|291:71,1,257.550004912376,0|0,3:2|0:2,0:2:0:0:
159,86,78520,6,0,P|192:139|130:221,1,128.775002456188,2|0,3:2|0:2,0:2:0:0:
37,304,78728,2,0,L|178:305,1,128.775002456188,8|0,3:2|0:2,0:2:0:0:
328,242,78936,5,2,0:2:0:0:
344,213,79006,1,0,0:2:0:0:
346,180,79075,1,0,0:2:0:0:
327,152,79145,6,0,P|294:91|310:12,1,128.775002456188,0|0,3:2|0:2,0:2:0:0:
483,231,79353,5,2,0:2:0:0:
459,257,79422,1,0,0:2:0:0:
428,269,79492,1,0,0:2:0:0:
395,270,79561,6,0,L|241:273,1,128.775002456188,8|0,3:2|0:2,0:2:0:0:
103,171,79770,2,0,L|201:168,1,98.4749954921725,2|0,0:2|0:2,0:2:0:0:
175,377,79978,6,0,B|159:331|159:331|178:241,1,128.775002456188,4|0,3:2|0:2,0:2:0:0:
201,44,80186,2,0,B|217:122|217:122|201:168,1,128.775002456188,2|0,0:2|0:2,0:2:0:0:
46,254,80395,2,0,L|201:252,1,128.775002456188,8|0,3:2|0:2,0:2:0:0:
341,311,80603,1,2,0:2:0:0:
399,235,80707,2,0,P|352:217|264:252,1,128.775002456188,0|0,0:2|3:2,0:2:0:0:
419,368,80915,6,0,B|467:373|467:373|494:354|494:354|564:358,2,128.775002456188,0|2|0,0:2|0:2|0:2,0:2:0:0:
211,157,81228,1,8,3:2:0:0:
224,335,81332,1,0,0:2:0:0:
203,134,81436,1,2,0:2:0:0:
320,314,81540,1,0,0:2:0:0:
193,111,81645,6,0,P|80:109|47:130,1,128.775002456188,0|0,3:2|0:2,0:2:0:0:
18,234,81853,2,0,P|79:250|141:237,1,128.775002456188,2|0,0:2|0:2,0:2:0:0:
327,42,82061,2,0,P|292:133|334:204,1,128.775002456188,8|0,3:2|0:2,0:2:0:0:
415,236,82270,1,2,0:2:0:0:
512,121,82374,2,0,L|377:116,1,128.775002456188,0|0,0:2|3:2,0:2:0:0:
191,235,82582,5,0,0:2:0:0:
191,235,82634,1,0,0:2:0:0:
191,235,82686,2,0,L|338:237,1,128.775002456188,2|0,0:2|0:2,0:2:0:0:
95,76,82895,1,8,3:2:0:0:
93,264,82999,1,0,0:2:0:0:
107,105,83103,1,2,0:2:0:0:
175,208,83207,1,0,0:2:0:0:
42,159,83311,6,0,B|-7:173|-1:220|-1:220|57:239|83:261|89:367,1,227.25,0|0,3:2|0:2,0:2:0:0:
85,324,83728,6,0,P|134:297|201:313,1,98.4749954921725,8|0,3:2|0:2,0:2:0:0:
298,323,83936,1,2,0:2:0:0:
256,180,84040,5,0,3:2:0:0:
256,180,84093,1,0,3:2:0:0:
256,180,84145,1,2,3:1:0:0:
364,230,84249,6,0,L|445:237,1,49.2374977460862,2|0,3:1|0:2,0:2:0:0:
130,197,84457,2,0,L|49:204,1,64.3875012280941,2|0,3:1|0:1,0:1:0:0:
413,234,84665,2,0,L|494:241,1,64.3875012280941,2|0,3:1|0:1,0:1:0:0:
66,203,84874,6,0,B|10:182|10:182|228:172,1,257.550004912376,4|0,3:1|0:1,0:1:0:0:
291,139,85186,6,0,P|288:200|260:252,1,87.1125016615391,2|0,3:2|0:2,0:2:0:0:
302,135,85395,6,0,P|302:184|287:231,1,98.4749954921725,2|0,0:2|0:2,0:2:0:0:
315,134,85603,6,0,P|312:195|273:273,1,109.837503351975,2|0,0:2|0:2,0:2:0:0:
324,133,85811,6,0,P|322:193|300:250,1,121.2,2|0,0:2|0:2,0:2:0:0:
335,132,86020,6,0,P|332:193|287:286,1,132.562501264215,2|0,0:2|0:2,0:2:0:0:
115,318,86228,6,0,B|83:319|83:319|73:315|73:315|22:317,7,75.75,2|0|0|0|0|0|0|0,0:2|0:2|0:2|0:2|0:2|0:2|0:2|0:2,0:2:0:0:
195,374,86645,6,0,P|295:369|335:308,1,136.349995838928,4|0,3:2|0:2,0:2:0:0:
473,264,86853,2,0,B|419:259|419:259|394:273|394:273|313:265,1,136.349995838928,2|0,0:2|0:2,0:2:0:0:
160,197,87061,1,8,3:2:0:0:
335,47,87165,2,0,P|346:123|304:181,1,136.349995838928,0|2,0:2|0:2,0:2:0:0:
104,266,87374,6,0,P|72:207|85:141,1,136.349995838928,0|0,0:2|3:2,0:2:0:0:
255,96,87582,1,0,0:2:0:0:
160,197,87686,2,0,B|123:217|123:217|1:214,1,136.349995838928,2|0,0:2|0:2,0:2:0:0:
123,63,87895,2,0,B|217:60|217:60|254:80,1,136.349995838928,8|0,3:2|0:2,0:2:0:0:
384,248,88103,1,2,0:2:0:0:
298,295,88207,6,0,P|284:229|316:170,1,136.349995838928,0|0,0:2|3:2,0:2:0:0:
429,66,88415,1,0,0:2:0:0:
429,66,88467,1,0,0:2:0:0:
429,66,88520,1,2,0:2:0:0:
315,170,88624,1,0,0:2:0:0:
205,39,88728,2,0,P|140:22|81:53,1,136.349995838928,8|0,3:2|0:2,0:2:0:0:
63,202,88936,1,2,0:0:0:0:
148,244,89040,6,0,B|171:173|171:173|146:93,1,136.349995838928,0|0,0:2|3:2,0:2:0:0:
22,288,89249,1,0,0:2:0:0:
107,334,89353,2,0,P|176:339|235:295,1,136.349995838928,2|0,0:2|0:2,0:2:0:0:
399,26,89561,6,0,P|368:93|387:171,1,136.349995838928,8|0,3:2|0:2,0:2:0:0:
512,371,89770,2,0,P|520:304|490:244,1,136.349995838928,2|0,0:2|0:2,0:2:0:0:
242,94,89978,5,2,3:1:0:0:
228,119,90047,1,0,0:2:0:0:
214,142,90117,2,0,B|211:166|211:166|230:230,1,90.8999972259522,2|0,3:1|0:2,0:2:0:0:
294,302,90256,2,0,B|312:237|312:237|310:213,1,90.8999972259522,2|0,3:1|0:2,0:2:0:0:
86,104,90395,6,0,B|164:79|209:134|209:134|325:158|395:90|395:90|329:89|260:116,1,409.049987516785,10|0,3:1|0:2,0:2:0:0:
133,181,90811,5,0,3:2:0:0:
229,229,90915,1,0,0:2:0:0:
339,217,91020,2,0,B|404:205|404:205|475:223,1,136.349995838928,2|0,0:2|0:2,0:2:0:0:
321,97,91228,1,8,3:2:0:0:
317,225,91332,2,0,P|316:308|271:356,1,136.349995838928,0|2,0:2|0:2,0:2:0:0:
101,349,91540,6,0,L|33:347,1,68.1749979194642,2|0,3:1|0:2,0:2:0:0:
5,332,91749,2,0,L|147:336,1,136.349995838928,2|2,0:1|3:2,0:2:0:0:
213,141,91957,5,0,0:2:0:0:
213,141,92009,1,0,0:2:0:0:
213,141,92061,2,0,B|224:188|224:188|202:270,2,90.8999972259522,0|0|0,3:2|0:2|0:2,0:2:0:0:
277,105,92270,2,0,L|88:108,1,136.349995838928,2|0,0:2|0:2,0:2:0:0:
124,265,92478,5,0,3:2:0:0:
213,230,92582,1,0,0:2:0:0:
307,241,92686,1,2,0:2:0:0:
380,301,92790,1,0,0:2:0:0:
303,349,92895,6,0,P|217:355|163:273,1,136.349995838928,8|0,3:2|0:2,0:2:0:0:
41,183,93103,2,0,P|97:147|162:160,1,136.349995838928,2|0,0:2|0:2,0:2:0:0:
452,196,93311,6,0,B|250:191|250:191|291:198|337:236,1,272.699991677857,4|2,3:2|0:2,0:2:0:0:
416,273,93624,1,0,0:2:0:0:
316,100,93728,1,8,3:2:0:0:
248,270,93832,2,0,L|89:274,1,136.349995838928,0|2,0:2|0:2,0:2:0:0:
156,35,94040,6,0,P|183:105|145:175,1,136.349995838928,0|0,0:2|3:2,0:2:0:0:
12,229,94249,1,0,0:2:0:0:
94,106,94353,2,0,B|132:92|132:92|334:98,1,136.349995838928,2|0,0:2|0:2,0:2:0:0:
493,192,94561,2,0,B|455:206|455:206|253:200,1,136.349995838928,8|0,3:2|0:2,0:2:0:0:
248,270,94770,1,2,0:2:0:0:
336,228,94874,6,0,P|344:296|287:358,1,136.349995838928,0|0,0:2|3:2,0:2:0:0:
100,265,95082,1,0,0:2:0:0:
100,265,95134,1,0,0:2:0:0:
100,265,95186,1,2,0:2:0:0:
194,203,95290,1,0,0:2:0:0:
96,145,95395,6,0,P|86:41|126:-23,1,136.349995838928,8|0,3:2|0:2,0:2:0:0:
201,88,95603,1,2,0:0:0:0:
1,188,95707,1,0,3:2:0:0:
326,73,95915,5,2,0:2:0:0:
374,160,96020,2,0,P|413:125|391:6,1,136.349995838928,2|0,3:2|0:2,0:2:0:0:
239,254,96228,6,0,L|397:255,1,136.349995838928,10|0,3:2|0:2,0:2:0:0:
512,256,96436,2,0,L|375:255,1,136.349995838928,2|0,3:2|0:2,0:2:0:0:
157,251,96645,6,0,P|199:177|205:262,1,227.25,2|0,3:2|0:2,0:2:0:0:
246,347,97061,5,0,3:0:0:0:
279,344,97131,1,0,3:0:0:0:
314,337,97200,1,0,3:0:0:0:
336,323,97270,1,0,3:0:0:0:
350,302,97339,1,0,3:0:0:0:
360,279,97408,1,0,3:0:0:0:
359,252,97478,6,0,P|328:185|352:115,1,151.5,2|0,3:1|0:2,0:2:0:0:
212,94,97790,2,0,B|279:54|282:139|352:115,1,151.5,2|0,3:1|0:2,0:2:0:0:
72,113,98103,6,0,B|141:138|144:53|212:94,1,151.5,2|0,3:1|0:2,0:2:0:0:
63,250,98415,2,0,P|94:183|72:113,1,151.5,2|0,3:1|0:2,0:2:0:0:
140,306,98728,6,0,B|67:295|67:295|-12:338,1,151.5,2|0,3:1|0:2,0:2:0:0:
282,281,99040,2,0,B|213:317|213:317|140:306,1,151.5,2|0,3:1|0:2,0:2:0:0:
263,189,99353,1,2,3:1:0:0:
198,111,99457,6,0,P|167:147|163:196,1,75.75,2|0,0:1|0:2,0:2:0:0:
501,165,99665,2,0,P|490:129|463:102,1,75.75,2|0,3:1|0:2,0:2:0:0:
324,371,99874,5,2,3:1:0:0:
256,192,99978,12,8,101228,0:2:0:0:
452,212,101645,6,0,P|337:187|261:270,1,227.25,6|0,3:2|0:2,0:2:0:0:
134,323,102061,1,0,0:2:0:0:
80,269,102165,1,0,0:2:0:0:
134,215,102270,1,0,0:2:0:0:
187,269,102374,1,0,0:2:0:0:
187,269,102686,1,0,0:2:0:0:
169,75,102895,5,2,3:2:0:0:
278,206,102999,2,0,P|358:202|392:188,1,75.75,2|0,3:2|0:2,0:2:0:0:
116,313,103207,2,0,L|43:312,1,37.875,2|0,3:2|0:2,0:2:0:0:
134,323,103520,5,0,0:2:0:0:
210,370,103624,2,0,P|274:368|304:359,1,75.75,0|0,0:2|0:2,0:2:0:0:
395,286,103832,2,0,P|331:284|301:275,1,75.75,0|0,0:2|0:2,0:2:0:0:
224,205,104040,2,0,P|231:266|208:300,1,75.75,0|0,0:2|0:2,0:2:0:0:
52,123,104249,6,0,L|232:112,1,151.5,2|0,3:2|0:2,0:2:0:0:
444,210,104561,6,0,B|341:166|318:265|196:190,1,227.25,2|0,3:2|0:2,0:2:0:0:
240,28,104978,6,0,P|291:122|222:204,1,227.25,2|0,3:2|0:2,0:2:0:0:
143,175,105395,1,0,0:2:0:0:
116,148,105499,1,0,0:2:0:0:
90,120,105603,1,0,0:2:0:0:
12,156,105707,5,0,0:2:0:0:
12,193,105811,1,0,0:2:0:0:
12,230,105915,1,0,0:2:0:0:
12,268,106020,2,0,L|9:360,1,75.75,0|0,0:2|0:2,0:2:0:0:
223,301,106228,5,2,3:2:0:0:
143,175,106332,2,0,P|111:173|34:193,1,75.75,2|0,3:2|0:2,0:2:0:0:
252,92,106540,2,0,L|301:86,1,37.875,2|0,3:2|0:2,0:2:0:0:
131,96,106783,5,0,1:2:0:0:
61,3,106922,1,0,1:2:0:0:
12,104,107061,1,0,1:2:0:0:
289,87,107270,5,2,0:3:0:0:
299,110,107339,1,2,0:3:0:0:
301,135,107408,1,2,0:3:0:0:
293,159,107478,6,0,B|276:191|276:191|282:261,2,75.75,2|0|0,1:2|1:2|3:2,0:2:0:0:
181,226,107790,1,0,3:2:0:0:
224,308,107895,2,0,P|310:309|373:237,1,151.5,2|0,1:2|0:2,0:2:0:0:
424,170,108207,1,0,0:2:0:0:
254,44,108311,6,0,B|96:56|96:56|204:66,1,227.25,2|0,3:2|0:2,0:2:0:0:
164,62,108728,1,0,0:2:0:0:
171,69,109353,1,0,0:2:0:0:
329,73,109561,5,2,3:2:0:0:
186,195,109665,2,0,L|87:203,1,75.75,2|0,3:2|0:2,0:2:0:0:
287,331,109874,2,0,L|343:334,1,37.875,2|0,3:2|0:2,0:2:0:0:
439,210,110082,5,0,3:2:0:0:
349,174,110186,1,0,3:2:0:0:
258,210,110290,1,0,3:2:0:0:
172,235,110395,5,8,3:3:0:0:
102,199,110499,1,8,3:3:0:0:
99,127,110603,1,0,3:2:0:0:
148,66,110707,2,0,P|210:59|249:60,1,75.75,8|8,3:3|3:3,0:2:0:0:
223,320,110915,6,0,P|143:337|79:278,1,151.5,2|0,3:2|0:2,0:2:0:0:
304,305,111228,6,0,B|351:296|351:296|404:310|404:310|486:302|486:302|427:320,1,227.25,2|0,3:2|0:2,0:2:0:0:
247,243,111645,6,0,L|166:235,1,79.5374975727082,2|0,3:2|3:2,0:2:0:0:
410,228,111853,2,0,L|491:219,1,79.5374975727082,0|0,3:2|3:2,0:2:0:0:
228,64,112061,5,8,3:2:0:0:
175,118,112165,1,0,3:2:0:0:
121,64,112270,1,0,3:2:0:0:
174,8,112374,6,0,B|205:26|205:26|239:82,1,79.5374975727082,0|8,3:0|3:2,0:0:0:0:
410,228,112582,1,0,3:2:0:0:
461,157,112686,2,0,B|423:142|423:142|354:149,1,79.5374975727082,0|0,3:0|3:0,0:0:0:0:
181,270,112895,5,14,3:3:0:0:
284,177,112999,1,6,3:3:0:0:
90,150,113103,1,4,3:3:0:0:
171,382,113207,1,6,3:3:0:0:
256,192,113311,12,0,116645,0:2:0:0:
