osu file format v14

[General]
AudioFilename: audio.mp3
AudioLeadIn: 0
PreviewTime: 73207
Countdown: 0
SampleSet: Soft
StackLeniency: 0.4
Mode: 0
LetterboxInBreaks: 0
WidescreenStoryboard: 1

[Editor]
DistanceSpacing: 1.7
BeatDivisor: 8
GridSize: 32
TimelineZoom: 2.6

[Metadata]
Title:Routing
TitleUnicode:Routing
Artist:Camellia
ArtistUnicode:かめりあ
Creator:Mir
Version:Lasse's Extra
Source:beatmania IIDX 23 copula
Tags:22 pendual super future 2323 lasse low bpm alt jazzy electric house boogaloo
BeatmapID:1405185
BeatmapSetID:663255

[Difficulty]
HPDrainRate:6
CircleSize:2.8
OverallDifficulty:8.6
ApproachRate:9.4
SliderMultiplier:2.8
SliderTickRate:1

[Events]
//Background and Video events
0,0,"routing.jpg",0,0
//Break Periods
2,43511,45480
2,70178,71105
//Storyboard Layer 0 (Background)
//Storyboard Layer 1 (Fail)
//Storyboard Layer 2 (Pass)
//Storyboard Layer 3 (Foreground)
//Storyboard Sound Samples

[TimingPoints]
1645,416.666666666667,4,2,1,65,1,0
3259,-100,4,2,99,5,0,0
3311,-100,4,2,1,65,0,0
5395,-125,4,2,1,65,0,0
6228,-100,4,2,1,65,0,0
6593,-100,4,2,99,5,0,0
6645,-100,4,2,1,65,0,0
7478,-125,4,2,1,65,0,0
8311,-100,4,2,1,70,0,0
9926,-100,4,2,99,5,0,0
9978,-100,4,2,2,70,0,0
10186,-125,4,2,2,70,0,0
10915,-100,4,2,1,70,0,0
11645,-100,4,2,2,70,0,0
13207,-100,4,2,2,70,0,0
14561,-250,4,2,2,70,0,0
14926,-250,4,2,99,5,0,0
14978,-50,4,2,1,75,0,0
15290,-83.3333333333333,4,2,1,75,0,0
16853,-100,4,2,1,75,0,0
17009,-100,4,2,99,5,0,0
17061,-100,4,2,1,75,0,0
17478,-83.3333333333333,4,2,1,75,0,0
18676,-83.3333333333333,4,2,99,5,0,0
18728,-83.3333333333333,4,2,1,75,0,0
19093,-83.3333333333333,4,2,99,5,0,0
19145,-83.3333333333333,4,2,1,75,0,0
21228,-71.4285714285714,4,2,1,75,0,0
21853,-66.6666666666667,4,2,1,75,0,0
22009,-83.3333333333333,4,2,99,5,0,0
22061,-83.3333333333333,4,2,1,75,0,0
23520,-100,4,2,71,75,0,0
23676,-66.6666666666667,4,2,99,5,0,0
23728,-66.6666666666667,4,2,1,75,0,0
24145,-83.3333333333333,4,2,1,75,0,0
26593,-83.3333333333333,4,2,99,5,0,0
26645,-83.3333333333333,4,2,1,75,0,0
27895,-50,4,2,1,75,0,0
28311,-50,4,2,1,75,0,0
28624,-83.3333333333333,4,2,1,75,0,0
30186,-100,4,2,71,75,0,0
30342,-66.6666666666667,4,2,99,5,0,0
30395,-66.6666666666667,4,2,1,75,0,0
30811,-83.3333333333333,4,2,1,75,0,0
32009,-83.3333333333333,4,2,99,5,0,0
32061,-83.3333333333333,4,2,1,75,0,0
32426,-83.3333333333333,4,2,99,5,0,0
32478,-83.3333333333333,4,2,1,75,0,0
34874,-125,4,2,1,75,0,0
36540,-200,4,2,1,75,0,0
37061,-62.5,4,2,1,75,0,0
37478,-83.3333333333333,4,2,1,75,0,0
39770,-166.666666666667,4,2,1,70,0,0
39978,-100,4,2,1,35,0,0
40395,-100,4,2,1,40,0,0
40603,-100,4,2,1,45,0,0
41020,-100,4,2,1,50,0,0
41436,-100,4,2,1,55,0,0
41853,-100,4,2,1,60,0,0
42270,-100,4,2,1,65,0,0
42686,-100,4,2,1,70,0,0
42895,-100,4,2,1,60,0,0
43311,-100,4,2,1,70,0,0
46020,-55.5555555555556,4,2,1,80,0,0
46332,-71.4285714285714,4,2,1,70,0,0
46645,-76.9230769230769,4,2,1,60,0,0
48728,-100,4,2,1,60,0,0
48832,-100,4,2,71,60,0,0
48936,-100,4,2,1,60,0,0
49145,-76.9230769230769,4,2,1,60,0,0
54874,-76.9230769230769,4,2,71,60,0,0
54978,-76.9230769230769,4,2,1,60,0,0
56645,-100,4,2,1,70,0,0
57009,-100,4,2,99,5,0,0
57061,-83.3333333333333,4,2,1,70,0,0
57322,-83.3333333333333,4,2,99,5,0,0
57374,-76.9230769230769,4,2,1,70,0,0
57634,-76.9230769230769,4,2,99,5,0,0
57686,-71.4285714285714,4,2,1,70,0,0
57947,-71.4285714285714,4,2,99,5,0,0
57999,-66.6666666666667,4,2,1,70,0,0
58103,-66.6666666666667,4,2,99,5,0,0
58207,-66.6666666666667,4,2,1,70,0,0
58311,-66.6666666666667,4,2,99,5,0,0
58520,-66.6666666666667,4,2,1,70,0,0
59978,-100,4,2,1,70,0,0
60342,-100,4,2,99,5,0,0
60394,-83.3333333333333,4,2,1,70,0,0
60655,-83.3333333333333,4,2,99,5,0,0
60707,-76.9230769230769,4,2,1,70,0,0
60967,-76.9230769230769,4,2,99,5,0,0
61019,-71.4285714285714,4,2,1,70,0,0
61280,-71.4285714285714,4,2,99,5,0,0
61332,-66.6666666666667,4,2,1,70,0,0
61488,-66.6666666666667,4,2,99,5,0,0
61540,-66.6666666666667,4,2,1,70,0,0
61801,-66.6666666666667,4,2,99,5,0,0
61853,-125,4,2,1,70,0,0
61957,-125,4,2,99,5,0,0
62061,-125,4,2,1,70,0,0
62686,-111.111111111111,4,2,1,70,0,0
63311,-100,4,2,1,70,0,0
63676,-100,4,2,99,5,0,0
63728,-83.3333333333333,4,2,1,70,0,0
63988,-83.3333333333333,4,2,99,5,0,0
64040,-76.9230769230769,4,2,1,70,0,0
64301,-76.9230769230769,4,2,99,5,0,0
64353,-71.4285714285714,4,2,1,70,0,0
64613,-71.4285714285714,4,2,99,5,0,0
64665,-66.6666666666667,4,2,1,70,0,0
64770,-66.6666666666667,4,2,99,5,0,0
64874,-66.6666666666667,4,2,1,70,0,0
64978,-66.6666666666667,4,2,99,5,0,0
65186,-100,4,2,71,70,0,0
65290,-100,4,2,1,70,0,0
66228,-100,4,2,71,70,0,0
66332,-100,4,2,1,70,0,0
66645,-83.3333333333333,4,2,1,70,0,0
68207,-83.3333333333333,4,2,71,70,0,0
68311,-83.3333333333333,4,2,1,70,0,0
68520,-71.4285714285714,4,2,1,70,0,0
69145,-142.857142857143,4,2,1,70,0,0
69665,-71.4285714285714,4,2,1,70,0,0
73311,-58.8235294117647,4,2,1,80,0,1
76645,-58.8235294117647,4,2,71,80,0,1
77061,-58.8235294117647,4,2,1,80,0,1
79770,-58.8235294117647,4,2,1,80,0,1
79978,-58.8235294117647,4,2,1,80,0,1
83311,-58.8235294117647,4,2,71,80,0,1
83728,-58.8235294117647,4,2,1,80,0,1
84249,-50,4,2,1,80,0,1
84405,-50,4,2,99,5,0,1
84457,-50,4,2,1,80,0,1
84613,-83.3333333333333,4,2,99,5,0,0
84665,-50,4,2,1,80,0,1
84822,-83.3333333333333,4,2,99,5,0,0
84874,-50,4,2,1,80,0,1
85030,-83.3333333333333,4,2,99,5,0,0
85082,-100,4,2,1,70,0,0
85186,-100,4,2,1,34,0,0
85395,-76.9230769230769,4,2,1,43,0,0
85603,-68.9655172413793,4,2,1,50,0,0
85811,-62.5,4,2,1,56,0,0
86020,-57.1428571428571,4,2,1,61,0,0
86228,-50,4,2,1,65,0,0
86436,-50,4,2,1,68,0,0
86645,-55.5555555555556,4,2,1,78,0,1
89978,-52.6315789473684,4,2,71,78,0,1
90290,-52.6315789473684,4,2,1,78,0,1
90395,-45.4545454545455,4,2,71,78,0,1
90707,-45.4545454545455,4,2,1,78,0,1
90811,-62.5,4,2,1,78,0,1
91540,-55.5555555555556,4,2,1,78,0,1
91593,-55.5555555555556,4,2,99,5,0,1
91645,-55.5555555555556,4,2,1,78,0,1
91853,-71.4285714285714,4,2,1,78,0,1
93311,-62.5,4,2,1,78,0,1
96228,-55.5555555555556,4,2,1,78,0,1
96645,-50,4,2,71,70,0,0
96957,-50,4,2,1,70,0,0
97061,-100,4,2,3,70,0,0
97270,-100,4,2,4,70,0,0
97478,-83.3333333333333,4,2,1,70,0,0
98103,-100,4,2,1,70,0,0
98728,-125,4,2,1,70,0,0
99353,-166.666666666667,4,2,1,70,0,0
101645,-100,4,2,1,65,0,0
103259,-100,4,2,99,5,0,0
103311,-100,4,2,1,65,0,0
106593,-100,4,2,99,5,0,0
106645,-100,4,2,1,60,0,0
109926,-100,4,2,99,5,0,0
109978,-100,4,2,2,60,0,0
110915,-100,4,2,1,60,0,0
111645,-100,4,2,2,60,0,0
116645,-100,4,2,99,5,0,0

[Colours]
Combo1 : 243,233,171
Combo2 : 255,164,209
Combo3 : 160,239,186
Combo4 : 162,187,253

[HitObjects]
75,40,1645,6,0,P|174:32|229:116,1,210,6|0,3:2|0:2,0:0:0:0:
148,207,2061,1,0,0:2:0:0:
133,192,2165,2,0,L|132:123,1,70,0|0,0:2|0:2,0:0:0:0:
93,271,2374,2,0,P|150:234|217:249,1,140,0|0,0:2|0:2,0:0:0:0:
235,346,2686,2,0,P|201:347|168:333,1,70,0|0,0:2|0:2,0:0:0:0:
148,207,2895,5,2,3:2:0:0:
133,192,2999,2,0,L|132:123,1,70,2|0,3:2|0:2,0:0:0:0:
93,271,3207,1,2,3:2:0:0:
466,332,3728,5,0,0:2:0:0:
431,296,3833,1,0,0:2:0:0:
382,293,3937,1,0,0:2:0:0:
345,325,4040,2,0,L|264:308,1,70,0|0,0:2|0:2,0:0:0:0:
292,136,4249,6,0,B|313:218|313:218|262:160,1,140,2|0,3:2|0:2,0:0:0:0:
242,188,4561,2,0,B|285:61|285:61|292:136,1,210,2|0,3:2|0:2,0:0:0:0:
242,187,4978,6,0,P|149:170|166:77,1,210,6|0,3:2|0:2,0:0:0:0:
273,52,5395,1,0,0:2:0:0:
287,61,5499,2,0,L|386:54,1,56,0|0,0:2|0:2,0:0:0:0:
413,114,5707,2,0,L|468:110,1,56,0|0,0:2|0:2,0:0:0:0:
493,215,5915,1,0,0:2:0:0:
478,204,6019,2,0,L|422:207,1,56,0|0,0:2|0:2,0:0:0:0:
281,305,6228,5,2,3:2:0:0:
289,283,6332,2,0,L|361:277,1,70,2|0,3:2|0:2,0:0:0:0:
485,348,6540,1,2,3:2:0:0:
128,269,6783,6,0,B|102:256|102:256|87:266|87:266|20:257,2,93.3333333333333,0|0|0,1:2|1:2|1:2,0:0:0:0:
237,168,7270,5,2,0:3:0:0:
249,173,7339,1,2,0:3:0:0:
260,181,7408,1,2,0:3:0:0:
269,191,7478,6,0,L|338:190,3,56,2|0|0|2,1:2|1:2|3:2|3:2,0:0:0:0:
413,114,7895,2,0,P|336:114|325:191,1,168,0|0,1:2|0:2,0:0:0:0:
407,251,8311,6,0,B|336:236|336:236|270:256|270:256|193:239,1,210,6|0,3:2|0:2,0:0:0:0:
170,132,8728,1,0,0:2:0:0:
182,115,8832,2,0,P|196:72|198:23,1,70,0|0,0:2|0:2,0:0:0:0:
321,65,9040,2,0,B|237:85|237:85|186:35,1,140,0|0,0:2|0:2,0:0:0:0:
87,67,9353,2,0,L|7:55,1,70,0|0,0:2|0:2,0:0:0:0:
64,238,9561,5,2,3:2:0:0:
80,225,9665,2,0,L|91:155,1,70,2|0,3:2|0:2,0:0:0:0:
0,300,9874,1,2,3:2:0:0:
0,300,10186,5,0,3:2:0:0:
80,225,10395,1,0,3:3:0:0:
113,221,10499,1,8,3:3:0:0:
146,217,10603,1,0,3:2:0:0:
179,217,10707,2,0,L|259:233,1,56,0|0,3:3|3:3,0:0:0:0:
233,366,10915,6,0,B|238:322|238:322|228:280|228:280|234:224,1,140,2|0,3:2|0:2,0:0:0:0:
280,138,11228,6,0,B|257:81|257:81|231:249,1,210,2|0,3:2|0:2,0:0:0:0:
234,228,11645,6,0,L|465:221,1,210,4|0,3:2|3:2,0:0:0:0:
512,70,12061,5,8,3:2:0:0:
483,100,12165,1,0,3:2:0:0:
441,108,12270,1,0,3:2:0:0:
401,94,12374,2,0,L|387:9,1,70,0|8,3:2|3:2,0:0:0:0:
249,122,12582,1,0,3:2:0:0:
289,108,12686,2,0,L|303:23,1,70,0|0,3:2|3:2,0:0:0:0:
129,67,12895,5,6,3:3:0:0:
147,104,12999,1,6,3:3:0:0:
226,132,13103,1,4,3:3:0:0:
207,27,13207,1,6,3:3:0:0:
179,326,13936,5,0,3:2:0:0:
209,297,14040,1,0,3:2:0:0:
224,242,14145,1,8,0:2:0:0:
176,172,14249,1,0,3:2:0:0:
78,184,14353,1,0,3:2:0:0:
40,289,14457,1,0,3:2:0:0:
68,281,14561,6,0,L|79:171,1,98,8|0,3:2|0:2,0:0:0:0:
78,184,14978,6,0,B|176:169|176:169|346:284|346:284|489:256,1,420,4|0,3:2|0:2,0:0:0:0:
422,123,15395,5,8,3:2:0:0:
357,186,15499,2,0,L|274:172,1,83.9999974365235,0|2,0:2|0:2,0:0:0:0:
152,260,15707,2,0,L|234:273,1,83.9999974365235,0|0,0:2|3:2,0:0:0:0:
244,90,15915,1,0,0:2:0:0:
220,101,16020,2,0,P|192:131|185:172,1,83.9999974365235,2|0,0:2|0:2,0:0:0:0:
357,186,16228,5,8,3:2:0:0:
422,123,16332,2,0,P|428:82|410:44,1,83.9999974365235,0|2,0:2|0:2,0:0:0:0:
274,172,16540,2,0,P|271:213|293:248,1,83.9999974365235,0|0,0:2|3:2,0:0:0:0:
485,188,16749,1,0,0:2:0:0:
422,123,16853,6,0,B|384:103|384:103|328:103|328:103|282:75,2,140,2|8|2,0:2|3:2|0:2,0:0:0:0:
293,248,17374,1,0,0:0:0:0:
346,324,17478,6,0,B|387:303|387:303|395:225|395:225|364:194,1,167.999994873047,0|2,3:2|0:2,0:0:0:0:
209,239,17790,2,0,L|293:248,1,83.9999974365235,0|8,0:2|3:2,0:0:0:0:
415,268,17999,2,0,L|498:276,1,83.9999974365235,0|2,0:2|0:2,0:0:0:0:
422,123,18207,6,0,P|404:92|414:5,1,83.9999974365235,0|0,0:2|3:2,0:0:0:0:
90,123,18520,2,0,P|108:92|98:5,1,83.9999974365235,2|0,0:2|0:0,0:0:0:0:
256,186,18728,1,8,3:2:0:0:
256,136,18832,2,0,L|256:38,1,83.9999974365235,0|2,0:2|0:2,0:0:0:0:
176,235,19040,6,0,L|87:216,1,83.9999974365235,0|0,0:2|3:2,0:0:0:0:
336,235,19353,1,2,0:2:0:0:
363,229,19422,1,2,0:2:0:0:
390,223,19491,1,2,0:2:0:0:
418,217,19561,6,0,L|427:123,2,83.9999974365235,8|0|2,3:2|0:2|0:2,0:0:0:0:
256,136,19874,2,0,L|256:42,1,83.9999974365235,0|0,0:2|3:2,0:0:0:0:
143,228,20082,1,0,0:2:0:0:
94,217,20186,2,0,L|85:123,1,83.9999974365235,2|0,0:2|0:2,0:0:0:0:
42,304,20395,5,8,3:2:0:0:
91,315,20499,1,0,0:2:0:0:
151,325,20603,1,2,0:2:0:0:
235,342,20707,1,0,0:2:0:0:
331,352,20811,6,0,B|292:231|292:231|229:354,1,251.999992309571,2|0,3:2|0:2,0:0:0:0:
122,235,21228,6,0,B|151:327|151:327|198:236,1,195.999994018555,2|0,3:2|3:2,0:0:0:0:
163,153,21540,1,2,3:2:0:0:
391,63,21749,5,0,3:2:0:0:
377,36,21853,2,0,B|342:66|342:66|328:192,1,157.500006008148,2|0,3:2|0:2,0:0:0:0:
329,176,22061,6,0,L|148:150,1,167.999994873047,12|2,3:2|0:2,0:0:0:0:
65,119,22374,2,0,P|59:78|43:40,1,83.9999974365235,0|0,0:2|3:2,0:0:0:0:
125,253,22582,1,0,0:2:0:0:
140,232,22686,2,0,P|156:194|162:153,1,83.9999974365235,2|0,0:2|0:2,0:0:0:0:
143,351,22895,5,8,3:2:0:0:
213,291,22999,2,0,P|251:275|293:270,1,83.9999974365235,0|2,0:2|0:2,0:0:0:0:
373,291,23207,2,0,P|331:286|293:269,1,83.9999974365235,0|0,0:2|3:2,0:0:0:0:
447,345,23415,1,0,0:2:0:0:
507,275,23520,6,0,B|525:180|525:180|504:129,2,140,2|8|2,0:2|3:2|0:2,0:0:0:0:
362,58,24040,1,0,0:0:0:0:
268,104,24145,6,0,B|342:147|342:147|514:139,1,251.999992309571,0|0,3:2|0:2,0:0:0:0:
507,275,24561,2,0,B|474:250|474:250|332:257,1,167.999994873047,8|2,3:2|0:2,0:0:0:0:
233,290,24874,6,0,B|248:252|248:252|246:208,1,83.9999974365235,0|0,0:2|3:2,0:0:0:0:
130,303,25082,1,0,0:2:0:0:
114,285,25186,2,0,B|99:247|99:247|100:203,1,83.9999974365235,2|0,0:2|0:2,0:0:0:0:
26,121,25395,6,0,B|68:123|68:123|129:92,1,83.9999974365235,8|0,3:2|0:2,0:0:0:0:
180,146,25603,2,0,B|217:126|217:126|254:69,1,83.9999974365235,2|0,0:2|0:2,0:0:0:0:
354,39,25811,6,0,B|331:74|331:74|327:142,1,83.9999974365235,0|0,3:2|0:2,0:0:0:0:
413,227,26020,1,2,0:2:0:0:
422,248,26124,1,0,0:2:0:0:
454,149,26228,6,0,B|419:111|419:111|412:247,1,167.999994873047,8|0,3:2|0:2,0:0:0:0:
335,356,26540,1,2,3:2:0:0:
62,61,26853,1,0,0:2:0:0:
0,242,27061,5,0,0:2:0:0:
33,216,27165,1,0,0:2:0:0:
73,203,27270,1,0,0:2:0:0:
114,209,27374,2,0,L|171:206,2,41.9999987182618,0|0|0,0:2|0:2|0:2,0:0:0:0:
86,309,27582,5,0,0:2:0:0:
125,295,27686,2,0,L|182:292,2,41.9999987182618,0|0|0,0:2|0:2|0:2,0:0:0:0:
259,328,27895,6,0,B|268:281|268:281|248:296,1,70,0|0,0:2|0:2,0:0:0:0:
274,332,27999,6,0,B|283:285|283:285|262:298,1,70,0|0,0:2|0:2,0:0:0:0:
289,336,28103,6,0,B|298:289|298:289|277:302,1,70,0|0,0:2|0:2,0:0:0:0:
304,340,28207,6,0,B|313:293|313:293|292:306,1,70,0|0,0:2|0:0,0:0:0:0:
319,344,28311,6,0,B|382:369|382:369|446:353|446:353|492:301|492:301|490:235|490:235|469:197|469:197|435:173|435:173|396:172|396:172|357:187,1,420,4|0,3:2|0:2,0:0:0:0:
209,179,28728,5,8,3:2:0:0:
289,134,28832,2,0,L|297:40,1,83.9999974365235,0|2,0:2|0:2,0:0:0:0:
144,122,29040,2,0,L|136:28,1,83.9999974365235,0|0,0:2|3:2,0:0:0:0:
112,248,29248,1,0,0:2:0:0:
119,223,29353,2,0,P|154:205|200:205,1,83.9999974365235,2|0,0:2|0:2,0:0:0:0:
328,314,29561,5,8,3:2:0:0:
395,237,29665,2,0,L|420:147,1,83.9999974365235,0|2,0:2|0:2,0:0:0:0:
295,217,29874,2,0,L|288:133,1,83.9999974365235,0|0,0:2|3:2,0:0:0:0:
428,64,30082,1,0,0:2:0:0:
332,50,30186,6,0,B|290:40|290:40|236:55|236:55|184:39,2,140,2|8|2,0:2|3:2|0:2,0:0:0:0:
351,233,30707,1,0,0:0:0:0:
431,197,30811,6,0,B|401:154|401:154|288:133,1,167.999994873047,0|2,3:2|0:2,0:0:0:0:
345,297,31123,2,0,B|375:268|375:268|351:233,1,83.9999974365235,0|8,0:2|3:2,0:0:0:0:
263,352,31332,2,0,B|233:323|233:323|257:288,1,83.9999974365235,0|2,0:2|0:2,0:0:0:0:
419,357,31540,6,0,L|517:351,1,83.9999974365235,0|0,0:2|3:2,0:0:0:0:
93,357,31853,2,0,L|-5:351,1,83.9999974365235,2|0,0:2|0:0,0:0:0:0:
134,218,32061,1,8,3:2:0:0:
140,173,32165,2,0,L|128:74,1,83.9999974365235,0|2,0:2|0:2,0:0:0:0:
372,173,32374,6,0,L|382:89,1,83.9999974365235,0|0,0:2|3:2,0:0:0:0:
256,288,32686,1,0,0:2:0:0:
256,260,32755,1,0,0:2:0:0:
256,229,32824,1,0,0:2:0:0:
256,200,32894,6,0,L|256:98,2,83.9999974365235,8|0|2,3:2|0:2|0:2,0:0:0:0:
134,218,33207,2,0,P|92:203|35:200,1,83.9999974365235,0|0,0:2|3:2,0:0:0:0:
0,78,33415,1,0,0:2:0:0:
48,69,33520,2,0,P|87:84|129:88,1,83.9999974365235,2|0,3:2|0:2,0:0:0:0:
256,116,33728,5,0,3:2:0:0:
304,100,33832,1,0,3:2:0:0:
371,103,33936,1,2,0:2:0:0:
452,140,34040,1,0,0:2:0:0:
496,224,34144,6,0,B|367:229|367:229|451:140,1,251.999992309571,0|0,3:2|3:2,0:0:0:0:
479,322,34561,1,2,3:2:0:0:
460,341,34665,2,0,L|364:320,1,83.9999974365235,2|0,3:2|0:2,0:0:0:0:
157,303,34874,6,0,B|298:289|298:289|244:326,1,205.333333333333,2|2,1:2|3:2,0:0:0:0:
243,343,35325,5,2,3:1:0:0:
242,361,35395,5,2,3:1:0:0:
146,320,35533,1,2,3:1:0:0:
113,210,35672,1,2,3:1:0:0:
164,97,35811,1,2,3:1:0:0:
288,45,35950,1,2,3:1:0:0:
432,113,36089,1,2,3:1:0:0:
442,276,36228,1,2,3:1:0:0:
288,45,36540,6,0,L|281:182,1,105,2|0,0:2|0:0,0:0:0:0:
275,238,36957,1,0,0:2:0:0:
279,194,37061,6,0,B|249:125|249:125|157:103|157:103|74:141|74:141|59:244,1,336,14|0,3:2|0:2,0:0:0:0:
176,291,37478,6,0,L|171:207,1,83.9999974365235,0|0,3:2|0:2,0:0:0:0:
159,104,37686,2,0,L|154:20,1,83.9999974365235,2|0,0:2|0:2,0:0:0:0:
411,127,37895,6,0,B|298:110|298:110|257:144,1,167.999994873047,8|2,3:2|0:2,0:0:0:0:
394,228,38207,2,0,L|492:216,1,83.9999974365235,0|0,0:2|3:2,0:0:0:0:
510,89,38415,5,0,0:2:0:0:
489,62,38520,2,0,L|409:30,1,83.9999974365235,2|0,0:2|0:2,0:0:0:0:
298,110,38728,5,8,3:2:0:0:
239,47,38832,1,0,0:2:0:0:
150,53,38936,1,2,0:2:0:0:
82,124,39040,1,0,0:2:0:0:
145,202,39145,6,0,B|176:159|176:159|180:98|180:98|137:33,1,167.999994873047,2|0,3:2|0:2,0:0:0:0:
298,110,39457,6,0,L|436:82,2,83.9999974365235,2|8|0,3:2|0:2|0:2,0:0:0:0:
212,256,39770,6,0,B|262:189|262:189|295:266,1,167.999994873047,6|0,3:2|3:2,0:0:0:0:
165,342,40395,5,0,1:2:0:0:
180,61,40603,5,0,3:2:0:0:
188,80,40707,1,0,3:2:0:0:
191,100,40811,1,8,1:2:0:0:
332,61,41020,5,0,3:2:0:0:
324,80,41124,1,0,3:2:0:0:
321,100,41228,1,8,1:2:0:0:
100,193,41436,5,0,3:2:0:0:
146,178,41540,1,0,3:2:0:0:
192,193,41644,1,8,1:2:0:0:
412,193,41853,5,0,3:2:0:0:
366,178,41957,1,0,3:2:0:0:
320,193,42061,1,8,1:2:0:0:
109,328,42270,5,0,3:2:0:0:
139,273,42374,1,0,3:2:0:0:
188,313,42478,1,8,1:2:0:0:
403,328,42686,5,0,3:2:0:0:
373,273,42790,1,0,3:2:0:0:
324,313,42895,6,0,L|314:370,2,46.6666666666667,8|0|0,1:2|0:2|0:2,0:0:0:0:
188,313,43103,6,0,L|198:370,2,46.6666666666667,0|0|0,0:2|0:2|0:2,0:0:0:0:
256,192,43311,5,6,3:1:0:0:
97,215,46020,6,0,B|161:328|161:328|217:217,1,251.999992309571,2|0,3:2|0:2,0:0:0:0:
308,224,46332,6,0,B|258:135|258:135|214:222,1,195.999994018555,2|0,3:2|0:2,0:0:0:0:
277,309,46645,6,0,B|324:322|324:322|361:296,1,90.9999958343508,6|0,3:2|0:2,0:0:0:0:
444,178,46853,5,2,0:2:0:0:
435,87,46957,1,0,0:2:0:0:
355,42,47061,1,8,0:2:0:0:
264,53,47165,2,0,L|150:30,1,90.9999958343508,0|2,0:2|0:2,0:0:0:0:
4,96,47374,6,0,L|94:79,1,90.9999958343508,0|0,0:2|3:2,0:0:0:0:
250,168,47582,1,0,0:2:0:0:
259,143,47686,2,0,L|170:126,1,90.9999958343508,2|0,0:2|0:2,0:0:0:0:
2,192,47895,5,8,3:2:0:0:
91,175,47999,1,0,0:2:0:0:
170,219,48103,6,0,B|125:213|125:213|63:279|63:279|71:325,1,181.999991668702,2|0,0:2|3:2,0:0:0:0:
440,325,48520,2,0,B|448:279|448:279|386:213|386:213|342:219,1,181.999991668702,2|8,0:2|3:2,0:0:0:0:
256,352,48832,6,0,L|256:256,2,70,8|2|0,0:0|0:2|0:2,0:0:0:0:
170,219,49145,6,0,L|49:204,2,90.9999958343508,0|0|2,3:2|0:2|0:2,0:0:0:0:
342,219,49457,2,0,L|463:204,2,90.9999958343508,0|8|0,0:2|3:2|0:2,0:0:0:0:
256,32,50186,5,2,0:2:0:0:
301,110,50290,1,0,0:2:0:0:
359,180,50395,1,8,3:2:0:0:
387,94,50499,2,0,P|342:91|302:110,1,90.9999958343508,0|2,0:2|0:2,0:0:0:0:
124,94,50707,6,0,P|169:91|210:110,1,90.9999958343508,0|0,0:2|3:2,0:0:0:0:
138,257,50915,1,0,0:2:0:0:
162,271,51020,2,0,L|153:173,1,90.9999958343508,2|0,0:2|0:2,0:0:0:0:
256,32,51228,5,8,3:2:0:0:
301,110,51332,1,0,0:2:0:0:
390,126,51436,1,2,0:2:0:0:
474,91,51540,2,0,L|493:-7,1,90.9999958343508,0|0,0:2|3:2,0:0:0:0:
38,91,51853,6,0,L|19:-7,2,90.9999958343508,2|0|8,0:2|0:2|3:2,0:0:0:0:
69,240,52270,5,2,0:2:0:0:
91,235,52374,1,0,0:2:0:0:
114,233,52478,2,0,L|230:262,1,90.9999958343508,0|0,3:2|0:2,0:0:0:0:
443,240,52686,5,2,0:2:0:0:
398,233,52790,1,0,0:2:0:0:
343,259,52895,1,8,3:2:0:0:
303,334,52999,1,0,0:2:0:0:
216,362,53103,1,2,0:2:0:0:
111,337,53207,1,0,0:2:0:0:
69,240,53311,6,0,B|62:112,1,90.9999958343508,0|0,3:2|0:0,0:0:0:0:
191,185,53520,1,2,0:2:0:0:
195,158,53624,2,0,L|199:62,2,90.9999958343508,0|8|0,0:2|3:2|0:2,0:0:0:0:
432,265,54040,1,0,0:2:0:0:
443,240,54145,6,0,B|450:112,1,90.9999958343508,0|0,3:2|0:0,0:0:0:0:
321,185,54353,1,2,0:2:0:0:
317,158,54457,2,0,L|313:62,2,90.9999958343508,0|8|0,0:2|3:2|0:2,0:0:0:0:
256,352,54874,6,4,B|255:237,2,90.9999958343508,2|4|4,0:2|0:2|3:2,0:0:0:0:
68,240,55395,6,0,P|113:242|152:266,1,90.9999958343508,2|0,3:2|0:2,0:0:0:0:
443,240,55603,2,0,P|398:242|359:266,1,90.9999958343508,2|0,3:2|0:2,0:0:0:0:
256,69,55915,6,0,L|225:24,1,45.4999979171754,0|0,0:2|0:2,0:0:0:0:
256,86,56020,2,0,L|262:31,1,45.4999979171754,0|0,0:2|0:2,0:0:0:0:
256,102,56124,2,0,L|293:61,1,45.4999979171754,0|0,0:2|0:0,0:0:0:0:
256,118,56228,5,0,0:2:0:0:
256,134,56332,1,0,0:2:0:0:
256,150,56436,1,0,0:2:0:0:
256,166,56540,1,0,0:2:0:0:
256,182,56645,6,0,B|133:152|151:255|21:216,1,245,6|0,3:1|0:2,0:0:0:0:
23,216,57061,6,0,P|114:249|107:347,1,209.999993591309,2|0,3:1|0:2,0:0:0:0:
107,347,57374,6,0,P|109:245|213:177,1,227.499989585877,2|0,3:1|0:2,0:0:0:0:
205,177,57686,6,0,P|109:231|64:125,1,244.999992523194,2|0,3:1|0:2,0:0:0:0:
60,133,57999,6,0,P|92:92|96:40,1,105.000004005432,2|0,3:1|0:2,0:0:0:0:
191,73,58207,2,0,P|237:50|289:58,1,105.000004005432,2|0,3:1|0:0,0:0:0:0:
417,248,58520,5,0,0:2:0:0:
474,84,58728,1,0,0:2:0:0:
448,117,58832,1,0,0:2:0:0:
440,158,58936,1,0,0:2:0:0:
394,37,59145,1,0,0:2:0:0:
280,237,59353,5,0,3:2:0:0:
296,219,59457,1,0,3:2:0:0:
345,204,59561,1,8,0:2:0:0:
417,248,59665,1,0,0:2:0:0:
417,248,59978,6,0,B|294:218|312:321|182:282,1,245,6|0,3:1|0:2,0:0:0:0:
184,283,60395,6,0,B|297:275|262:356|372:355,1,209.999993591309,2|0,3:2|0:2,0:0:0:0:
372,354,60707,6,0,P|322:270|417:247,1,227.499989585877,2|0,3:1|0:2,0:0:0:0:
417,248,61020,6,0,B|294:218|312:321|182:282,1,245,2|0,3:1|0:2,0:0:0:0:
184,283,61332,6,0,L|171:159,1,105.000004005432,2|0,3:1|0:0,0:0:0:0:
417,248,61540,2,0,L|430:124,1,105.000004005432,2|0,3:1|0:0,0:0:0:0:
427,143,61853,6,0,P|384:100|373:28,1,112,2|0,3:1|0:2,0:0:0:0:
287,186,62165,2,0,L|288:117,2,56,0|0|0,0:2|0:2|0:2,0:0:0:0:
287,186,62686,6,0,L|135:177,1,125.999996154785,2|8,3:2|0:2,0:0:0:0:
150,289,62999,2,0,P|131:265|104:250,2,62.9999980773926,2|0|0,3:2|0:2|0:2,0:0:0:0:
287,186,63311,6,0,B|162:235|171:131|51:171,1,245,6|0,3:1|0:2,0:0:0:0:
52,171,63728,6,0,P|147:176|146:75,1,209.999993591309,2|0,3:1|0:2,0:0:0:0:
152,82,64040,6,0,B|263:126|255:26|370:65,1,227.499989585877,2|0,3:1|0:2,0:0:0:0:
370,65,64353,6,0,P|318:110|417:221,1,244.999992523194,2|0,3:1|0:2,0:0:0:0:
404,224,64665,6,0,L|415:336,1,105.000004005432,2|0,3:1|0:2,0:0:0:0:
262,363,64874,2,0,L|251:251,1,105.000004005432,2|0,3:1|0:0,0:0:0:0:
150,112,65186,6,0,L|81:100,1,70,8|0,0:2|0:2,0:0:0:0:
79,322,65603,5,0,0:2:0:0:
91,308,65707,1,0,0:2:0:0:
80,287,65811,1,0,0:2:0:0:
112,262,65915,1,0,0:0:0:0:
85,206,66020,1,0,3:2:0:0:
143,168,66124,1,0,3:2:0:0:
81,100,66228,6,0,L|73:10,2,70,4|0|0,0:2|0:0|0:2,0:0:0:0:
348,47,66645,6,0,L|412:39,4,41.9999987182618,6|0|0|0|0,3:1|0:2|0:2|0:2|0:2,0:0:0:0:
173,257,67061,6,0,L|116:225,4,41.9999987182618,2|0|0|0|0,3:1|0:2|0:2|0:2|0:2,0:0:0:0:
329,319,67374,6,0,L|281:363,4,41.9999987182618,2|0|0|0|0,3:1|0:2|0:2|0:2|0:2,0:0:0:0:
436,189,67686,6,0,L|463:247,4,41.9999987182618,2|0|0|0|0,3:1|0:2|0:2|0:2|0:2,0:0:0:0:
348,47,67999,6,0,L|412:39,2,41.9999987182618,2|0|0,3:1|0:2|0:2,0:0:0:0:
184,89,68207,6,0,L|89:69,2,83.9999974365235,2|0|0,3:2|0:2|0:2,0:0:0:0:
269,179,68520,6,0,P|297:162|329:157,6,65.3333313395183,2|0|0|0|0|0|0,3:1|0:2|0:2|0:2|0:2|0:2|0:2,0:0:0:0:
304,285,69040,5,0,0:0:0:0:
322,300,69145,2,0,L|327:225,1,48.9999985046387,0|0,0:2|0:2,0:0:0:0:
448,220,69353,2,0,L|381:203,2,48.9999985046387,0|0|0,3:2|0:2|0:2,0:0:0:0:
434,349,69665,5,0,3:2:0:0:
434,349,69717,1,0,0:2:0:0:
434,349,69770,2,0,L|409:297,4,48.9999985046387,0|0|0|0|2,0:2|0:2|0:2|0:0|3:2,0:0:0:0:
256,192,71645,12,8,72895,0:2:0:0:
175,140,73311,6,0,P|126:110|68:115,1,119.000002269745,4|0,3:2|0:2,0:0:0:0:
194,238,73520,2,0,P|246:209|270:156,1,119.000002269745,2|0,0:2|0:2,0:0:0:0:
100,205,73728,2,0,P|98:263|133:310,1,119.000002269745,8|0,3:2|0:2,0:0:0:0:
309,285,73936,1,2,0:2:0:0:
301,262,74040,2,0,P|251:231|193:238,1,119.000002269745,0|0,0:2|3:2,0:0:0:0:
34,288,74249,5,0,0:2:0:0:
57,282,74353,1,2,0:2:0:0:
78,272,74457,1,0,0:2:0:0:
108,165,74561,5,8,3:2:0:0:
46,233,74665,1,0,0:2:0:0:
136,214,74770,1,2,0:2:0:0:
53,176,74874,1,0,0:2:0:0:
97,255,74978,6,0,L|305:245,1,119.000002269745,0|0,3:2|0:2,0:0:0:0:
108,70,75186,2,0,L|53:175,1,119.000002269745,2|0,0:2|0:2,0:0:0:0:
261,171,75395,2,0,L|197:70,1,119.000002269745,8|0,3:2|0:2,0:0:0:0:
353,174,75603,1,2,0:2:0:0:
375,170,75707,2,0,L|419:54,1,119.000002269745,0|0,0:2|3:2,0:0:0:0:
318,265,75915,5,0,0:2:0:0:
318,265,75967,1,0,0:2:0:0:
318,265,76020,2,0,P|265:209|263:156,1,119.000002269745,2|0,0:2|0:2,0:0:0:0:
310,42,76228,5,8,3:2:0:0:
201,75,76332,1,0,0:2:0:0:
312,65,76436,1,2,0:2:0:0:
201,75,76540,1,0,0:2:0:0:
260,170,76645,6,0,B|339:210|339:210|398:182|453:195|453:195|493:122|493:122|396:66|313:92,1,476.00000907898,8|8,3:2|3:2,0:0:0:0:
73,258,77270,5,2,0:2:0:0:
0,190,77374,1,0,0:2:0:0:
68,117,77478,1,0,3:2:0:0:
141,185,77582,2,0,B|296:165,1,119.000002269745,0|2,0:2|0:2,0:0:0:0:
305,332,77790,6,0,P|268:285|212:269,1,119.000002269745,0|8,0:1|3:2,0:0:0:0:
493,243,77999,2,0,P|443:274|423:328,1,119.000002269745,0|2,0:1|0:2,0:0:0:0:
342,2,78207,6,0,L|352:239,1,238.00000453949,0|0,3:2|0:2,0:0:0:0:
68,117,78520,6,0,L|186:112,1,119.000002269745,2|0,3:2|0:2,0:0:0:0:
347,102,78728,2,0,L|466:93,1,119.000002269745,8|0,3:2|0:2,0:0:0:0:
208,268,78936,5,2,0:2:0:0:
232,247,79006,1,0,0:2:0:0:
245,218,79075,1,0,0:2:0:0:
250,186,79145,2,0,P|217:125|245:30,1,158.666669692993,0|0,3:2|0:0,0:0:0:0:
403,28,79353,5,2,0:2:0:0:
375,44,79423,1,0,0:2:0:0:
357,70,79492,1,0,0:2:0:0:
347,102,79561,2,0,P|380:163|352:258,1,158.666669692993,8|0,3:2|0:0,0:0:0:0:
244,332,79770,2,0,P|287:266|362:246,1,158.666669692993,2|0,0:2|0:0,0:0:0:0:
463,347,79978,6,0,L|345:342,1,119.000002269745,4|0,3:2|0:2,0:0:0:0:
125,326,80186,2,0,L|243:331,1,119.000002269745,2|0,0:2|0:2,0:0:0:0:
362,246,80395,2,0,L|368:128,1,119.000002269745,8|0,3:2|0:2,0:0:0:0:
310,39,80603,1,2,0:2:0:0:
241,117,80707,2,0,L|234:235,1,119.000002269745,0|0,0:2|3:2,0:0:0:0:
56,258,80916,5,0,0:2:0:0:
54,234,81020,1,2,0:2:0:0:
52,210,81124,1,0,0:2:0:0:
72,65,81228,5,8,3:2:0:0:
50,186,81332,1,0,0:2:0:0:
144,128,81436,1,2,0:2:0:0:
48,162,81540,1,0,0:2:0:0:
150,229,81645,6,0,P|206:210|238:162,1,119.000002269745,0|0,3:2|0:2,0:0:0:0:
129,18,81853,2,0,P|117:75|143:127,1,119.000002269745,2|0,0:2|0:2,0:0:0:0:
322,104,82061,2,0,P|278:65|219:61,1,119.000002269745,8|0,3:2|0:2,0:0:0:0:
329,205,82270,1,2,0:2:0:0:
413,149,82374,2,0,P|424:91|398:38,1,119.000002269745,0|0,0:2|3:2,0:0:0:0:
419,250,82582,5,0,0:2:0:0:
419,250,82634,1,0,0:2:0:0:
419,250,82686,2,0,P|474:230|507:181,1,119.000002269745,2|0,0:2|0:2,0:0:0:0:
322,104,82895,5,8,3:2:0:0:
238,161,82999,1,0,0:2:0:0:
220,60,83103,1,2,0:2:0:0:
238,161,83207,1,0,0:2:0:0:
319,73,83311,6,0,B|292:42|245:21|206:24|156:30|93:73|80:147|94:196|127:237|164:243|216:234|238:199|238:161,1,476.00000907898,2|8,3:2|3:2,0:0:0:0:
454,333,83936,5,2,0:2:0:0:
406,326,84040,2,0,B|430:312|430:312|454:334,1,59.5000011348725,0|0,3:2|3:2,0:0:0:0:
358,319,84145,1,2,3:1:0:0:
273,350,84249,6,0,P|150:338|148:229,1,210,2|0,3:1|0:0,0:0:0:0:
98,245,84457,2,0,P|139:155|238:161,1,210,2|0,3:1|0:0,0:0:0:0:
277,144,84665,2,0,P|334:224|279:307,1,210,2|0,3:1|0:0,0:0:0:0:
273,350,84874,2,0,P|150:338|148:229,1,210,4|0,3:1|0:0,0:0:0:0:
230,212,85082,5,0,0:1:0:0:
251,231,85186,2,0,B|297:230|297:230|340:247|340:247|395:245,6,140,2|2|2|2|2|2|0,3:2|0:2|0:2|0:2|0:2|0:2|0:2,0:0:0:0:
367,21,86645,6,0,L|359:146,1,125.999996154785,4|0,3:2|0:2,0:0:0:0:
394,370,86853,2,0,L|387:245,1,125.999996154785,2|0,0:2|0:2,0:0:0:0:
165,187,87061,5,8,3:2:0:0:
174,210,87165,2,0,L|335:221,1,125.999996154785,0|2,0:2|0:2,0:0:0:0:
485,155,87374,2,0,L|359:146,1,125.999996154785,0|0,0:2|3:2,0:0:0:0:
219,325,87582,5,0,0:2:0:0:
242,333,87686,2,0,P|273:280|272:218,1,125.999996154785,2|0,0:2|0:2,0:0:0:0:
3,210,87895,2,0,B|177:250|177:250|91:289,1,251.999992309571,8|2,3:2|0:2,0:0:0:0:
3,210,88207,2,0,P|1:147|33:94,1,125.999996154785,0|0,0:2|3:2,0:0:0:0:
230,66,88415,5,0,0:2:0:0:
230,66,88468,1,0,0:2:0:0:
230,66,88520,2,0,P|167:67|114:35,1,125.999996154785,2|0,0:2|0:2,0:0:0:0:
39,305,88728,1,8,3:2:0:0:
118,240,88832,2,0,P|65:208|2:210,1,125.999996154785,0|2,0:2|0:0,0:0:0:0:
229,240,89040,6,0,P|282:208|345:210,1,125.999996154785,0|0,0:2|3:2,0:0:0:0:
503,54,89249,2,0,P|452:90|430:148,2,125.999996154785,0|2|0,0:2|0:2|0:2,0:0:0:0:
488,360,89561,6,0,P|480:299|440:251,1,125.999996154785,8|0,3:2|0:2,0:0:0:0:
345,210,89770,2,0,P|282:208|229:240,1,125.999996154785,2|0,0:2|0:2,0:0:0:0:
174,327,89978,6,0,P|79:207|229:241,1,398.999989345551,8|0,3:2|0:0,0:0:0:0:
243,240,90395,6,0,P|72:197|179:338,1,462.000014099122,4|0,3:2|0:2,0:0:0:0:
49,327,90811,5,0,3:2:0:0:
36,227,90915,1,0,0:2:0:0:
52,125,91020,2,0,P|85:81|133:53,1,112,2|0,0:2|0:2,0:0:0:0:
280,173,91228,1,8,3:2:0:0:
293,155,91332,2,0,P|272:104|233:65,1,112,0|2,0:2|0:2,0:0:0:0:
169,171,91540,6,0,B|292:154|292:154|418:207,1,251.999992309571,2|2,3:1|0:1,0:0:0:0:
273,355,91853,6,0,L|284:257,1,97.9999970092774,2|0,3:2|0:2,0:0:0:0:
214,97,92061,2,0,L|294:156,1,97.9999970092774,0|0,3:2|0:0,0:0:0:0:
466,173,92270,2,0,L|375:212,1,97.9999970092774,2|0,0:2|0:2,0:0:0:0:
168,243,92478,6,0,L|258:203,1,97.9999970092774,0|0,3:2|0:2,0:0:0:0:
362,62,92686,2,0,L|351:160,1,97.9999970092774,2|0,0:2|0:2,0:0:0:0:
422,319,92895,2,0,L|342:260,1,97.9999970092774,8|0,3:2|0:2,0:0:0:0:
214,97,93103,2,0,L|294:156,1,97.9999970092774,2|0,0:2|0:2,0:0:0:0:
512,329,93311,6,0,P|503:275|462:238,1,112,4|0,3:2|0:0,0:0:0:0:
311,313,93520,2,0,L|422:319,1,112,2|0,0:2|0:2,0:0:0:0:
376,106,93728,5,8,3:2:0:0:
293,155,93832,2,0,L|181:148,1,112,0|2,0:2|0:2,0:0:0:0:
199,306,94040,2,0,L|310:312,1,112,0|0,0:2|3:2,0:0:0:0:
292,57,94249,5,0,0:2:0:0:
181,148,94353,2,0,L|69:141,1,112,2|0,0:2|0:2,0:0:0:0:
99,339,94561,2,0,B|144:303|144:303|310:311,1,224,8|2,3:2|0:2,0:0:0:0:
422,319,94874,2,0,L|310:312,1,112,0|0,0:2|3:2,0:0:0:0:
67,249,95082,5,0,0:2:0:0:
67,249,95134,1,0,0:2:0:0:
66,248,95186,2,0,P|53:193|72:136,1,112,2|0,0:2|0:2,0:0:0:0:
177,38,95395,1,8,3:2:0:0:
271,90,95499,2,0,P|232:129|179:146,1,112,0|2,0:2|0:0,0:0:0:0:
310,312,95707,6,0,P|297:258|312:204,1,112,0|0,3:2|0:0,0:0:0:0:
421,318,95915,2,0,P|437:265|425:211,2,112,2|2|0,0:2|3:2|0:2,0:0:0:0:
271,90,96228,6,0,B|328:115|328:115|388:94,1,125.999996154785,10|0,3:2|0:2,0:0:0:0:
310,312,96436,2,0,B|253:287|253:287|192:307,1,125.999996154785,2|0,3:2|0:2,0:0:0:0:
97,143,96645,6,0,B|273:90|273:90|315:167|315:167|173:213,1,420,2|0,3:2|0:2,0:0:0:0:
26,275,97061,5,0,3:0:0:0:
68,279,97131,1,0,3:0:0:0:
101,295,97200,1,0,3:0:0:0:
126,315,97270,1,0,3:0:0:0:
149,329,97339,1,0,3:0:0:0:
171,332,97408,1,0,3:0:0:0:
189,327,97478,6,0,P|243:300|368:327,1,167.999994873047,2|0,3:1|0:2,0:0:0:0:
505,299,97790,2,0,P|451:326|326:299,1,167.999994873047,2|0,3:1|0:2,0:0:0:0:
219,295,98103,6,0,P|285:280|347:312,1,140,2|0,3:1|0:2,0:0:0:0:
475,330,98415,2,0,P|407:343|345:311,1,140,2|0,3:1|0:2,0:0:0:0:
250,274,98728,6,0,P|304:275|346:312,1,112,2|0,3:1|0:2,0:0:0:0:
442,350,99040,2,0,P|387:348|345:311,1,112,2|0,3:1|0:2,0:0:0:0:
283,266,99353,6,0,P|322:277|345:311,1,83.9999974365235,2|0,3:1|0:2,0:0:0:0:
408,357,99665,2,0,P|369:346|346:312,1,83.9999974365235,2|2,3:1|3:1,0:0:0:0:
256,192,99978,12,8,101228,0:2:0:0:
85,115,101645,6,0,B|232:104|232:104|160:161,1,210,6|0,3:2|0:2,0:0:0:0:
130,217,102061,1,0,0:2:0:0:
135,244,102165,1,0,0:2:0:0:
95,326,102270,1,0,0:2:0:0:
100,353,102374,1,0,0:2:0:0:
412,31,102686,1,0,0:2:0:0:
480,192,102895,5,2,3:2:0:0:
407,135,102999,2,0,P|371:124|315:122,1,70,2|0,3:2|0:2,0:0:0:0:
130,217,103207,1,2,3:2:0:0:
480,192,103520,5,0,0:2:0:0:
407,249,103624,2,0,P|371:260|315:262,1,70,0|0,0:2|0:2,0:0:0:0:
217,193,103832,2,0,L|287:193,1,70,0|0,0:2|0:2,0:0:0:0:
407,135,104040,2,0,P|373:124|338:120,1,70,0|0,0:2|0:2,0:0:0:0:
143,259,104249,6,0,P|118:196|143:132,1,140,2|0,3:2|0:2,0:0:0:0:
217,193,104561,6,0,P|179:274|114:212,1,210,2|0,3:2|0:2,0:0:0:0:
143,132,104978,6,0,P|231:174|222:277,1,210,2|0,3:2|0:2,0:0:0:0:
140,302,105395,1,0,0:2:0:0:
113,309,105499,1,0,0:2:0:0:
85,316,105603,1,0,0:2:0:0:
57,322,105707,2,0,L|-23:318,1,70,0|0,0:2|0:2,0:0:0:0:
0,224,105915,1,0,0:2:0:0:
21,205,106020,2,0,P|29:158|39:109,1,70,0|0,0:2|0:2,0:0:0:0:
150,47,106228,5,2,3:2:0:0:
210,116,106332,2,0,P|234:120|283:105,1,70,2|0,3:2|0:2,0:0:0:0:
224,274,106540,1,2,3:2:0:0:
462,113,106783,6,0,L|474:10,2,93.3333333333333,0|0|0,1:2|1:2|1:2,0:0:0:0:
493,346,107200,1,0,0:0:0:0:
478,325,107270,1,2,0:3:0:0:
456,312,107339,1,2,0:3:0:0:
431,308,107408,1,2,0:3:0:0:
406,313,107478,6,0,P|360:321|317:294,1,70,2|0,1:2|1:2,0:0:0:0:
106,313,107895,2,0,P|152:321|195:294,1,70,2|0,1:2|0:0,0:0:0:0:
255,23,108311,6,0,B|255:215,1,140,2|0,3:2|0:0,0:0:0:0:
255,191,108624,1,0,0:2:0:0:
255,218,108728,6,0,B|255:358,2,140,0|0|0,0:2|0:0|0:0,0:0:0:0:
255,23,109353,1,0,0:2:0:0:
145,143,109561,5,2,3:2:0:0:
71,79,109665,2,0,L|62:-13,1,70,2|0,3:2|0:2,0:0:0:0:
0,192,109874,1,2,3:2:0:0:
255,218,110082,5,0,3:2:0:0:
332,165,110186,2,0,L|338:69,1,70,0|0,3:2|3:2,0:0:0:0:
286,305,110395,5,8,3:3:0:0:
381,296,110499,2,0,L|405:185,1,70,8|0,3:3|3:2,0:0:0:0:
255,218,110707,2,0,L|231:107,1,70,8|8,3:3|3:3,0:0:0:0:
153,46,110915,6,0,P|224:64|273:21,1,140,2|0,3:2|0:2,0:0:0:0:
453,80,111228,6,0,P|359:65|338:158,1,210,2|0,3:2|0:2,0:0:0:0:
422,291,111645,6,0,P|413:256|392:224,1,70,2|0,3:2|3:2,0:0:0:0:
316,296,111853,1,0,3:2:0:0:
301,319,111957,1,0,3:2:0:0:
274,341,112061,5,8,3:2:0:0:
232,347,112165,1,0,3:2:0:0:
185,330,112270,1,0,3:2:0:0:
161,279,112374,1,0,3:2:0:0:
181,219,112478,5,8,3:2:0:0:
184,146,112582,1,0,3:2:0:0:
128,85,112686,1,0,3:2:0:0:
44,89,112790,1,0,3:2:0:0:
0,172,112895,5,14,3:3:0:0:
42,256,112999,1,6,3:3:0:0:
147,252,113103,1,4,3:3:0:0:
184,146,113207,1,6,3:3:0:0:
256,192,113311,12,0,116645,0:2:0:0:
