osu file format v14

[General]
AudioFilename: audio.mp3
AudioLeadIn: 0
PreviewTime: 73207
Countdown: 0
SampleSet: Soft
StackLeniency: 0.7
Mode: 0
LetterboxInBreaks: 0
WidescreenStoryboard: 1

[Editor]
Bookmarks: 1645,14978,28311,35082,39770,43311,46645,56645,69978,73311,86645,101645,113207
DistanceSpacing: 1
BeatDivisor: 4
GridSize: 32
TimelineZoom: 3.799999

[Metadata]
Title:Routing
TitleUnicode:Routing
Artist:Camellia
ArtistUnicode:かめりあ
Creator:Mir
Version:Beginner
Source:beatmania IIDX 23 copula
Tags:22 pendual super future 2323 lasse low bpm alt jazzy electric house boogaloo
BeatmapID:1405337
BeatmapSetID:663255

[Difficulty]
HPDrainRate:3
CircleSize:3
OverallDifficulty:3
ApproachRate:3
SliderMultiplier:0.999999999999999
SliderTickRate:1

[Events]
//Background and Video events
0,0,"routing.jpg",0,0
//Break Periods
2,43511,44580
//Storyboard Layer 0 (Background)
//Storyboard Layer 1 (Fail)
//Storyboard Layer 2 (Pass)
//Storyboard Layer 3 (Foreground)
//Storyboard Sound Samples

[TimingPoints]
1645,416.666666666667,4,2,1,50,1,0
3259,-100,4,2,99,5,0,0
3311,-100,4,2,1,50,0,0
6593,-100,4,2,99,5,0,0
6645,-100,4,2,1,50,0,0
9926,-100,4,2,99,5,0,0
9978,-100,4,2,2,50,0,0
10915,-100,4,2,1,50,0,0
11645,-100,4,2,2,50,0,0
13207,-100,4,2,2,50,0,0
14561,-100,4,2,2,50,0,0
14926,-100,4,2,99,5,0,0
14978,-100,4,2,1,80,0,0
15290,-100,4,2,1,80,0,0
16853,-100,4,2,1,80,0,0
17009,-100,4,2,99,5,0,0
17061,-100,4,2,1,80,0,0
18676,-100,4,2,99,5,0,0
18728,-100,4,2,1,80,0,0
19093,-100,4,2,99,5,0,0
19145,-100,4,2,1,80,0,0
21176,-100,4,2,99,5,0,0
21228,-100,4,2,1,80,0,0
22009,-100,4,2,99,5,0,0
22061,-100,4,2,1,80,0,0
23520,-100,4,2,1,80,0,0
23676,-100,4,2,99,5,0,0
23728,-100,4,2,1,80,0,0
24145,-100,4,2,1,80,0,0
26593,-100,4,2,99,5,0,0
26645,-100,4,2,1,80,0,0
27895,-100,4,2,1,80,0,0
28311,-100,4,2,1,80,0,0
28624,-100,4,2,1,80,0,0
30186,-100,4,2,1,80,0,0
30342,-100,4,2,99,5,0,0
30395,-100,4,2,1,80,0,0
30811,-100,4,2,1,80,0,0
32009,-100,4,2,99,5,0,0
32061,-100,4,2,1,80,0,0
32426,-100,4,2,99,5,0,0
32478,-100,4,2,1,80,0,0
34874,-100,4,2,1,80,0,0
36488,-100,4,2,99,5,0,0
36540,-100,4,2,1,80,0,0
37061,-100,4,2,1,80,0,0
37478,-100,4,2,1,80,0,0
39770,-100,4,2,1,70,0,0
39978,-100,4,2,1,70,0,0
40395,-100,4,2,1,40,0,0
40811,-100,4,2,1,50,0,0
41228,-100,4,2,1,60,0,0
41645,-100,4,2,1,70,0,0
42061,-100,4,2,1,80,0,0
42478,-100,4,2,1,90,0,0
42895,-100,4,2,1,60,0,0
43311,-100,4,2,1,70,0,0
46020,-100,4,2,1,100,0,0
46332,-100,4,2,1,80,0,0
46645,-100,4,2,1,60,0,0
48728,-100,4,2,1,60,0,0
49145,-100,4,2,1,60,0,0
56645,-100,4,2,1,60,0,0
57009,-100,4,2,99,5,0,0
57061,-100,4,2,1,60,0,0
57322,-100,4,2,99,5,0,0
57374,-100,4,2,1,60,0,0
57634,-100,4,2,99,5,0,0
57686,-100,4,2,1,60,0,0
57947,-100,4,2,99,5,0,0
57999,-100,4,2,1,60,0,0
58103,-100,4,2,99,5,0,0
58207,-100,4,2,1,60,0,0
60342,-100,4,2,99,5,0,0
60394,-100,4,2,1,60,0,0
60655,-100,4,2,99,5,0,0
60707,-100,4,2,1,60,0,0
60967,-100,4,2,99,5,0,0
61019,-100,4,2,1,60,0,0
61280,-100,4,2,99,5,0,0
61332,-100,4,2,1,60,0,0
61488,-100,4,2,99,5,0,0
61540,-100,4,2,1,60,0,0
61801,-100,4,2,99,5,0,0
61853,-100,4,2,1,60,0,0
61957,-100,4,2,99,5,0,0
62061,-100,4,2,1,60,0,0
63676,-100,4,2,99,5,0,0
63728,-100,4,2,1,60,0,0
63988,-100,4,2,99,5,0,0
64040,-100,4,2,1,60,0,0
64301,-100,4,2,99,5,0,0
64353,-100,4,2,1,60,0,0
64613,-100,4,2,99,5,0,0
64665,-100,4,2,1,60,0,0
64770,-100,4,2,99,5,0,0
64874,-100,4,2,1,60,0,0
67009,-100,4,2,1,60,0,0
67061,-100,4,2,1,60,0,0
73311,-100,4,2,1,95,0,1
79770,-100,4,2,1,85,0,0
79978,-100,4,2,1,95,0,1
83311,-100,4,2,1,95,0,1
83728,-100,4,2,1,95,0,1
84249,-100,4,2,1,95,0,1
84301,-100,4,2,99,5,0,1
84353,-100,4,2,1,95,0,1
84509,-100,4,2,99,5,0,1
84561,-100,4,2,1,95,0,1
84718,-100,4,2,99,5,0,1
84770,-100,4,2,1,95,0,1
84978,-100,4,2,1,70,0,0
85186,-100,4,2,1,70,0,0
85395,-100,4,2,1,70,0,0
85603,-100,4,2,1,70,0,0
85811,-100,4,2,1,70,0,0
86020,-100,4,2,1,70,0,0
86228,-100,4,2,1,70,0,0
86645,-100,4,2,1,70,0,1
91593,-100,4,2,99,5,0,1
91645,-100,4,2,1,85,0,1
93103,-100,4,2,1,85,0,0
93311,-100,4,2,1,85,0,1
96645,-100,4,2,1,70,0,0
97061,-100,4,2,3,70,0,0
97270,-100,4,2,4,70,0,0
97478,-100,4,2,1,70,0,0
103259,-100,4,2,99,5,0,0
103311,-100,4,2,1,70,0,0
106593,-100,4,2,99,5,0,0
106645,-100,4,2,1,70,0,0
109926,-100,4,2,99,5,0,0
109978,-100,4,2,2,70,0,0
110915,-100,4,2,1,70,0,0
111645,-100,4,2,2,70,0,0
116645,-100,4,2,99,5,0,0

[Colours]
Combo1 : 243,233,171
Combo2 : 255,164,209
Combo3 : 160,239,186
Combo4 : 162,187,253

[HitObjects]
65,109,1645,6,0,B|173:68|139:144|270:113,1,200,6|0,3:2|0:0,0:0:0:0:
341,58,2895,2,0,P|358:98|357:144,1,75,2|2,3:2|3:2,0:0:0:0:
220,340,4561,5,2,3:2:0:0:
247,239,4978,2,0,B|260:169|260:169|236:38,1,200,6|0,3:2|0:2,0:0:0:0:
136,47,6228,2,0,L|153:144,1,75,2|2,3:2|3:2,0:0:0:0:
445,212,8311,6,0,B|379:207|379:207|326:229|326:229|236:222,1,200,6|0,3:2|0:0,0:0:0:0:
168,281,9561,2,0,P|152:240|156:188,1,75,2|2,3:2|3:2,0:0:0:0:
321,98,11228,5,2,3:2:0:0:
256,192,11645,12,6,13207,3:2:0:0:
382,93,14978,6,0,L|171:89,1,200,4|0,3:2|3:2,0:0:0:0:
88,125,16228,1,8,3:2:0:0:
147,205,16645,2,0,B|142:238|142:238|147:271|147:271|140:318,2,99.9999999999999,0|8|0,3:2|3:2|3:2,0:0:0:0:
245,188,17895,1,8,3:2:0:0:
317,256,18311,5,0,3:2:0:0:
417,279,18728,2,0,B|431:231|431:231|428:173,1,99.9999999999999,8|0,3:2|3:2,0:0:0:0:
440,81,19561,1,8,3:2:0:0:
347,43,19978,2,0,L|245:40,1,99.9999999999999,0|8,3:2|3:2,0:0:0:0:
174,106,20811,1,2,3:2:0:0:
74,118,21228,2,0,P|73:80|87:46,2,74.9999999999999,2|2|2,3:2|3:2|3:2,0:0:0:0:
88,165,22061,6,0,L|309:159,1,200,12|8,3:2|3:2,0:0:0:0:
367,220,23311,1,0,3:2:0:0:
380,120,23728,1,8,3:2:0:0:
414,26,24145,2,0,B|457:25|457:25|467:18|467:18|532:19,1,99.9999999999999,0|8,3:2|3:2,0:0:0:0:
500,118,24978,6,0,L|507:235,1,99.9999999999999,0|8,3:2|3:2,0:0:0:0:
432,286,25811,1,0,3:2:0:0:
350,228,26228,2,0,P|284:209|255:209,1,75,8|2,3:2|3:2,0:0:0:0:
78,198,27895,5,0,0:2:0:0:
130,113,28311,6,0,B|227:150|234:69|347:119,1,200,4|0,3:2|3:2,0:0:0:0:
417,148,29561,1,8,3:2:0:0:
339,211,29978,2,0,P|306:263|313:315,2,99.9999999999999,0|8|0,3:2|3:2|3:2,0:0:0:0:
416,147,31228,1,8,3:2:0:0:
494,209,31645,5,0,3:2:0:0:
509,110,32061,2,0,L|511:5,1,99.9999999999999,8|0,3:2|3:2,0:0:0:0:
412,28,32895,1,8,3:2:0:0:
314,48,33311,6,0,B|270:50|270:50|256:56|256:56|240:52|240:52|206:54|206:54|191:47|191:47|175:54|175:54|118:55,1,200,0|0,3:2|3:2,0:0:0:0:
56,131,34561,2,0,B|42:169|42:169|51:218,1,75,2|2,3:2|1:2,0:0:0:0:
128,302,35395,6,0,B|153:291|185:291|185:291|253:331|330:289|330:289|369:292|406:311,1,275,0|2,3:0|3:2,0:0:0:0:
421,182,37061,5,14,3:2:0:0:
474,95,37478,2,0,B|427:84|427:84|368:92,1,99.9999999999999,0|8,3:2|3:2,0:0:0:0:
278,91,38311,6,0,L|159:88,1,99.9999999999999,0|8,3:2|3:2,0:0:0:0:
91,139,39145,2,0,P|81:202|90:227,2,75,2|2|6,3:2|3:2|3:2,0:0:0:0:
256,192,40395,12,0,43311,1:2:0:0:
451,61,46020,5,2,3:2:0:0:
286,74,46645,6,0,B|268:122|268:122|277:185,1,99.9999999999999,6|8,3:2|3:2,0:0:0:0:
356,228,47478,2,0,B|374:276|374:276|367:324,1,99.9999999999999,0|8,3:2|3:2,0:0:0:0:
282,378,48311,1,0,3:2:0:0:
205,313,48728,2,0,B|158:296|158:296|89:310,2,99.9999999999999,8|0|8,3:2|3:2|3:2,0:0:0:0:
282,378,49978,5,0,3:2:0:0:
367,324,50395,1,8,3:2:0:0:
457,367,50811,2,0,P|466:318|440:260,1,99.9999999999999,0|8,3:2|3:2,0:0:0:0:
385,194,51645,5,0,3:2:0:0:
460,128,52061,2,0,P|469:79|443:21,1,99.9999999999999,8|0,3:2|3:2,0:0:0:0:
352,27,52895,1,8,3:2:0:0:
284,100,53311,6,0,L|170:104,1,99.9999999999999,0|8,3:2|3:2,0:0:0:0:
174,206,54145,2,0,L|273:202,1,99.9999999999999,0|8,3:2|3:2,0:0:0:0:
362,290,55082,6,0,B|389:200|389:200|307:35,1,275,2|0,3:2|0:2,0:0:0:0:
227,96,56645,5,6,3:1:0:0:
200,192,57061,2,0,L|292:185,2,74.9999999999999,2|2|2,3:1|3:1|3:1,0:0:0:0:
90,251,58207,6,0,B|72:154|72:154|139:31,1,225,2|0,3:1|0:2,0:0:0:0:
227,74,59561,1,8,0:2:0:0:
258,164,59978,5,6,3:1:0:0:
321,241,60395,2,0,P|387:231|408:219,2,74.9999999999999,2|2|2,3:2|3:1|3:1,0:0:0:0:
196,251,61540,2,0,L|192:335,1,74.9999999999999,2|2,3:1|3:1,0:0:0:0:
98,279,63311,5,6,3:1:0:0:
193,251,63728,2,0,P|197:296|187:339,2,74.9999999999999,2|2|2,3:1|3:1|3:1,0:0:0:0:
141,137,64874,2,0,B|190:117|236:129|236:129|283:87|283:87|339:70|375:124|460:78,1,325,2|8,3:1|0:2,0:0:0:0:
256,192,66645,12,6,69978,3:1:0:0:
104,89,72895,5,0,0:0:0:0:
127,186,73311,6,0,P|200:188|239:173,1,99.9999999999999,4|8,3:2|3:2,0:0:0:0:
289,102,74145,2,0,P|362:100|401:115,1,99.9999999999999,0|8,3:2|3:2,0:0:0:0:
404,206,74978,1,0,3:2:0:0:
332,275,75395,2,0,P|318:321|328:375,1,99.9999999999999,8|0,3:2|3:2,0:0:0:0:
419,334,76228,1,8,3:2:0:0:
492,265,76645,6,0,P|509:215|491:152,1,99.9999999999999,0|8,3:2|3:2,0:0:0:0:
439,90,77478,1,0,3:2:0:0:
360,152,77895,2,0,B|371:192|371:192|361:237,2,74.9999999999999,8|0|2,3:2|3:2|3:2,0:0:0:0:
318,123,78728,1,8,3:2:0:0:
221,149,79145,2,0,B|235:197|235:197|226:251,1,99.9999999999999,0|8,3:2|3:2,0:0:0:0:
187,338,79978,6,0,L|303:332,1,99.9999999999999,4|8,3:2|3:2,0:0:0:0:
386,340,80811,2,0,L|485:345,1,99.9999999999999,0|8,3:2|3:2,0:0:0:0:
485,244,81645,1,0,3:2:0:0:
496,144,82061,2,0,B|503:95|503:95|486:34,1,99.9999999999999,8|0,3:2|3:2,0:0:0:0:
395,81,82895,1,8,3:2:0:0:
314,132,83311,6,0,L|201:125,1,99.9999999999999,0|8,3:2|3:2,0:0:0:0:
118,157,84145,2,0,P|99:208|105:243,1,74.9999999999999,2|2,3:1|3:1,0:0:0:0:
155,311,84874,2,0,L|244:316,1,74.9999999999999,4|2,3:1|3:2,0:0:0:0:
406,138,86228,1,2,0:2:0:0:
330,72,86645,5,4,3:2:0:0:
235,103,87061,2,0,L|139:94,2,74.9999999999999,8|0|2,3:2|0:2|0:2,0:0:0:0:
248,151,87895,1,8,3:2:0:0:
163,203,88311,2,0,L|176:316,1,99.9999999999999,0|8,3:2|3:2,0:0:0:0:
255,362,89145,1,0,3:2:0:0:
283,266,89561,2,0,P|344:263|394:277,1,99.9999999999999,8|2,3:2|3:1,0:0:0:0:
450,344,90395,5,10,3:1:0:0:
472,246,90811,2,0,B|504:170|504:170|490:65,1,175,0|2,3:2|3:1,0:0:0:0:
367,67,92061,2,0,L|247:65,1,99.9999999999999,0|0,3:2|3:2,0:0:0:0:
175,24,92895,1,8,3:2:0:0:
122,107,93311,5,4,3:2:0:0:
128,206,93728,2,0,L|44:207,2,74.9999999999999,8|0|2,3:2|0:2|0:2,0:0:0:0:
152,249,94561,1,8,3:2:0:0:
211,329,94978,5,0,3:2:0:0:
294,273,95395,2,0,L|368:272,2,74.9999999999999,8|0|2,3:2|3:2|3:2,0:0:0:0:
287,223,96228,1,10,3:2:0:0:
346,142,96645,5,2,3:2:0:0:
154,60,97478,6,0,L|168:225,1,150,2|2,3:1|3:1,0:0:0:0:
206,353,98728,2,0,B|288:354|288:354|356:301,1,150,2|2,3:1|3:1,0:0:0:0:
256,192,99874,12,2,101645,3:1:0:0:
353,95,102895,6,0,P|299:88|261:101,1,74.9999999999999,2|2,3:2|3:2,0:0:0:0:
73,344,104561,1,2,3:2:0:0:
143,272,104978,6,0,P|165:213|160:167,1,99.9999999999999,2|0,3:2|0:2,0:0:0:0:
132,81,105811,1,0,0:2:0:0:
229,102,106228,6,0,L|317:99,1,74.9999999999999,2|2,3:2|3:2,0:0:0:0:
415,236,108311,6,0,L|211:229,1,200,2|0,3:2|0:0,0:0:0:0:
138,293,109561,2,0,P|114:244|118:213,1,74.9999999999999,2|2,3:2|3:2,0:0:0:0:
420,113,111228,1,2,3:2:0:0:
328,71,111645,6,0,L|213:73,1,99.9999999999999,2|8,3:2|3:2,0:0:0:0:
130,50,112478,1,8,3:2:0:0:
158,145,112895,2,0,L|158:228,1,74.9999999999999,14|6,3:3|3:3,0:0:0:0:
256,192,113624,12,0,116645,0:0:0:0:
