osu file format v14

[General]
AudioFilename: audio.mp3
AudioLeadIn: 0
PreviewTime: 73207
Countdown: 0
SampleSet: Soft
StackLeniency: 0.7
Mode: 0
LetterboxInBreaks: 0
WidescreenStoryboard: 1

[Editor]
Bookmarks: 1645,14978,28311,35082,39770,43311,46645,56645,69978,73311,86645,101645,113207
DistanceSpacing: 1.1
BeatDivisor: 3
GridSize: 4
TimelineZoom: 2.3

[Metadata]
Title:Routing
TitleUnicode:Routing
Artist:Camellia
ArtistUnicode:かめりあ
Creator:Mir
Version:Advanced
Source:beatmania IIDX 23 copula
Tags:22 pendual super future 2323 lasse low bpm alt jazzy electric house boogaloo
BeatmapID:1405358
BeatmapSetID:663255

[Difficulty]
HPDrainRate:4
CircleSize:3
OverallDifficulty:5
ApproachRate:7
SliderMultiplier:1.6
SliderTickRate:1

[Events]
//Background and Video events
0,0,"routing.jpg",0,0
//Break Periods
2,43511,44820
//Storyboard Layer 0 (Background)
//Storyboard Layer 1 (Fail)
//Storyboard Layer 2 (Pass)
//Storyboard Layer 3 (Foreground)
//Storyboard Sound Samples

[TimingPoints]
1645,416.666666666667,4,2,1,50,1,0
3259,-100.0,4,2,99,5,0,0
3311,-100.0,4,2,1,50,0,0
6593,-100.0,4,2,99,5,0,0
6645,-100.0,4,2,1,50,0,0
9926,-100.0,4,2,99,5,0,0
9978,-100.0,4,2,2,50,0,0
10915,-100.0,4,2,1,50,0,0
11645,-100.0,4,2,2,50,0,0
13207,-100.0,4,2,2,50,0,0
14561,-100.0,4,2,2,50,0,0
14926,-100.0,4,2,99,5,0,0
14978,-100.0,4,2,1,80,0,0
15290,-100.0,4,2,1,80,0,0
16853,-100.0,4,2,1,80,0,0
17009,-100.0,4,2,99,5,0,0
17061,-100.0,4,2,1,80,0,0
18676,-100.0,4,2,99,5,0,0
18728,-100.0,4,2,1,80,0,0
19093,-100.0,4,2,99,5,0,0
19145,-100.0,4,2,1,80,0,0
22009,-100.0,4,2,99,5,0,0
22061,-100.0,4,2,1,80,0,0
23520,-100.0,4,2,1,80,0,0
23676,-100.0,4,2,99,5,0,0
23728,-100.0,4,2,1,80,0,0
24145,-100.0,4,2,1,80,0,0
26593,-100.0,4,2,99,5,0,0
26645,-100.0,4,2,1,80,0,0
27895,-100.0,4,2,1,80,0,0
28311,-100.0,4,2,1,80,0,0
28624,-100.0,4,2,1,80,0,0
30186,-100.0,4,2,1,80,0,0
30342,-100.0,4,2,99,5,0,0
30395,-100.0,4,2,1,80,0,0
30811,-100.0,4,2,1,80,0,0
32009,-100.0,4,2,99,5,0,0
32061,-100.0,4,2,1,80,0,0
32426,-100.0,4,2,99,5,0,0
32478,-100.0,4,2,1,80,0,0
34874,-100.0,4,2,1,80,0,0
36540,-100.0,4,2,1,80,0,0
37061,-100.0,4,2,1,80,0,0
37478,-100.0,4,2,1,80,0,0
39770,-100.0,4,2,1,70,0,0
39978,-100.0,4,2,1,70,0,0
40395,-100.0,4,2,1,40,0,0
40811,-100.0,4,2,1,50,0,0
41228,-100.0,4,2,1,60,0,0
41645,-100.0,4,2,1,70,0,0
42061,-100.0,4,2,1,80,0,0
42478,-100.0,4,2,1,90,0,0
42895,-100.0,4,2,1,60,0,0
43311,-100.0,4,2,1,70,0,0
46020,-100.0,4,2,1,100,0,0
46332,-100.0,4,2,1,80,0,0
46645,-100.0,4,2,1,60,0,0
48728,-100.0,4,2,1,60,0,0
49145,-100.0,4,2,1,60,0,0
56645,-100.0,4,2,1,60,0,0
57009,-100.0,4,2,99,5,0,0
57061,-100.0,4,2,1,60,0,0
57322,-100.0,4,2,99,5,0,0
57374,-100.0,4,2,1,60,0,0
57634,-100.0,4,2,99,5,0,0
57686,-100.0,4,2,1,60,0,0
57947,-100.0,4,2,99,5,0,0
57999,-100.0,4,2,1,60,0,0
58103,-100.0,4,2,99,5,0,0
58207,-100.0,4,2,1,60,0,0
60342,-100.0,4,2,99,5,0,0
60394,-100.0,4,2,1,60,0,0
60655,-100.0,4,2,99,5,0,0
60707,-100.0,4,2,1,60,0,0
60967,-100.0,4,2,99,5,0,0
61019,-100.0,4,2,1,60,0,0
61280,-100.0,4,2,99,5,0,0
61332,-100.0,4,2,1,60,0,0
61488,-100.0,4,2,99,5,0,0
61540,-100.0,4,2,1,60,0,0
61801,-100.0,4,2,99,5,0,0
61853,-100.0,4,2,1,60,0,0
61957,-100.0,4,2,99,5,0,0
62061,-100.0,4,2,1,60,0,0
63676,-100.0,4,2,99,5,0,0
63728,-100.0,4,2,1,60,0,0
63988,-100.0,4,2,99,5,0,0
64040,-100.0,4,2,1,60,0,0
64301,-100.0,4,2,99,5,0,0
64353,-100.0,4,2,1,60,0,0
64613,-100.0,4,2,99,5,0,0
64665,-100.0,4,2,1,60,0,0
64770,-100.0,4,2,99,5,0,0
64874,-100.0,4,2,1,60,0,0
67009,-100.0,4,2,1,60,0,0
67061,-100.0,4,2,1,60,0,0
73311,-100.0,4,2,1,95,0,1
79770,-100.0,4,2,1,85,0,0
79978,-100.0,4,2,1,95,0,1
83311,-100.0,4,2,1,95,0,1
83728,-100.0,4,2,1,95,0,1
84249,-100.0,4,2,1,95,0,1
84301,-100.0,4,2,99,5,0,1
84353,-100.0,4,2,1,95,0,1
84509,-100.0,4,2,99,5,0,1
84561,-100.0,4,2,1,95,0,1
84718,-100.0,4,2,99,5,0,1
84770,-100.0,4,2,1,95,0,1
84978,-100.0,4,2,1,70,0,0
85186,-100.0,4,2,1,70,0,0
85395,-100.0,4,2,1,70,0,0
85603,-100.0,4,2,1,70,0,0
85811,-100.0,4,2,1,70,0,0
86020,-100.0,4,2,1,70,0,0
86228,-100.0,4,2,1,70,0,0
86645,-100.0,4,2,1,70,0,1
91593,-100.0,4,2,99,5,0,1
91645,-100.0,4,2,1,85,0,1
93103,-100.0,4,2,1,85,0,0
93311,-100.0,4,2,1,85,0,1
96645,-100.0,4,2,1,70,0,0
97061,-100.0,4,2,3,70,0,0
97270,-100.0,4,2,4,70,0,0
97478,-100.0,4,2,1,70,0,0
103259,-100.0,4,2,99,5,0,0
103311,-100.0,4,2,1,70,0,0
106593,-100.0,4,2,99,5,0,0
106645,-100.0,4,2,1,70,0,0
109926,-100.0,4,2,99,5,0,0
109978,-100.0,4,2,2,70,0,0
110915,-100.0,4,2,1,70,0,0
111645,-100.0,4,2,2,70,0,0
116645,-100.0,4,2,99,5,0,0
21176,-100.0,4,2,99,5,0,0
21228,-100.0,4,2,1,80,0,0
36488,-100.0,4,2,99,5,0,0

[Colours]
Combo1 : 243,233,171
Combo2 : 255,164,209
Combo3 : 160,239,186
Combo4 : 162,187,253

[HitObjects]
60,137,1645,6,0,L|221:132,1,160,6|0,3:2|0:2,0:0:0:0:
346,95,2374,2,0,B|353:152|353:152|321:220,1,120,0|0,0:2|0:2,0:0:0:0:
287,287,2895,1,2,3:2:0:0:
155,282,3207,1,2,3:2:0:0:
77,44,4249,1,2,3:2:0:0:
207,36,4561,2,0,L|314:32,1,80,2|0,3:2|0:0,0:0:0:0:
368,65,4978,6,0,P|391:129|352:222,1,160,6|0,3:2|0:2,0:0:0:0:
230,233,5707,2,0,L|239:361,1,120,0|0,0:2|0:2,0:0:0:0:
325,337,6228,1,2,3:2:0:0:
456,335,6540,1,2,3:2:0:0:
123,40,7478,1,2,1:2:0:0:
49,199,7895,1,0,1:2:0:0:
163,332,8311,6,0,L|332:328,1,160,6|0,3:2|0:2,0:0:0:0:
416,235,9040,2,0,B|441:181|441:181|424:92,1,120,0|0,0:2|0:2,0:0:0:0:
353,76,9561,1,2,3:2:0:0:
220,76,9874,1,2,3:2:0:0:
76,320,10915,1,2,3:2:0:0:
140,204,11228,1,2,3:2:0:0:
256,192,11645,12,6,13207,3:2:0:0:
82,62,14561,5,8,3:2:0:0:
48,234,14978,5,4,3:2:0:0:
223,245,15395,2,0,L|319:240,1,80,8|2,3:2|0:2,0:0:0:0:
309,284,15707,2,0,L|388:288,1,80,0|0,0:2|0:2,0:0:0:0:
419,256,16020,1,2,0:2:0:0:
424,168,16228,6,0,L|328:163,1,80,8|2,3:2|0:2,0:0:0:0:
317,129,16540,2,0,L|237:133,1,80,0|0,0:2|0:2,0:0:0:0:
205,101,16853,1,2,0:2:0:0:
141,40,17061,2,0,P|116:90|117:125,1,80,8|2,3:2|0:2,0:0:0:0:
79,193,17478,6,0,B|87:236|87:236|74:296,1,80,0|2,3:2|0:2,0:0:0:0:
72,314,17790,1,0,0:2:0:0:
135,374,17999,1,0,0:2:0:0:
194,312,18207,2,0,L|340:304,1,120,0|2,0:2|0:2,0:0:0:0:
395,271,18728,6,0,P|398:219|370:172,1,80,8|2,3:2|0:2,0:0:0:0:
359,160,19040,1,0,0:2:0:0:
228,189,19353,1,2,0:2:0:0:
141,175,19561,6,0,L|12:186,2,120,8|0|2,3:2|0:2|0:2,0:0:0:0:
198,108,20395,1,8,3:2:0:0:
228,189,20603,1,2,0:2:0:0:
254,272,20811,6,0,B|290:326|281:372|281:372|254:353|224:355,1,160,2|2,3:2|3:2,0:0:0:0:
121,332,21540,2,0,P|92:278|102:224,1,80,2|0,3:2|3:2,0:0:0:0:
148,139,22061,6,0,P|163:66|156:37,1,80,12|2,3:2|0:2,0:0:0:0:
143,21,22374,2,0,L|222:21,1,80,0|0,0:2|0:2,0:0:0:0:
262,40,22686,1,2,0:2:0:0:
298,120,22895,6,0,L|377:119,1,80,8|2,3:2|0:2,0:0:0:0:
405,85,23207,2,0,L|484:85,1,80,0|0,0:2|0:2,0:0:0:0:
502,126,23520,1,2,0:2:0:0:
488,212,23728,2,0,P|508:270|504:307,1,80,8|2,3:2|0:2,0:0:0:0:
452,356,24145,6,0,L|273:356,1,160,0|8,3:2|3:2,0:0:0:0:
205,337,24770,1,2,0:2:0:0:
263,271,24978,2,0,P|276:227|275:157,1,80,0|2,3:2|0:2,0:0:0:0:
271,98,25395,6,0,L|168:106,1,80,8|2,3:2|0:2,0:0:0:0:
163,137,25707,2,0,L|83:130,1,80,0|0,0:2|0:2,0:0:0:0:
48,103,26020,1,2,0:2:0:0:
21,19,26228,6,0,B|69:17|69:17|164:27,2,120,8|2|0,3:2|3:2|0:2,0:0:0:0:
447,127,27895,2,0,L|334:124,1,80,0|0,0:2|0:2,0:0:0:0:
293,76,28311,5,4,3:2:0:0:
140,163,28728,2,0,P|120:215|131:258,1,80,8|2,3:2|0:2,0:0:0:0:
165,246,29040,2,0,P|182:281|182:320,1,80,0|0,0:2|0:2,0:0:0:0:
171,363,29353,1,2,0:2:0:0:
257,379,29561,6,0,L|350:378,1,80,8|2,3:2|0:2,0:0:0:0:
355,337,29874,2,0,L|434:336,1,80,0|0,0:2|0:2,0:0:0:0:
447,293,30186,1,0,0:2:0:0:
401,217,30395,2,0,P|386:150|398:112,1,80,8|2,3:2|0:2,0:0:0:0:
334,70,30811,6,0,L|225:71,1,80,0|2,3:2|0:2,0:0:0:0:
217,36,31124,1,0,0:2:0:0:
134,66,31332,1,0,0:2:0:0:
146,153,31540,2,0,P|173:212|141:292,1,120,0|2,0:2|0:2,0:0:0:0:
133,356,32061,6,0,L|26:356,1,80,8|2,3:2|0:2,0:0:0:0:
15,331,32374,1,0,0:2:0:0:
86,220,32686,1,0,0:2:0:0:
162,264,32895,2,0,L|303:263,1,120,8|0,3:2|0:2,0:0:0:0:
325,263,33311,1,0,3:2:0:0:
400,199,33520,6,0,P|422:249|402:324,1,120,0|0,3:2|3:2,0:0:0:0:
292,372,34145,2,0,L|155:376,1,120,0|0,3:2|3:2,0:0:0:0:
128,373,34561,1,2,3:2:0:0:
46,268,34874,5,2,1:2:0:0:
266,250,35395,6,0,P|331:173|205:242,1,440,0|2,3:0|3:2,0:0:0:0:
6,84,37061,5,14,3:2:0:0:
180,104,37478,2,0,B|193:180|193:180|171:245,1,120,0|0,3:2|0:2,0:0:0:0:
165,262,37895,2,0,P|161:315|175:357,1,80,8|2,3:2|0:2,0:0:0:0:
179,383,38207,1,0,0:2:0:0:
309,364,38520,5,2,0:2:0:0:
311,276,38728,1,8,3:2:0:0:
398,279,38936,1,2,0:2:0:0:
486,285,39145,6,0,B|506:237|506:237|489:148,2,120,2|2|6,3:2|3:2|3:2,0:0:0:0:
256,192,40395,12,0,43311,1:2:0:0:
113,169,46020,5,2,3:2:0:0:
222,242,46332,1,2,3:2:0:0:
346,208,46645,6,0,B|355:165|355:165|339:117,1,80,6|2,3:2|0:2,0:0:0:0:
323,45,47061,2,0,L|230:48,1,80,8|2,3:2|0:2,0:0:0:0:
203,27,47374,2,0,L|123:24,1,80,0|0,0:2|0:2,0:0:0:0:
79,22,47686,1,2,0:2:0:0:
25,92,47895,1,8,3:2:0:0:
36,179,48103,6,0,L|41:283,1,80,2|0,0:2|3:2,0:0:0:0:
101,322,48520,1,2,0:2:0:0:
150,246,48728,2,0,B|189:250|189:250|253:243,1,80,8|2,3:2|0:2,0:0:0:0:
309,207,49145,2,0,B|317:262|317:262|283:336,2,120,0|0|2,3:2|0:2|0:2,0:0:0:0:
283,113,49978,5,0,3:2:0:0:
370,124,50186,1,2,0:2:0:0:
458,130,50395,2,0,B|467:172|467:172|456:227,1,80,8|2,3:2|0:2,0:0:0:0:
423,233,50707,2,0,B|414:275|414:275|425:330,1,80,0|0,0:2|0:2,0:0:0:0:
435,353,51020,1,2,0:2:0:0:
351,381,51228,1,8,3:2:0:0:
295,312,51436,6,0,B|302:275|302:275|293:233,1,80,2|0,0:2|3:2,0:0:0:0:
257,153,51853,1,2,0:2:0:0:
181,107,52061,2,0,L|82:106,1,80,8|2,3:2|0:2,0:0:0:0:
29,158,52478,1,0,3:2:0:0:
77,239,52686,2,0,B|36:246|36:246|-5:292,2,80,2|8|2,0:2|3:2|0:2,0:0:0:0:
165,238,53311,6,0,P|229:237|263:213,1,80,0|2,3:2|0:2,0:0:0:0:
278,205,53624,2,0,P|342:206|396:253,1,120,0|2,0:2|0:2,0:0:0:0:
467,203,54145,6,0,L|475:106,1,80,0|2,3:2|0:2,0:0:0:0:
430,115,54457,2,0,L|422:18,2,80,0|0|0,0:2|0:2|0:2,0:0:0:0:
352,158,55082,6,0,L|232:159,1,120,2|2,3:2|3:2,0:0:0:0:
189,236,55603,2,0,B|187:171|187:171|119:120,1,120,2|0,3:2|0:2,0:0:0:0:
126,6,56228,1,0,0:2:0:0:
38,8,56436,1,0,0:2:0:0:
39,96,56645,6,0,L|44:287,1,160,6|2,3:1|3:1,0:0:0:0:
124,359,57374,2,0,B|185:344|185:344|255:358,2,120,2|2|2,3:1|3:1|3:1,0:0:0:0:
129,271,58207,1,2,3:1:0:0:
261,274,58520,6,0,B|327:262|327:262|379:278|379:278|435:256|435:256|514:262|514:262|466:175|466:175|408:177,1,400,0|8,0:2|0:2,0:0:0:0:
344,143,59770,1,0,3:2:0:0:
413,89,59978,6,0,P|344:57|270:96,1,160,6|2,3:1|3:2,0:0:0:0:
161,160,60707,2,0,L|151:34,2,120,2|2|2,3:1|3:1|3:1,0:0:0:0:
124,242,61540,1,2,3:1:0:0:
200,349,61853,1,2,3:1:0:0:
506,175,62686,2,0,L|507:271,1,80,2|8,3:2|0:2,0:0:0:0:
474,303,62999,1,2,3:2:0:0:
371,220,63311,6,0,B|318:206|318:206|178:209,1,160,6|2,3:1|3:1,0:0:0:0:
93,264,64040,2,0,L|91:394,2,120,2|2|2,3:1|3:1|3:1,0:0:0:0:
34,198,64874,1,2,3:1:0:0:
339,152,66020,5,0,3:2:0:0:
259,115,66228,2,0,B|200:119|200:119|170:144,1,80,8|0,0:2|0:2,0:0:0:0:
157,219,66645,6,0,B|210:247|210:247|334:236,1,160,6|2,3:1|3:1,0:0:0:0:
427,178,67374,2,0,B|454:227|454:227|446:304,2,120,2|2|2,3:1|3:1|3:1,0:0:0:0:
362,118,68207,2,0,L|245:116,1,80,2|0,3:1|0:2,0:0:0:0:
237,115,68520,1,2,3:1:0:0:
256,192,68728,12,0,69978,0:2:0:0:
237,210,72895,5,0,0:0:0:0:
106,91,73311,6,0,P|83:161|90:199,1,80,4|2,3:2|0:2,0:0:0:0:
127,242,73728,2,0,L|125:351,1,80,8|2,3:2|0:2,0:0:0:0:
125,365,74040,1,0,0:2:0:0:
247,323,74353,5,2,0:2:0:0:
334,322,74561,1,8,3:2:0:0:
422,318,74770,1,2,0:2:0:0:
385,237,74978,6,0,P|381:165|396:132,1,80,0|2,3:2|0:2,0:0:0:0:
467,133,75395,2,0,P|474:94|469:54,1,80,8|2,3:2|0:2,0:0:0:0:
433,29,75707,1,0,0:2:0:0:
301,19,76020,5,2,0:2:0:0:
213,13,76228,1,8,3:2:0:0:
125,8,76436,1,2,0:2:0:0:
130,96,76645,6,0,B|163:142|163:142|142:259,1,160,0|8,3:2|3:2,0:0:0:0:
196,314,77270,1,2,0:2:0:0:
281,302,77478,6,0,L|434:293,1,120,0|0,3:2|0:1,0:0:0:0:
462,232,77999,1,0,0:1:0:0:
440,143,78207,2,0,P|421:101|444:22,1,120,0|2,3:2|3:2,0:0:0:0:
350,10,78728,6,0,L|257:12,1,80,8|2,3:2|0:2,0:0:0:0:
189,48,79145,2,0,L|109:46,1,80,0|2,3:2|0:2,0:0:0:0:
36,94,79561,1,8,3:2:0:0:
36,182,79770,1,2,0:2:0:0:
34,269,79978,6,0,B|75:276|75:276|145:257,1,80,4|2,3:2|0:2,0:0:0:0:
199,252,80395,2,0,L|315:254,1,80,8|2,3:2|0:2,0:0:0:0:
312,282,80707,1,0,0:2:0:0:
425,330,81020,5,2,0:2:0:0:
421,242,81228,1,8,3:2:0:0:
414,154,81436,1,2,0:2:0:0:
407,65,81645,6,0,B|349:63|349:63|318:73,1,80,0|2,3:2|0:2,0:0:0:0:
248,106,82061,2,0,B|190:104|190:104|169:110,1,80,8|2,3:2|0:2,0:0:0:0:
130,132,82374,1,0,0:2:0:0:
28,215,82686,5,2,0:2:0:0:
116,216,82895,1,8,3:2:0:0:
203,220,83103,1,2,0:2:0:0:
207,307,83311,6,0,B|286:307|286:307|354:387,1,160,0|8,3:2|3:2,0:0:0:0:
425,382,83936,1,2,0:2:0:0:
479,312,84145,6,0,B|492:253|492:253|472:174,1,120,2|2,3:1|3:1,0:0:0:0:
428,117,84665,1,2,3:1:0:0:
354,67,84874,2,0,B|295:54|295:54|238:69,1,120,4|2,3:1|3:2,0:0:0:0:
70,53,86228,6,0,L|149:55,1,80,2|0,0:2|0:2,0:0:0:0:
229,93,86645,6,0,B|223:175|223:175|273:258,1,160,4|8,3:2|3:2,0:0:0:0:
288,277,87165,1,0,0:2:0:0:
359,327,87374,1,0,0:2:0:0:
387,198,87686,2,0,L|400:100,2,80,2|8|2,0:2|3:2|0:2,0:0:0:0:
382,242,88207,1,0,0:2:0:0:
359,327,88415,6,0,L|269:324,1,80,0|0,0:2|0:2,0:0:0:0:
234,323,88728,1,8,3:2:0:0:
103,308,89040,2,0,P|93:254|106:205,1,80,0|0,0:2|0:2,0:0:0:0:
106,187,89353,1,2,0:2:0:0:
92,100,89561,1,8,3:2:0:0:
162,46,89770,1,2,0:2:0:0:
239,88,89978,6,0,L|292:87,2,53.3333333333333,2|2|2,3:1|3:1|3:1,0:0:0:0:
214,141,90395,2,0,B|225:183|225:183|202:291,1,120,10|0,3:1|0:2,0:0:0:0:
195,299,90811,1,0,3:2:0:0:
123,351,91020,1,2,0:2:0:0:
63,286,91228,2,0,L|72:196,1,80,8|2,3:2|0:2,0:0:0:0:
103,176,91540,6,0,B|90:139|90:139|94:86,1,80,2|2,3:1|0:1,0:0:0:0:
137,98,91853,1,2,3:2:0:0:
214,141,92061,2,0,P|248:150|307:137,1,80,0|2,3:2|0:2,0:0:0:0:
359,87,92478,2,0,B|400:79|400:79|449:87,2,80,0|2|8,3:2|0:2|3:2,0:0:0:0:
376,173,93103,1,2,0:2:0:0:
353,258,93311,6,0,P|286:285|200:259,1,160,4|8,3:2|3:2,0:0:0:0:
175,227,93832,1,0,0:2:0:0:
87,222,94040,2,0,L|97:118,1,80,0|0,0:2|0:2,0:0:0:0:
79,100,94353,1,2,0:2:0:0:
139,43,94561,2,0,P|206:44|237:58,1,80,8|2,3:2|0:2,0:0:0:0:
249,78,94874,1,0,0:2:0:0:
335,60,95082,6,0,L|426:54,1,80,0|0,0:2|0:2,0:0:0:0:
447,84,95395,2,0,P|468:146|458:182,1,80,8|2,3:2|0:0,0:0:0:0:
451,200,95707,1,0,3:2:0:0:
379,250,95915,1,2,0:2:0:0:
255,201,96228,5,10,3:2:0:0:
257,288,96436,1,2,3:2:0:0:
255,376,96645,1,2,3:2:0:0:
81,348,97061,2,0,B|48:353|48:353|11:344,2,53.3333333333333,0|0|0,3:0|3:0|3:0,0:0:0:0:
133,320,97478,6,0,P|106:267|115:209,1,120,2|2,3:1|3:1,0:0:0:0:
187,98,98103,1,2,3:1:0:0:
317,117,98415,1,2,3:1:0:0:
456,136,98728,6,0,P|482:189|472:247,1,120,2|2,3:1|3:1,0:0:0:0:
382,344,99353,1,2,3:1:0:0:
252,321,99665,1,2,3:1:0:0:
165,304,99874,5,2,3:1:0:0:
256,192,100082,12,0,101645,0:0:0:0:
65,71,102895,5,2,3:2:0:0:
59,202,103207,1,2,3:2:0:0:
228,242,103624,2,0,L|225:329,2,80,0|0|0,0:2|0:2|0:2,0:0:0:0:
189,162,104249,1,2,3:2:0:0:
285,72,104561,2,0,L|383:70,1,80,2|0,3:2|0:0,0:0:0:0:
432,12,104978,6,0,P|454:86|406:152,1,160,2|0,3:2|0:2,0:0:0:0:
281,180,105707,2,0,B|271:242|271:242|299:310,1,120,0|0,0:2|0:2,0:0:0:0:
358,353,106228,1,2,3:2:0:0:
458,256,106540,1,2,3:2:0:0:
151,117,107478,2,0,L|139:295,1,160,2|2,1:2|1:2,0:0:0:0:
307,332,108311,6,0,P|385:342|457:309,1,160,2|0,3:2|0:2,0:0:0:0:
226,42,109561,1,2,3:2:0:0:
93,42,109874,1,2,3:2:0:0:
64,259,110395,2,0,P|68:317|109:359,1,120,8|8,3:3|3:3,0:0:0:0:
152,282,110915,1,2,3:2:0:0:
270,341,111228,1,2,3:2:0:0:
268,164,111645,6,0,L|107:168,1,160,2|8,3:2|3:2,0:0:0:0:
28,207,112270,1,0,3:2:0:0:
28,119,112478,2,0,L|32:21,1,80,8|0,3:2|3:0,0:0:0:0:
119,47,112895,1,14,3:3:0:0:
250,49,113207,1,6,3:3:0:0:
256,192,113311,12,0,116645,0:2:0:0:
