osu file format v14

[General]
AudioFilename: audio.mp3
AudioLeadIn: 0
PreviewTime: 73212
Countdown: 0
SampleSet: Soft
StackLeniency: 0.4
Mode: 0
LetterboxInBreaks: 0
WidescreenStoryboard: 0

[Editor]
Bookmarks: 1650,14983,43316,56650,73316,86650,97483,101650
DistanceSpacing: 0.1
BeatDivisor: 8
GridSize: 32
TimelineZoom: 2.2

[Metadata]
Title:Routing
TitleUnicode:Routing
Artist:Camellia
ArtistUnicode:かめりあ
Creator:Mir
Version:Vibrance
Source:beatmania IIDX 23 copula
Tags:22 pendual super future 2323 low bpm alt jazzy electric house boogaloo featured artist electronic video game instrumental v2 boppin deesuh amateurre regou 0ppinOsu
BeatmapID:3346789
BeatmapSetID:1639727

[Difficulty]
HPDrainRate:6.5
CircleSize:4
OverallDifficulty:9
ApproachRate:9.7
SliderMultiplier:3.59999990463257
SliderTickRate:1

[Events]
//Background and Video events
0,0,"flavie-gratton-metro-station-withborders.jpg",0,0
//Break Periods
//Storyboard Layer 0 (Background)
//Storyboard Layer 1 (Fail)
//Storyboard Layer 2 (Pass)
//Storyboard Layer 3 (Foreground)
//Storyboard Layer 4 (Overlay)
//Storyboard Sound Samples

[TimingPoints]
1650,416.666666666667,4,2,1,50,1,0
1650,-66.6666666666667,4,2,1,50,0,0
1754,-66.6666666666667,4,2,1,5,0,0
1858,-66.6666666666667,4,2,1,50,0,0
2952,-66.6666666666667,4,2,1,5,0,0
3004,-66.6666666666667,4,2,1,50,0,0
3316,-66.6666666666667,4,2,1,5,0,0
3368,-66.6666666666667,4,2,1,50,0,0
4358,-66.6666666666667,4,2,1,5,0,0
4410,-66.6666666666667,4,2,1,50,0,0
4566,-133.333333333333,4,2,1,50,0,0
4983,-66.6666666666667,4,2,1,50,0,0
5087,-66.6666666666667,4,2,1,5,0,0
5139,-66.6666666666667,4,2,1,50,0,0
5712,-285.714285714286,4,2,1,50,0,0
6233,-66.6666666666667,4,2,1,50,0,0
6285,-66.6666666666667,4,2,1,5,0,0
6337,-66.6666666666667,4,2,1,50,0,0
6650,-66.6666666666667,4,2,1,5,0,0
6702,-66.6666666666667,4,2,1,50,0,0
7587,-285.714285714286,4,2,1,50,0,0
8316,-66.6666666666667,4,2,1,50,0,0
8420,-66.6666666666667,4,2,1,5,0,0
8472,-66.6666666666667,4,2,1,50,0,0
9618,-66.6666666666667,4,2,1,5,0,0
9670,-66.6666666666667,4,2,1,50,0,0
9983,-66.6666666666667,4,2,1,5,0,0
10035,-66.6666666666667,4,2,1,50,0,0
10087,-200,4,2,2,50,0,0
10920,-66.6666666666667,4,2,1,50,0,0
11233,-133.333333333333,4,2,1,50,0,0
11650,-66.6666666666667,4,2,2,50,0,0
14566,-1000,4,2,2,50,0,0
14931,-1000,4,2,99,5,0,0
14983,-50,4,2,1,80,0,0
15139,-50,4,2,1,5,0,0
15191,-50,4,2,1,80,0,0
15400,-66.6666666666667,4,2,1,80,0,0
16025,-133.333333333333,4,2,1,80,0,0
16233,-66.6666666666667,4,2,1,80,0,0
16858,-40,4,2,1,80,0,0
17014,-40,4,2,99,5,0,0
17066,-133.333333333333,4,2,1,80,0,0
17483,-66.6666666666667,4,2,1,80,0,0
18525,-40,4,2,1,80,0,0
18681,-40,4,2,99,5,0,0
18733,-40,4,2,1,80,0,0
18837,-66.6666666666667,4,2,1,80,0,0
18993,-66.6666666666667,4,2,1,5,0,0
19045,-66.6666666666667,4,2,1,80,0,0
19098,-66.6666666666667,4,2,99,5,0,0
19150,-66.6666666666667,4,2,1,80,0,0
19879,-50,4,2,1,80,0,0
20191,-133.333333333333,4,2,1,80,0,0
20816,-50,4,2,1,80,0,0
21181,-50,4,2,99,5,0,0
21233,-33.3333333333333,4,2,1,80,0,0
21858,-133.333333333333,4,2,1,80,0,0
22014,-133.333333333333,4,2,99,5,0,0
22066,-66.6666666666667,4,2,1,80,0,0
22691,-133.333333333333,4,2,1,80,0,0
22900,-66.6666666666667,4,2,1,80,0,0
23525,-40,4,2,1,80,0,0
23681,-40,4,2,99,5,0,0
23733,-66.6666666666667,4,2,1,80,0,0
24150,-40,4,2,1,80,0,0
24566,-66.6666666666667,4,2,1,80,0,0
25191,-133.333333333333,4,2,1,80,0,0
25400,-50,4,2,1,80,0,0
26025,-133.333333333333,4,2,1,80,0,0
26233,-50,4,2,1,80,0,0
26545,-100,4,2,1,80,0,0
26598,-100,4,2,99,5,0,0
26650,-100,4,2,1,80,0,0
27900,-133.333333333333,4,2,1,80,0,0
28004,-66.6666666666667,4,2,1,80,0,0
28108,-33.3333333333333,4,2,1,80,0,0
28212,-25,4,2,1,80,0,0
28316,-50,4,2,1,80,0,0
28472,-50,4,2,1,5,0,0
28524,-50,4,2,1,80,0,0
28733,-66.6666666666667,4,2,1,80,0,0
29358,-133.333333333333,4,2,1,80,0,0
29566,-66.6666666666667,4,2,1,80,0,0
30191,-40,4,2,1,80,0,0
30347,-40,4,2,99,5,0,0
30400,-133.333333333333,4,2,1,80,0,0
30816,-66.6666666666667,4,2,1,80,0,0
31858,-40,4,2,1,80,0,0
32014,-40,4,2,99,5,0,0
32066,-40,4,2,1,80,0,0
32170,-66.6666666666667,4,2,1,80,0,0
32327,-66.6666666666667,4,2,1,5,0,0
32379,-66.6666666666667,4,2,1,80,0,0
32431,-66.6666666666667,4,2,99,5,0,0
32483,-66.6666666666667,4,2,1,80,0,0
32900,-50,4,2,1,80,0,0
33525,-100,4,2,1,80,0,0
34254,-33.3333333333333,4,2,1,80,0,0
34879,-250,4,2,1,80,0,0
36233,-133.333333333333,4,2,1,80,0,0
36493,-133.333333333333,4,2,99,5,0,0
36545,-100,4,2,1,80,0,0
36858,-50,4,2,1,80,0,0
37222,-50,4,2,1,5,0,0
37275,-50,4,2,1,80,0,0
37639,-50,4,2,1,5,0,0
37691,-50,4,2,1,80,0,0
37900,-40,4,2,1,80,0,0
38525,-133.333333333333,4,2,1,80,0,0
39150,-200,4,2,1,80,0,0
39775,-66.6666666666667,4,2,1,70,0,0
40400,-66.6666666666667,4,2,1,40,0,0
40816,-66.6666666666667,4,2,1,50,0,0
41233,-66.6666666666667,4,2,1,60,0,0
41650,-66.6666666666667,4,2,1,70,0,0
42066,-66.6666666666667,4,2,1,80,0,0
42483,-66.6666666666667,4,2,1,90,0,0
42900,-66.6666666666667,4,2,1,60,0,0
43316,-66.6666666666667,4,2,1,70,0,0
46025,-40,4,2,1,100,0,0
46337,-40,4,2,1,80,0,0
46650,-66.6666666666667,4,2,1,60,0,0
48525,-50,4,2,1,60,0,0
48837,-27.3574113767039,4,2,1,60,0,0
49254,-66.6666666666667,4,2,1,60,0,0
49670,-133.333333333333,4,2,1,60,0,0
49931,-133.333333333333,4,2,1,5,0,0
49983,-133.333333333333,4,2,1,60,0,0
50504,-66.6666666666667,4,2,1,60,0,0
50712,-33.3333333333333,4,2,1,60,0,0
51181,-33.3333333333333,4,2,1,5,0,0
51233,-33.3333333333333,4,2,1,60,0,0
51441,-66.6666666666667,4,2,1,60,0,0
52587,-100,4,2,1,60,0,0
52795,-86.9565217391304,4,2,1,60,0,0
53004,-76.9230769230769,4,2,1,60,0,0
53316,-50,4,2,1,60,0,0
53733,-100,4,2,1,60,0,0
54150,-50,4,2,1,60,0,0
54462,-100,4,2,1,60,0,0
54879,-66.6666666666667,4,2,1,60,0,0
55035,-66.6666666666667,4,2,1,5,0,0
55087,-66.6666666666667,4,2,1,60,0,0
55920,-100,4,2,1,60,0,0
56233,-133.333333333333,4,2,1,60,0,0
57014,-133.333333333333,4,2,99,5,0,0
57066,-133.333333333333,4,2,1,60,0,0
57327,-133.333333333333,4,2,99,5,0,0
57379,-100,4,2,1,60,0,0
57639,-100,4,2,99,5,0,0
57691,-66.6666666666667,4,2,1,60,0,0
57952,-66.6666666666667,4,2,99,5,0,0
58004,-66.6666666666667,4,2,1,60,0,0
58108,-66.6666666666667,4,2,99,5,0,0
58212,-133.333333333333,4,2,1,60,0,0
60347,-133.333333333333,4,2,99,5,0,0
60399,-133.333333333333,4,2,1,60,0,0
60660,-133.333333333333,4,2,99,5,0,0
60712,-100,4,2,1,60,0,0
60972,-100,4,2,99,5,0,0
61025,-66.6666666666667,4,2,1,60,0,0
61285,-66.6666666666667,4,2,99,5,0,0
61337,-66.6666666666667,4,2,1,60,0,0
61441,-133.333333333333,4,2,1,60,0,0
61806,-133.333333333333,4,2,99,5,0,0
61858,-66.6666666666667,4,2,1,60,0,0
61962,-66.6666666666667,4,2,99,5,0,0
62066,-66.6666666666667,4,2,1,60,0,0
62170,-50,4,2,1,60,0,0
62587,-40,4,2,1,60,0,0
62900,-133.333333333333,4,2,1,60,0,0
63681,-133.333333333333,4,2,99,5,0,0
63733,-133.333333333333,4,2,1,60,0,0
63993,-133.333333333333,4,2,99,5,0,0
64045,-100,4,2,1,60,0,0
64306,-100,4,2,99,5,0,0
64358,-66.6666666666667,4,2,1,60,0,0
64618,-66.6666666666667,4,2,99,5,0,0
64670,-66.6666666666667,4,2,1,60,0,0
64775,-66.6666666666667,4,2,99,5,0,0
64879,-133.333333333333,4,2,1,60,0,0
65504,-100,4,2,1,60,0,0
66441,-133.333333333333,4,2,1,60,0,0
67379,-100,4,2,1,60,0,0
67691,-66.6666666666667,4,2,1,60,0,0
68004,-133.333333333333,4,2,1,60,0,0
68212,-66.6666666666667,4,2,1,60,0,0
69150,-40,4,2,1,60,0,0
69775,-100,4,2,1,60,0,0
72900,-285.714285714286,4,2,1,60,0,0
73316,-50,4,2,1,95,0,0
73472,-50,4,2,1,5,0,0
73525,-133.333333333333,4,2,1,95,0,0
73733,-40,4,2,1,95,0,0
73889,-40,4,2,1,5,0,0
73941,-40,4,2,1,95,0,0
74983,-50,4,2,1,95,0,0
75139,-50,4,2,1,5,0,0
75191,-133.333333333333,4,2,1,95,0,0
75400,-40,4,2,1,95,0,0
75556,-40,4,2,1,5,0,0
75608,-40,4,2,1,95,0,0
76650,-66.6666666666667,4,2,1,95,0,0
77066,-50,4,2,1,95,0,0
78212,-100,4,2,1,95,0,0
78525,-285.714285714286,4,2,1,95,0,0
78733,-40,4,2,1,95,0,0
78889,-40,4,2,1,5,0,0
78941,-40,4,2,1,95,0,0
79150,-50,4,2,1,95,0,0
79566,-100,4,2,1,95,0,0
79775,-200,4,2,1,85,0,0
79983,-50,4,2,1,95,0,0
80139,-50,4,2,1,5,0,0
80191,-133.333333333333,4,2,1,95,0,0
80400,-40,4,2,1,95,0,0
80556,-40,4,2,1,5,0,0
80608,-40,4,2,1,95,0,0
81650,-50,4,2,1,95,0,0
81806,-50,4,2,1,5,0,0
81858,-133.333333333333,4,2,1,95,0,0
82066,-40,4,2,1,95,0,0
82222,-40,4,2,1,5,0,0
82274,-40,4,2,1,95,0,0
83316,-100,4,2,1,95,0,0
83681,-100,4,2,1,5,0,0
83733,-40,4,2,1,95,0,0
83889,-40,4,2,1,5,0,0
83941,-40,4,2,1,95,0,0
84306,-40,4,2,99,5,0,0
84358,-40,4,2,1,95,0,0
84462,-66.6666666666667,4,2,1,95,0,0
84514,-66.6666666666667,4,2,99,5,0,0
84566,-66.6666666666667,4,2,1,95,0,0
84723,-66.6666666666667,4,2,99,5,0,0
84775,-66.6666666666667,4,2,1,95,0,0
84879,-50,4,2,1,95,0,0
84983,-50,4,2,1,70,0,0
85400,-133.333333333333,4,2,1,70,0,0
85608,-100,4,2,1,70,0,0
85816,-80,4,2,1,70,0,0
86025,-66.6666666666667,4,2,1,70,0,0
86233,-50,4,2,1,70,0,0
86650,-50,4,2,1,70,0,0
86858,-133.333333333333,4,2,1,70,0,0
87170,-100,4,2,1,70,0,0
87691,-66.6666666666667,4,2,1,70,0,0
88212,-250,4,2,1,70,0,0
88733,-66.6666666666667,4,2,1,70,0,0
89358,-133.333333333333,4,2,1,70,0,0
89566,-66.6666666666667,4,2,1,70,0,0
90400,-50,4,2,1,70,0,0
90816,-133.333333333333,4,2,1,70,0,0
91337,-50,4,2,1,70,0,0
91545,-285.714285714286,4,2,1,70,0,0
91598,-285.714285714286,4,2,99,5,0,0
91650,-285.714285714286,4,2,1,85,0,0
91858,-66.6666666666667,4,2,1,85,0,0
92483,-100,4,2,1,85,0,0
92535,-100,4,2,1,5,0,0
92587,-100,4,2,1,85,0,0
92639,-100,4,2,1,5,0,0
92691,-100,4,2,1,85,0,0
92743,-100,4,2,1,5,0,0
92795,-100,4,2,1,85,0,0
92847,-100,4,2,1,5,0,0
92900,-200,4,2,1,85,0,0
93108,-40,4,2,1,85,0,0
93316,-66.6666666666667,4,2,1,85,0,0
93525,-133.333333333333,4,2,1,85,0,0
93837,-100,4,2,1,85,0,0
94358,-66.6666666666667,4,2,1,85,0,0
94879,-250,4,2,1,85,0,0
95400,-66.6666666666667,4,2,1,85,0,0
96233,-50,4,2,1,85,0,0
96650,-200,4,2,1,70,0,0
97066,-200,4,2,3,70,0,0
97275,-200,4,2,4,70,0,0
97483,-200,4,2,1,70,0,0
97795,-50,4,2,1,70,0,0
97900,-50,4,2,1,5,0,0
97952,-50,4,2,1,70,0,0
98108,-166.666666666667,4,2,1,70,0,0
98420,-45.4545454545455,4,2,1,70,0,0
98525,-50,4,2,1,5,0,0
98577,-50,4,2,1,70,0,0
98733,-142.857142857143,4,2,1,70,0,0
99045,-41.6666666666667,4,2,1,70,0,0
99150,-50,4,2,1,5,0,0
99202,-50,4,2,1,70,0,0
99358,-125,4,2,1,70,0,0
99670,-38.4615384615385,4,2,1,70,0,0
99775,-50,4,2,1,5,0,0
99827,-50,4,2,1,70,0,0
99879,-66.6666666666667,4,2,1,70,0,0
101233,-500,4,2,1,70,0,0
101650,-66.6666666666667,4,2,1,70,0,0
101754,-66.6666666666667,4,2,1,5,0,0
101806,-66.6666666666667,4,2,1,70,0,0
102952,-66.6666666666667,4,2,1,5,0,0
103004,-66.6666666666667,4,2,1,70,0,0
103316,-66.6666666666667,4,2,1,5,0,0
103368,-66.6666666666667,4,2,1,70,0,0
104358,-66.6666666666667,4,2,1,5,0,0
104410,-66.6666666666667,4,2,1,70,0,0
104566,-133.333333333333,4,2,1,70,0,0
104983,-66.6666666666667,4,2,1,70,0,0
105087,-66.6666666666667,4,2,1,5,0,0
105139,-66.6666666666667,4,2,1,70,0,0
106285,-66.6666666666667,4,2,1,5,0,0
106337,-66.6666666666667,4,2,1,70,0,0
106650,-66.6666666666667,4,2,1,5,0,0
106702,-66.6666666666667,4,2,1,70,0,0
108420,-66.6666666666667,4,2,1,5,0,0
108472,-66.6666666666667,4,2,1,70,0,0
108629,-200,4,2,1,70,0,0
109566,-66.6666666666667,4,2,1,70,0,0
109618,-66.6666666666667,4,2,1,5,0,0
109670,-66.6666666666667,4,2,1,70,0,0
109983,-66.6666666666667,4,2,1,5,0,0
110035,-66.6666666666667,4,2,2,70,0,0
110920,-66.6666666666667,4,2,1,70,0,0
111025,-66.6666666666667,4,2,1,5,0,0
111077,-66.6666666666667,4,2,1,70,0,0
111233,-133.333333333333,4,2,1,70,0,0
111650,-66.6666666666667,4,2,2,70,0,0
111754,-66.6666666666667,4,2,2,5,0,0
111806,-66.6666666666667,4,2,2,70,0,0
116650,-66.6666666666667,4,2,99,5,0,0

[Colours]
Combo1 : 119,230,136
Combo2 : 232,106,219
Combo3 : 239,61,61
Combo4 : 95,199,233

[HitObjects]
67,383,1650,6,0,L|93:206,1,135.000001573563,6|0,3:2|0:0,0:2:0:0:
87,250,2066,5,0,0:2:0:0:
15,236,2170,1,0,0:2:0:0:
154,209,2379,1,0,0:2:0:0:
154,209,2691,1,0,0:2:0:0:
409,154,2900,6,0,L|306:138,1,67.5000007867814,2|0,3:2|0:0,0:0:0:0:
267,133,3004,1,2,3:2:0:0:
267,133,3212,2,0,L|241:-44,1,135.000001573563,2|0,3:2|0:0,0:2:0:0:
247,0,3733,5,0,0:2:0:0:
212,42,3837,1,0,0:2:0:0:
164,50,3941,1,0,0:2:0:0:
122,27,4045,1,0,0:2:0:0:
7,82,4150,5,0,0:2:0:0:
7,82,4254,2,0,P|143:131|167:146,1,135.000001573563,2|0,3:2|0:0,0:2:0:0:
133,125,4566,2,0,P|148:226|161:326,1,202.500002360344,2|0,3:2|0:2,0:2:0:0:
363,369,4983,6,0,L|519:339,1,135.000001573563,6|0,3:2|0:0,0:2:0:0:
495,343,5400,5,0,0:2:0:0:
421,313,5504,1,0,0:2:0:0:
458,278,5608,1,0,0:2:0:0:
447,254,5712,1,0,0:2:0:0:
506,199,5920,5,0,0:2:0:0:
506,199,6025,1,0,0:2:0:0:
357,5,6233,6,0,L|254:23,1,67.5000007867814,2|0,3:2|0:0,0:0:0:0:
214,10,6337,1,2,3:2:0:0:
214,10,6545,2,0,P|234:131|240:173,1,135.000001573563,2|0,3:2|0:0,0:2:0:0:
206,217,6788,5,0,1:2:0:0:
282,206,6927,1,0,1:2:0:0:
255,277,7066,1,0,1:2:0:0:
255,277,7275,5,2,0:3:0:0:
253,285,7344,1,2,0:3:0:0:
252,293,7413,1,2,0:3:0:0:
251,302,7483,1,2,1:2:0:0:
243,384,7587,5,0,1:2:0:0:
128,324,7795,5,2,3:2:0:0:
0,366,8004,5,0,0:0:0:0:
0,366,8108,2,0,L|-5:391,2,15.7499991021157,2|2|2,0:3|0:3|0:3,0:3:0:0:
23,6,8316,6,0,B|116:40|116:40|105:84,1,135.000001573563,6|0,3:2|0:0,0:2:0:0:
107,74,8733,1,0,0:2:0:0:
55,127,8837,1,0,0:2:0:0:
180,97,9045,1,0,0:2:0:0:
180,97,9358,1,0,0:2:0:0:
370,173,9566,6,0,L|251:200,1,67.5000007867814,2|0,3:2|0:0,0:0:0:0:
229,206,9670,1,2,3:2:0:0:
229,206,9879,2,0,B|194:215|194:215|211:313,1,135.000001573563,2|0,3:2|0:0,0:2:0:0:
223,318,10087,2,0,L|278:332,2,44.9999988079071,0|0|0,3:2|3:2|3:2,0:0:0:0:
67,274,10400,5,0,3:3:0:0:
51,320,10504,1,8,3:3:0:0:
36,289,10608,1,0,3:2:0:0:
20,305,10712,1,0,3:3:0:0:
11,294,10816,1,0,3:3:0:0:
0,382,10920,6,0,L|156:348,1,135.000001573563,2|0,3:2|0:0,0:2:0:0:
131,353,11233,2,0,P|165:181|185:107,1,202.500002360344,2|0,3:2|0:2,0:2:0:0:
32,13,11650,6,0,L|226:-6,1,135.000001573563,6|0,3:2|3:2,0:2:0:0:
231,46,11858,5,0,3:2:0:0:
219,80,11962,1,0,3:2:0:0:
245,52,12066,1,8,3:2:0:0:
233,86,12170,1,0,3:2:0:0:
259,58,12275,1,0,3:2:0:0:
247,92,12379,1,0,3:2:0:0:
337,52,12483,5,8,3:2:0:0:
325,18,12587,1,0,3:2:0:0:
351,46,12691,1,0,3:2:0:0:
339,12,12795,1,0,3:2:0:0:
427,26,12900,5,6,3:3:0:0:
325,133,13004,1,6,3:3:0:0:
325,133,13108,1,4,3:3:0:0:
463,171,13212,1,6,3:3:0:0:
413,110,13941,5,0,3:2:0:0:
396,133,14045,5,0,3:2:0:0:
353,160,14150,5,8,0:2:0:0:
284,178,14254,5,0,3:2:0:0:
198,177,14358,5,0,3:2:0:0:
93,140,14462,5,0,3:2:0:0:
13,78,14566,6,0,L|6:48,1,26.9999992847443,8|0,3:2|0:0,0:2:0:0:
2,41,14983,6,0,P|180:70|338:107,1,269.999992847443,4|0,3:2|0:0,0:2:0:0:
306,17,15191,2,0,P|405:103|396:144,1,179.999995231629,0|0,0:0|0:2,0:0:0:0:
158,154,15400,5,8,3:2:0:0:
294,285,15504,2,0,P|315:187|342:109,1,135.000001573563,0|2,0:2|0:2,0:2:0:0:
64,378,15712,2,0,P|43:280|16:202,1,135.000001573563,0|0,0:2|3:2,0:2:0:0:
0,175,15920,5,0,0:2:0:0:
151,348,16025,2,0,P|184:353|217:361,1,67.5000007867814,2|0,0:2|0:2,0:2:0:0:
395,225,16233,5,8,3:2:0:0:
166,142,16337,2,0,P|184:206|197:273,1,135.000001573563,0|2,0:2|0:2,0:2:0:0:
502,44,16545,2,0,P|483:108|470:175,1,135.000001573563,0|0,0:2|3:2,0:2:0:0:
287,291,16754,5,0,0:2:0:0:
496,253,16858,2,0,B|522:274|539:302|539:302|375:222|244:195,1,337.499991059303,2|0,0:2|0:2,0:2:0:0:
198,259,17066,6,0,P|203:235|208:212,3,33.7500003933907,8|0|0|0,3:2|0:0|0:2|0:2,0:2:0:0:
123,245,17275,2,0,P|126:228|130:212,2,33.7500003933907,2|0|0,0:2|0:0|0:2,0:2:0:0:
5,332,17483,6,0,P|151:353|344:393,1,270.000003147125,0|2,3:2|0:2,0:2:0:0:
350,382,17795,6,0,P|346:335|256:302,1,135.000001573563,0|8,0:2|3:2,0:2:0:0:
8,204,18004,2,0,P|50:224|123:162,1,135.000001573563,0|2,0:2|0:2,0:2:0:0:
333,0,18212,2,0,P|294:26|311:120,1,135.000001573563,0|0,0:2|3:2,0:2:0:0:
378,149,18420,5,0,0:0:0:0:
468,85,18525,2,0,P|356:66|60:39,1,337.499991059303,2|0,0:2|0:0,0:2:0:0:
71,3,18733,1,8,3:2:0:0:
237,177,18837,6,0,B|272:186|295:205|295:205|218:214|131:273,1,202.500002360344,0|2,0:2|0:2,0:2:0:0:
165,264,19045,1,0,0:2:0:0:
82,329,19150,2,0,P|179:352|237:375,1,135.000001573563,0|0,3:2|0:0,0:0:0:0:
426,380,19358,5,2,0:2:0:0:
461,382,19427,1,2,0:2:0:0:
487,359,19496,1,2,0:2:0:0:
489,324,19566,1,8,3:2:0:0:
406,294,19670,6,0,B|351:285|351:285|334:308|334:308|257:295,1,135.000001573563,0|2,0:2|0:2,0:0:0:0:
37,67,19879,2,0,B|266:9|266:9|308:152,1,359.999990463257,0|0,0:2|0:2,0:0:0:0:
212,127,20191,2,0,B|177:125|177:125|234:115,1,67.5000007867814,2|0,0:2|0:2,0:2:0:0:
398,139,20400,5,8,3:2:0:0:
469,116,20504,1,0,0:2:0:0:
469,41,20608,1,2,0:2:0:0:
398,18,20712,1,0,0:2:0:0:
351,76,20816,6,0,B|212:110|131:251|118:291|304:396|373:339|207:258|253:159|308:124,1,539.999985694885,2|0,3:2|0:0,0:2:0:0:
201,23,21233,2,0,B|77:-22|6:-22|-131:120|28:251|120:202|1:13|182:33,1,540.000006294251,2|0,3:2|3:2,0:2:0:0:
161,118,21545,5,2,3:2:0:0:
161,118,21754,1,0,3:2:0:0:
200,198,21858,2,0,P|238:165|287:154,1,101.250001180172,2|0,3:2|0:0,0:2:0:0:
292,164,22066,5,12,3:2:0:0:
113,191,22170,2,0,P|96:292|91:344,1,135.000001573563,0|2,0:2|0:2,0:2:0:0:
394,250,22379,2,0,P|406:316|414:383,1,135.000001573563,0|0,0:2|3:2,0:2:0:0:
13,353,22587,5,0,0:2:0:0:
168,359,22691,2,0,P|233:373|255:383,1,67.5000007867814,2|0,0:2|0:2,0:2:0:0:
455,195,22900,5,8,3:2:0:0:
317,179,23004,2,0,P|309:246|297:313,1,135.000001573563,0|2,0:2|0:2,0:2:0:0:
1,59,23212,2,0,P|9:126|22:192,1,135.000001573563,0|0,0:2|3:2,0:2:0:0:
110,211,23420,5,0,0:2:0:0:
20,333,23525,2,0,B|184:273|184:273|211:206|211:206|328:172,1,337.499991059303,2|0,0:2|0:0,0:2:0:0:
472,116,23733,6,0,P|458:81|396:56,1,67.5000007867814,8|0,3:2|0:0,0:2:0:0:
483,69,23837,2,0,P|449:53|386:80,1,67.5000007867814,0|0,0:2|0:0,0:0:0:0:
457,28,23941,2,0,P|422:41|397:104,1,67.5000007867814,2|0,0:2|0:2,0:0:0:0:
409,18,24045,2,0,P|393:51|420:114,1,67.5000007867814,0|0,0:2|0:0,0:0:0:0:
321,101,24150,6,0,B|384:109|456:163|480:198|499:310|439:482|190:319|100:338|277:305|293:286|440:263|368:137,1,675.000007867814,0|0,3:2|0:2,0:2:0:0:
298,180,24566,6,0,P|120:145|-45:124,1,270.000003147125,8|2,3:2|0:2,0:0:0:0:
0,63,24879,1,0,0:2:0:0:
0,63,25087,1,0,0:2:0:0:
158,176,25191,6,0,P|161:199|148:176,1,67.5000007867814,2|0,0:2|0:2,0:2:0:0:
130,23,25400,6,0,P|178:258|204:390,1,359.999990463257,8|2,3:2|0:2,0:0:0:0:
214,11,25712,2,0,P|262:246|288:378,1,359.999990463257,0|0,0:2|0:2,0:2:0:0:
134,283,26025,6,0,P|131:306|144:283,1,67.5000007867814,2|0,0:2|0:2,0:2:0:0:
300,12,26233,6,0,P|348:247|374:379,1,359.999990463257,8|0,3:2|0:2,0:2:0:0:
384,0,26545,2,0,P|432:235|458:367,1,359.999990463257,2|0,3:2|0:0,0:2:0:0:
467,368,27066,5,0,0:2:0:0:
511,304,27170,1,0,0:2:0:0:
501,250,27275,1,0,0:2:0:0:
474,231,27379,2,0,L|441:241,4,22.4999994039536,0|0|0|0|0,0:2|0:2|0:2|0:2|0:2,0:2:0:0:
392,186,27587,5,0,0:2:0:0:
385,169,27691,2,0,P|388:145|396:108,3,44.9999988079071,0|0|0|0,0:2|0:2|0:2|0:0,0:2:0:0:
300,176,27900,6,0,B|295:193|295:193|292:161,1,33.7500003933907,0|0,0:2|0:2,0:2:0:0:
225,210,28004,6,0,B|196:226|196:226|234:183,1,67.5000007867814,0|0,0:2|0:2,0:0:0:0:
128,177,28108,6,0,B|63:159|63:159|179:151,1,135.000001573563,0|0,0:2|0:2,0:0:0:0:
103,78,28212,6,0,B|60:2|60:2|173:101,1,179.999995231629,0|0,0:2|0:0,0:0:0:0:
232,65,28316,6,0,P|205:197|179:329,1,269.999992847443,4|0,3:2|0:0,0:2:0:0:
104,379,28525,2,0,P|18:334|43:256,1,179.999995231629,0|0,0:0|0:2,0:0:0:0:
106,300,28733,5,8,3:2:0:0:
290,252,28837,2,0,P|275:317|264:384,1,135.000001573563,0|2,0:2|0:2,0:2:0:0:
98,74,29045,2,0,P|112:139|123:206,1,135.000001573563,0|0,0:2|3:2,0:2:0:0:
200,246,29254,5,0,0:2:0:0:
298,167,29358,2,0,P|328:158|350:151,2,45.0000005245209,2|0|0,0:2|0:0|0:0,0:2:0:0:
27,145,29566,5,8,3:2:0:0:
239,28,29670,2,0,P|224:93|213:160,1,135.000001573563,0|2,0:2|0:2,0:2:0:0:
487,65,29879,2,0,P|501:130|512:197,1,135.000001573563,0|0,0:2|3:2,0:2:0:0:
367,371,30087,5,0,0:2:0:0:
463,269,30191,2,0,B|484:288|529:331|529:331|373:268|268:252,1,337.499991059303,0|0,0:2|0:2,0:2:0:0:
212,275,30400,6,0,P|208:252|203:229,3,33.7500003933907,8|0|0|0,3:2|0:2|0:2|0:2,0:2:0:0:
134,286,30608,2,0,P|130:263|125:240,2,33.7500003933907,2|0|0,0:2|0:2|0:2,0:2:0:0:
361,381,30816,6,0,P|385:232|410:87,1,270.000003147125,0|2,3:2|0:2,0:2:0:0:
491,0,31129,6,0,P|533:19|499:86,1,135.000001573563,0|8,0:2|3:2,0:2:0:0:
251,99,31337,2,0,P|246:52|321:48,1,135.000001573563,0|2,0:2|0:2,0:2:0:0:
458,258,31545,2,0,P|419:285|378:222,1,135.000001573563,0|0,0:2|3:2,0:2:0:0:
405,114,31754,5,0,0:2:0:0:
494,171,31858,2,0,P|320:130|130:106,1,337.499991059303,2|0,0:2|0:0,0:2:0:0:
172,33,32066,1,8,3:2:0:0:
219,215,32170,6,0,P|118:228|17:257,1,202.500002360344,0|0,0:2|0:0,0:2:0:0:
14,269,32379,1,0,0:2:0:0:
71,330,32483,2,0,P|150:307|227:300,1,135.000001573563,0|0,3:2|0:2,0:2:0:0:
500,81,32691,5,0,0:2:0:0:
505,51,32760,1,0,0:2:0:0:
495,23,32829,1,0,0:2:0:0:
474,2,32899,1,8,3:2:0:0:
417,61,33004,6,0,P|393:167|378:319,1,179.999995231629,0|2,0:2|0:2,0:0:0:0:
499,300,33212,6,0,B|519:179|379:103|394:210|275:152|279:44,1,359.999990463257,0|0,0:2|0:2,0:0:0:0:
250,320,33525,6,0,B|291:282|358:301|323:333|384:344|436:315,1,179.999995231629,0|0,3:2|3:2,0:2:0:0:
383,237,33837,5,0,3:2:0:0:
293,213,33941,5,2,0:2:0:0:
216,170,34045,5,0,0:2:0:0:
161,104,34150,5,0,3:2:0:0:
212,3,34254,2,0,B|2:-67|-125:80|-15:337|200:153|-79:67|177:17,1,540.000006294251,0|0,0:2|3:2,0:2:0:0:
280,64,34566,5,2,3:2:0:0:
161,104,34670,2,0,P|478:45|557:38,1,270.000003147125,2|0,3:2|0:2,0:2:0:0:
507,44,34879,2,0,B|518:23|485:-2|485:-2|508:20|507:59,1,107.999997138977,6|0,1:2|0:2,0:2:0:0:
467,120,35261,5,0,3:0:0:0:
465,126,35330,1,0,3:0:0:0:
463,133,35400,1,0,3:0:0:0:
233,130,35538,5,2,3:1:0:0:
484,211,35677,1,2,3:1:0:0:
197,210,35816,5,2,3:1:0:0:
410,246,35955,1,2,3:1:0:0:
225,289,36094,5,2,3:1:0:0:
379,322,36233,2,0,B|415:335|457:367|396:382|472:336|420:318|356:317,1,135.000001573563,0|0,3:0|0:0,0:0:0:0:
381,341,36545,6,0,P|213:368|149:378,1,179.999995231629,2|0,3:2|0:0,0:2:0:0:
39,320,36858,5,2,0:0:0:0:
18,339,36928,1,2,0:0:0:0:
28,364,36997,1,2,0:0:0:0:
108,379,37066,6,0,P|128:244|164:112,1,269.999992847443,14|0,3:2|0:0,0:2:0:0:
216,49,37275,5,2,0:2:0:0:
256,81,37345,1,2,0:2:0:0:
241,133,37414,1,2,0:2:0:0:
262,223,37483,6,0,B|235:243|235:243|36:199|36:199|9:148,1,269.999992847443,0|0,3:2|0:0,0:2:0:0:
80,102,37691,2,0,B|8:31|8:31|48:98,1,179.999995231629,2|0,0:2|0:2,0:2:0:0:
80,246,37900,6,0,P|413:149|530:160,1,449.999988079071,8|2,3:2|0:2,0:0:0:0:
509,70,38212,1,0,0:2:0:0:
509,70,38420,1,0,0:2:0:0:
400,182,38525,6,0,P|407:202|406:178,1,67.5000007867814,2|0,0:2|0:2,0:2:0:0:
182,25,38733,5,8,3:2:0:0:
233,99,38837,5,0,0:2:0:0:
292,196,38941,5,2,0:2:0:0:
338,337,39045,5,0,0:2:0:0:
179,350,39150,6,0,B|126:335|126:335|163:329,1,89.9999976158143,2|0,3:2|0:2,0:2:0:0:
256,316,39462,5,2,3:2:0:0:
414,361,39566,2,0,L|448:379,2,22.4999994039536,8|0|0,0:2|0:0|0:2,0:0:0:0:
43,381,39775,6,0,B|71:323|71:323|465:267,1,405.000004720688,6|0,3:2|0:0,0:2:0:0:
488,171,40191,5,0,3:2:0:0:
451,174,40295,1,0,3:0:0:0:
429,143,40400,1,0,1:2:0:0:
504,183,40608,5,0,3:2:0:0:
448,187,40712,1,0,3:2:0:0:
415,141,40817,1,8,1:2:0:0:
368,62,41025,5,0,3:2:0:0:
294,56,41129,1,0,3:2:0:0:
250,118,41234,1,8,1:2:0:0:
400,38,41442,5,0,3:2:0:0:
288,30,41546,1,0,3:2:0:0:
222,122,41651,1,8,1:2:0:0:
244,301,41858,5,0,3:2:0:0:
133,310,41962,1,0,3:2:0:0:
67,217,42067,1,8,1:2:0:0:
292,337,42275,5,0,3:2:0:0:
124,349,42379,1,0,3:2:0:0:
24,211,42484,1,8,1:2:0:0:
468,80,42691,5,0,3:2:0:0:
368,218,42796,1,0,3:2:0:0:
200,206,42900,1,8,1:2:0:0:
197,188,42969,1,0,0:2:0:0:
194,170,43038,1,0,0:2:0:0:
191,152,43108,1,0,0:2:0:0:
188,134,43177,1,0,0:2:0:0:
185,116,43247,1,0,0:2:0:0:
182,98,43316,1,6,3:1:0:0:
471,114,46025,6,0,B|522:21|522:21|198:137,1,449.999988079071,2|0,3:2|0:2,0:2:0:0:
33,291,46337,5,2,3:2:0:0:
34,313,46441,2,0,B|42:343|42:343|200:370|200:370|233:331,1,224.999994039536,0|0,0:0|0:2,0:0:0:0:
327,186,46650,6,0,B|388:162|388:162|323:207,1,135.000001573563,6|0,3:2|0:2,0:2:0:0:
222,230,46858,5,2,0:2:0:0:
167,238,46962,1,0,0:0:0:0:
93,209,47066,1,8,3:2:0:0:
65,131,47170,2,0,P|47:66|27:-18,1,135.000001573563,0|2,0:2|0:2,0:2:0:0:
295,120,47379,6,0,P|247:307|227:412,1,270.000003147125,0|0,0:2|0:2,0:2:0:0:
330,339,47691,2,0,P|345:273|363:208,1,135.000001573563,2|0,0:2|0:2,0:2:0:0:
107,226,47900,1,8,3:2:0:0:
39,270,48004,1,0,0:2:0:0:
111,309,48108,6,0,P|286:278|532:254,1,405.000004720688,2|0,0:2|0:2,0:2:0:0:
512,384,48525,2,0,P|429:367|308:352,1,179.999995231629,2|0,0:2|0:2,0:2:0:0:
281,199,48733,5,8,3:2:0:0:
511,253,48837,2,0,B|512:255|508:258|508:258|503:253|503:253|500:258|500:258|495:254|495:254|492:259|492:259|488:254|488:254|484:260|484:260|480:255|480:255|476:260|476:260|472:255|472:255|468:261|468:261|464:256|464:256|460:261|460:261|456:256|456:256|452:262|452:262|448:257|448:257|444:263|444:263|440:258|440:258|436:263|436:263|432:258|432:258|428:264|428:264|424:259|424:259|420:265|420:265|416:260|416:260|412:265|412:265|408:261|408:261|404:266|404:266|400:261|400:261|396:267|396:267|392:262|392:262|389:268|389:268|384:263|384:263|381:269|381:269|376:264|376:264|373:270|373:270|368:265|368:265|365:270|365:270|360:266|360:266|357:271|357:271|352:267|352:267|349:272|349:272|344:268|344:268|341:273|341:273|336:269|336:269|333:274|333:274|329:270|329:270|325:275|325:275|321:271|321:271|317:276|317:276|313:272|313:272|309:277|309:277|305:273|305:273|302:278|302:278|297:274|297:274|294:280|294:280|289:275|289:275|286:281|286:281|281:276|281:276|278:282|278:282|273:277|273:277|270:283|270:283|265:278|265:278|262:284|262:284|257:280|257:280|254:285|254:285|249:281|249:281|246:287|246:287|242:282|242:282|238:288|238:288|234:283|234:283|231:289|231:289|226:285|226:285|223:291|223:291|218:286|218:286|215:292|215:292|210:287|210:287|207:293|207:293|202:289|202:289|199:295|199:295|194:290|194:290|191:296|191:296|186:292|186:292|183:297|183:297|179:293|179:293|176:299|176:299|171:294|171:294|168:300|168:300|163:296|163:296|160:302|160:302|155:297|155:297|152:303|152:303|147:299|147:299|144:305|144:305|139:301|139:301|136:306|136:306|131:302|131:302|129:308|129:308|124:304|124:304|121:310|121:310|115:305|115:305|111:309,1,657.956996075156,0|0,0:0|0:2,0:0:0:0:
112,52,49150,5,0,3:2:0:0:
207,0,49254,2,0,L|171:184,1,135.000001573563,0|2,0:2|0:2,0:0:0:0:
43,384,49462,2,0,L|7:200,1,135.000001573563,0|8,0:2|3:2,0:2:0:0:
5,142,49670,6,0,B|58:154|58:154|76:196|76:196|170:215,1,168.750001966953,0|0,0:2|0:0,0:0:0:0:
133,227,49983,6,0,P|192:212|217:207,1,67.5000007867814,0|0,3:2|0:2,0:2:0:0:
332,59,50191,5,2,0:2:0:0:
372,42,50295,1,0,0:0:0:0:
444,60,50400,1,8,3:2:0:0:
493,123,50504,2,0,P|496:192|464:255,1,135.000001573563,0|2,0:2|0:2,0:2:0:0:
142,326,50712,6,0,B|-5:343|123:165|-59:85|-62:322|-49:432|218:399|226:263,1,540.000006294251,0|0,0:2|0:2,0:2:0:0:
276,175,51025,2,0,B|357:175|431:266|496:404|161:414|394:336|321:235|276:222,1,405.000004720688,2|0,0:2|0:0,0:2:0:0:
197,203,51233,5,8,3:2:0:0:
256,85,51337,1,0,0:2:0:0:
147,0,51441,2,0,P|79:23|-45:60,1,135.000001573563,2|0,0:2|0:2,0:2:0:0:
6,163,51650,5,0,3:2:0:0:
146,131,51754,1,0,0:2:0:0:
261,72,51858,2,0,P|114:114|-10:159,1,270.000003147125,2|8,0:2|3:2,0:2:0:0:
222,384,52275,5,2,0:2:0:0:
234,362,52379,1,0,0:2:0:0:
217,347,52483,1,0,3:2:0:0:
51,363,52587,6,0,P|95:368|139:376,1,89.9999976158143,0|2,0:2|0:2,0:0:0:0:
361,238,52795,2,0,P|325:280|296:325,1,103.499999232292,0|8,0:2|3:2,0:0:0:0:
174,158,53004,2,0,P|181:222|192:286,1,116.999991544724,0|2,0:2|0:2,0:0:0:0:
217,347,53212,1,0,0:2:0:0:
281,162,53316,6,0,B|356:92|489:78|489:78|418:98|374:140,1,359.999990463257,0|2,3:2|0:2,0:2:0:0:
228,101,53629,1,0,0:2:0:0:
238,89,53733,2,0,B|236:37|194:-14|194:-14|212:18|212:48,1,179.999995231629,8|2,3:2|0:2,0:0:0:0:
478,187,54045,5,0,0:2:0:0:
478,187,54097,1,0,0:0:0:0:
478,187,54150,2,0,P|301:126|109:89,1,359.999990463257,0|2,3:2|0:2,0:2:0:0:
315,38,54462,1,0,0:2:0:0:
175,184,54566,2,0,P|70:201|-27:231,1,179.999995231629,8|2,3:2|0:2,0:0:0:0:
5,207,54879,6,0,B|131:204|53:292|187:289,1,202.500002360344,0|0,0:2|0:0,0:2:0:0:
250,255,55087,6,0,B|247:237|247:237|262:271,8,33.7500003933907,2|0|0|0|0|0|0|0|0,3:2|0:0|0:0|0:0|0:0|0:0|0:0|0:0|0:2,0:2:0:0:
391,175,55400,6,0,B|397:158|397:158|395:173,4,33.7500003933907,2|0|0|0|0,3:2|0:0|0:0|0:0|0:2,0:2:0:0:
506,289,55608,6,0,B|524:286|524:286|489:301,4,33.7500003933907,2|0|0|0|0,3:2|0:0|0:0|0:0|0:2,0:2:0:0:
365,302,55920,6,0,L|349:367,4,44.9999988079071,0|0|0|0|0,0:2|0:2|0:2|0:2|0:2,0:2:0:0:
431,245,56233,6,0,L|479:209,2,33.7500003933907,0|0|0,0:2|0:0|0:2,0:0:0:0:
326,225,56441,2,0,L|302:169,2,33.7500003933907,0|0|0,0:2|0:0|0:2,0:0:0:0:
69,299,56650,5,6,3:1:0:0:
69,299,57066,6,0,B|50:296|26:292|26:292|65:313|104:359,1,135.000001573563,2|0,3:1|0:0,0:2:0:0:
204,319,57379,2,0,B|212:341|222:369|222:369|221:314|246:244,1,179.999995231629,2|0,3:1|0:0,0:2:0:0:
157,189,57691,2,0,B|184:154|219:112|219:112|133:165|-1:189,1,270.000003147125,2|0,3:1|0:0,0:2:0:0:
145,268,58004,5,2,3:1:0:0:
145,268,58212,2,0,L|326:307,1,168.750001966953,2|0,3:1|0:0,0:0:0:0:
318,317,58525,2,0,P|361:302|391:292,1,67.5000007867814,0|0,0:2|0:0,0:2:0:0:
368,106,58733,5,0,0:2:0:0:
393,139,58837,1,0,0:2:0:0:
429,136,58941,1,0,0:2:0:0:
429,136,59150,5,0,0:2:0:0:
451,99,59254,1,0,0:2:0:0:
445,59,59358,1,0,3:2:0:0:
418,21,59462,1,0,3:2:0:0:
346,8,59566,1,8,0:2:0:0:
280,52,59670,1,0,0:2:0:0:
277,128,59775,2,0,P|289:159|298:192,1,67.5000007867814,0|0,3:2|0:0,0:0:0:0:
342,374,59983,5,6,3:1:0:0:
342,374,60400,6,0,B|323:342|302:336|302:336|284:294|322:260,1,135.000001573563,2|0,3:2|0:0,0:1:0:0:
507,208,60712,2,0,B|483:249|490:275|490:275|455:322|394:302,1,179.999995231629,2|0,3:1|0:0,0:2:0:0:
171,166,61025,2,0,B|249:165|283:132|283:132|379:144|401:250,1,270.000003147125,2|0,3:1|0:0,0:2:0:0:
264,327,61337,5,2,3:1:0:0:
286,193,61441,2,0,L|298:135,3,45.0000005245209
392,221,61858,6,0,P|259:240|132:288,1,270.000003147125,2|0,3:1|0:2,0:2:0:0:
115,366,62170,6,0,B|-33:365|-98:246|-20:109|274:141|223:167|-38:176|36:321|76:345,1,539.999985694885,0|0,0:2|0:2,0:2:0:0:
224,338,62587,5,0,0:2:0:0:
133,287,62691,2,0,P|258:317|395:361,1,224.999994039536,2|0,3:2|0:2,0:0:0:0:
434,365,62900,6,0,L|425:392,4,16.8750001966953,8|0|0|0|2,0:2|0:0|0:2|0:0|3:2,0:2:0:0:
280,241,63108,2,0,L|271:214,4,16.8750001966953,0|0|0|0|0,0:2|0:0|0:2|0:0|0:2,0:2:0:0:
284,44,63316,5,6,3:1:0:0:
284,44,63733,6,0,B|276:15|303:-5|303:-5|316:34|354:50,1,135.000001573563,2|0,3:1|0:0,0:2:0:0:
453,66,64045,2,0,B|483:73|490:121|490:121|432:108|387:144,1,179.999995231629,2|0,3:1|0:0,0:2:0:0:
356,252,64358,2,0,B|314:294|250:269|250:269|307:207|296:127,1,270.000003147125,2|0,3:1|0:0,0:2:0:0:
355,50,64670,5,2,3:1:0:0:
355,50,64879,2,0,P|307:88|176:89,1,168.750001966953,2|0,3:1|0:0,0:0:0:0:
198,84,65191,2,0,P|148:78|125:85,2,67.5000007867814,2|2|0,0:2|0:2|0:2,0:2:0:0:
44,105,65504,6,0,B|147:86|75:5|203:2,1,179.999995231629,2|0,0:2|0:2,0:0:0:0:
189,3,65764,1,2,0:2:0:0:
196,3,65816,1,2,0:2:0:0:
40,13,66025,5,0,3:2:0:0:
40,13,66129,1,0,3:2:0:0:
138,159,66233,6,0,P|145:199|154:260,1,89.9999976158143,8|0,0:2|0:0,0:2:0:0:
210,361,66441,2,0,P|215:327|221:294,1,67.5000007867814,0|0,0:2|0:2,0:2:0:0:
393,119,66650,6,0,L|449:127,4,33.7500003933907,6|0|0|0|0,3:1|0:2|0:2|0:2|0:2,0:2:0:0:
423,43,67066,6,0,L|427:7,4,33.7500003933907,2|0|0|0|0,3:1|0:2|0:2|0:2|0:2,0:2:0:0:
477,184,67379,2,0,L|516:214,4,44.9999988079071,2|0|0|0|0,3:1|0:2|0:2|0:2|0:2,0:2:0:0:
327,160,67691,2,0,L|249:191,4,67.5000007867814,2|0|0|0|0,3:1|0:2|0:2|0:2|0:2,0:2:0:0:
420,121,68004,6,0,L|406:152,2,33.7500003933907,2|0|0,3:1|0:2|0:2,0:2:0:0:
254,371,68212,2,0,L|224:272,4,67.5000007867814,2|0|0|0|0,3:1|0:0|0:2|0:0|0:2,0:2:0:0:
135,382,68525,5,2,3:1:0:0:
148,345,68594,1,0,0:2:0:0:
157,378,68663,1,0,0:2:0:0:
126,365,68733,1,0,0:2:0:0:
167,355,68802,1,0,0:2:0:0:
149,363,68872,1,0,0:2:0:0:
143,367,68941,2,0,P|68:356|-17:346,1,135.000001573563,0|0,0:2|0:0,0:0:0:0:
161,157,69150,6,0,B|366:109|366:109|201:232,1,337.499991059303,0|0,0:2|0:0,0:2:0:0:
202,268,69358,5,0,3:2:0:0:
196,247,69427,1,0,0:0:0:0:
214,254,69497,1,0,0:0:0:0:
205,255,69566,2,0,B|0:207|0:207|165:330,1,337.499991059303,0|0,0:2|0:2,0:2:0:0:
108,290,69775,6,0,L|118:364,2,44.9999988079071,0|0|0,0:2|0:2|0:2,0:0:0:0:
377,265,69983,2,0,P|399:146|429:-12,1,269.999992847443,2|0,3:2|0:0,0:0:0:0:
426,0,70608,5,2,0:0:0:0:
378,59,70920,1,2,0:0:0:0:
428,118,71233,1,2,0:0:0:0:
428,118,71650,5,2,0:0:0:0:
373,176,71858,1,2,0:0:0:0:
373,176,71962,1,2,0:0:0:0:
409,249,72170,1,2,0:0:0:0:
409,249,72274,1,2,0:0:0:0:
338,286,72483,5,0,3:0:0:0:
341,316,72587,1,0,3:0:0:0:
381,346,72691,1,0,3:0:0:0:
458,341,72795,1,0,3:0:0:0:
504,274,72900,2,0,L|486:165,1,94.499994612694,8|0,0:2|0:0,0:0:0:0:
498,90,73316,6,0,B|185:41,1,269.999992847443,4|0,3:2|0:0,0:2:0:0:
212,44,73525,2,0,B|195:37|195:37|257:24,1,67.5000007867814,2|0,0:2|0:2,0:2:0:0:
512,0,73733,6,0,B|376:17|376:17|335:115|335:115|185:150,1,337.499991059303,8|0,3:2|0:0,0:2:0:0:
166,157,73941,1,2,0:2:0:0:
414,271,74045,1,0,0:2:0:0:
414,271,74254,5,0,0:2:0:0:
393,287,74358,1,2,0:2:0:0:
416,323,74462,1,0,0:2:0:0:
453,244,74566,1,8,3:2:0:0:
339,254,74670,1,0,0:2:0:0:
491,318,74775,1,2,0:2:0:0:
392,187,74879,1,0,0:2:0:0:
332,333,74983,6,0,B|301:351|301:351|113:291|113:291|61:323,1,269.999992847443,0|0,3:2|0:0,0:2:0:0:
68,322,75191,2,0,B|60:345|60:345|116:320,1,67.5000007867814,2|0,0:2|0:2,0:2:0:0:
112,90,75400,6,0,B|146:52|146:52|5:-6|5:-6|66:217,1,337.499991059303,8|0,3:2|0:0,0:2:0:0:
105,168,75608,1,2,0:2:0:0:
406,100,75712,1,0,0:2:0:0:
406,100,75920,5,0,0:2:0:0:
505,231,76024,1,2,0:2:0:0:
353,167,76129,1,0,0:2:0:0:
467,157,76233,1,8,3:2:0:0:
430,236,76337,1,0,0:2:0:0:
407,200,76441,1,2,0:2:0:0:
428,184,76545,1,0,0:2:0:0:
433,195,76650,6,0,B|359:186|93:306|389:463|476:439|376:325|326:357|419:231,1,405.000004720688,0|0,3:2|0:2,0:2:0:0:
512,344,77066,6,0,B|475:352|475:352|335:274|123:242,1,359.999990463257,8|2,3:2|0:2,0:2:0:0:
50,296,77379,5,0,0:2:0:0:
265,187,77483,1,0,3:2:0:0:
68,38,77587,1,0,0:2:0:0:
68,38,77795,6,0,B|-20:21|-20:21|121:81,1,179.999995231629,0|8,0:1|3:2,0:2:0:0:
343,155,78004,2,0,B|431:138|431:138|290:198,1,179.999995231629,0|2,0:1|0:2,0:2:0:0:
0,384,78212,2,0,P|21:260|48:125,1,179.999995231629,0|0,3:2|0:2,0:2:0:0:
34,194,78525,6,0,L|87:187,1,31.4999982042313,2|0,3:2|0:2,0:2:0:0:
477,69,78733,2,0,B|527:17|527:17|296:65|296:65|275:135,1,337.499991059303,8|0,3:2|0:0,0:2:0:0:
185,305,78941,5,2,0:2:0:0:
223,351,79011,1,0,0:2:0:0:
287,358,79080,1,0,0:2:0:0:
338,319,79150,2,0,P|372:173|399:75,1,179.999995231629,0|0,3:2|0:2,0:2:0:0:
482,213,79358,5,2,0:2:0:0:
463,235,79428,1,0,0:2:0:0:
430,239,79497,1,0,0:2:0:0:
405,220,79567,2,0,P|389:155|377:111,1,89.9999976158143,8|0,3:2|0:2,0:2:0:0:
227,7,79775,2,0,P|215:51|208:83,1,44.9999988079071,2|0,0:2|0:2,0:2:0:0:
0,65,79983,6,0,P|167:130|291:202,1,269.999992847443,4|0,3:2|0:0,0:2:0:0:
236,192,80191,2,0,P|277:176|306:171,1,67.5000007867814,2|0,0:2|0:2,0:2:0:0:
511,212,80400,6,0,P|342:245|159:324,1,337.499991059303,8|0,3:2|0:0,0:2:0:0:
180,330,80608,1,2,0:2:0:0:
383,132,80712,1,0,0:2:0:0:
383,132,80920,5,0,0:2:0:0:
362,148,81024,1,2,0:2:0:0:
385,184,81128,1,0,0:2:0:0:
422,105,81232,1,8,3:2:0:0:
308,115,81336,1,0,0:2:0:0:
460,179,81441,1,2,0:2:0:0:
361,48,81545,1,0,0:2:0:0:
383,198,81650,6,0,B|426:243|372:305|372:305|323:237|230:214,1,269.999992847443,0|0,3:2|0:0,0:2:0:0:
265,215,81858,2,0,P|209:231|198:237,1,67.5000007867814,2|0,0:2|0:2,0:2:0:0:
104,361,82066,6,0,P|73:195|23:35,1,337.499991059303,8|0,3:2|0:0,0:2:0:0:
9,19,82275,1,2,0:2:0:0:
210,148,82379,1,0,0:2:0:0:
210,148,82587,5,0,0:2:0:0:
309,17,82691,1,2,0:2:0:0:
157,81,82796,1,0,0:2:0:0:
271,91,82900,1,8,3:2:0:0:
234,12,83004,1,0,0:2:0:0:
211,48,83108,1,2,0:2:0:0:
232,64,83212,1,0,0:2:0:0:
226,83,83316,6,0,P|321:195|444:113,1,314.99999165535,0|0,3:2|0:0,0:2:0:0:
451,112,83733,6,0,P|208:176|101:208,1,337.499991059303,8|0,3:2|0:0,0:2:0:0:
89,260,83941,1,2,0:2:0:0:
310,66,84045,5,0,3:2:0:0:
310,66,84097,1,0,3:2:0:0:
310,66,84150,1,2,3:1:0:0:
240,254,84254,1,2,3:1:0:0:
25,61,84462,6,0,P|100:88|169:116,1,135.000001573563,2|0,3:1|0:0,0:1:0:0:
512,0,84670,2,0,P|437:27|368:55,1,135.000001573563,2|0,3:1|0:0,0:1:0:0:
303,357,84879,2,0,P|278:190|241:-23,1,359.999990463257,4|0,3:1|0:1,0:1:0:0:
131,347,85191,1,2,3:2:0:0:
131,347,85400,6,0,P|75:333|70:321,1,67.5000007867814,2|0,0:2|0:2,0:2:0:0:
78,361,85608,6,0,P|42:301|48:287,1,89.9999976158143,2|0,0:2|0:2,0:2:0:0:
27,337,85816,6,0,P|47:255|64:248,1,112.499997019768,2|0,0:2|0:2,0:2:0:0:
14,277,86025,6,0,P|101:224|122:233,1,135.000001573563,2|0,0:2|0:2,0:2:0:0:
149,348,86233,6,0,P|2:308|117:218,1,359.999990463257,2|0,0:2|0:2,0:2:0:0:
193,254,86511,5,0,0:0:0:0:
197,264,86580,1,0,0:0:0:0:
202,274,86650,2,0,P|339:249|467:233,1,179.999995231629,4|0,3:2|0:2,0:2:0:0:
482,69,86858,2,0,L|497:-7,1,67.5000007867814,2|0,0:2|0:2,0:2:0:0:
508,0,87066,5,8,3:2:0:0:
506,163,87170,2,0,P|460:149|418:140,1,89.9999976158143,0|2,0:2|0:2,0:2:0:0:
163,59,87379,2,0,P|209:73|250:81,1,89.9999976158143,0|0,0:2|3:2,0:2:0:0:
401,63,87587,5,0,0:2:0:0:
115,144,87691,2,0,P|189:158|247:187,1,135.000001573563,2|0,0:2|0:2,0:2:0:0:
381,385,87900,2,0,P|339:194|332:101,1,270.000003147125,8|2,3:2|0:2,0:2:0:0:
36,114,88212,2,0,P|31:139|30:163,1,35.9999990463257,0|0,0:2|3:2,0:2:0:0:
4,316,88420,5,0,0:2:0:0:
91,289,88498,1,0,0:0:0:0:
27,233,88577,1,0,0:0:0:0:
27,233,88733,6,0,B|37:252|37:252|163:301|293:385,1,270.000003147125,8|2,3:2|0:0,0:2:0:0:
433,283,89045,1,0,0:2:0:0:
433,283,89254,5,0,0:2:0:0:
248,197,89358,2,0,P|258:230|265:280,1,67.5000007867814,2|0,0:2|0:2,0:2:0:0:
512,258,89566,6,0,P|483:210|384:216,1,135.000001573563,8|0,3:2|0:2,0:2:0:0:
167,58,89775,2,0,P|101:62|64:116,1,135.000001573563,2|0,0:2|0:2,0:2:0:0:
56,190,89983,5,2,3:1:0:0:
60,199,90035,1,0,0:0:0:0:
94,224,90122,5,2,3:1:0:0:
238,236,90261,5,2,3:1:0:0:
355,136,90400,6,0,B|443:50|436:222|626:74|542:-42|441:-28|398:-29|303:101|303:206,1,539.999985694885,10|0,3:1|0:2,0:2:0:0:
425,265,90816,2,0,P|416:224|400:161,1,67.5000007867814,0|0,3:2|0:2,0:0:0:0:
235,94,91025,2,0,P|226:135|210:198,1,67.5000007867814,2|0,0:2|0:2,0:2:0:0:
396,365,91233,5,8,3:2:0:0:
507,312,91337,2,0,P|349:271|259:259,1,179.999995231629,0|2,0:2|0:2,0:2:0:0:
8,237,91545,6,0,L|21:322,1,62.9999964084627,2|2,3:1|0:1,0:2:0:0:
18,309,91858,6,0,B|31:331|31:331|156:304,1,135.000001573563,2|0,3:2|0:2,0:0:0:0:
222,384,92066,5,0,3:2:0:0:
234,366,92136,1,0,0:2:0:0:
212,363,92205,1,0,0:2:0:0:
224,371,92275,2,0,L|266:109,1,180.000002098084,2|0,0:2|0:0,0:2:0:0:
141,64,92483,6,0,L|181:43,1,44.9999988079071,0|0,3:2|0:0,0:0:0:0:
400,72,92587,2,0,L|360:93,1,44.9999988079071,0|0,0:2|0:0,0:0:0:0:
189,36,92691,6,0,L|230:50,1,44.9999988079071,2|0,0:2|0:0,0:0:0:0:
347,91,92795,2,0,L|305:76,1,44.9999988079071,0|0,0:2|0:0,0:0:0:0:
273,34,92900,6,0,L|264:78,1,44.9999988079071,8|0,3:2|0:2,0:2:0:0:
54,132,93108,2,0,B|-3:148|-3:148|88:173|186:224,1,224.999994039536,2|0,0:2|0:2,0:2:0:0:
512,265,93316,6,0,P|434:278|325:313,1,135.000001573563,4|0,3:2|0:0,0:2:0:0:
141,372,93525,2,0,P|122:312|110:284,1,67.5000007867814,2|0,0:2|0:2,0:0:0:0:
132,288,93733,1,8,3:2:0:0:
381,205,93837,6,0,P|439:190|499:184,1,89.9999976158143,0|2,0:2|0:2,0:2:0:0:
119,68,94045,2,0,P|62:48|3:37,1,89.9999976158143,0|0,0:2|3:2,0:2:0:0:
54,132,94254,5,0,0:2:0:0:
197,0,94358,2,0,P|212:97|221:158,1,135.000001573563,2|0,0:2|0:2,0:2:0:0:
256,382,94566,2,0,P|282:244|313:95,1,270.000003147125,8|2,3:2|0:2,0:2:0:0:
460,19,94879,2,0,P|478:24|501:31,1,35.9999990463257,0|0,0:2|3:2,0:2:0:0:
371,170,95087,5,0,0:2:0:0:
308,117,95165,1,0,0:0:0:0:
389,94,95243,1,0,0:0:0:0:
389,94,95400,6,0,B|366:126|366:126|178:164|178:164|156:196,1,270.000003147125,8|2,3:2|0:0,0:2:0:0:
121,265,95712,1,0,3:2:0:0:
121,265,95920,5,2,3:2:0:0:
324,35,96025,1,2,3:2:0:0:
32,73,96233,6,0,B|-8:47|-8:47|282:138,1,179.999995231629,10|0,3:2|0:2,0:2:0:0:
468,192,96441,2,0,B|508:166|508:166|218:257,1,179.999995231629,2|0,3:2|0:2,0:2:0:0:
60,384,96650,2,0,B|77:328|77:328|73:319|73:319|92:255,1,134.999996423721,2|0,3:2|0:2,0:2:0:0:
10,209,97066,5,0,3:0:0:0:
57,174,97136,1,0,3:0:0:0:
101,169,97205,1,0,3:0:0:0:
135,179,97275,1,0,3:0:0:0:
158,199,97344,1,0,3:0:0:0:
168,211,97413,1,0,3:0:0:0:
173,223,97483,6,0,P|216:215|274:204,1,89.9999976158143,2|0,3:1|0:2,0:2:0:0:
512,55,97795,2,0,P|425:42|284:16,1,179.999995231629,2|0,3:1|0:0,0:2:0:0:
334,26,98108,6,0,P|350:98|356:147,1,107.999993843079,2|0,3:1|0:2,0:2:0:0:
404,303,98420,2,0,P|276:254|265:165,1,198.000000797272,2|0,3:1|0:0,0:2:0:0:
261,206,98733,6,0,P|156:195|111:190,1,125.999992816925,2|0,3:1|0:2,0:2:0:0:
13,351,99045,2,0,P|145:336|278:323,1,215.999987686158,2|0,3:1|0:0,0:2:0:0:
232,338,99254,1,0,0:2:0:0:
236,347,99358,6,0,P|245:275|261:205,1,143.999996185303,2|0,3:1|0:2,0:0:0:0:
5,0,99670,2,0,P|37:144|56:292,1,233.999983089448,2|0,3:1|0:2,0:2:0:0:
115,278,99879,1,2,3:1:0:0:
256,192,99983,12,0,101129,0:0:0:0:
254,220,101233,6,0,L|261:154,1,53.9999985694885,8|0,0:2|0:0,0:0:0:0:
220,21,101650,6,0,L|87:47,1,135.000001573563,6|0,3:2|0:0,0:2:0:0:
87,47,102066,5,0,0:2:0:0:
67,57,102170,1,0,0:2:0:0:
27,113,102275,1,0,0:2:0:0:
26,188,102379,1,0,0:2:0:0:
26,188,102691,1,0,0:2:0:0:
26,188,102900,6,0,L|131:210,1,67.5000007867814,2|0,3:2|0:0,0:0:0:0:
166,218,103004,1,2,3:2:0:0:
166,218,103212,2,0,L|192:350,1,135.000001573563,2|0,3:2|0:0,0:2:0:0:
192,350,103525,5,0,0:2:0:0:
205,363,103629,1,0,0:2:0:0:
276,334,103837,1,0,0:2:0:0:
348,371,104045,1,0,0:2:0:0:
512,250,104254,6,0,L|372:228,1,135.000001573563,2|0,3:2|0:0,0:2:0:0:
378,229,104566,2,0,L|356:21,1,202.500002360344,2|0,3:2|0:2,0:2:0:0:
139,104,104983,6,0,L|387:136,1,135.000001573563,2|0,3:2|0:0,0:2:0:0:
272,121,105295,5,0,0:2:0:0:
262,105,105400,1,0,0:2:0:0:
232,124,105504,1,0,0:2:0:0:
232,167,105608,1,0,0:2:0:0:
274,193,105712,1,0,0:2:0:0:
286,238,105816,1,0,0:2:0:0:
250,277,105920,1,0,0:2:0:0:
201,269,106025,1,0,0:2:0:0:
179,232,106129,1,0,0:2:0:0:
205,183,106233,6,0,L|295:168,1,67.5000007867814,2|0,3:2|0:0,0:0:0:0:
347,155,106337,1,2,3:2:0:0:
347,155,106545,2,0,L|369:3,1,135.000001573563,2|0,3:2|0:0,0:2:0:0:
443,58,106788,5,0,1:2:0:0:
512,103,106927,1,0,1:2:0:0:
439,143,107066,1,0,1:2:0:0:
439,143,107275,5,2,0:3:0:0:
439,154,107344,1,2,0:3:0:0:
439,164,107413,1,2,0:3:0:0:
439,173,107483,1,2,1:2:0:0:
470,187,107587,5,0,1:2:0:0:
500,222,107691,1,0,3:2:0:0:
462,264,107795,1,0,3:2:0:0:
500,309,107900,5,2,1:2:0:0:
458,372,108004,1,2,0:0:0:0:
381,375,108108,1,2,0:2:0:0:
331,319,108212,1,2,0:2:0:0:
383,263,108316,6,0,B|323:278|323:278|313:283|313:283|247:298,1,135.000001573563,2|0,3:2|0:0,0:2:0:0:
198,384,108525,5,2,0:0:0:0:
196,373,108577,1,2,0:0:0:0:
192,362,108629,2,0,L|62:335,2,67.5000007867814,2|2|2,0:0|0:0|0:0,0:0:0:0:
252,296,109150,5,2,0:0:0:0:
174,280,109254,1,2,0:0:0:0:
98,264,109358,1,2,0:0:0:0:
5,136,109566,6,0,L|113:160,1,67.5000007867814,2|0,3:2|0:0,0:0:0:0:
145,168,109670,1,2,3:2:0:0:
145,168,109879,2,0,L|310:131,1,135.000001573563,2|0,3:2|0:0,0:2:0:0:
353,123,110087,5,0,3:2:0:0:
300,64,110191,1,0,3:2:0:0:
300,64,110295,1,0,3:2:0:0:
377,47,110400,1,8,3:3:0:0:
353,123,110504,1,8,3:3:0:0:
492,260,110712,5,8,3:3:0:0:
492,260,110816,1,8,3:3:0:0:
488,177,110920,6,0,P|447:183|410:278,1,135.000001573563,2|0,3:2|0:0,0:2:0:0:
405,259,111233,2,0,P|387:339|274:323,1,202.500002360344,2|0,3:2|0:2,0:2:0:0:
175,302,111650,6,0,P|186:232|200:134,1,135.000001573563,2|0,3:2|3:2,0:2:0:0:
155,103,111858,5,0,3:2:0:0:
197,95,111962,1,0,3:2:0:0:
151,92,112066,1,8,3:2:0:0:
193,84,112170,1,0,3:2:0:0:
147,81,112275,1,0,3:2:0:0:
189,73,112379,1,0,3:0:0:0:
78,32,112483,5,8,3:2:0:0:
36,24,112587,1,0,3:2:0:0:
82,21,112691,1,0,3:0:0:0:
40,13,112795,1,0,3:0:0:0:
164,0,112900,5,14,3:3:0:0:
63,125,113004,1,6,3:3:0:0:
133,159,113108,1,4,3:3:0:0:
33,312,113212,1,6,3:3:0:0:
256,192,113316,12,0,116650,0:2:0:0:
