osu file format v14

[General]
AudioFilename: audio.mp3
AudioLeadIn: 0
PreviewTime: 73207
Countdown: 0
SampleSet: Soft
StackLeniency: 0.7
Mode: 0
LetterboxInBreaks: 0
WidescreenStoryboard: 1

[Editor]
Bookmarks: 1645,14978,28311,35082,39770,43311,46645,56645,69978,73311,86645,101645,113207
DistanceSpacing: 1.2
BeatDivisor: 4
GridSize: 32
TimelineZoom: 3.799999

[Metadata]
Title:Routing
TitleUnicode:Routing
Artist:Camellia
ArtistUnicode:かめりあ
Creator:Mir
Version:Normal
Source:beatmania IIDX 23 copula
Tags:22 pendual super future 2323 lasse low bpm alt jazzy electric house boogaloo
BeatmapID:1406814
BeatmapSetID:663255

[Difficulty]
HPDrainRate:3
CircleSize:3
OverallDifficulty:3
ApproachRate:6
SliderMultiplier:1.5
SliderTickRate:1

[Events]
//Background and Video events
0,0,"routing.jpg",0,0
//Break Periods
2,43511,44820
//Storyboard Layer 0 (Background)
//Storyboard Layer 1 (Fail)
//Storyboard Layer 2 (Pass)
//Storyboard Layer 3 (Foreground)
//Storyboard Sound Samples

[TimingPoints]
1645,416.666666666667,4,2,1,50,1,0
3259,-100.0,4,2,99,5,0,0
3311,-100.0,4,2,1,50,0,0
6593,-100.0,4,2,99,5,0,0
6645,-100.0,4,2,1,50,0,0
9926,-100.0,4,2,99,5,0,0
9978,-100.0,4,2,2,50,0,0
10915,-100.0,4,2,1,50,0,0
11645,-100.0,4,2,2,50,0,0
13207,-100.0,4,2,2,50,0,0
14561,-100.0,4,2,2,50,0,0
14926,-100.0,4,2,99,5,0,0
14978,-100.0,4,2,1,80,0,0
15290,-100.0,4,2,1,80,0,0
16853,-100.0,4,2,1,80,0,0
17009,-100.0,4,2,99,5,0,0
17061,-100.0,4,2,1,80,0,0
18676,-100.0,4,2,99,5,0,0
18728,-100.0,4,2,1,80,0,0
19093,-100.0,4,2,99,5,0,0
19145,-100.0,4,2,1,80,0,0
21176,-100.0,4,2,99,5,0,0
21228,-100.0,4,2,1,80,0,0
22009,-100.0,4,2,99,5,0,0
22061,-100.0,4,2,1,80,0,0
23520,-100.0,4,2,1,80,0,0
23676,-100.0,4,2,99,5,0,0
23728,-100.0,4,2,1,80,0,0
24145,-100.0,4,2,1,80,0,0
26593,-100.0,4,2,99,5,0,0
26645,-100.0,4,2,1,80,0,0
27895,-100.0,4,2,1,80,0,0
28311,-100.0,4,2,1,80,0,0
28624,-100.0,4,2,1,80,0,0
30186,-100.0,4,2,1,80,0,0
30342,-100.0,4,2,99,5,0,0
30395,-100.0,4,2,1,80,0,0
30811,-100.0,4,2,1,80,0,0
32009,-100.0,4,2,99,5,0,0
32061,-100.0,4,2,1,80,0,0
32426,-100.0,4,2,99,5,0,0
32478,-100.0,4,2,1,80,0,0
34874,-100.0,4,2,1,80,0,0
36488,-100.0,4,2,99,5,0,0
36540,-100.0,4,2,1,80,0,0
37061,-100.0,4,2,1,80,0,0
37478,-100.0,4,2,1,80,0,0
39770,-100.0,4,2,1,70,0,0
39978,-100.0,4,2,1,70,0,0
40395,-100.0,4,2,1,40,0,0
40811,-100.0,4,2,1,50,0,0
41228,-100.0,4,2,1,60,0,0
41645,-100.0,4,2,1,70,0,0
42061,-100.0,4,2,1,80,0,0
42478,-100.0,4,2,1,90,0,0
42895,-100.0,4,2,1,60,0,0
43311,-100.0,4,2,1,70,0,0
46020,-100.0,4,2,1,100,0,0
46332,-100.0,4,2,1,80,0,0
46645,-100.0,4,2,1,60,0,0
48728,-100.0,4,2,1,60,0,0
49145,-100.0,4,2,1,60,0,0
56645,-100.0,4,2,1,60,0,0
57009,-100.0,4,2,99,5,0,0
57061,-100.0,4,2,1,60,0,0
57322,-100.0,4,2,99,5,0,0
57374,-100.0,4,2,1,60,0,0
57634,-100.0,4,2,99,5,0,0
57686,-100.0,4,2,1,60,0,0
57947,-100.0,4,2,99,5,0,0
57999,-100.0,4,2,1,60,0,0
58103,-100.0,4,2,99,5,0,0
58207,-100.0,4,2,1,60,0,0
60342,-100.0,4,2,99,5,0,0
60394,-100.0,4,2,1,60,0,0
60655,-100.0,4,2,99,5,0,0
60707,-100.0,4,2,1,60,0,0
60967,-100.0,4,2,99,5,0,0
61019,-100.0,4,2,1,60,0,0
61280,-100.0,4,2,99,5,0,0
61332,-100.0,4,2,1,60,0,0
61488,-100.0,4,2,99,5,0,0
61540,-100.0,4,2,1,60,0,0
61801,-100.0,4,2,99,5,0,0
61853,-100.0,4,2,1,60,0,0
61957,-100.0,4,2,99,5,0,0
62061,-100.0,4,2,1,60,0,0
63676,-100.0,4,2,99,5,0,0
63728,-100.0,4,2,1,60,0,0
63988,-100.0,4,2,99,5,0,0
64040,-100.0,4,2,1,60,0,0
64301,-100.0,4,2,99,5,0,0
64353,-100.0,4,2,1,60,0,0
64613,-100.0,4,2,99,5,0,0
64665,-100.0,4,2,1,60,0,0
64770,-100.0,4,2,99,5,0,0
64874,-100.0,4,2,1,60,0,0
67009,-100.0,4,2,1,60,0,0
67061,-100.0,4,2,1,60,0,0
73311,-100.0,4,2,1,95,0,1
79770,-100.0,4,2,1,85,0,0
79978,-100.0,4,2,1,95,0,1
83311,-100.0,4,2,1,95,0,1
83728,-100.0,4,2,1,95,0,1
84249,-100.0,4,2,1,95,0,1
84301,-100.0,4,2,99,5,0,1
84353,-100.0,4,2,1,95,0,1
84509,-100.0,4,2,99,5,0,1
84561,-100.0,4,2,1,95,0,1
84718,-100.0,4,2,99,5,0,1
84770,-100.0,4,2,1,95,0,1
84978,-100.0,4,2,1,70,0,0
85186,-100.0,4,2,1,70,0,0
85395,-100.0,4,2,1,70,0,0
85603,-100.0,4,2,1,70,0,0
85811,-100.0,4,2,1,70,0,0
86020,-100.0,4,2,1,70,0,0
86228,-100.0,4,2,1,70,0,0
86645,-100.0,4,2,1,70,0,1
91593,-100.0,4,2,99,5,0,1
91645,-100.0,4,2,1,85,0,1
93103,-100.0,4,2,1,85,0,0
93311,-100.0,4,2,1,85,0,1
96645,-100.0,4,2,1,70,0,0
97061,-100.0,4,2,3,70,0,0
97270,-100.0,4,2,4,70,0,0
97478,-100.0,4,2,1,70,0,0
103259,-100.0,4,2,99,5,0,0
103311,-100.0,4,2,1,70,0,0
106593,-100.0,4,2,99,5,0,0
106645,-100.0,4,2,1,70,0,0
109926,-100.0,4,2,99,5,0,0
109978,-100.0,4,2,2,70,0,0
110915,-100.0,4,2,1,70,0,0
111645,-100.0,4,2,2,70,0,0
116645,-100.0,4,2,99,5,0,0

[Colours]
Combo1 : 243,233,171
Combo2 : 255,164,209
Combo3 : 160,239,186
Combo4 : 162,187,253

[HitObjects]
69,98,1645,6,0,B|143:122|218:95|218:95|260:113|260:113|296:113|296:113|337:95|337:95|385:78|440:92,1,375,6|0,3:2|0:2,0:0:0:0:
485,163,2895,2,0,L|475:289,1,112.5,2|2,3:2|3:2,0:0:0:0:
73,320,4249,1,2,3:2:0:0:
169,225,4561,2,0,P|174:151|165:122,1,75,2|0,3:2|0:0,0:0:0:0:
94,107,4978,6,0,B|169:125|169:125|331:89|331:89|431:108|431:108|477:147,1,375,6|0,3:2|0:2,0:0:0:0:
396,197,6228,2,0,P|381:273|399:320,1,112.5,2|2,3:2|3:2,0:0:0:0:
468,47,7478,1,2,1:2:0:0:
287,48,7895,1,0,1:2:0:0:
107,48,8311,6,0,B|70:121|70:121|84:183|84:183|146:226|146:226|125:303|125:303|143:392,1,375,6|0,3:2|0:2,0:0:0:0:
225,348,9561,2,0,B|268:318|268:318|352:331,1,112.5,2|2,3:2|3:2,0:0:0:0:
438,106,10915,1,2,3:2:0:0:
311,154,11228,2,0,P|233:171|216:167,1,75,2|0,3:2|0:0,0:0:0:0:
167,117,11645,6,0,P|149:172|160:210,1,75,6|0,3:2|3:2,0:0:0:0:
210,254,12061,2,0,P|211:309|163:354,2,112.5,8|0|0,3:2|3:2|3:2,0:0:0:0:
151,187,12895,2,0,B|110:179|110:179|5:185,1,112.5,6|6,3:3|3:3,0:0:0:0:
96,73,14561,5,8,3:2:0:0:
79,252,14978,6,0,P|151:240|198:175,1,150,4|8,3:2|3:2,0:0:0:0:
218,94,15603,1,2,0:2:0:0:
282,156,15811,2,0,L|371:153,1,75,0|2,3:2|0:2,0:0:0:0:
404,76,16228,2,0,L|478:78,1,75,8|2,3:2|0:2,0:0:0:0:
510,162,16645,6,0,B|520:200|520:200|511:257,1,75,0|2,3:2|0:2,0:0:0:0:
496,323,17061,1,8,3:2:0:0:
339,313,17478,2,0,P|271:297|193:330,1,150,0|8,3:2|3:2,0:0:0:0:
122,373,18103,1,2,0:2:0:0:
69,299,18311,5,0,3:2:0:0:
186,162,18728,2,0,P|143:135|77:139,2,112.5,8|0|2,3:2|0:2|0:2,0:0:0:0:
167,250,19561,2,0,P|210:277|276:273,2,112.5,8|0|2,3:2|0:2|0:2,0:0:0:0:
186,162,20395,2,0,L|191:67,1,75,8|2,3:2|0:2,0:0:0:0:
258,28,20811,5,2,3:2:0:0:
438,28,21228,2,0,P|471:39|512:90,1,75,2|0,3:2|3:2,0:0:0:0:
498,110,21540,1,2,3:2:0:0:
415,146,21749,1,0,3:2:0:0:
492,256,22061,6,0,B|455:281|455:281|325:278,1,150,12|0,3:2|3:2,0:0:0:0:
274,333,22686,1,2,0:2:0:0:
265,243,22895,2,0,B|266:193|266:193|238:149,1,75,8|2,3:2|0:2,0:0:0:0:
170,134,23311,2,0,B|169:84|169:84|182:62,1,75,0|2,3:2|0:2,0:0:0:0:
268,37,23728,5,8,3:2:0:0:
447,49,24145,2,0,B|467:124|467:124|433:212,1,150,0|8,3:2|3:2,0:0:0:0:
401,275,24770,1,2,0:2:0:0:
318,240,24978,6,0,P|241:227|216:235,1,75,0|2,3:2|0:2,0:0:0:0:
161,258,25395,2,0,P|156:206|205:144,2,112.5,8|0|2,3:2|0:2|0:2,0:0:0:0:
194,341,26228,2,0,P|142:346|80:297,1,112.5,8|2,3:2|3:2,0:0:0:0:
70,182,26853,1,0,0:2:0:0:
440,198,27895,6,0,P|392:167|346:164,1,75,0|0,0:2|0:2,0:0:0:0:
321,235,28311,6,0,L|329:67,1,150,4|8,3:2|3:2,0:0:0:0:
265,19,28936,1,2,0:2:0:0:
196,78,29145,2,0,P|142:82|106:77,1,75,0|2,3:2|0:2,0:0:0:0:
37,48,29561,2,0,L|37:135,1,75,8|2,3:2|0:2,0:0:0:0:
109,176,29978,6,0,B|116:217|116:217|95:278,1,75,0|0,3:2|0:2,0:0:0:0:
66,330,30395,1,8,3:2:0:0:
244,299,30811,2,0,P|309:281|400:315,1,150,0|8,3:2|3:2,0:0:0:0:
456,361,31436,1,2,0:2:0:0:
474,272,31645,5,0,3:2:0:0:
369,125,32061,2,0,B|402:90|402:90|468:89,2,112.5,8|0|0,3:2|0:2|0:2,0:0:0:0:
350,216,32895,2,0,B|317:251|317:251|251:252,2,112.5,8|0|0,3:2|0:2|3:2,0:0:0:0:
281,156,33728,2,0,L|178:156,1,75,0|2,3:2|0:2,0:0:0:0:
139,95,34145,2,0,P|115:147|160:237,1,150,0|2,3:2|3:2,0:0:0:0:
144,273,34665,1,2,3:2:0:0:
103,353,34874,1,2,1:2:0:0:
326,326,35395,6,0,B|231:240|129:397|28:273,1,300,0|0,3:0|3:0,0:0:0:0:
134,190,36540,1,2,3:2:0:0:
358,178,37061,6,0,B|328:178|328:178|313:186|313:186|253:181,1,75,14|0,3:2|0:0,0:0:0:0:
287,94,37478,6,0,P|271:41|289:-4,1,75,0|2,3:2|0:2,0:0:0:0:
184,21,37895,2,0,L|88:25,1,75,8|2,3:2|0:2,0:0:0:0:
73,106,38311,1,0,3:2:0:0:
68,286,38728,2,0,B|52:327|52:327|60:377,1,75,8|2,3:2|0:2,0:0:0:0:
145,341,39145,6,0,B|186:336|186:336|212:340|212:340|279:329,1,112.5,2|2,3:2|3:2,0:0:0:0:
390,312,39770,1,6,3:2:0:0:
256,192,40395,12,0,43311,1:2:0:0:
178,26,46020,6,0,L|178:150,1,112.5,2|2,3:2|3:2,0:0:0:0:
160,288,46645,6,0,B|95:294|60:245|60:245|30:247|27:283,1,150,6|8,3:2|3:2,0:0:0:0:
41,353,47270,1,2,0:2:0:0:
130,372,47478,2,0,P|183:367|234:355,1,75,0|2,3:2|0:2,0:0:0:0:
263,294,47895,1,8,3:2:0:0:
339,247,48103,6,0,P|382:245|421:250,2,75,2|0|2,0:2|3:2|0:2,0:0:0:0:
260,202,48728,2,0,B|238:132|238:132|267:54,1,150,8|0,3:2|3:2,0:0:0:0:
343,16,49353,1,2,0:2:0:0:
432,13,49561,1,8,3:2:0:0:
475,177,49978,6,0,P|444:221|478:315,1,150,0|8,3:2|3:2,0:0:0:0:
409,375,50603,1,2,0:2:0:0:
355,302,50811,2,0,L|254:298,1,75,0|2,3:2|0:2,0:0:0:0:
219,365,51228,1,8,3:2:0:0:
171,288,51436,6,0,B|108:281|108:281|83:306,2,75,2|0|2,0:2|3:2|0:2,0:0:0:0:
215,209,52061,2,0,P|240:164|237:109,1,75,8|2,3:2|0:2,0:0:0:0:
213,55,52478,1,0,3:2:0:0:
337,184,52895,2,0,L|333:273,1,75,8|2,3:2|0:2,0:0:0:0:
261,312,53311,6,0,B|197:318|197:318|139:300,2,112.5,0|0|2,3:2|0:2|0:2,0:0:0:0:
333,258,54145,2,0,B|397:252|397:252|443:266,2,112.5,0|0|2,3:2|0:2|0:2,0:0:0:0:
312,218,54874,1,0,0:2:0:0:
222,221,55082,6,0,P|155:228|82:197,1,112.5,2|2,3:2|3:2,0:0:0:0:
47,153,55603,2,0,L|48:30,2,112.5,2|0|0,3:2|0:2|0:2,0:0:0:0:
23,240,56436,1,0,0:2:0:0:
18,330,56645,6,0,B|90:301|109:359|194:316,1,150,6|2,3:1|3:1,0:0:0:0:
298,351,57374,2,0,P|300:298|267:247,1,112.5,2|2,3:1|3:1,0:0:0:0:
154,180,57999,2,0,P|152:124|169:91,1,75,2|2,3:1|3:1,0:0:0:0:
356,79,59561,1,8,0:2:0:0:
272,45,59770,1,0,3:2:0:0:
194,89,59978,6,0,B|175:137|175:137|182:250,1,150,6|2,3:1|3:2,0:0:0:0:
297,303,60707,2,0,B|346:286|346:286|426:288,1,112.5,2|2,3:1|3:1,0:0:0:0:
496,186,61332,1,2,3:1:0:0:
428,127,61540,2,0,L|301:126,2,112.5,2|2|0,3:1|3:1|0:2,0:0:0:0:
216,49,62686,1,2,3:2:0:0:
116,140,62999,1,2,3:2:0:0:
150,270,63311,6,0,B|191:290|191:290|322:276,1,150,6|2,3:1|3:1,0:0:0:0:
405,201,64040,2,0,B|429:258|429:258|426:317,1,112.5,2|2,3:1|3:1,0:0:0:0:
309,375,64665,2,0,L|228:384,1,75,2|2,3:1|3:1,0:0:0:0:
208,80,66228,1,8,0:2:0:0:
50,168,66645,6,0,B|163:164|163:164|231:187,1,150,6|2,3:1|3:1,0:0:0:0:
294,270,67374,2,0,B|334:217|334:217|336:159,1,112.5,2|2,3:1|3:1,0:0:0:0:
341,35,67999,1,2,3:1:0:0:
400,101,68207,2,0,P|463:104|491:99,1,75,2|0,3:1|0:2,0:0:0:0:
502,66,68520,2,0,B|519:143|519:143|486:198|486:198|506:305,1,225,2|0,3:1|0:2,0:0:0:0:
504,368,69353,1,0,3:2:0:0:
369,365,69665,1,0,3:2:0:0:
234,356,69978,5,2,3:2:0:0:
101,58,72895,5,0,0:0:0:0:
95,237,73311,5,4,3:2:0:0:
274,254,73728,2,0,L|376:251,1,75,8|2,3:2|0:2,0:0:0:0:
393,251,74040,1,0,0:2:0:0:
424,119,74353,2,0,P|399:78|359:56,2,75,2|8|2,0:2|3:2|0:2,0:0:0:0:
468,197,74978,5,0,3:2:0:0:
399,363,75395,2,0,B|360:369|360:369|318:357,1,75,8|2,3:2|0:2,0:0:0:0:
295,326,75707,1,0,0:2:0:0:
158,310,76020,2,0,L|163:403,2,75,2|8|2,0:2|3:2|0:2,0:0:0:0:
94,241,76645,6,0,P|85:162|153:102,1,150,0|8,3:2|3:2,0:0:0:0:
213,81,77270,1,2,0:2:0:0:
291,124,77478,2,0,L|408:118,1,112.5,0|0,3:2|0:1,0:0:0:0:
484,79,77999,1,0,0:1:0:0:
481,168,78207,1,0,3:2:0:0:
501,301,78520,5,2,3:2:0:0:
451,376,78728,2,0,L|363:368,1,75,8|2,3:2|0:2,0:0:0:0:
359,281,79145,2,0,L|271:273,1,75,0|2,3:2|0:2,0:0:0:0:
241,195,79561,2,0,L|153:187,1,75,8|2,3:2|0:2,0:0:0:0:
81,218,79978,5,4,3:2:0:0:
176,65,80395,2,0,L|250:71,1,75,8|2,3:2|0:2,0:0:0:0:
280,104,80707,1,0,0:2:0:0:
411,133,81020,2,0,P|406:81|392:59,2,75,2|8|2,0:2|3:2|0:2,0:0:0:0:
334,181,81645,5,0,3:2:0:0:
490,269,82061,2,0,B|504:306|504:306|498:366,1,75,8|2,3:2|0:2,0:0:0:0:
462,366,82374,1,0,0:2:0:0:
327,370,82686,2,0,L|231:371,2,75,2|8|2,0:2|3:2|0:2,0:0:0:0:
315,280,83311,6,0,B|313:206|313:206|247:144,1,150,0|8,3:2|3:2,0:0:0:0:
167,159,83936,1,2,0:2:0:0:
88,203,84145,2,0,P|75:267|88:319,1,112.5,2|2,3:1|3:1,0:0:0:0:
151,379,84665,1,2,3:1:0:0:
217,317,84874,2,0,P|275:313|338:341,1,112.5,4|2,3:1|3:2,0:0:0:0:
426,47,86228,5,2,0:2:0:0:
253,97,86645,6,0,L|157:98,1,75,4|2,3:2|0:2,0:0:0:0:
104,46,87061,2,0,P|88:99|150:181,1,150,8|0,3:2|3:2,0:0:0:0:
190,246,87686,1,2,0:2:0:0:
140,321,87895,2,0,P|90:338|22:308,2,112.5,8|0|2,3:2|0:2|0:2,0:0:0:0:
190,246,88728,6,0,B|237:239|237:239|321:246,1,112.5,8|0,3:2|0:2,0:0:0:0:
391,253,89249,1,0,0:2:0:0:
496,130,89561,2,0,P|508:95|503:51,1,75,8|2,3:2|0:2,0:0:0:0:
420,15,89978,5,2,3:1:0:0:
240,24,90395,2,0,L|79:13,1,150,10|0,3:1|3:2,0:0:0:0:
37,87,91020,1,2,0:2:0:0:
67,174,91228,2,0,P|78:231|66:288,1,112.5,8|2,3:2|3:1,0:0:0:0:
188,345,91853,1,2,3:2:0:0:
277,342,92061,6,0,L|376:341,1,75,0|2,3:2|0:2,0:0:0:0:
390,261,92478,2,0,L|464:261,2,75,0|2|8,3:2|0:2|3:2,0:0:0:0:
334,190,93103,1,2,0:2:0:0:
396,125,93311,6,0,P|404:78|388:25,1,75,4|2,3:2|0:2,0:0:0:0:
311,32,93728,2,0,L|141:31,1,150,8|0,3:2|3:2,0:0:0:0:
70,34,94353,1,2,0:2:0:0:
18,107,94561,2,0,P|-7:156|-1:211,2,112.5,8|0|2,3:2|0:2|0:2,0:0:0:0:
83,169,95395,6,0,B|157:167|157:167|201:204,1,112.5,8|0,3:2|3:2,0:0:0:0:
257,247,95915,1,2,0:2:0:0:
256,111,96228,2,0,L|352:113,1,75,10|2,3:2|3:2,0:0:0:0:
403,167,96645,6,0,P|361:129|411:58,1,150,2|0,3:2|3:0,0:0:0:0:
474,112,97270,1,0,3:0:0:0:
494,199,97478,6,0,B|507:255|507:255|488:333,1,112.5,2|2,3:1|3:1,0:0:0:0:
369,360,98103,2,0,B|313:373|313:373|260:360,1,112.5,2|2,3:1|3:1,0:0:0:0:
260,224,98728,2,0,B|206:210|206:210|150:223,1,112.5,2|2,3:1|3:1,0:0:0:0:
32,157,99353,2,0,B|18:103|18:103|31:47,1,112.5,2|2,3:1|3:1,0:0:0:0:
119,31,99874,1,2,3:1:0:0:
256,192,100082,12,0,101645,0:0:0:0:
70,126,102895,6,0,B|53:183|53:183|76:263,1,112.5,2|2,3:2|3:2,0:0:0:0:
222,325,103624,2,0,L|304:318,2,75,0|0|0,0:2|0:2|0:2,0:0:0:0:
169,251,104249,1,2,3:2:0:0:
207,121,104561,2,0,B|246:116|246:116|291:121,1,75,2|0,3:2|0:0,0:0:0:0:
348,59,104978,6,0,B|383:133|383:133|316:358,1,300,2|0,3:2|0:2,0:0:0:0:
144,304,106228,2,0,B|239:298|239:298|225:342,1,112.5,2|2,3:2|3:2,0:0:0:0:
0,347,107478,1,2,1:2:0:0:
20,166,107895,1,2,1:2:0:0:
158,51,108311,6,0,B|231:37|231:37|326:55,1,150,2|0,3:2|0:2,0:0:0:0:
93,218,109561,2,0,B|74:268|74:268|84:348,1,112.5,2|2,3:2|3:2,0:0:0:0:
298,260,110395,2,0,P|380:250|421:228,1,112.5,8|8,3:3|3:3,0:0:0:0:
401,148,110915,1,2,3:2:0:0:
297,60,111228,2,0,L|207:64,1,75,2|0,3:2|0:0,0:0:0:0:
148,11,111645,6,0,P|133:69|140:96,1,75,2|0,3:2|3:2,0:0:0:0:
197,148,112061,2,0,P|212:206|205:233,1,75,8|0,3:2|3:2,0:0:0:0:
156,292,112478,1,8,3:2:0:0:
319,369,112895,1,14,3:3:0:0:
420,280,113207,1,6,3:3:0:0:
256,192,113311,12,0,116645,0:2:0:0:
