osu file format v14

[General]
AudioFilename: audio.mp3
AudioLeadIn: 0
PreviewTime: -1
Countdown: 1
SampleSet: Soft
StackLeniency: 0.7
Mode: 0
LetterboxInBreaks: 0
WidescreenStoryboard: 0

[Editor]
DistanceSpacing: 1
BeatDivisor: 8
GridSize: 4
TimelineZoom: 5.199997

[Metadata]
Title:Routing
TitleUnicode:Routing
Artist:Camellia
ArtistUnicode:Camellia
Creator:Karym
Version:QuellaBella
Source:
Tags:
BeatmapID:1580718
BeatmapSetID:750695

[Difficulty]
HPDrainRate:6
CircleSize:4.2
OverallDifficulty:10
ApproachRate:10
SliderMultiplier:2.99999990463257
SliderTickRate:1

[Events]
//Background and Video events
//Break Periods
//Storyboard Layer 0 (Background)
//Storyboard Layer 1 (Fail)
//Storyboard Layer 2 (Pass)
//Storyboard Layer 3 (Foreground)
//Storyboard Sound Samples

[TimingPoints]
1645.08695652174,416.666666666667,4,2,0,70,1,0
3624,-100,4,2,0,70,0,0
3724,-100,4,2,0,70,0,0
3824,-100,4,2,0,70,0,0
3924,-100,4,2,0,70,0,0
4145,-50,4,2,0,70,0,0
4978,416.666666666667,4,2,0,70,1,0
4978,-133.333333333333,4,2,0,70,0,0
18623,-66.6666666666667,4,2,0,70,0,0
19040,-66.6666666666667,4,2,0,70,0,0
36540,-166.666666666667,4,2,0,70,0,0
37061,-100,4,2,0,70,0,0
39978,-166.666666666667,4,2,0,70,0,0
40603,-142.857142857143,4,2,0,70,0,0
41020,-125,4,2,0,70,0,0
41436,-111.111111111111,4,2,0,70,0,0
41853,-100,4,2,0,70,0,0
42270,-90.9090909090909,4,2,0,70,0,0
42686,-83.3333333333333,4,2,0,70,0,0
43311,-100,4,2,0,70,0,0
73311,-76.9230769230769,4,2,0,85,0,1
79770,-76.9230769230769,4,2,0,85,0,0
79978,-76.9230769230769,4,2,0,85,0,1
83311,-100,4,2,0,85,0,1
83728,-76.9230769230769,4,2,0,85,0,1
84978,-100,4,2,0,70,0,0
86645,-76.9230769230769,4,2,0,70,0,1
96645,-100,4,2,0,70,0,0
114145,-100,4,3,0,100,0,0
114353,-111.111111111111,4,3,0,90,0,0
114561,-125,4,3,0,80,0,0
114770,-142.857142857143,4,3,0,70,0,0
114978,-166.666666666667,4,3,0,60,0,0
115186,-200,4,3,0,50,0,0
115395,-250,4,3,0,40,0,0
115603,-333.333333333333,4,3,0,30,0,0
115811,-500,4,3,0,20,0,0
116020,-1000,4,3,0,10,0,0
116228,-1000,4,3,0,5,0,0
116645,-100,4,3,0,15,0,0

[HitObjects]
116,168,1645,5,0,0:0:0:0:
336,80,1749,2,0,L|240:80,1,74.9999976158143
336,208,1957,2,0,L|244:208,1,74.9999976158143
88,64,2165,1,0,0:0:0:0:
152,64,2270,1,0,0:0:0:0:
220,64,2374,1,0,0:0:0:0:
280,64,2478,2,0,L|280:152,1,74.9999976158143
92,280,2895,1,0,0:0:0:0:
432,280,3103,1,0,0:0:0:0:
192,280,3207,5,0,0:0:0:0:
328,280,3311,1,0,0:0:0:0:
136,168,3415,2,0,L|136:88,1,74.9999976158143
376,168,3624,2,0,L|376:80,1,74.9999976158143
256,80,3936,2,0,L|256:168,1,74.9999976158143
392,188,4249,1,0,0:0:0:0:
124,188,4353,1,0,0:0:0:0:
256,188,4561,2,0,L|256:352,1,149.999995231629
256,338,4770,2,0,L|252:176,1,149.999995231629
136,76,4978,2,0,L|136:148,1,56.2500003576279
200,76,5186,6,0,L|200:152,1,56.2500003576279
200,216,5394,1,0,0:0:0:0:
280,216,5498,1,0,0:0:0:0:
360,216,5603,1,0,0:0:0:0:
436,216,5707,2,0,L|364:216,1,56.2500003576279
168,216,5915,2,0,L|236:216,1,56.2500003576279
288,216,6123,2,0,L|364:216,1,56.2500003576279
248,144,6436,2,0,L|248:76,2,56.2500003576279
148,84,6748,2,0,L|148:156,1,56.2500003576279
148,188,6957,6,0,L|148:248,1,56.2500003576279
228,244,7165,2,0,L|304:244,1,56.2500003576279
236,72,7373,2,0,L|308:72,1,56.2500003576279
320,156,7582,2,0,L|320:224,3,56.2500003576279
168,160,7998,2,0,L|168:236,1,56.2500003576279
168,224,8207,1,0,0:0:0:0:
256,180,8311,1,0,0:0:0:0:
340,92,8415,2,0,L|416:92,1,56.2500003576279
344,236,8623,2,0,L|420:236,1,56.2500003576279
340,164,8832,5,0,0:0:0:0:
340,164,8936,2,0,L|340:236,1,56.2500003576279
88,80,9144,1,0,0:0:0:0:
88,192,9248,1,0,0:0:0:0:
236,76,9353,1,0,0:0:0:0:
236,200,9457,1,0,0:0:0:0:
232,136,9561,2,0,L|152:136,1,56.2500003576279
88,136,9769,1,0,0:0:0:0:
328,72,9873,2,0,L|400:72,1,56.2500003576279
332,204,10082,6,0,L|404:204,1,56.2500003576279
392,204,10290,2,0,L|320:204,1,56.2500003576279
328,200,10498,2,0,L|408:200,1,56.2500003576279
396,204,10707,2,0,L|320:200,1,56.2500003576279
204,124,10915,2,0,L|204:200,1,56.2500003576279
272,128,11123,2,0,L|272:208,1,56.2500003576279
152,248,11332,2,0,L|152:312,1,56.2500003576279
376,248,11540,2,0,L|376:320,1,56.2500003576279
116,92,11748,2,0,L|160:92,1,28.125000178814
184,96,11853,6,0,B|244:96|240:104|216:80,1,56.2500003576279
256,188,12061,1,0,0:0:0:0:
88,224,12165,2,0,L|88:292,1,56.2500003576279
416,228,12373,2,0,L|416:296,1,56.2500003576279
416,176,12582,2,0,L|416:112,1,56.2500003576279
88,172,12790,2,0,L|88:104,1,56.2500003576279
200,100,12998,2,0,L|264:100,2,56.2500003576279
336,104,13311,1,0,0:0:0:0:
216,136,13728,2,0,L|216:200,1,56.2500003576279
304,136,13936,6,0,L|304:216,1,56.2500003576279
384,96,14144,1,0,0:0:0:0:
384,160,14248,1,0,0:0:0:0:
384,224,14353,1,0,0:0:0:0:
384,292,14457,1,0,0:0:0:0:
320,216,14561,1,0,0:0:0:0:
452,160,14665,1,0,0:0:0:0:
320,104,14769,1,0,0:0:0:0:
168,132,14873,2,0,L|168:200,1,56.2500003576279
196,72,15082,6,0,P|224:72|216:64,1,56.2500003576279
200,228,15290,2,0,B|232:200|252:216|240:232,1,56.2500003576279
240,136,15498,1,0,0:0:0:0:
320,76,15603,2,0,L|396:76,1,56.2500003576279
384,80,15811,1,0,0:0:0:0:
388,168,15915,2,0,B|392:220|408:224|412:228,1,56.2500003576279
348,244,16123,2,0,L|300:244,2,28.125000178814
220,244,16332,1,0,0:0:0:0:
100,144,16436,2,0,L|144:144,1,28.125000178814
196,144,16540,6,0,L|272:144,1,56.2500003576279
332,144,16748,2,0,L|360:144,1,28.125000178814
452,144,16853,2,0,P|400:144|396:136,1,56.2500003576279
336,144,17061,2,0,L|304:144,1,28.125000178814
220,144,17165,2,0,L|192:220,1,56.2500003576279
192,212,17373,2,0,L|176:248,1,28.125000178814
160,288,17478,1,0,0:0:0:0:
116,220,17582,2,0,L|116:176,2,28.125000178814
116,128,17790,2,0,L|116:92,1,28.125000178814
364,136,17894,6,0,L|364:88,1,28.125000178814
248,120,17998,1,0,0:0:0:0:
248,196,18103,2,0,L|248:272,1,56.2500003576279
248,328,18311,1,0,0:0:0:0:
136,260,18415,2,0,L|136:220,2,28.125000178814
148,160,18623,2,0,P|148:100|208:84,1,112.500000715256
268,84,18832,2,0,L|392:84,1,112.500000715256
440,84,19040,1,0,0:0:0:0:
280,184,19144,2,0,B|364:184|360:204|328:244,1,112.500000715256
248,304,19353,1,0,0:0:0:0:
152,304,19457,2,0,L|76:304,1,56.2500003576279
380,308,19561,2,0,L|448:308,1,56.2500003576279
240,268,19665,2,0,B|240:200|288:232|292:280,1,112.500000715256
416,200,19873,1,0,0:0:0:0:
144,200,19978,1,0,0:0:0:0:
92,204,20082,2,0,L|200:204,1,56.2500003576279
224,192,20186,2,0,P|320:196|236:168,1,225.000001430512
152,132,20498,1,0,0:0:0:0:
288,132,20603,2,0,L|392:136,1,56.2500003576279
388,136,20707,2,0,L|452:140,1,56.2500003576279
240,136,20863,1,0,0:0:0:0:
116,144,20915,2,0,L|56:144,1,56.2500003576279
200,148,21019,2,0,L|120:144,1,56.2500003576279
